  0
SECTION
  2
HEADER
  9
$ACADVER
  1
AC1009
  9
$INSBASE
 10
0.0
 20
0.0
 30
0.0
  9
$EXTMIN
 10
750.0
 20
900.0
 30
0.0
  9
$EXTMAX
 10
5550.0
 20
8359.9567849999985
 30
0.0
  9
$LIMMIN
 10
0.0
 20
0.0
  9
$LIMMAX
 10
297.0
 20
210.0
  9
$ORTHOMODE
 70
     0
  9
$REGENMODE
 70
     1
  9
$FILLMODE
 70
     0
  9
$QTEXTMODE
 70
     0
  9
$MIRRTEXT
 70
     1
  9
$DRAGMODE
 70
     2
  9
$LTSCALE
 40
100.0
  9
$OSMODE
 70
    37
  9
$ATTMODE
 70
     1
  9
$TEXTSIZE
 40
180.0
  9
$TRACEWID
 40
0.05
  9
$TEXTSTYLE
  7
STANDARD
  9
$CLAYER
  8
3
  9
$CELTYPE
  6
BYLAYER
  9
$CECOLOR
 62
   256
  9
$DIMSCALE
 40
30.0
  9
$DIMASZ
 40
2.0
  9
$DIMEXO
 40
0.5
  9
$DIMDLI
 40
10.0
  9
$DIMRND
 40
0.0
  9
$DIMDLE
 40
0.0
  9
$DIMEXE
 40
1.0
  9
$DIMTP
 40
1.0
  9
$DIMTM
 40
1.0
  9
$DIMTXT
 40
3.0
  9
$DIMCEN
 40
0.0
  9
$DIMTSZ
 40
0.0
  9
$DIMTOL
 70
     0
  9
$DIMLIM
 70
     0
  9
$DIMTIH
 70
     0
  9
$DIMTOH
 70
     0
  9
$DIMSE1
 70
     0
  9
$DIMSE2
 70
     0
  9
$DIMTAD
 70
     1
  9
$DIMZIN
 70
     8
  9
$DIMBLK
  1

  9
$DIMASO
 70
     1
  9
$DIMSHO
 70
     1
  9
$DIMPOST
  1

  9
$DIMAPOST
  1

  9
$DIMALT
 70
     0
  9
$DIMALTD
 70
     2
  9
$DIMALTF
 40
0.039
  9
$DIMLFAC
 40
1.0
  9
$DIMTOFL
 70
     1
  9
$DIMTVP
 40
0.0
  9
$DIMTIX
 70
     0
  9
$DIMSOXD
 70
     0
  9
$DIMSAH
 70
     1
  9
$DIMBLK1
  1
OPEN
  9
$DIMBLK2
  1
OPEN
  9
$DIMSTYLE
  2
IGA
  9
$DIMCLRD
 70
     0
  9
$DIMCLRE
 70
     0
  9
$DIMCLRT
 70
     0
  9
$DIMTFAC
 40
10.0
  9
$DIMGAP
 40
1.0
  9
$LUNITS
 70
     2
  9
$LUPREC
 70
     3
  9
$SKETCHINC
 40
0.1
  9
$FILLETRAD
 40
50.0
  9
$AUNITS
 70
     0
  9
$AUPREC
 70
     0
  9
$MENU
  1
acad
  9
$ELEVATION
 40
0.0
  9
$PELEVATION
 40
0.0
  9
$THICKNESS
 40
0.0
  9
$LIMCHECK
 70
     0
  9
$BLIPMODE
 70
     0
  9
$CHAMFERA
 40
0.5
  9
$CHAMFERB
 40
0.5
  9
$SKPOLY
 70
     0
  9
$TDCREATE
 40
2450738.6191717591
  9
$TDUPDATE
 40
2454953.8382867472
  9
$TDINDWG
 40
0.0144741435
  9
$TDUSRTIMER
 40
0.0144741435
  9
$USRTIMER
 70
     1
  9
$ANGBASE
 50
0.0
  9
$ANGDIR
 70
     0
  9
$PDMODE
 70
     0
  9
$PDSIZE
 40
0.0
  9
$PLINEWID
 40
0.0
  9
$COORDS
 70
     1
  9
$SPLFRAME
 70
     0
  9
$SPLINETYPE
 70
     6
  9
$SPLINESEGS
 70
     8
  9
$ATTDIA
 70
     0
  9
$ATTREQ
 70
     1
  9
$HANDLING
 70
 10241
  9
$HANDSEED
  5
7F67
  9
$SURFTAB1
 70
     6
  9
$SURFTAB2
 70
     6
  9
$SURFTYPE
 70
     6
  9
$SURFU
 70
     6
  9
$SURFV
 70
     6
  9
$UCSNAME
  2

  9
$UCSORG
 10
0.0
 20
0.0
 30
0.0
  9
$UCSXDIR
 10
1.0
 20
0.0
 30
0.0
  9
$UCSYDIR
 10
0.0
 20
1.0
 30
0.0
  9
$PUCSNAME
  2

  9
$PUCSORG
 10
0.0
 20
0.0
 30
0.0
  9
$PUCSXDIR
 10
1.0
 20
0.0
 30
0.0
  9
$PUCSYDIR
 10
0.0
 20
1.0
 30
0.0
  9
$USERI1
 70
     0
  9
$USERI2
 70
     0
  9
$USERI3
 70
     0
  9
$USERI4
 70
     0
  9
$USERI5
 70
     0
  9
$USERR1
 40
0.0
  9
$USERR2
 40
0.0
  9
$USERR3
 40
0.0
  9
$USERR4
 40
0.0
  9
$USERR5
 40
0.0
  9
$WORLDVIEW
 70
     1
  9
$SHADEDGE
 70
     3
  9
$SHADEDIF
 70
    70
  9
$TILEMODE
 70
     1
  9
$MAXACTVP
 70
    16
  9
$PLIMCHECK
 70
     0
  9
$PEXTMIN
 10
1.0000000000000000E+020
 20
1.0000000000000000E+020
 30
1.0000000000000000E+020
  9
$PEXTMAX
 10
-1.0000000000000000E+020
 20
-1.0000000000000000E+020
 30
-1.0000000000000000E+020
  9
$PLIMMIN
 10
0.0
 20
0.0
  9
$PLIMMAX
 10
12.0
 20
9.0
  9
$UNITMODE
 70
     0
  9
$VISRETAIN
 70
     0
  9
$PLINEGEN
 70
     0
  9
$PSLTSCALE
 70
     1
  0
ENDSEC
  0
SECTION
  2
TABLES
  0
TABLE
  2
VPORT
 70
     2
  0
VPORT
  2
*ACTIVE
 70
     0
 10
0.0
 20
0.0
 11
1.0
 21
1.0
 12
2879.8015982807442
 22
4559.9616679649826
 13
0.0
 23
0.0
 14
10.0
 24
10.0
 15
10.0
 25
10.0
 16
0.0
 26
0.0
 36
1.0
 17
0.0
 27
0.0
 37
0.0
 40
9063.6721106144687
 41
1.5051150895140659
 42
50.0
 43
0.0
 44
0.0
 50
0.0
 51
0.0
 71
     0
 72
   100
 73
     1
 74
     0
 75
     0
 76
     0
 77
     0
 78
     0
  0
ENDTAB
  0
TABLE
  2
LTYPE
 70
     2
  0
LTYPE
  2
CONTINUOUS
 70
     0
  3
Solid line
 72
    65
 73
     0
 40
0.0
  0
LTYPE
  2
CENTER
 70
     0
  3
____ _ ____ _ ____ _ ____ _ ____ _ ____ _ ____ 
 72
    65
 73
     4
 40
2.0
 49
1.25
 49
-0.25
 49
0.25
 49
-0.25
  0
ENDTAB
  0
TABLE
  2
LAYER
 70
     6
  0
LAYER
  2
0
 70
     0
 62
     7
  6
CONTINUOUS
  0
LAYER
  2
3
 70
     0
 62
     2
  6
CONTINUOUS
  0
LAYER
  2
2
 70
     0
 62
     3
  6
CENTER
  0
LAYER
  2
1
 70
     0
 62
     4
  6
CONTINUOUS
  0
LAYER
  2
4
 70
     0
 62
     7
  6
CONTINUOUS
  0
LAYER
  2
DEFPOINTS
 70
     0
 62
     7
  6
CONTINUOUS
  0
ENDTAB
  0
TABLE
  2
STYLE
 70
     1
  0
STYLE
  2
STANDARD
 70
     0
 40
0.0
 41
1.0
 50
0.0
 71
     0
 42
180.0
  3
simplex.shx
  4
extfont.shx
  0
ENDTAB
  0
TABLE
  2
VIEW
 70
     0
  0
ENDTAB
  0
TABLE
  2
UCS
 70
     0
  0
ENDTAB
  0
TABLE
  2
APPID
 70
     1
  0
APPID
  2
ACAD
 70
     0
  0
ENDTAB
  0
TABLE
  2
DIMSTYLE
 70
     1
  0
DIMSTYLE
  2
IGA
 70
     0
  3

  4

  5

  6
OPEN
  7
OPEN
 40
2.0
 41
2.0
 42
0.5
 43
10.0
 44
1.0
 45
0.0
 46
0.0
 47
1.0
 48
1.0
140
3.0
141
0.0
142
0.0
143
0.03937
144
1.0
145
0.0
146
10.0
147
1.0
 71
     0
 72
     0
 73
     0
 74
     0
 75
     0
 76
     0
 77
     1
 78
     8
170
     0
171
     2
172
     0
173
     1
174
     0
175
     0
176
     0
177
     0
178
     0
  0
ENDTAB
  0
ENDSEC
  0
SECTION
  2
BLOCKS
  0
BLOCK
  8
0
  2
$MODEL_SPACE
 70
     0
 10
0.0
 20
0.0
 30
0.0
  3
$MODEL_SPACE
  1

  0
ENDBLK
  5
1B
  8
0
  0
BLOCK
 67
     1
  8
0
  2
$PAPER_SPACE
 70
     0
 10
0.0
 20
0.0
 30
0.0
  3
$PAPER_SPACE
  1

  0
ENDBLK
  5
18
 67
     1
  8
0
  0
BLOCK
  8
0
  2
_OPEN
 70
     0
 10
0.0
 20
0.0
 30
0.0
  3
_OPEN
  1

  0
LINE
  5
7B03
  8
0
  6
BYBLOCK
 62
     0
 10
-1.0
 20
0.166667
 30
0.0
 11
0.0
 21
0.0
 31
0.0
  0
LINE
  5
7B04
  8
0
  6
BYBLOCK
 62
     0
 10
0.0
 20
0.0
 30
0.0
 11
-1.0
 21
-0.166667
 31
0.0
  0
LINE
  5
7B05
  8
0
  6
BYBLOCK
 62
     0
 10
0.0
 20
0.0
 30
0.0
 11
-1.0
 21
0.0
 31
0.0
  0
ENDBLK
  5
7B06
  8
0
  0
BLOCK
  8
0
  2
*D1
 70
     1
 10
0.0
 20
0.0
 30
0.0
  3
*D1
  1

  0
LINE
  5
7EBA
  8
3
  6
CONTINUOUS
 62
     0
 10
2677.8153940000002
 20
3556.3674149999988
 30
0.0
 11
2885.1360640000012
 21
3556.3674149999988
 31
0.0
  0
LINE
  5
7EBB
  8
3
  6
CONTINUOUS
 62
     0
 10
2677.8153940000002
 20
2906.3674150000002
 30
0.0
 11
2885.1360639999998
 21
2906.3674150000002
 31
0.0
  0
LINE
  5
7EBC
  8
3
  6
CONTINUOUS
 62
     0
 10
2855.1360640000012
 20
3496.3674149999988
 30
0.0
 11
2855.1360640000012
 21
2966.3674150000002
 31
0.0
  0
INSERT
  5
7EBD
  8
3
  6
CONTINUOUS
 62
     0
  2
_OPEN
 10
2855.1360640000012
 20
3556.3674149999988
 30
0.0
 41
60.0
 42
60.0
 43
60.0
 50
90.0
  0
INSERT
  5
7EBE
  8
3
  6
CONTINUOUS
 62
     0
  2
_OPEN
 10
2855.1360640000012
 20
2906.3674150000002
 30
0.0
 41
60.0
 42
60.0
 43
60.0
 50
270.0
  0
TEXT
  8
3
  40
90
  5
7F55
  62
0
  72
0
  71
0
 10
2600.14
 20
3061.44
 30
0.000000
  1
650
  0
POINT
  5
7EC0
  8
DEFPOINTS
  6
CONTINUOUS
 62
     0
 10
2662.8153940000002
 20
3556.3674149999988
 30
0.0
  0
POINT
  5
7EC1
  8
DEFPOINTS
  6
CONTINUOUS
 62
     0
 10
2662.8153940000002
 20
2906.3674150000002
 30
0.0
  0
POINT
  5
7EC2
  8
DEFPOINTS
  6
CONTINUOUS
 62
     0
 10
2855.1360640000012
 20
2906.3674150000002
 30
0.0
  0
ENDBLK
  5
7B13
  8
0
  0
BLOCK
  8
0
  2
*D2
 70
     1
 10
0.0
 20
0.0
 30
0.0
  3
*D2
  1

  0
LINE
  5
7EC3
  8
3
  6
CONTINUOUS
 62
     0
 10
2816.320835
 20
3526.3674150000002
 30
0.0
 11
3077.460563000001
 21
3526.3674149999988
 31
0.0
  0
LINE
  5
7EC4
  8
3
  6
CONTINUOUS
 62
     0
 10
2677.8153940000002
 20
2906.3674150000002
 30
0.0
 11
3077.4605630000001
 21
2906.3674149999988
 31
0.0
  0
LINE
  5
7EC5
  8
3
  6
CONTINUOUS
 62
     0
 10
3047.460563000001
 20
3466.3674150000002
 30
0.0
 11
3047.4605630000001
 21
2966.3674150000002
 31
0.0
  0
INSERT
  5
7EC6
  8
3
  6
CONTINUOUS
 62
     0
  2
_OPEN
 10
3047.460563000001
 20
3526.3674150000002
 30
0.0
 41
60.0
 42
60.0
 43
60.0
 50
90.0
  0
INSERT
  5
7EC7
  8
3
  6
CONTINUOUS
 62
     0
  2
_OPEN
 10
3047.4605630000001
 20
2906.3674150000002
 30
0.0
 41
60.0
 42
60.0
 43
60.0
 50
270.0
  0
TEXT
  8
3
  40
90
  5
7F56
  62
0
  72
0
  71
0
 10
2792.46
 20
3066.77
 30
0.000000
  1
620
  0
POINT
  5
7EC9
  8
DEFPOINTS
  6
CONTINUOUS
 62
     0
 10
2801.320835
 20
3526.3674150000002
 30
0.0
  0
POINT
  5
7ECA
  8
DEFPOINTS
  6
CONTINUOUS
 62
     0
 10
2662.8153940000002
 20
2906.3674150000002
 30
0.0
  0
POINT
  5
7ECB
  8
DEFPOINTS
  6
CONTINUOUS
 62
     0
 10
3047.4605630000001
 20
2906.3674150000002
 30
0.0
  0
ENDBLK
  5
7B20
  8
0
  0
BLOCK
  8
0
  2
*D3
 70
     1
 10
0.0
 20
0.0
 30
0.0
  3
*D3
  1

  0
LINE
  5
7ECC
  8
3
  6
CONTINUOUS
 62
     0
 10
2622.8153940000002
 20
2726.3674149999988
 30
0.0
 11
3264.4426989999988
 21
2726.3674149999988
 31
0.0
  0
LINE
  5
7ECD
  8
3
  6
CONTINUOUS
 62
     0
 10
3234.4426990000002
 20
3466.3674149999988
 30
0.0
 11
3234.4426989999988
 21
2786.3674149999988
 31
0.0
  0
INSERT
  5
7ECE
  8
3
  6
CONTINUOUS
 62
     0
  2
_OPEN
 10
3234.4426990000002
 20
3526.3674149999988
 30
0.0
 41
60.0
 42
60.0
 43
60.0
 50
90.0
  0
INSERT
  5
7ECF
  8
3
  6
CONTINUOUS
 62
     0
  2
_OPEN
 10
3234.4426989999988
 20
2726.3674149999988
 30
0.0
 41
60.0
 42
60.0
 43
60.0
 50
270.0
  0
TEXT
  8
3
  40
90
  5
7F57
  62
0
  72
0
  71
0
 10
2979.44
 20
2967.07
 30
0.000000
  1
800
  0
POINT
  5
7ED1
  8
DEFPOINTS
  6
CONTINUOUS
 62
     0
 10
2801.320835
 20
3526.3674150000002
 30
0.0
  0
POINT
  5
7ED2
  8
DEFPOINTS
  6
CONTINUOUS
 62
     0
 10
2607.8153940000002
 20
2726.3674149999988
 30
0.0
  0
POINT
  5
7ED3
  8
DEFPOINTS
  6
CONTINUOUS
 62
     0
 10
3234.4426989999988
 20
2726.3674149999988
 30
0.0
  0
ENDBLK
  5
7B39
  8
0
  0
BLOCK
  8
0
  2
*D4
 70
     1
 10
0.0
 20
0.0
 30
0.0
  3
*D4
  1

  0
LINE
  5
7ED4
  8
3
  6
CONTINUOUS
 62
     0
 10
2622.8153940000002
 20
2726.3674149999988
 30
0.0
 11
3266.1025709999999
 21
2726.3674149999988
 31
0.0
  0
LINE
  5
7ED5
  8
3
  6
CONTINUOUS
 62
     0
 10
2622.8153940000002
 20
2600.3674150000002
 30
0.0
 11
3266.1025709999999
 21
2600.3674149999988
 31
0.0
  0
LINE
  5
7ED6
  8
3
  6
CONTINUOUS
 62
     0
 10
3236.1025709999999
 20
2786.3674149999988
 30
0.0
 11
3236.1025709999999
 21
2846.3674149999988
 31
0.0
  0
LINE
  5
7ED7
  8
3
  6
CONTINUOUS
 62
     0
 10
3236.1025709999999
 20
2540.3674149999988
 30
0.0
 11
3236.1025709999999
 21
2210.3674149999988
 31
0.0
  0
LINE
  5
7ED8
  8
3
  6
CONTINUOUS
 62
     0
 10
3236.1025709999999
 20
2726.3674149999988
 30
0.0
 11
3236.1025709999999
 21
2600.3674149999988
 31
0.0
  0
INSERT
  5
7ED9
  8
3
  6
CONTINUOUS
 62
     0
  2
_OPEN
 10
3236.1025709999999
 20
2726.3674149999988
 30
0.0
 41
60.0
 42
60.0
 43
60.0
 50
270.0
  0
INSERT
  5
7EDA
  8
3
  6
CONTINUOUS
 62
     0
  2
_OPEN
 10
3236.1025709999999
 20
2600.3674149999988
 30
0.0
 41
60.0
 42
60.0
 43
60.0
 50
90.0
  0
TEXT
  8
3
  40
90
  5
7F58
  62
0
  72
0
  71
0
 10
2981.10
 20
2186.07
 30
0.000000
  1
126
  0
POINT
  5
7EDC
  8
DEFPOINTS
  6
CONTINUOUS
 62
     0
 10
2607.8153940000002
 20
2726.3674149999988
 30
0.0
  0
POINT
  5
7EDD
  8
DEFPOINTS
  6
CONTINUOUS
 62
     0
 10
2607.8153940000002
 20
2600.3674150000002
 30
0.0
  0
POINT
  5
7EDE
  8
DEFPOINTS
  6
CONTINUOUS
 62
     0
 10
3236.1025709999999
 20
2600.3674149999988
 30
0.0
  0
ENDBLK
  5
7D2D
  8
0
  0
BLOCK
  8
0
  2
*D5
 70
     1
 10
0.0
 20
0.0
 30
0.0
  3
*D5
  1

  0
LINE
  5
7EDF
  8
3
  6
CONTINUOUS
 62
     0
 10
2662.8153940000002
 20
3611.3674150000002
 30
0.0
 11
2662.8153940000002
 21
4201.1987909999998
 31
0.0
  0
LINE
  5
7EE0
  8
3
  6
CONTINUOUS
 62
     0
 10
2177.8153940000002
 20
4078.0948459999991
 30
0.0
 11
2177.8153940000002
 21
4201.1987909999998
 31
0.0
  0
LINE
  5
7EE1
  8
3
  6
CONTINUOUS
 62
     0
 10
2602.8153940000002
 20
4171.1987909999998
 30
0.0
 11
2237.8153940000002
 21
4171.1987909999998
 31
0.0
  0
INSERT
  5
7EE2
  8
3
  6
CONTINUOUS
 62
     0
  2
_OPEN
 10
2662.8153940000002
 20
4171.1987909999998
 30
0.0
 41
60.0
 42
60.0
 43
60.0
  0
INSERT
  5
7EE3
  8
3
  6
CONTINUOUS
 62
     0
  2
_OPEN
 10
2177.8153940000002
 20
4171.1987909999998
 30
0.0
 41
60.0
 42
60.0
 43
60.0
 50
180.0
  0
TEXT
  8
3
  40
90
  5
7F59
  62
0
  72
0
  71
0
 10
2237.06
 20
4086.90
 30
0.000000
  1
485
  0
POINT
  5
7EE5
  8
DEFPOINTS
  6
CONTINUOUS
 62
     0
 10
2662.8153940000002
 20
3596.3674149999988
 30
0.0
  0
POINT
  5
7EE6
  8
DEFPOINTS
  6
CONTINUOUS
 62
     0
 10
2177.8153940000002
 20
4063.094846
 30
0.0
  0
POINT
  5
7EE7
  8
DEFPOINTS
  6
CONTINUOUS
 62
     0
 10
2177.8153940000002
 20
4171.1987909999998
 30
0.0
  0
ENDBLK
  5
7C4A
  8
0
  0
BLOCK
  8
0
  2
*D6
 70
     1
 10
0.0
 20
0.0
 30
0.0
  3
*D6
  1

  0
LINE
  5
7EE8
  8
3
  6
CONTINUOUS
 62
     0
 10
1197.815394
 20
2585.3674149999988
 30
0.0
 11
1197.815394
 21
2314.7706549999998
 31
0.0
  0
LINE
  5
7EE9
  8
3
  6
CONTINUOUS
 62
     0
 10
2177.8153940000002
 20
2335.0412230000002
 30
0.0
 11
2177.8153940000002
 21
2314.7706549999998
 31
0.0
  0
LINE
  5
7EEA
  8
3
  6
CONTINUOUS
 62
     0
 10
1257.815394
 20
2344.7706549999998
 30
0.0
 11
2117.8153940000002
 21
2344.7706549999998
 31
0.0
  0
INSERT
  5
7EEB
  8
3
  6
CONTINUOUS
 62
     0
  2
_OPEN
 10
1197.815394
 20
2344.7706549999998
 30
0.0
 41
60.0
 42
60.0
 43
60.0
 50
180.0
  0
INSERT
  5
7EEC
  8
3
  6
CONTINUOUS
 62
     0
  2
_OPEN
 10
2177.8153940000002
 20
2344.7706549999998
 30
0.0
 41
60.0
 42
60.0
 43
60.0
  0
TEXT
  8
3
  40
90
  5
7F5A
  62
0
  72
0
  71
0
 10
1547.90
 20
2260.47
 30
0.000000
  1
980
  0
POINT
  5
7EEE
  8
DEFPOINTS
  6
CONTINUOUS
 62
     0
 10
1197.815394
 20
2600.3674150000002
 30
0.0
  0
POINT
  5
7EEF
  8
DEFPOINTS
  6
CONTINUOUS
 62
     0
 10
2177.8153940000002
 20
2350.0412230000002
 30
0.0
  0
POINT
  5
7EF0
  8
DEFPOINTS
  6
CONTINUOUS
 62
     0
 10
2177.8153940000002
 20
2344.7706549999998
 30
0.0
  0
ENDBLK
  5
7C2B
  8
0
  0
BLOCK
  8
0
  2
*D7
 70
     1
 10
0.0
 20
0.0
 30
0.0
  3
*D7
  1

  0
LINE
  5
7EF1
  8
3
  6
CONTINUOUS
 62
     0
 10
2607.8153940000002
 20
2585.3674149999988
 30
0.0
 11
2607.8153940000002
 21
2314.7706549999998
 31
0.0
  0
LINE
  5
7EF2
  8
3
  6
CONTINUOUS
 62
     0
 10
2237.8153940000002
 20
2344.7706549999998
 30
0.0
 11
2547.8153940000002
 21
2344.7706549999998
 31
0.0
  0
INSERT
  5
7EF3
  8
3
  6
CONTINUOUS
 62
     0
  2
_OPEN
 10
2177.8153940000002
 20
2344.7706549999998
 30
0.0
 41
60.0
 42
60.0
 43
60.0
 50
180.0
  0
INSERT
  5
7EF4
  8
3
  6
CONTINUOUS
 62
     0
  2
_OPEN
 10
2607.8153940000002
 20
2344.7706549999998
 30
0.0
 41
60.0
 42
60.0
 43
60.0
  0
TEXT
  8
3
  40
90
  5
7F5B
  62
0
  72
0
  71
0
 10
2212.82
 20
2260.47
 30
0.000000
  1
430
  0
POINT
  5
7EF6
  8
DEFPOINTS
  6
CONTINUOUS
 62
     0
 10
2177.8153940000002
 20
2350.0412230000002
 30
0.0
  0
POINT
  5
7EF7
  8
DEFPOINTS
  6
CONTINUOUS
 62
     0
 10
2607.8153940000002
 20
2600.3674150000002
 30
0.0
  0
POINT
  5
7EF8
  8
DEFPOINTS
  6
CONTINUOUS
 62
     0
 10
2607.8153940000002
 20
2344.7706549999998
 30
0.0
  0
ENDBLK
  5
7C35
  8
0
  0
BLOCK
  8
0
  2
*D8
 70
     1
 10
0.0
 20
0.0
 30
0.0
  3
*D8
  1

  0
LINE
  5
7EF9
  8
3
  6
CONTINUOUS
 62
     0
 10
4931.295537
 20
3994.6218619999991
 30
0.0
 11
4931.295537
 21
4083.3667059999998
 31
0.0
  0
LINE
  5
7EFA
  8
3
  6
CONTINUOUS
 62
     0
 10
4456.2955369999991
 20
3994.6218619999991
 30
0.0
 11
4456.2955369999991
 21
4083.3667059999998
 31
0.0
  0
LINE
  5
7EFB
  8
3
  6
CONTINUOUS
 62
     0
 10
4991.295537
 20
4053.3667060000012
 30
0.0
 11
5051.295537
 21
4053.3667060000012
 31
0.0
  0
LINE
  5
7EFC
  8
3
  6
CONTINUOUS
 62
     0
 10
4396.295537
 20
4053.3667060000012
 30
0.0
 11
4336.295537
 21
4053.3667060000012
 31
0.0
  0
LINE
  5
7EFD
  8
3
  6
CONTINUOUS
 62
     0
 10
4931.295537
 20
4053.3667060000012
 30
0.0
 11
4456.2955369999991
 21
4053.3667060000012
 31
0.0
  0
INSERT
  5
7EFE
  8
3
  6
CONTINUOUS
 62
     0
  2
_OPEN
 10
4931.295537
 20
4053.3667060000012
 30
0.0
 41
60.0
 42
60.0
 43
60.0
 50
180.0
  0
INSERT
  5
7EFF
  8
3
  6
CONTINUOUS
 62
     0
  2
_OPEN
 10
4456.2955369999991
 20
4053.3667060000012
 30
0.0
 41
60.0
 42
60.0
 43
60.0
  0
TEXT
  8
3
  40
90
  5
7F5C
  62
0
  72
0
  71
0
 10
4545.58
 20
3969.07
 30
0.000000
  1
475
  0
POINT
  5
7F01
  8
DEFPOINTS
  6
CONTINUOUS
 62
     0
 10
4931.295537
 20
3979.621862
 30
0.0
  0
POINT
  5
7F02
  8
DEFPOINTS
  6
CONTINUOUS
 62
     0
 10
4456.2955369999991
 20
3979.621862
 30
0.0
  0
POINT
  5
7F03
  8
DEFPOINTS
  6
CONTINUOUS
 62
     0
 10
4456.2955369999991
 20
4053.3667060000012
 30
0.0
  0
ENDBLK
  5
7BA5
  8
0
  0
BLOCK
  8
0
  2
*D9
 70
     1
 10
0.0
 20
0.0
 30
0.0
  3
*D9
  1

  0
LINE
  5
7F04
  8
3
  6
CONTINUOUS
 62
     0
 10
4949.7955369999991
 20
3861.3674150000002
 30
0.0
 11
5223.3855040000008
 21
3861.3674149999988
 31
0.0
  0
LINE
  5
7F05
  8
3
  6
CONTINUOUS
 62
     0
 10
4949.7955369999991
 20
3191.3674150000002
 30
0.0
 11
5223.3855040000008
 21
3191.3674149999988
 31
0.0
  0
LINE
  5
7F06
  8
3
  6
CONTINUOUS
 62
     0
 10
5193.3855040000008
 20
3801.3674149999988
 30
0.0
 11
5193.3855040000008
 21
3251.3674149999988
 31
0.0
  0
INSERT
  5
7F07
  8
3
  6
CONTINUOUS
 62
     0
  2
_OPEN
 10
5193.3855040000008
 20
3861.3674149999988
 30
0.0
 41
60.0
 42
60.0
 43
60.0
 50
90.0
  0
INSERT
  5
7F08
  8
3
  6
CONTINUOUS
 62
     0
  2
_OPEN
 10
5193.3855040000008
 20
3191.3674149999988
 30
0.0
 41
60.0
 42
60.0
 43
60.0
 50
270.0
  0
TEXT
  8
3
  40
90
  5
7F5D
  62
0
  72
0
  71
0
 10
4938.39
 20
3381.68
 30
0.000000
  1
φ670
  0
POINT
  5
7F0A
  8
DEFPOINTS
  6
CONTINUOUS
 62
     0
 10
4934.795537
 20
3861.3674150000002
 30
0.0
  0
POINT
  5
7F0B
  8
DEFPOINTS
  6
CONTINUOUS
 62
     0
 10
4934.795537
 20
3191.3674150000002
 30
0.0
  0
POINT
  5
7F0C
  8
DEFPOINTS
  6
CONTINUOUS
 62
     0
 10
5193.3855040000008
 20
3191.3674149999988
 30
0.0
  0
ENDBLK
  5
7D84
  8
0
  0
BLOCK
  8
0
  2
*D10
 70
     1
 10
0.0
 20
0.0
 30
0.0
  3
*D10
  1

  0
LINE
  5
7F0D
  8
3
  6
CONTINUOUS
 62
     0
 10
4213.795537
 20
3841.3674150000002
 30
0.0
 11
4213.795537
 21
4278.3585071591187
 31
0.0
  0
LINE
  5
7F0E
  8
3
  6
CONTINUOUS
 62
     0
 10
4633.795537
 20
4248.3585071591197
 30
0.0
 11
4273.795537
 21
4248.3585071591197
 31
0.0
  0
INSERT
  5
7F0F
  8
3
  6
CONTINUOUS
 62
     0
  2
_OPEN
 10
4693.7955369999991
 20
4248.3585071591197
 30
0.0
 41
60.0
 42
60.0
 43
60.0
  0
INSERT
  5
7F10
  8
3
  6
CONTINUOUS
 62
     0
  2
_OPEN
 10
4213.795537
 20
4248.3585071591197
 30
0.0
 41
60.0
 42
60.0
 43
60.0
 50
180.0
  0
TEXT
  8
3
  40
90
  5
7F5E
  62
0
  72
0
  71
0
 10
4273.80
 20
4239.06
 30
0.000000
  1
MAX
  0
TEXT
  8
3
  40
90
  5
7F5F
  62
0
  72
0
  71
0
 10
4273.80
 20
4122.06
 30
0.000000
  1
530
  0
POINT
  5
7F12
  8
DEFPOINTS
  6
CONTINUOUS
 62
     0
 10
4693.7955369999991
 20
4227.457327159118
 30
0.0
  0
POINT
  5
7F13
  8
DEFPOINTS
  6
CONTINUOUS
 62
     0
 10
4213.795537
 20
3826.3674149999988
 30
0.0
  0
POINT
  5
7F14
  8
DEFPOINTS
  6
CONTINUOUS
 62
     0
 10
4213.795537
 20
4248.3585071591197
 30
0.0
  0
ENDBLK
  5
7D79
  8
0
  0
BLOCK
  8
0
  2
*D11
 70
     1
 10
0.0
 20
0.0
 30
0.0
  3
*D11
  1

  0
LINE
  5
7F15
  8
3
  6
CONTINUOUS
 62
     0
 10
4282.795537
 20
2585.3674149999988
 30
0.0
 11
4282.795537
 21
2352.0482849999999
 31
0.0
  0
LINE
  5
7F16
  8
3
  6
CONTINUOUS
 62
     0
 10
4693.7955369999991
 20
2398.8834120000001
 30
0.0
 11
4693.7955369999991
 21
2352.0482849999999
 31
0.0
  0
LINE
  5
7F17
  8
3
  6
CONTINUOUS
 62
     0
 10
4342.7955369999991
 20
2382.0482849999999
 30
0.0
 11
4633.795537
 21
2382.0482849999999
 31
0.0
  0
INSERT
  5
7F18
  8
3
  6
CONTINUOUS
 62
     0
  2
_OPEN
 10
4282.795537
 20
2382.0482849999999
 30
0.0
 41
60.0
 42
60.0
 43
60.0
 50
180.0
  0
INSERT
  5
7F19
  8
3
  6
CONTINUOUS
 62
     0
  2
_OPEN
 10
4693.7955369999991
 20
2382.0482849999999
 30
0.0
 41
60.0
 42
60.0
 43
60.0
  0
TEXT
  8
3
  40
90
  5
7F60
  62
0
  72
0
  71
0
 10
4280.65
 20
2297.75
 30
0.000000
  1
411
  0
POINT
  5
7F1B
  8
DEFPOINTS
  6
CONTINUOUS
 62
     0
 10
4282.795537
 20
2600.3674150000002
 30
0.0
  0
POINT
  5
7F1C
  8
DEFPOINTS
  6
CONTINUOUS
 62
     0
 10
4693.7955369999991
 20
2413.8834120000001
 30
0.0
  0
POINT
  5
7F1D
  8
DEFPOINTS
  6
CONTINUOUS
 62
     0
 10
4693.7955369999991
 20
2382.0482849999999
 30
0.0
  0
ENDBLK
  5
7D01
  8
0
  0
BLOCK
  8
0
  2
*D12
 70
     1
 10
0.0
 20
0.0
 30
0.0
  3
*D12
  1

  0
LINE
  5
7F1E
  8
3
  6
CONTINUOUS
 62
     0
 10
4982.795537
 20
2585.3674149999988
 30
0.0
 11
4982.795537
 21
2352.0482849999999
 31
0.0
  0
LINE
  5
7F1F
  8
3
  6
CONTINUOUS
 62
     0
 10
4753.795537
 20
2382.0482849999999
 30
0.0
 11
4922.795537
 21
2382.0482849999999
 31
0.0
  0
TEXT
  8
3
  40
90
  5
7F61
  62
0
  72
0
  71
0
 10
4671.63
 20
2297.57
 30
0.000000
  1
289
  0
INSERT
  5
7F21
  8
3
  6
CONTINUOUS
 62
     0
  2
_OPEN
 10
4693.7955369999991
 20
2382.0482849999999
 30
0.0
 41
60.0
 42
60.0
 43
60.0
 50
180.0
  0
INSERT
  5
7F22
  8
3
  6
CONTINUOUS
 62
     0
  2
_OPEN
 10
4982.795537
 20
2382.0482849999999
 30
0.0
 41
60.0
 42
60.0
 43
60.0
  0
POINT
  5
7F23
  8
DEFPOINTS
  6
CONTINUOUS
 62
     0
 10
4693.7955369999991
 20
2413.8834120000001
 30
0.0
  0
POINT
  5
7F24
  8
DEFPOINTS
  6
CONTINUOUS
 62
     0
 10
4982.795537
 20
2600.3674150000002
 30
0.0
  0
POINT
  5
7F25
  8
DEFPOINTS
  6
CONTINUOUS
 62
     0
 10
4982.795537
 20
2382.0482849999999
 30
0.0
  0
ENDBLK
  5
7D0B
  8
0
  0
BLOCK
  8
0
  2
*D13
 70
     1
 10
0.0
 20
0.0
 30
0.0
  3
*D13
  1

  0
LINE
  5
7F26
  8
3
  6
CONTINUOUS
 62
     0
 10
1197.815394
 20
6205.5463280000004
 30
0.0
 11
1197.815394
 21
6360.0915160000004
 31
0.0
  0
LINE
  5
7F27
  8
3
  6
CONTINUOUS
 62
     0
 10
2607.8153940000002
 20
6205.5463280000004
 30
0.0
 11
2607.8153940000002
 21
6360.0915160000004
 31
0.0
  0
LINE
  5
7F28
  8
3
  6
CONTINUOUS
 62
     0
 10
1257.815394
 20
6330.0915159999986
 30
0.0
 11
2547.8153940000002
 21
6330.0915159999986
 31
0.0
  0
INSERT
  5
7F29
  8
3
  6
CONTINUOUS
 62
     0
  2
_OPEN
 10
1197.815394
 20
6330.0915159999986
 30
0.0
 41
60.0
 42
60.0
 43
60.0
 50
180.0
  0
INSERT
  5
7F2A
  8
3
  6
CONTINUOUS
 62
     0
  2
_OPEN
 10
2607.8153940000002
 20
6330.0915159999986
 30
0.0
 41
60.0
 42
60.0
 43
60.0
  0
TEXT
  8
3
  40
90
  5
7F62
  62
0
  72
0
  71
0
 10
1714.04
 20
6245.79
 30
0.000000
  1
1410
  0
POINT
  5
7F2C
  8
DEFPOINTS
  6
CONTINUOUS
 62
     0
 10
1197.815394
 20
6190.5463280000004
 30
0.0
  0
POINT
  5
7F2D
  8
DEFPOINTS
  6
CONTINUOUS
 62
     0
 10
2607.8153940000002
 20
6190.5463280000004
 30
0.0
  0
POINT
  5
7F2E
  8
DEFPOINTS
  6
CONTINUOUS
 62
     0
 10
2607.8153940000002
 20
6330.0915159999986
 30
0.0
  0
ENDBLK
  5
7C0D
  8
0
  0
BLOCK
  8
0
  2
*D14
 70
     1
 10
0.0
 20
0.0
 30
0.0
  3
*D14
  1

  0
LINE
  5
7F2F
  8
3
  6
CONTINUOUS
 62
     0
 10
2622.8153940000002
 20
6190.5463280000004
 30
0.0
 11
2933.7462650000002
 21
6190.5463280000004
 31
0.0
  0
LINE
  5
7F30
  8
3
  6
CONTINUOUS
 62
     0
 10
2622.8153940000002
 20
5490.5463280000004
 30
0.0
 11
2933.7462650000002
 21
5490.5463280000004
 31
0.0
  0
LINE
  5
7F31
  8
3
  6
CONTINUOUS
 62
     0
 10
2903.7462650000002
 20
6130.5463280000013
 30
0.0
 11
2903.7462650000002
 21
5550.5463280000013
 31
0.0
  0
INSERT
  5
7F32
  8
3
  6
CONTINUOUS
 62
     0
  2
_OPEN
 10
2903.7462650000002
 20
6190.5463280000004
 30
0.0
 41
60.0
 42
60.0
 43
60.0
 50
90.0
  0
INSERT
  5
7F33
  8
3
  6
CONTINUOUS
 62
     0
  2
_OPEN
 10
2903.7462650000002
 20
5490.5463280000004
 30
0.0
 41
60.0
 42
60.0
 43
60.0
 50
270.0
  0
TEXT
  8
3
  40
90
  5
7F63
  62
0
  72
0
  71
0
 10
2648.75
 20
5711.78
 30
0.000000
  1
700
  0
POINT
  5
7F35
  8
DEFPOINTS
  6
CONTINUOUS
 62
     0
 10
2607.8153940000002
 20
6190.5463280000004
 30
0.0
  0
POINT
  5
7F36
  8
DEFPOINTS
  6
CONTINUOUS
 62
     0
 10
2607.8153940000002
 20
5490.5463280000004
 30
0.0
  0
POINT
  5
7F37
  8
DEFPOINTS
  6
CONTINUOUS
 62
     0
 10
2903.7462650000002
 20
5490.5463280000004
 30
0.0
  0
ENDBLK
  5
7C1A
  8
0
  0
BLOCK
  8
0
  2
*D15
 70
     1
 10
0.0
 20
0.0
 30
0.0
  3
*D15
  1

  0
LINE
  5
7F38
  8
3
  6
CONTINUOUS
 62
     0
 10
2816.320835
 20
3526.3674150000002
 30
0.0
 11
3264.4426989999988
 21
3526.3674149999988
 31
0.0
  0
LINE
  5
7F39
  8
3
  6
CONTINUOUS
 62
     0
 10
2192.8153940000002
 20
3978.3657774359281
 30
0.0
 11
3264.4426989999988
 21
3978.3657774359272
 31
0.0
  0
LINE
  5
7F3A
  8
3
  6
CONTINUOUS
 62
     0
 10
3234.4426989999988
 20
3586.3674149999988
 30
0.0
 11
3234.4426989999988
 21
3918.3657774359272
 31
0.0
  0
INSERT
  5
7F3B
  8
3
  6
CONTINUOUS
 62
     0
  2
_OPEN
 10
3234.4426989999988
 20
3526.3674149999988
 30
0.0
 41
60.0
 42
60.0
 43
60.0
 50
270.0
  0
INSERT
  5
7F3C
  8
3
  6
CONTINUOUS
 62
     0
  2
_OPEN
 10
3234.4426989999988
 20
3978.3657774359272
 30
0.0
 41
60.0
 42
60.0
 43
60.0
 50
90.0
  0
TEXT
  8
3
  40
90
  5
7F64
  62
0
  72
0
  71
0
 10
2979.44
 20
3593.07
 30
0.000000
  1
452
  0
POINT
  5
7F3E
  8
DEFPOINTS
  6
CONTINUOUS
 62
     0
 10
2801.320835
 20
3526.3674150000002
 30
0.0
  0
POINT
  5
7F3F
  8
DEFPOINTS
  6
CONTINUOUS
 62
     0
 10
2177.8153940000002
 20
3978.3657774359281
 30
0.0
  0
POINT
  5
7F40
  8
DEFPOINTS
  6
CONTINUOUS
 62
     0
 10
3234.4426989999988
 20
3978.3657774359272
 30
0.0
  0
ENDBLK
  5
7D9B
  8
0
  0
BLOCK
  8
0
  2
*D16
 70
     1
 10
0.0
 20
0.0
 30
0.0
  3
*D16
  1

  0
LINE
  5
7F41
  8
3
  6
CONTINUOUS
 62
     0
 10
1655.815394
 20
3541.3674149999988
 30
0.0
 11
1655.815394
 21
4201.1987909999998
 31
0.0
  0
LINE
  5
7F42
  8
3
  6
CONTINUOUS
 62
     0
 10
2117.8153940000002
 20
4171.1987909999998
 30
0.0
 11
1715.815394
 21
4171.1987909999998
 31
0.0
  0
INSERT
  5
7F43
  8
3
  6
CONTINUOUS
 62
     0
  2
_OPEN
 10
2177.8153940000002
 20
4171.1987909999998
 30
0.0
 41
60.0
 42
60.0
 43
60.0
  0
INSERT
  5
7F44
  8
3
  6
CONTINUOUS
 62
     0
  2
_OPEN
 10
1655.815394
 20
4171.1987909999998
 30
0.0
 41
60.0
 42
60.0
 43
60.0
 50
180.0
  0
TEXT
  8
3
  40
90
  5
7F65
  62
0
  72
0
  71
0
 10
1736.82
 20
4086.90
 30
0.000000
  1
522
  0
POINT
  5
7F46
  8
DEFPOINTS
  6
CONTINUOUS
 62
     0
 10
2177.8153940000002
 20
4063.094846
 30
0.0
  0
POINT
  5
7F47
  8
DEFPOINTS
  6
CONTINUOUS
 62
     0
 10
1655.815394
 20
3526.3674150000002
 30
0.0
  0
POINT
  5
7F48
  8
DEFPOINTS
  6
CONTINUOUS
 62
     0
 10
1655.815394
 20
4171.1987909999998
 30
0.0
  0
ENDBLK
  5
7C86
  8
0
  0
BLOCK
  8
0
  2
*D17
 70
     1
 10
0.0
 20
0.0
 30
0.0
  3
*D17
  1

  0
LINE
  5
7D66
  8
0
  6
BYBLOCK
 62
     0
 10
4693.7955369999991
 20
4212.6983655191716
 30
0.0
 11
4693.7955369999991
 21
4278.3585071591187
 31
0.0
  0
LINE
  5
7D67
  8
0
  6
BYBLOCK
 62
     0
 10
4934.795537
 20
3876.3674150000002
 30
0.0
 11
4934.795537
 21
4278.3585071591187
 31
0.0
  0
LINE
  5
7D68
  8
0
  6
BYBLOCK
 62
     0
 10
4753.795537
 20
4248.3585071591197
 30
0.0
 11
4874.795537
 21
4248.3585071591197
 31
0.0
  0
TEXT
  5
7D69
  8
3
 62
     0
 10
4722.7483440701326
 20
4277.6493823874216
 30
0.0
 40
90.0
  1
241
  0
INSERT
  5
7D6A
  8
0
  6
BYBLOCK
 62
     0
  2
_OPEN
 10
4693.7955369999991
 20
4248.3585071591197
 30
0.0
 41
60.0
 42
60.0
 43
60.0
 50
180.0
  0
INSERT
  5
7D6B
  8
0
  6
BYBLOCK
 62
     0
  2
_OPEN
 10
4934.795537
 20
4248.3585071591197
 30
0.0
 41
60.0
 42
60.0
 43
60.0
  0
POINT
  5
7D6C
  8
DEFPOINTS
  6
BYBLOCK
 62
     0
 10
4693.7955369999991
 20
4197.6983655191716
 30
0.0
  0
POINT
  5
7D6D
  8
DEFPOINTS
  6
BYBLOCK
 62
     0
 10
4934.795537
 20
3861.3674150000002
 30
0.0
  0
POINT
  5
7D6E
  8
DEFPOINTS
  6
BYBLOCK
 62
     0
 10
4934.795537
 20
4248.3585071591197
 30
0.0
  0
ENDBLK
  5
7D6F
  8
0
  0
BLOCK
  8
0
  2
*D18
 70
     1
 10
0.0
 20
0.0
 30
0.0
  3
*D18
  1

  0
LINE
  5
7F49
  8
3
 62
     0
 10
2662.8153940000002
 20
3611.3674150000002
 30
0.0
 11
2662.8153940000002
 21
4362.3255891973022
 31
0.0
  0
LINE
  5
7F4A
  8
3
 62
     0
 10
1197.815394
 20
2841.3674150000002
 30
0.0
 11
1197.815394
 21
4362.3255891973022
 31
0.0
  0
LINE
  5
7F4B
  8
3
 62
     0
 10
2602.8153940000002
 20
4332.3255891973022
 30
0.0
 11
1257.815394
 21
4332.3255891973022
 31
0.0
  0
INSERT
  5
7F4C
  8
3
 62
     0
  2
_OPEN
 10
2662.8153940000002
 20
4332.3255891973022
 30
0.0
 41
60.0
 42
60.0
 43
60.0
  0
INSERT
  5
7F4D
  8
3
 62
     0
  2
_OPEN
 10
1197.815394
 20
4332.3255891973022
 30
0.0
 41
60.0
 42
60.0
 43
60.0
 50
180.0
  0
TEXT
  8
3
  40
90
  5
7F66
  62
0
  72
0
  71
0
 10
1745.94
 20
4248.03
 30
0.000000
  1
1465
  0
POINT
  5
7F4F
  8
DEFPOINTS
 62
     0
 10
2662.8153940000002
 20
3596.3674149999988
 30
0.0
  0
POINT
  5
7F50
  8
DEFPOINTS
 62
     0
 10
1197.815394
 20
2826.3674149999988
 30
0.0
  0
POINT
  5
7F51
  8
DEFPOINTS
 62
     0
 10
1197.815394
 20
4332.3255891973022
 30
0.0
  0
ENDBLK
  5
7DA7
  8
0
  0
BLOCK
  8
0
  2
_DOT
 70
     0
 10
0.0
 20
0.0
 30
0.0
  3
_DOT
  1

  0
POLYLINE
  5
7E90
  8
0
  6
BYBLOCK
 62
     0
 66
     1
 10
0.0
 20
0.0
 30
0.0
 70
     1
 40
0.5
 41
0.5
  0
VERTEX
  5
7F52
  8
0
  6
BYBLOCK
 62
     0
 10
-0.25
 20
0.0
 30
0.0
 42
1.0
  0
VERTEX
  5
7F53
  8
0
  6
BYBLOCK
 62
     0
 10
0.25
 20
0.0
 30
0.0
 42
1.0
  0
SEQEND
  5
7F54
  8
0
  6
BYBLOCK
 62
     0
  0
LINE
  5
7E91
  8
0
  6
BYBLOCK
 62
     0
 10
-0.5
 20
0.0
 30
0.0
 11
-1.0
 21
0.0
 31
0.0
  0
ENDBLK
  5
7E93
  8
0
  0
ENDSEC
  0
SECTION
  2
ENTITIES
  0
LINE
  5
7A71
  8
1
  6
CONTINUOUS
 10
2607.8153940000002
 20
5490.5463280000004
 30
0.0
 11
2607.8153940000002
 21
5664.0463280000013
 31
0.0
  0
LINE
  5
7A72
  8
1
  6
CONTINUOUS
 10
1197.815394
 20
6190.5463280000004
 30
0.0
 11
1197.815394
 21
5490.5463280000004
 31
0.0
  0
LINE
  5
7A73
  8
1
  6
CONTINUOUS
 10
1618.9665030000001
 20
5593.2782450000004
 30
0.0
 11
1618.9665030000001
 21
6078.2782450000004
 31
0.0
  0
LINE
  5
7A74
  8
1
  6
CONTINUOUS
 10
1294.966502999999
 20
5593.2782450000004
 30
0.0
 11
1294.966502999999
 21
6078.2782450000004
 31
0.0
  0
LINE
  5
7A75
  8
1
  6
CONTINUOUS
 10
2662.8153940000002
 20
5621.5463280000004
 30
0.0
 11
2662.8153940000002
 21
6181.5463280000004
 31
0.0
  0
LINE
  5
7A76
  8
1
  6
CONTINUOUS
 10
2198.8153940000002
 20
5526.5463280000013
 30
0.0
 11
2198.8153940000002
 21
5664.0463280000013
 31
0.0
  0
LINE
  5
7A77
  8
1
  6
CONTINUOUS
 10
2156.8153940000002
 20
5526.5463280000013
 30
0.0
 11
2156.8153940000002
 21
5664.0463280000013
 31
0.0
  0
LINE
  5
7A7C
  8
1
  6
CONTINUOUS
 10
1294.966502999999
 20
5593.2782450000004
 30
0.0
 11
1618.9665030000001
 21
5593.2782450000004
 31
0.0
  0
LINE
  5
7A7D
  8
1
  6
CONTINUOUS
 10
2517.8153940000002
 20
5421.5463280000004
 30
0.0
 11
1247.815394
 21
5421.5463280000004
 31
0.0
  0
LINE
  5
7A7E
  8
1
  6
CONTINUOUS
 10
2517.8153940000002
 20
5561.5463280000013
 30
0.0
 11
1247.815394
 21
5561.5463280000013
 31
0.0
  0
LINE
  5
7A7F
  8
1
  6
CONTINUOUS
 10
1536.966502999999
 20
5490.5463280000004
 30
0.0
 11
2027.815394
 21
5490.5463280000004
 31
0.0
  0
LINE
  5
7A80
  8
1
  6
CONTINUOUS
 10
1197.815394
 20
2726.3674149999988
 30
0.0
 11
2607.8153940000002
 21
2726.3674149999988
 31
0.0
  0
LINE
  5
7A81
  8
1
  6
CONTINUOUS
 10
2607.8153940000002
 20
2826.3674149999988
 30
0.0
 11
1197.815394
 21
2826.3674149999988
 31
0.0
  0
LINE
  5
7A82
  8
1
  6
CONTINUOUS
 10
1610.9665030000001
 20
2866.3674150000002
 30
0.0
 11
1302.966502999999
 21
2866.3674150000002
 31
0.0
  0
LINE
  5
7A83
  8
1
  6
CONTINUOUS
 10
1610.9665030000001
 20
2884.3674149999988
 30
0.0
 11
1589.6241680000001
 21
2933.3838479999999
 31
0.0
  0
ARC
  5
7A84
  8
1
  6
CONTINUOUS
 10
1456.9665030000001
 20
3026.3674149999988
 30
0.0
 40
162.0
 50
324.972283
 51
215.02771699999991
  0
LINE
  5
7A85
  8
1
  6
CONTINUOUS
 10
1247.815394
 20
3126.3674149999988
 30
0.0
 11
2077.8153940000002
 21
3826.3674149999988
 31
0.0
  0
ARC
  5
7A86
  8
1
  6
CONTINUOUS
 10
2218.8153940000002
 20
3485.3674149999988
 30
0.0
 40
564.49092099999984
 50
175.48601199999999
 51
265.834836
  0
ARC
  5
7A87
  8
1
  6
CONTINUOUS
 10
2142.8153940000002
 20
3491.3674150000002
 30
0.0
 40
488.25444700000003
 50
82.647621000000001
 51
175.48601199999999
  0
LINE
  5
7A88
  8
1
  6
CONTINUOUS
 10
1406.271387
 20
3088.2544509999998
 30
0.0
 11
2082.762052
 21
3642.4056070000001
 31
0.0
  0
LINE
  5
7A89
  8
1
  6
CONTINUOUS
 10
1497.171409
 20
2957.2040899999988
 30
0.0
 11
2253.1995940000002
 21
3396.6861809999991
 31
0.0
  0
LINE
  5
7A8A
  8
1
  6
CONTINUOUS
 10
2607.8153940000002
 20
2700.3674150000002
 30
0.0
 11
1197.815394
 21
2700.3674150000002
 31
0.0
  0
LINE
  5
7A8B
  8
1
  6
CONTINUOUS
 10
1197.815394
 20
2600.3674150000002
 30
0.0
 11
2607.8153940000002
 21
2600.3674150000002
 31
0.0
  0
LINE
  5
7A8C
  8
1
  6
CONTINUOUS
 10
1247.815394
 20
2826.3674149999988
 30
0.0
 11
1247.815394
 21
3126.3674149999988
 31
0.0
  0
LINE
  5
7A8D
  8
2
  6
CENTER
 10
1456.9665030000001
 20
3106.3674149999988
 30
0.0
 11
1456.9665030000001
 21
2946.3674150000002
 31
0.0
  0
CIRCLE
  5
7A8E
  8
1
  6
CONTINUOUS
 10
1456.9665030000001
 20
3026.3674149999988
 30
0.0
 40
80.0
  0
LINE
  5
7A8F
  8
1
  6
CONTINUOUS
 10
1197.815394
 20
2826.3674149999988
 30
0.0
 11
1197.815394
 21
2726.3674149999988
 31
0.0
  0
LINE
  5
7A90
  8
1
  6
CONTINUOUS
 10
1302.966502999999
 20
2826.3674149999988
 30
0.0
 11
1302.966502999999
 21
2884.3674149999988
 31
0.0
  0
LINE
  5
7A91
  8
1
  6
CONTINUOUS
 10
1302.966502999999
 20
2866.3674150000002
 30
0.0
 11
1302.966502999999
 21
2884.3674149999988
 31
0.0
  0
LINE
  5
7A92
  8
1
  6
CONTINUOUS
 10
1302.966502999999
 20
2884.3674149999988
 30
0.0
 11
1324.308837
 21
2933.3838479999999
 31
0.0
  0
LINE
  5
7A93
  8
1
  6
CONTINUOUS
 10
1197.815394
 20
2700.3674150000002
 30
0.0
 11
1197.815394
 21
2600.3674150000002
 31
0.0
  0
LINE
  5
7A94
  8
2
  6
CENTER
 10
1536.966502999999
 20
3026.3674149999988
 30
0.0
 11
1376.9665030000001
 21
3026.3674149999988
 31
0.0
  0
LINE
  5
7A95
  8
1
  6
CONTINUOUS
 10
1197.815394
 20
5490.5463280000004
 30
0.0
 11
1376.9665030000001
 21
5490.5463280000004
 31
0.0
  0
LINE
  5
7A96
  8
1
  6
CONTINUOUS
 10
1247.815394
 20
5421.5463280000004
 30
0.0
 11
1247.815394
 21
5561.5463280000013
 31
0.0
  0
LINE
  5
7A97
  8
1
  6
CONTINUOUS
 10
1376.9665030000001
 20
5526.5463280000013
 30
0.0
 11
1536.966502999999
 21
5526.5463280000013
 31
0.0
  0
LINE
  5
7A98
  8
1
  6
CONTINUOUS
 10
1376.9665030000001
 20
5456.5463280000004
 30
0.0
 11
1536.966502999999
 21
5456.5463280000004
 31
0.0
  0
LINE
  5
7A99
  8
1
  6
CONTINUOUS
 10
1536.966502999999
 20
5456.5463280000004
 30
0.0
 11
1536.966502999999
 21
5526.5463280000013
 31
0.0
  0
LINE
  5
7A9A
  8
1
  6
CONTINUOUS
 10
1376.9665030000001
 20
5456.5463280000004
 30
0.0
 11
1376.9665030000001
 21
5526.5463280000013
 31
0.0
  0
LINE
  5
7A9B
  8
1
  6
CONTINUOUS
 10
1435.966502999999
 20
5526.5463280000013
 30
0.0
 11
1435.966502999999
 21
5593.2782450000004
 31
0.0
  0
LINE
  5
7A9C
  8
1
  6
CONTINUOUS
 10
1477.9665030000001
 20
5526.5463280000013
 30
0.0
 11
1477.9665030000001
 21
5593.2782450000004
 31
0.0
  0
LINE
  5
7A9F
  8
1
  6
CONTINUOUS
 10
2517.8153940000002
 20
2826.3674149999988
 30
0.0
 11
2517.8153940000002
 21
3826.3674149999988
 31
0.0
  0
ARC
  5
7AA0
  8
1
  6
CONTINUOUS
 10
2150.8153940000002
 20
3553.3674149999988
 30
0.0
 40
425.74044800000001
 50
0.403741
 51
82.647621000000001
  0
LINE
  5
7AA3
  8
1
  6
CONTINUOUS
 10
2607.8153940000002
 20
2826.3674149999988
 30
0.0
 11
1735.815394
 21
2826.3674149999988
 31
0.0
  0
LINE
  5
7AA4
  8
1
  6
CONTINUOUS
 10
2576.5452730000002
 20
3556.3674149999988
 30
0.0
 11
2662.8153940000002
 21
3556.3674149999988
 31
0.0
  0
LINE
  5
7AA5
  8
1
  6
CONTINUOUS
 10
2662.8153940000002
 20
2906.3674150000002
 30
0.0
 11
2177.8153940000002
 21
2922.3674150000002
 31
0.0
  0
LINE
  5
7AA6
  8
1
  6
CONTINUOUS
 10
1610.9665030000001
 20
2826.3674149999988
 30
0.0
 11
1610.9665030000001
 21
2884.3674149999988
 31
0.0
  0
LINE
  5
7AA7
  8
2
  6
CENTER
 10
5022.430417999999
 20
3526.3674150000002
 30
0.0
 11
4012.4330060000011
 21
3526.3674150000002
 31
0.0
  0
CIRCLE
  5
7AA8
  8
1
  6
CONTINUOUS
 10
2177.8153940000002
 20
3526.3674150000002
 30
0.0
 40
150.0
  0
LINE
  5
7AA9
  8
2
  6
CENTER
 10
2177.8153940000002
 20
6310.4807409999994
 30
0.0
 11
2177.8153940000002
 21
5309.7342060000001
 31
0.0
  0
LINE
  5
7AAA
  8
1
  6
CONTINUOUS
 10
2662.8153940000002
 20
3596.3674149999988
 30
0.0
 11
2662.8153940000002
 21
2866.3674150000002
 31
0.0
  0
LINE
  5
7AAB
  8
1
  6
CONTINUOUS
 10
2632.8153940000002
 20
3556.3674149999988
 30
0.0
 11
2632.8153940000002
 21
2907.357105
 31
0.0
  0
LINE
  5
7AAC
  8
1
  6
CONTINUOUS
 10
2607.8153940000002
 20
2726.3674149999988
 30
0.0
 11
2607.8153940000002
 21
2826.3674149999988
 31
0.0
  0
LINE
  5
7AAD
  8
1
  6
CONTINUOUS
 10
2607.8153940000002
 20
2600.3674150000002
 30
0.0
 11
2607.8153940000002
 21
2700.3674150000002
 31
0.0
  0
LINE
  5
7AAF
  8
1
  6
CONTINUOUS
 10
2327.8153940000002
 20
5490.5463280000004
 30
0.0
 11
2607.8153940000002
 21
5490.5463280000004
 31
0.0
  0
LINE
  5
7AB0
  8
1
  6
CONTINUOUS
 10
2517.8153940000002
 20
3826.3674149999988
 30
0.0
 11
2077.8153940000002
 21
3826.3674149999988
 31
0.0
  0
LINE
  5
7AB1
  8
1
  6
CONTINUOUS
 10
2027.815394
 20
5526.5463280000013
 30
0.0
 11
2327.8153940000002
 21
5526.5463280000013
 31
0.0
  0
LINE
  5
7AB2
  8
1
  6
CONTINUOUS
 10
2027.815394
 20
5456.5463280000004
 30
0.0
 11
2327.8153940000002
 21
5456.5463280000004
 31
0.0
  0
LINE
  5
7AB3
  8
1
  6
CONTINUOUS
 10
2027.815394
 20
5456.5463280000004
 30
0.0
 11
2027.815394
 21
5526.5463280000013
 31
0.0
  0
LINE
  5
7AB4
  8
1
  6
CONTINUOUS
 10
2327.8153940000002
 20
5456.5463280000004
 30
0.0
 11
2327.8153940000002
 21
5526.5463280000013
 31
0.0
  0
LINE
  5
7AB5
  8
1
  6
CONTINUOUS
 10
2517.8153940000002
 20
5421.5463280000004
 30
0.0
 11
2517.8153940000002
 21
5561.5463280000013
 31
0.0
  0
LINE
  5
7AB6
  8
1
  6
CONTINUOUS
 10
4456.2955369999991
 20
2826.3674149999988
 30
0.0
 11
4456.2955369999991
 21
3979.621862
 31
0.0
  0
LINE
  5
7AB7
  8
1
  6
CONTINUOUS
 10
4931.295537
 20
2826.3674149999988
 30
0.0
 11
4931.295537
 21
3979.621862
 31
0.0
  0
LINE
  5
7AB8
  8
1
  6
CONTINUOUS
 10
4213.795537
 20
3826.3674149999988
 30
0.0
 11
4213.795537
 21
2826.3674149999988
 31
0.0
  0
LINE
  5
7AB9
  8
1
  6
CONTINUOUS
 10
4353.7955369999991
 20
3826.3674149999988
 30
0.0
 11
4353.7955369999991
 21
2826.3674149999988
 31
0.0
  0
LINE
  5
7ABA
  8
1
  6
CONTINUOUS
 10
4931.295537
 20
2906.3674150000002
 30
0.0
 11
4456.2955369999991
 21
3556.3674149999988
 31
0.0
  0
LINE
  5
7ABB
  8
1
  6
CONTINUOUS
 10
4456.2955369999991
 20
2906.3674150000002
 30
0.0
 11
4931.295537
 21
3556.3674149999988
 31
0.0
  0
LINE
  5
7ABC
  8
1
  6
CONTINUOUS
 10
4318.7955369999991
 20
3106.3674149999988
 30
0.0
 11
4318.7955369999991
 21
2946.3674150000002
 31
0.0
  0
LINE
  5
7ABD
  8
1
  6
CONTINUOUS
 10
4248.795537
 20
3106.3674149999988
 30
0.0
 11
4248.795537
 21
2946.3674150000002
 31
0.0
  0
LINE
  5
7ABE
  8
1
  6
CONTINUOUS
 10
4282.795537
 20
2726.3674149999988
 30
0.0
 11
4982.795537
 21
2726.3674149999988
 31
0.0
  0
LINE
  5
7ABF
  8
1
  6
CONTINUOUS
 10
4456.2955369999991
 20
2906.3674150000002
 30
0.0
 11
4931.295537
 21
2906.3674150000002
 31
0.0
  0
LINE
  5
7AC0
  8
1
  6
CONTINUOUS
 10
4982.795537
 20
2826.3674149999988
 30
0.0
 11
4282.795537
 21
2826.3674149999988
 31
0.0
  0
LINE
  5
7AC1
  8
1
  6
CONTINUOUS
 10
4282.795537
 20
2600.3674150000002
 30
0.0
 11
4982.795537
 21
2600.3674150000002
 31
0.0
  0
LINE
  5
7AC2
  8
1
  6
CONTINUOUS
 10
4282.795537
 20
2700.3674150000002
 30
0.0
 11
4982.795537
 21
2700.3674150000002
 31
0.0
  0
LINE
  5
7AC3
  8
1
  6
CONTINUOUS
 10
4282.795537
 20
2826.3674149999988
 30
0.0
 11
4282.795537
 21
2726.3674149999988
 31
0.0
  0
LINE
  5
7AC4
  8
1
  6
CONTINUOUS
 10
4213.795537
 20
2826.3674149999988
 30
0.0
 11
4282.795537
 21
2826.3674149999988
 31
0.0
  0
LINE
  5
7AC5
  8
1
  6
CONTINUOUS
 10
4248.795537
 20
2946.3674150000002
 30
0.0
 11
4318.7955369999991
 21
2946.3674150000002
 31
0.0
  0
LINE
  5
7AC6
  8
1
  6
CONTINUOUS
 10
4282.795537
 20
2700.3674150000002
 30
0.0
 11
4282.795537
 21
2600.3674150000002
 31
0.0
  0
LINE
  5
7AC7
  8
1
  6
CONTINUOUS
 10
4982.795537
 20
2826.3674149999988
 30
0.0
 11
4982.795537
 21
2726.3674149999988
 31
0.0
  0
LINE
  5
7AC8
  8
1
  6
CONTINUOUS
 10
4982.795537
 20
2700.3674150000002
 30
0.0
 11
4982.795537
 21
2600.3674150000002
 31
0.0
  0
LINE
  5
7AC9
  8
1
  6
CONTINUOUS
 10
4456.2955369999991
 20
3556.3674149999988
 30
0.0
 11
4931.295537
 21
3556.3674149999988
 31
0.0
  0
LINE
  5
7ACA
  8
1
  6
CONTINUOUS
 10
4248.795537
 20
3676.3674150000002
 30
0.0
 11
4318.7955369999991
 21
3676.3674150000002
 31
0.0
  0
LINE
  5
7ACB
  8
1
  6
CONTINUOUS
 10
4248.795537
 20
3376.3674150000002
 30
0.0
 11
4318.7955369999991
 21
3376.3674150000002
 31
0.0
  0
LINE
  5
7ACC
  8
1
  6
CONTINUOUS
 10
4318.7955369999991
 20
3676.3674150000002
 30
0.0
 11
4318.7955369999991
 21
3376.3674150000002
 31
0.0
  0
LINE
  5
7ACD
  8
1
  6
CONTINUOUS
 10
4248.795537
 20
3676.3674150000002
 30
0.0
 11
4248.795537
 21
3376.3674150000002
 31
0.0
  0
LINE
  5
7ACE
  8
1
  6
CONTINUOUS
 10
4318.7955369999991
 20
3547.3674150000002
 30
0.0
 11
4456.2955369999991
 21
3547.3674150000002
 31
0.0
  0
LINE
  5
7ACF
  8
1
  6
CONTINUOUS
 10
4318.7955369999991
 20
3505.3674150000002
 30
0.0
 11
4456.2955369999991
 21
3505.3674150000002
 31
0.0
  0
LINE
  5
7AD0
  8
1
  6
CONTINUOUS
 10
4248.795537
 20
3106.3674149999988
 30
0.0
 11
4318.7955369999991
 21
3106.3674149999988
 31
0.0
  0
LINE
  5
7AD1
  8
1
  6
CONTINUOUS
 10
4318.7955369999991
 20
3047.3674150000002
 30
0.0
 11
4456.2955369999991
 21
3047.3674150000002
 31
0.0
  0
LINE
  5
7AD2
  8
1
  6
CONTINUOUS
 10
4318.7955369999991
 20
3005.3674150000002
 30
0.0
 11
4456.2955369999991
 21
3005.3674150000002
 31
0.0
  0
LINE
  5
7AD3
  8
1
  6
CONTINUOUS
 10
4456.2955369999991
 20
3979.621862
 30
0.0
 11
4931.295537
 21
3979.621862
 31
0.0
  0
LINE
  5
7AD4
  8
1
  6
CONTINUOUS
 10
4353.7955369999991
 20
3826.3674149999988
 30
0.0
 11
4213.795537
 21
3826.3674149999988
 31
0.0
  0
LINE
  5
7AD5
  8
1
  6
CONTINUOUS
 10
1294.966502999999
 20
6078.2782450000004
 30
0.0
 11
1618.9665030000001
 21
6078.2782450000004
 31
0.0
  0
LINE
  5
7AD6
  8
1
  6
CONTINUOUS
 10
2607.8153940000002
 20
6190.5463280000004
 30
0.0
 11
1197.815394
 21
6190.5463280000004
 31
0.0
  0
LINE
  5
7AD7
  8
1
  6
CONTINUOUS
 10
2662.8153940000002
 20
6139.0463280000004
 30
0.0
 11
1654.3244729999999
 21
6139.0463280000004
 31
0.0
  0
LINE
  5
7AD8
  8
1
  6
CONTINUOUS
 10
2662.8153940000002
 20
5664.0463280000013
 30
0.0
 11
1654.3244729999999
 21
5664.0463280000013
 31
0.0
  0
LINE
  5
7AD9
  8
1
  6
CONTINUOUS
 10
1618.9665030000001
 20
5914.9946929999996
 30
0.0
 11
1618.9665030000001
 21
5672.7476530000004
 31
0.0
  0
LINE
  5
7ADA
  8
1
  6
CONTINUOUS
 10
1654.3244729999999
 20
5664.0463280000013
 30
0.0
 11
1654.3244729999999
 21
6139.0463280000004
 31
0.0
  0
LINE
  5
7ADB
  8
1
  6
CONTINUOUS
 10
2607.8153940000002
 20
6139.0463280000004
 30
0.0
 11
2607.8153940000002
 21
6190.5463280000004
 31
0.0
  0
LINE
  5
7ADC
  8
1
  6
CONTINUOUS
 10
2622.8153940000002
 20
5664.0463280000013
 30
0.0
 11
2622.8153940000002
 21
6139.0463280000004
 31
0.0
  0
LINE
  5
7ADD
  8
2
  6
CENTER
 10
4693.7955369999991
 20
4068.489235
 30
0.0
 11
4693.7955369999991
 21
2413.8834120000001
 31
0.0
  0
LINE
  5
7ADE
  8
2
  6
CENTER
 10
1076.971585999999
 20
5901.5463280000013
 30
0.0
 11
2748.8181929999992
 21
5901.5463280000013
 31
0.0
  0
LINE
  5
7ADF
  8
2
  6
CENTER
 10
2177.8153940000002
 20
4063.094846
 30
0.0
 11
2177.8153940000002
 21
2350.0412230000002
 31
0.0
  0
LINE
  5
7AE0
  8
2
  6
CENTER
 10
2833.640613
 20
3526.3674150000002
 30
0.0
 11
1429.2687370000001
 21
3526.3674150000002
 31
0.0
  0
LINE
  5
7AE2
  8
4
  6
CONTINUOUS
 10
5550.0
 20
1500.0
 30
0.0
 11
5550.0
 21
900.0
 31
0.0
  0
LINE
  5
7AE3
  8
4
  6
CONTINUOUS
 10
3450.0
 20
1500.0
 30
0.0
 11
3450.0
 21
900.0
 31
0.0
  0
LINE
  5
7AE4
  8
4
  6
CONTINUOUS
 10
1950.0
 20
1500.0
 30
0.0
 11
1950.0
 21
900.0
 31
0.0
  0
LINE
  5
7AE7
  8
4
  6
CONTINUOUS
 10
1950.0
 20
900.0
 30
0.0
 11
5550.0
 21
900.0
 31
0.0
  0
LINE
  5
7AE8
  8
4
  6
CONTINUOUS
 10
1950.0
 20
1200.0
 30
0.0
 11
5550.0
 21
1200.0
 31
0.0
  0
TEXT
  5
7AE9
  8
4
  6
CONTINUOUS
 10
2065.5062429999989
 20
1294.6290779999999
 30
0.0
 40
150.0
  1
機器名称
  0
TEXT
  5
7AEA
  8
4
  6
CONTINUOUS
 10
2058.7743179999989
 20
964.9354699999999
 30
0.0
 40
150.0
  1
機器型番
  0
TEXT
  5
7AEB
  8
4
  6
CONTINUOUS
 10
3533.0362359999999
 20
1267.7153069999999
 30
0.0
 40
150.0
  1
ミツヤ多翼送風機
  0
TEXT
  5
7AEC
  8
4
  6
CONTINUOUS
 10
3559.9634869999991
 20
951.47875299999987
 30
0.0
 40
150.0
  1
MFE#4-4
  0
TEXT
  5
7AEE
  8
4
  6
CONTINUOUS
 10
2326.1751570000001
 20
7150.2865239999992
 30
0.0
 40
162.0
  1
床置防振ベット
  0
TEXT
  5
7AEF
  8
4
  6
CONTINUOUS
 10
948.50278000000014
 20
7601.6429289999996
 30
0.0
 40
216.0
  1
ベルト駆動式片吸込両持排煙ファン
  0
LINE
  5
7AF0
  8
4
  6
CONTINUOUS
 10
750.0
 20
7408.2262629999996
 30
0.0
 11
5550.0
 21
7408.2262629999996
 31
0.0
  0
LINE
  5
7AF1
  8
4
  6
CONTINUOUS
 10
750.0
 20
8008.2262629999996
 30
0.0
 11
5550.0
 21
8008.2262629999996
 31
0.0
  0
LINE
  5
7AF2
  8
4
  6
CONTINUOUS
 10
1950.0
 20
1500.0
 30
0.0
 11
5550.0
 21
1500.0
 31
0.0
  0
LINE
  5
7AF3
  8
4
  6
CONTINUOUS
 10
750.0
 20
8008.2262629999996
 30
0.0
 11
750.0
 21
7408.2262629999996
 31
0.0
  0
TEXT
  5
7AF4
  8
4
  6
CONTINUOUS
 10
1018.598661
 20
7146.9584329999998
 30
0.0
 40
162.0
  1
左回転右横向
  0
TEXT
  5
7AF5
  8
4
  6
CONTINUOUS
 10
4406.9086779999989
 20
8118.1832439999989
 30
0.0
 40
168.0
  1
No.
  0
TEXT
  5
7AF6
  8
4
  6
CONTINUOUS
 10
3933.8881879999999
 20
7150.2865239999992
 30
0.0
 40
162.0
  1
縮尺：1/30
  0
LINE
  5
7AF7
  8
4
  6
CONTINUOUS
 10
5550.0
 20
8008.2262629999996
 30
0.0
 11
5550.0
 21
7408.2262629999996
 31
0.0
  0
LINE
  5
7AF9
  8
4
  6
CONTINUOUS
 10
4321.8522670000002
 20
8043.7907490000007
 30
0.0
 11
4321.8522670000002
 21
8359.9567849999985
 31
0.0
  0
LINE
  5
7AFA
  8
4
  6
CONTINUOUS
 10
4321.8522670000002
 20
8359.9567849999985
 30
0.0
 11
5550.0
 21
8359.9567849999985
 31
0.0
  0
LINE
  5
7AFB
  8
4
  6
CONTINUOUS
 10
5550.0
 20
8359.9567849999985
 30
0.0
 11
5550.0
 21
8043.7907490000007
 31
0.0
  0
LINE
  5
7AFC
  8
4
  6
CONTINUOUS
 10
5550.0
 20
8043.7907490000007
 30
0.0
 11
4321.8522670000002
 21
8043.7907490000007
 31
0.0
  0
DIMENSION
  5
7B14
  8
3
  6
CONTINUOUS
  2
*D1
 10
2855.1360640000012
 20
2906.3674150000002
 30
0.0
 11
2855.1360639999998
 21
3220.7370139999998
 31
0.0
 70
   128
 13
2662.8153940000002
 23
3556.3674149999988
 33
0.0
 14
2662.8153940000002
 24
2906.3674150000002
 34
0.0
 50
90.0
1001
ACAD
1000
DSTYLE
1002
{
1070
   287
1070
     3
1070
   287
1070
     3
1070
    40
1040
30.0
1070
   143
1040
0.039
1070
   172
1070
     1
1070
   271
1070
     0
1070
   279
1070
     0
1070
   288
1070
     1
1002
}
  0
DIMENSION
  5
7B21
  8
3
  6
CONTINUOUS
  2
*D2
 10
3047.4605630000001
 20
2906.3674150000002
 30
0.0
 11
3047.4605630000001
 21
3226.074376999999
 31
0.0
 70
   128
 13
2801.320835
 23
3526.3674150000002
 33
0.0
 14
2662.8153940000002
 24
2906.3674150000002
 34
0.0
 50
90.0
1001
ACAD
1000
DSTYLE
1002
{
1070
   287
1070
     3
1070
   287
1070
     3
1070
    40
1040
30.0
1070
   143
1040
0.039
1070
   172
1070
     1
1070
   271
1070
     0
1070
   279
1070
     0
1070
   288
1070
     1
1002
}
  0
DIMENSION
  5
7B3A
  8
3
  6
CONTINUOUS
  2
*D3
 10
3234.4426989999988
 20
2726.3674149999988
 30
0.0
 11
3159.4426989999988
 21
3126.3674150000002
 31
0.0
 70
     0
 13
2801.320835
 23
3526.3674150000002
 33
0.0
 14
2607.8153940000002
 24
2726.3674149999988
 34
0.0
 50
90.0
1001
ACAD
1000
DSTYLE
1002
{
1070
   287
1070
     4
1070
   287
1070
     4
1070
    40
1040
30.0
1070
    75
1070
     1
1070
   143
1040
0.039
1070
   172
1070
     1
1070
   271
1070
     0
1070
   279
1070
     1
1070
   288
1070
     1
1002
}
  0
DIMENSION
  5
7B4A
  8
3
  6
CONTINUOUS
  2
*D4
 10
3236.1025709999999
 20
2600.3674149999988
 30
0.0
 11
3236.102570999999
 21
2345.3674150000002
 31
0.0
 70
   128
 13
2607.8153940000002
 23
2726.3674149999988
 33
0.0
 14
2607.8153940000002
 24
2600.3674150000002
 34
0.0
 50
90.0
1001
ACAD
1000
DSTYLE
1002
{
1070
   287
1070
     3
1070
   287
1070
     3
1070
    40
1040
30.0
1070
   143
1040
0.039
1070
   172
1070
     1
1070
   271
1070
     0
1070
   279
1070
     0
1070
   288
1070
     1
1002
}
  0
DIMENSION
  5
7B64
  8
3
  6
CONTINUOUS
  2
*D5
 10
2177.8153940000002
 20
4171.1987909999998
 30
0.0
 11
2417.0636249999989
 21
4171.1987909999998
 31
0.0
 70
   128
 13
2662.8153940000002
 23
3596.3674149999988
 33
0.0
 14
2177.8153940000002
 24
4063.094846
 34
0.0
1001
ACAD
1000
DSTYLE
1002
{
1070
   287
1070
     3
1070
   287
1070
     3
1070
    40
1040
30.0
1070
   143
1040
0.039
1070
   172
1070
     1
1070
   271
1070
     0
1070
   279
1070
     0
1070
   288
1070
     1
1002
}
  0
DIMENSION
  5
7B8D
  8
3
  6
CONTINUOUS
  2
*D6
 10
2177.8153940000002
 20
2344.7706549999998
 30
0.0
 11
1727.9009199999989
 21
2344.7706549999998
 31
0.0
 70
   128
 13
1197.815394
 23
2600.3674150000002
 33
0.0
 14
2177.8153940000002
 24
2350.0412230000002
 34
0.0
1001
ACAD
1000
DSTYLE
1002
{
1070
   287
1070
     3
1070
   287
1070
     3
1070
    40
1040
30.0
1070
   143
1040
0.039
1070
   172
1070
     1
1070
   271
1070
     0
1070
   279
1070
     0
1070
   288
1070
     1
1002
}
  0
DIMENSION
  5
7B99
  8
3
  6
CONTINUOUS
  2
*D7
 10
2607.8153940000002
 20
2344.7706549999998
 30
0.0
 11
2392.8153940000002
 21
2419.7706549999998
 31
0.0
 70
     0
 13
2177.8153940000002
 23
2350.0412230000002
 33
0.0
 14
2607.8153940000002
 24
2600.3674150000002
 34
0.0
1001
ACAD
1000
DSTYLE
1002
{
1070
   287
1070
     4
1070
   287
1070
     4
1070
    40
1040
30.0
1070
    75
1070
     1
1070
   143
1040
0.039
1070
   172
1070
     1
1070
   271
1070
     0
1070
   279
1070
     1
1070
   288
1070
     1
1002
}
  0
DIMENSION
  5
7BA6
  8
3
  6
CONTINUOUS
  2
*D8
 10
4456.2955369999991
 20
4053.3667060000012
 30
0.0
 11
4725.5812519999999
 21
4053.3667060000012
 31
0.0
 70
   128
 13
4931.295537
 23
3979.621862
 33
0.0
 14
4456.2955369999991
 24
3979.621862
 34
0.0
1001
ACAD
1000
DSTYLE
1002
{
1070
   287
1070
     3
1070
   287
1070
     3
1070
    40
1040
30.0
1070
   143
1040
0.039
1070
   172
1070
     1
1070
   271
1070
     0
1070
   279
1070
     0
1070
   288
1070
     1
1002
}
  0
LINE
  5
7BA9
  8
1
  6
CONTINUOUS
 10
4934.795537
 20
3191.3674150000002
 30
0.0
 11
4934.795537
 21
3861.3674150000002
 31
0.0
  0
DIMENSION
  5
7BB6
  8
3
  6
CONTINUOUS
  2
*D9
 10
5193.3855040000008
 20
3191.3674149999988
 30
0.0
 11
5193.3855039999999
 21
3540.9792060000009
 31
0.0
 70
   128
 13
4934.795537
 23
3861.3674150000002
 33
0.0
 14
4934.795537
 24
3191.3674150000002
 34
0.0
 50
90.0
1001
ACAD
1000
DSTYLE
1002
{
1070
   287
1070
     3
1070
   287
1070
     3
1070
     3
1000
φ<>
1070
    40
1040
30.0
1070
   143
1040
0.039
1070
   172
1070
     1
1070
   271
1070
     0
1070
   279
1070
     0
1070
   288
1070
     1
1002
}
  0
DIMENSION
  5
7BD0
  8
3
  6
CONTINUOUS
  2
*D10
 10
4213.795537
 20
4248.3585071591197
 30
0.0
 11
4453.795537
 21
4398.3585071591197
 31
0.0
 70
     0
  1
MAX\P530
 13
4693.7955369999991
 23
4227.457327159118
 33
0.0
 14
4213.795537
 24
3826.3674149999988
 34
0.0
1001
ACAD
1000
DSTYLE
1002
{
1070
   287
1070
     4
1070
   287
1070
     4
1070
    40
1040
30.0
1070
    75
1070
     1
1070
   143
1040
0.039
1070
   172
1070
     1
1070
   271
1070
     0
1070
   279
1070
     1
1070
   288
1070
     1
1002
}
  0
DIMENSION
  5
7BDD
  8
3
  6
CONTINUOUS
  2
*D11
 10
4693.7955369999991
 20
2382.0482849999999
 30
0.0
 11
4460.6526800000001
 21
2382.0482849999999
 31
0.0
 70
   128
 13
4282.795537
 23
2600.3674150000002
 33
0.0
 14
4693.7955369999991
 24
2413.8834120000001
 34
0.0
1001
ACAD
1000
DSTYLE
1002
{
1070
   287
1070
     3
1070
   287
1070
     3
1070
    40
1040
30.0
1070
   143
1040
0.039
1070
   172
1070
     1
1070
   271
1070
     0
1070
   279
1070
     0
1070
   288
1070
     1
1002
}
  0
DIMENSION
  5
7BEB
  8
3
  6
CONTINUOUS
  2
*D12
 10
4982.795537
 20
2382.0482849999999
 30
0.0
 11
4851.6320429999996
 21
2381.8696239999999
 31
0.0
 70
   128
 13
4693.7955369999991
 23
2413.8834120000001
 33
0.0
 14
4982.795537
 24
2600.3674150000002
 34
0.0
1001
ACAD
1000
DSTYLE
1002
{
1070
   287
1070
     4
1070
   287
1070
     4
1070
    40
1040
30.0
1070
    75
1070
     1
1070
   143
1040
0.039
1070
   172
1070
     1
1070
   271
1070
     0
1070
   279
1070
     1
1070
   288
1070
     1
1002
}
  0
DIMENSION
  5
7C0E
  8
3
  6
CONTINUOUS
  2
*D13
 10
2607.8153940000002
 20
6330.0915159999986
 30
0.0
 11
1894.0427279999999
 21
6330.0915159999986
 31
0.0
 70
   128
 13
1197.815394
 23
6190.5463280000004
 33
0.0
 14
2607.8153940000002
 24
6190.5463280000004
 34
0.0
1001
ACAD
1000
DSTYLE
1002
{
1070
   287
1070
     3
1070
   287
1070
     3
1070
    40
1040
30.0
1070
   143
1040
0.039
1070
   172
1070
     1
1070
   271
1070
     0
1070
   279
1070
     0
1070
   288
1070
     1
1002
}
  0
DIMENSION
  5
7C1B
  8
3
  6
CONTINUOUS
  2
*D14
 10
2903.7462650000002
 20
5490.5463280000004
 30
0.0
 11
2903.7462650000002
 21
5871.0777119999993
 31
0.0
 70
   128
 13
2607.8153940000002
 23
6190.5463280000004
 33
0.0
 14
2607.8153940000002
 24
5490.5463280000004
 34
0.0
 50
90.0
1001
ACAD
1000
DSTYLE
1002
{
1070
   287
1070
     3
1070
   287
1070
     3
1070
    40
1040
30.0
1070
   143
1040
0.039
1070
   172
1070
     1
1070
   271
1070
     0
1070
   279
1070
     0
1070
   288
1070
     1
1002
}
  0
DIMENSION
  5
7C7B
  8
3
  6
CONTINUOUS
  2
*D15
 10
3234.4426989999988
 20
3978.3657774359272
 30
0.0
 11
3159.4426989999988
 21
3752.3665962179639
 31
0.0
 70
     0
 13
2801.320835
 23
3526.3674150000002
 33
0.0
 14
2177.8153940000002
 24
3978.3657774359281
 34
0.0
 50
90.0
1001
ACAD
1000
DSTYLE
1002
{
1070
   287
1070
     3
1070
   287
1070
     3
1070
    40
1040
30.0
1070
   143
1040
0.039
1070
   172
1070
     1
1070
   271
1070
     0
1070
   279
1070
     0
1070
   288
1070
     1
1002
}
  0
DIMENSION
  5
7C87
  8
3
  6
CONTINUOUS
  2
*D16
 10
1655.815394
 20
4171.1987909999998
 30
0.0
 11
1916.815394
 21
4246.1987909999998
 31
0.0
 70
     0
 13
2177.8153940000002
 23
4063.094846
 33
0.0
 14
1655.815394
 24
3526.3674150000002
 34
0.0
1001
ACAD
1000
DSTYLE
1002
{
1070
   287
1070
     4
1070
   287
1070
     4
1070
    40
1040
30.0
1070
    75
1070
     1
1070
   143
1040
0.039
1070
   172
1070
     1
1070
   271
1070
     0
1070
   279
1070
     1
1070
   288
1070
     1
1002
}
  0
DIMENSION
  5
7CCC
  8
3
  6
CONTINUOUS
  2
*D17
 10
4934.795537
 20
4248.3585071591197
 30
0.0
 11
4819.1769154987041
 21
4322.6493823874234
 31
0.0
 70
   128
 13
4693.7955369999991
 23
4197.6983655191716
 33
0.0
 14
4934.795537
 24
3861.3674150000002
 34
0.0
1001
ACAD
1000
DSTYLE
1002
{
1070
   288
1070
     1
1070
   172
1070
     1
1070
    40
1040
30.0
1070
   271
1070
     0
1070
   143
1040
0.039
1002
}
  0
DIMENSION
  5
7DA8
  8
3
  2
*D18
 10
1197.815394
 20
4332.3255891973022
 30
0.0
 11
1925.937054064477
 21
4332.3255891973022
 31
0.0
 70
   128
 13
2662.8153940000002
 23
3596.3674149999988
 33
0.0
 14
1197.815394
 24
2826.3674149999988
 34
0.0
1001
ACAD
1000
DSTYLE
1002
{
1070
   287
1070
     3
1070
   287
1070
     3
1070
    40
1040
30.0
1070
   143
1040
0.039
1070
   172
1070
     1
1070
   271
1070
     0
1070
   279
1070
     0
1070
   288
1070
     1
1002
}
  0
LINE
  5
7E9B
  8
1
  6
CONTINUOUS
 10
2587.8153940000002
 20
3646.3674150000002
 30
0.0
 11
1767.815394
 21
3646.3674149999988
 31
0.0
  0
LINE
  5
7E9C
  8
1
 10
1767.815394
 20
3646.3674149999988
 30
0.0
 11
1767.815394
 21
2826.3674149999988
 31
0.0
  0
LINE
  5
7E9D
  8
1
 10
2587.8153940000002
 20
3646.3674150000002
 30
0.0
 11
2587.8153940000002
 21
2826.3674149999988
 31
0.0
  0
ENDSEC
  0
EOF
