  0
SECTION
  2
HEADER
  9
$ACADVER
  1
AC1009
  9
$INSBASE
 10
0.0
 20
0.0
 30
0.0
  9
$EXTMIN
 10
750.0
 20
900.0
 30
0.0
  9
$EXTMAX
 10
5550.0
 20
8359.9567849999985
 30
0.0
  9
$LIMMIN
 10
0.0
 20
0.0
  9
$LIMMAX
 10
297.0
 20
210.0
  9
$ORTHOMODE
 70
     0
  9
$REGENMODE
 70
     1
  9
$FILLMODE
 70
     0
  9
$QTEXTMODE
 70
     0
  9
$MIRRTEXT
 70
     1
  9
$DRAGMODE
 70
     2
  9
$LTSCALE
 40
100.0
  9
$OSMODE
 70
    37
  9
$ATTMODE
 70
     1
  9
$TEXTSIZE
 40
180.0
  9
$TRACEWID
 40
0.05
  9
$TEXTSTYLE
  7
STANDARD
  9
$CLAYER
  8
3
  9
$CELTYPE
  6
BYLAYER
  9
$CECOLOR
 62
   256
  9
$DIMSCALE
 40
30.0
  9
$DIMASZ
 40
2.0
  9
$DIMEXO
 40
0.5
  9
$DIMDLI
 40
10.0
  9
$DIMRND
 40
0.0
  9
$DIMDLE
 40
0.0
  9
$DIMEXE
 40
1.0
  9
$DIMTP
 40
1.0
  9
$DIMTM
 40
1.0
  9
$DIMTXT
 40
3.0
  9
$DIMCEN
 40
0.0
  9
$DIMTSZ
 40
0.0
  9
$DIMTOL
 70
     0
  9
$DIMLIM
 70
     0
  9
$DIMTIH
 70
     0
  9
$DIMTOH
 70
     0
  9
$DIMSE1
 70
     0
  9
$DIMSE2
 70
     0
  9
$DIMTAD
 70
     1
  9
$DIMZIN
 70
     8
  9
$DIMBLK
  1

  9
$DIMASO
 70
     1
  9
$DIMSHO
 70
     1
  9
$DIMPOST
  1

  9
$DIMAPOST
  1

  9
$DIMALT
 70
     0
  9
$DIMALTD
 70
     2
  9
$DIMALTF
 40
0.039
  9
$DIMLFAC
 40
1.0
  9
$DIMTOFL
 70
     1
  9
$DIMTVP
 40
0.0
  9
$DIMTIX
 70
     0
  9
$DIMSOXD
 70
     0
  9
$DIMSAH
 70
     1
  9
$DIMBLK1
  1
OPEN
  9
$DIMBLK2
  1
OPEN
  9
$DIMSTYLE
  2
IGA
  9
$DIMCLRD
 70
     0
  9
$DIMCLRE
 70
     0
  9
$DIMCLRT
 70
     0
  9
$DIMTFAC
 40
10.0
  9
$DIMGAP
 40
1.0
  9
$LUNITS
 70
     2
  9
$LUPREC
 70
     3
  9
$SKETCHINC
 40
0.1
  9
$FILLETRAD
 40
50.0
  9
$AUNITS
 70
     0
  9
$AUPREC
 70
     0
  9
$MENU
  1
acad
  9
$ELEVATION
 40
0.0
  9
$PELEVATION
 40
0.0
  9
$THICKNESS
 40
0.0
  9
$LIMCHECK
 70
     0
  9
$BLIPMODE
 70
     0
  9
$CHAMFERA
 40
0.5
  9
$CHAMFERB
 40
0.5
  9
$SKPOLY
 70
     0
  9
$TDCREATE
 40
2450738.5595056708
  9
$TDUPDATE
 40
2454953.8381701042
  9
$TDINDWG
 40
0.0119102431
  9
$TDUSRTIMER
 40
0.0119102431
  9
$USRTIMER
 70
     1
  9
$ANGBASE
 50
0.0
  9
$ANGDIR
 70
     0
  9
$PDMODE
 70
     0
  9
$PDSIZE
 40
0.0
  9
$PLINEWID
 40
0.0
  9
$COORDS
 70
     1
  9
$SPLFRAME
 70
     0
  9
$SPLINETYPE
 70
     6
  9
$SPLINESEGS
 70
     8
  9
$ATTDIA
 70
     0
  9
$ATTREQ
 70
     1
  9
$HANDLING
 70
 10241
  9
$HANDSEED
  5
800E
  9
$SURFTAB1
 70
     6
  9
$SURFTAB2
 70
     6
  9
$SURFTYPE
 70
     6
  9
$SURFU
 70
     6
  9
$SURFV
 70
     6
  9
$UCSNAME
  2

  9
$UCSORG
 10
0.0
 20
0.0
 30
0.0
  9
$UCSXDIR
 10
1.0
 20
0.0
 30
0.0
  9
$UCSYDIR
 10
0.0
 20
1.0
 30
0.0
  9
$PUCSNAME
  2

  9
$PUCSORG
 10
0.0
 20
0.0
 30
0.0
  9
$PUCSXDIR
 10
1.0
 20
0.0
 30
0.0
  9
$PUCSYDIR
 10
0.0
 20
1.0
 30
0.0
  9
$USERI1
 70
     0
  9
$USERI2
 70
     0
  9
$USERI3
 70
     0
  9
$USERI4
 70
     0
  9
$USERI5
 70
     0
  9
$USERR1
 40
0.0
  9
$USERR2
 40
0.0
  9
$USERR3
 40
0.0
  9
$USERR4
 40
0.0
  9
$USERR5
 40
0.0
  9
$WORLDVIEW
 70
     1
  9
$SHADEDGE
 70
     3
  9
$SHADEDIF
 70
    70
  9
$TILEMODE
 70
     1
  9
$MAXACTVP
 70
    16
  9
$PLIMCHECK
 70
     0
  9
$PEXTMIN
 10
1.0000000000000000E+020
 20
1.0000000000000000E+020
 30
1.0000000000000000E+020
  9
$PEXTMAX
 10
-1.0000000000000000E+020
 20
-1.0000000000000000E+020
 30
-1.0000000000000000E+020
  9
$PLIMMIN
 10
0.0
 20
0.0
  9
$PLIMMAX
 10
12.0
 20
9.0
  9
$UNITMODE
 70
     0
  9
$VISRETAIN
 70
     0
  9
$PLINEGEN
 70
     0
  9
$PSLTSCALE
 70
     1
  0
ENDSEC
  0
SECTION
  2
TABLES
  0
TABLE
  2
VPORT
 70
     2
  0
VPORT
  2
*ACTIVE
 70
     0
 10
0.0
 20
0.0
 11
1.0
 21
1.0
 12
3085.186328809421
 22
4592.3908388242507
 13
0.0
 23
0.0
 14
10.0
 24
10.0
 15
10.0
 25
10.0
 16
0.0
 26
0.0
 36
1.0
 17
0.0
 27
0.0
 37
0.0
 40
9063.6721298111788
 41
1.5051150895140659
 42
50.0
 43
0.0
 44
0.0
 50
0.0
 51
0.0
 71
     0
 72
   100
 73
     1
 74
     0
 75
     0
 76
     0
 77
     0
 78
     0
  0
ENDTAB
  0
TABLE
  2
LTYPE
 70
     2
  0
LTYPE
  2
CONTINUOUS
 70
     0
  3
Solid line
 72
    65
 73
     0
 40
0.0
  0
LTYPE
  2
CENTER
 70
     0
  3
____ _ ____ _ ____ _ ____ _ ____ _ ____ _ ____ 
 72
    65
 73
     4
 40
2.0
 49
1.25
 49
-0.25
 49
0.25
 49
-0.25
  0
ENDTAB
  0
TABLE
  2
LAYER
 70
     6
  0
LAYER
  2
0
 70
     0
 62
     7
  6
CONTINUOUS
  0
LAYER
  2
3
 70
     0
 62
     2
  6
CONTINUOUS
  0
LAYER
  2
2
 70
     0
 62
     3
  6
CENTER
  0
LAYER
  2
1
 70
     0
 62
     4
  6
CONTINUOUS
  0
LAYER
  2
4
 70
     0
 62
     7
  6
CONTINUOUS
  0
LAYER
  2
DEFPOINTS
 70
     0
 62
     7
  6
CONTINUOUS
  0
ENDTAB
  0
TABLE
  2
STYLE
 70
     1
  0
STYLE
  2
STANDARD
 70
     0
 40
0.0
 41
1.0
 50
0.0
 71
     0
 42
180.0
  3
simplex.shx
  4
extfont.shx
  0
ENDTAB
  0
TABLE
  2
VIEW
 70
     0
  0
ENDTAB
  0
TABLE
  2
UCS
 70
     0
  0
ENDTAB
  0
TABLE
  2
APPID
 70
     1
  0
APPID
  2
ACAD
 70
     0
  0
ENDTAB
  0
TABLE
  2
DIMSTYLE
 70
     1
  0
DIMSTYLE
  2
IGA
 70
     0
  3

  4

  5

  6
OPEN
  7
OPEN
 40
2.0
 41
2.0
 42
0.5
 43
10.0
 44
1.0
 45
0.0
 46
0.0
 47
1.0
 48
1.0
140
3.0
141
0.0
142
0.0
143
0.03937
144
1.0
145
0.0
146
10.0
147
1.0
 71
     0
 72
     0
 73
     0
 74
     0
 75
     0
 76
     0
 77
     1
 78
     8
170
     0
171
     2
172
     0
173
     1
174
     0
175
     0
176
     0
177
     0
178
     0
  0
ENDTAB
  0
ENDSEC
  0
SECTION
  2
BLOCKS
  0
BLOCK
  8
0
  2
$MODEL_SPACE
 70
     0
 10
0.0
 20
0.0
 30
0.0
  3
$MODEL_SPACE
  1

  0
ENDBLK
  5
1B
  8
0
  0
BLOCK
 67
     1
  8
0
  2
$PAPER_SPACE
 70
     0
 10
0.0
 20
0.0
 30
0.0
  3
$PAPER_SPACE
  1

  0
ENDBLK
  5
18
 67
     1
  8
0
  0
BLOCK
  8
0
  2
_OPEN
 70
     0
 10
0.0
 20
0.0
 30
0.0
  3
_OPEN
  1

  0
LINE
  5
7BAE
  8
0
  6
BYBLOCK
 62
     0
 10
-1.0
 20
0.166667
 30
0.0
 11
0.0
 21
0.0
 31
0.0
  0
LINE
  5
7BAF
  8
0
  6
BYBLOCK
 62
     0
 10
0.0
 20
0.0
 30
0.0
 11
-1.0
 21
-0.166667
 31
0.0
  0
LINE
  5
7BB0
  8
0
  6
BYBLOCK
 62
     0
 10
0.0
 20
0.0
 30
0.0
 11
-1.0
 21
0.0
 31
0.0
  0
ENDBLK
  5
7BB1
  8
0
  0
BLOCK
  8
0
  2
*D1
 70
     1
 10
0.0
 20
0.0
 30
0.0
  3
*D1
  1

  0
LINE
  5
7F61
  8
3
  6
CONTINUOUS
 62
     0
 10
1571.095151999999
 20
3942.9540109999989
 30
0.0
 11
1403.703289
 21
3942.9540109999989
 31
0.0
  0
LINE
  5
7F62
  8
3
  6
CONTINUOUS
 62
     0
 10
1571.095151999999
 20
3292.9540109999989
 30
0.0
 11
1403.703289
 21
3292.9540109999989
 31
0.0
  0
LINE
  5
7F63
  8
3
  6
CONTINUOUS
 62
     0
 10
1433.703289
 20
3882.9540109999989
 30
0.0
 11
1433.703289
 21
3352.9540109999998
 31
0.0
  0
INSERT
  5
7F64
  8
3
  6
CONTINUOUS
 62
     0
  2
_OPEN
 10
1433.703289
 20
3942.9540109999989
 30
0.0
 41
60.0
 42
60.0
 43
60.0
 50
90.0
  0
INSERT
  5
7F65
  8
3
  6
CONTINUOUS
 62
     0
  2
_OPEN
 10
1433.703289
 20
3292.9540109999989
 30
0.0
 41
60.0
 42
60.0
 43
60.0
 50
270.0
  0
TEXT
  8
3
  40
90
  5
7FFC
  62
0
  72
0
  71
0
 10
1178.70
 20
3451.38
 30
0.000000
  1
650
  0
POINT
  5
7F67
  8
DEFPOINTS
  6
CONTINUOUS
 62
     0
 10
1586.095151999999
 20
3942.9540109999989
 30
0.0
  0
POINT
  5
7F68
  8
DEFPOINTS
  6
CONTINUOUS
 62
     0
 10
1586.095151999999
 20
3292.9540109999989
 30
0.0
  0
POINT
  5
7F69
  8
DEFPOINTS
  6
CONTINUOUS
 62
     0
 10
1433.703289
 20
3292.9540109999989
 30
0.0
  0
ENDBLK
  5
7BBE
  8
0
  0
BLOCK
  8
0
  2
*D2
 70
     1
 10
0.0
 20
0.0
 30
0.0
  3
*D2
  1

  0
LINE
  5
7F6A
  8
3
  6
CONTINUOUS
 62
     0
 10
1571.095151999999
 20
3942.9540109999989
 30
0.0
 11
1209.698118
 21
3942.9540109999989
 31
0.0
  0
LINE
  5
7F6B
  8
3
  6
CONTINUOUS
 62
     0
 10
1450.2542410000001
 20
3322.9540109999998
 30
0.0
 11
1209.698118
 21
3322.9540109999998
 31
0.0
  0
LINE
  5
7F6C
  8
3
  6
CONTINUOUS
 62
     0
 10
1239.698118
 20
3882.9540109999989
 30
0.0
 11
1239.698118
 21
3382.9540109999989
 31
0.0
  0
INSERT
  5
7F6D
  8
3
  6
CONTINUOUS
 62
     0
  2
_OPEN
 10
1239.698118
 20
3942.9540109999989
 30
0.0
 41
60.0
 42
60.0
 43
60.0
 50
90.0
  0
INSERT
  5
7F6E
  8
3
  6
CONTINUOUS
 62
     0
  2
_OPEN
 10
1239.698118
 20
3322.9540109999998
 30
0.0
 41
60.0
 42
60.0
 43
60.0
 50
270.0
  0
TEXT
  8
3
  40
90
  5
7FFD
  62
0
  72
0
  71
0
 10
984.698
 20
3458.07
 30
0.000000
  1
620
  0
POINT
  5
7F70
  8
DEFPOINTS
  6
CONTINUOUS
 62
     0
 10
1586.095151999999
 20
3942.9540109999989
 30
0.0
  0
POINT
  5
7F71
  8
DEFPOINTS
  6
CONTINUOUS
 62
     0
 10
1465.2542410000001
 20
3322.9540109999998
 30
0.0
  0
POINT
  5
7F72
  8
DEFPOINTS
  6
CONTINUOUS
 62
     0
 10
1239.698118
 20
3322.9540109999998
 30
0.0
  0
ENDBLK
  5
7BCB
  8
0
  0
BLOCK
  8
0
  2
*D3
 70
     1
 10
0.0
 20
0.0
 30
0.0
  3
*D3
  1

  0
LINE
  5
7F73
  8
3
  6
CONTINUOUS
 62
     0
 10
1626.095151999999
 20
2752.9540109999989
 30
0.0
 11
1209.698118
 21
2752.9540109999989
 31
0.0
  0
LINE
  5
7F74
  8
3
  6
CONTINUOUS
 62
     0
 10
1239.698118
 20
3262.9540109999998
 30
0.0
 11
1239.698118
 21
2812.9540109999998
 31
0.0
  0
INSERT
  5
7F75
  8
3
  6
CONTINUOUS
 62
     0
  2
_OPEN
 10
1239.698118
 20
3322.9540109999998
 30
0.0
 41
60.0
 42
60.0
 43
60.0
 50
90.0
  0
INSERT
  5
7F76
  8
3
  6
CONTINUOUS
 62
     0
  2
_OPEN
 10
1239.698118
 20
2752.9540109999989
 30
0.0
 41
60.0
 42
60.0
 43
60.0
 50
270.0
  0
TEXT
  8
3
  40
90
  5
7FFE
  62
0
  72
0
  71
0
 10
984.698
 20
2878.65
 30
0.000000
  1
570
  0
POINT
  5
7F78
  8
DEFPOINTS
  6
CONTINUOUS
 62
     0
 10
1465.2542410000001
 20
3322.9540109999998
 30
0.0
  0
POINT
  5
7F79
  8
DEFPOINTS
  6
CONTINUOUS
 62
     0
 10
1641.095151999999
 20
2752.9540109999989
 30
0.0
  0
POINT
  5
7F7A
  8
DEFPOINTS
  6
CONTINUOUS
 62
     0
 10
1239.698118
 20
2752.9540109999989
 30
0.0
  0
ENDBLK
  5
7BD7
  8
0
  0
BLOCK
  8
0
  2
*D4
 70
     1
 10
0.0
 20
0.0
 30
0.0
  3
*D4
  1

  0
LINE
  5
7F7B
  8
3
  6
CONTINUOUS
 62
     0
 10
1626.095151999999
 20
2752.9540109999989
 30
0.0
 11
1208.8729559999999
 21
2752.9540109999989
 31
0.0
  0
LINE
  5
7F7C
  8
3
  6
CONTINUOUS
 62
     0
 10
1626.095151999999
 20
2626.9540109999998
 30
0.0
 11
1208.8729559999999
 21
2626.9540109999998
 31
0.0
  0
LINE
  5
7F7D
  8
3
  6
CONTINUOUS
 62
     0
 10
1238.8729559999999
 20
2812.9540109999998
 30
0.0
 11
1238.8729559999999
 21
2872.9540109999998
 31
0.0
  0
LINE
  5
7F7E
  8
3
  6
CONTINUOUS
 62
     0
 10
1238.8729559999999
 20
2566.9540109999989
 30
0.0
 11
1238.8729559999999
 21
2236.9540109999989
 31
0.0
  0
LINE
  5
7F7F
  8
3
  6
CONTINUOUS
 62
     0
 10
1238.8729559999999
 20
2752.9540109999989
 30
0.0
 11
1238.8729559999999
 21
2626.9540109999998
 31
0.0
  0
INSERT
  5
7F80
  8
3
  6
CONTINUOUS
 62
     0
  2
_OPEN
 10
1238.8729559999999
 20
2752.9540109999989
 30
0.0
 41
60.0
 42
60.0
 43
60.0
 50
270.0
  0
INSERT
  5
7F81
  8
3
  6
CONTINUOUS
 62
     0
  2
_OPEN
 10
1238.8729559999999
 20
2626.9540109999998
 30
0.0
 41
60.0
 42
60.0
 43
60.0
 50
90.0
  0
TEXT
  8
3
  40
90
  5
7FFF
  62
0
  72
0
  71
0
 10
983.873
 20
2212.65
 30
0.000000
  1
126
  0
POINT
  5
7F83
  8
DEFPOINTS
  6
CONTINUOUS
 62
     0
 10
1641.095151999999
 20
2752.9540109999989
 30
0.0
  0
POINT
  5
7F84
  8
DEFPOINTS
  6
CONTINUOUS
 62
     0
 10
1641.095151999999
 20
2626.9540109999998
 30
0.0
  0
POINT
  5
7F85
  8
DEFPOINTS
  6
CONTINUOUS
 62
     0
 10
1238.8729559999999
 20
2626.9540109999998
 30
0.0
  0
ENDBLK
  5
7DDF
  8
0
  0
BLOCK
  8
0
  2
*D5
 70
     1
 10
0.0
 20
0.0
 30
0.0
  3
*D5
  1

  0
LINE
  5
7F86
  8
3
  6
CONTINUOUS
 62
     0
 10
1571.095151999999
 20
3982.9540109999989
 30
0.0
 11
1032.18894
 21
3982.9540109999989
 31
0.0
  0
LINE
  5
7F87
  8
3
  6
CONTINUOUS
 62
     0
 10
1626.095151999999
 20
2626.9540109999998
 30
0.0
 11
1032.18894
 21
2626.9540109999998
 31
0.0
  0
LINE
  5
7F88
  8
3
  6
CONTINUOUS
 62
     0
 10
1062.18894
 20
3922.9540109999998
 30
0.0
 11
1062.18894
 21
2686.9540109999998
 31
0.0
  0
INSERT
  5
7F89
  8
3
  6
CONTINUOUS
 62
     0
  2
_OPEN
 10
1062.18894
 20
3982.9540109999989
 30
0.0
 41
60.0
 42
60.0
 43
60.0
 50
90.0
  0
INSERT
  5
7F8A
  8
3
  6
CONTINUOUS
 62
     0
  2
_OPEN
 10
1062.18894
 20
2626.9540109999998
 30
0.0
 41
60.0
 42
60.0
 43
60.0
 50
270.0
  0
TEXT
  8
3
  40
90
  5
8000
  62
0
  72
0
  71
0
 10
807.189
 20
3090.47
 30
0.000000
  1
1356
  0
POINT
  5
7F8C
  8
DEFPOINTS
  6
CONTINUOUS
 62
     0
 10
1586.095151999999
 20
3982.9540109999989
 30
0.0
  0
POINT
  5
7F8D
  8
DEFPOINTS
  6
CONTINUOUS
 62
     0
 10
1641.095151999999
 20
2626.9540109999998
 30
0.0
  0
POINT
  5
7F8E
  8
DEFPOINTS
  6
CONTINUOUS
 62
     0
 10
1062.18894
 20
2626.9540109999998
 30
0.0
  0
ENDBLK
  5
7D17
  8
0
  0
BLOCK
  8
0
  2
*D6
 70
     1
 10
0.0
 20
0.0
 30
0.0
  3
*D6
  1

  0
LINE
  5
7F8F
  8
3
  6
CONTINUOUS
 62
     0
 10
1586.095151999999
 20
3997.9540109999998
 30
0.0
 11
1586.095151999999
 21
4149.1780230000004
 31
0.0
  0
LINE
  5
7F90
  8
3
  6
CONTINUOUS
 62
     0
 10
2071.095151999999
 20
4115.8979009999994
 30
0.0
 11
2071.095151999999
 21
4149.1780230000004
 31
0.0
  0
LINE
  5
7F91
  8
3
  6
CONTINUOUS
 62
     0
 10
1646.0951520000001
 20
4119.1780229999986
 30
0.0
 11
2011.0951520000001
 21
4119.1780229999986
 31
0.0
  0
INSERT
  5
7F92
  8
3
  6
CONTINUOUS
 62
     0
  2
_OPEN
 10
1586.095151999999
 20
4119.1780229999986
 30
0.0
 41
60.0
 42
60.0
 43
60.0
 50
180.0
  0
INSERT
  5
7F93
  8
3
  6
CONTINUOUS
 62
     0
  2
_OPEN
 10
2071.095151999999
 20
4119.1780229999986
 30
0.0
 41
60.0
 42
60.0
 43
60.0
  0
TEXT
  8
3
  40
90
  5
8001
  62
0
  72
0
  71
0
 10
1648.40
 20
4034.88
 30
0.000000
  1
485
  0
POINT
  5
7F95
  8
DEFPOINTS
  6
CONTINUOUS
 62
     0
 10
1586.095151999999
 20
3982.9540109999989
 30
0.0
  0
POINT
  5
7F96
  8
DEFPOINTS
  6
CONTINUOUS
 62
     0
 10
2071.095151999999
 20
4100.8979009999994
 30
0.0
  0
POINT
  5
7F97
  8
DEFPOINTS
  6
CONTINUOUS
 62
     0
 10
2071.095151999999
 20
4119.1780229999986
 30
0.0
  0
ENDBLK
  5
7D4D
  8
0
  0
BLOCK
  8
0
  2
*D7
 70
     1
 10
0.0
 20
0.0
 30
0.0
  3
*D7
  1

  0
LINE
  5
7F98
  8
3
  6
CONTINUOUS
 62
     0
 10
1641.095151999999
 20
2611.9540109999989
 30
0.0
 11
1641.095151999999
 21
2353.1879730000001
 31
0.0
  0
LINE
  5
7F99
  8
3
  6
CONTINUOUS
 62
     0
 10
2071.095151999999
 20
2529.7936639999998
 30
0.0
 11
2071.095151999999
 21
2353.1879730000001
 31
0.0
  0
LINE
  5
7F9A
  8
3
  6
CONTINUOUS
 62
     0
 10
1701.095151999999
 20
2383.1879730000001
 30
0.0
 11
2011.0951520000001
 21
2383.1879730000001
 31
0.0
  0
INSERT
  5
7F9B
  8
3
  6
CONTINUOUS
 62
     0
  2
_OPEN
 10
1641.095151999999
 20
2383.1879730000001
 30
0.0
 41
60.0
 42
60.0
 43
60.0
 50
180.0
  0
INSERT
  5
7F9C
  8
3
  6
CONTINUOUS
 62
     0
  2
_OPEN
 10
2071.095151999999
 20
2383.1879730000001
 30
0.0
 41
60.0
 42
60.0
 43
60.0
  0
TEXT
  8
3
  40
90
  5
8002
  62
0
  72
0
  71
0
 10
1685.38
 20
2298.89
 30
0.000000
  1
430
  0
POINT
  5
7F9E
  8
DEFPOINTS
  6
CONTINUOUS
 62
     0
 10
1641.095151999999
 20
2626.9540109999998
 30
0.0
  0
POINT
  5
7F9F
  8
DEFPOINTS
  6
CONTINUOUS
 62
     0
 10
2071.095151999999
 20
2544.7936639999998
 30
0.0
  0
POINT
  5
7FA0
  8
DEFPOINTS
  6
CONTINUOUS
 62
     0
 10
2071.095151999999
 20
2383.1879730000001
 30
0.0
  0
ENDBLK
  5
7D38
  8
0
  0
BLOCK
  8
0
  2
*D8
 70
     1
 10
0.0
 20
0.0
 30
0.0
  3
*D8
  1

  0
LINE
  5
7FA1
  8
3
  6
CONTINUOUS
 62
     0
 10
3051.0951519999999
 20
2611.9540109999989
 30
0.0
 11
3051.0951519999999
 21
2353.1879730000001
 31
0.0
  0
LINE
  5
7FA2
  8
3
  6
CONTINUOUS
 62
     0
 10
2131.095151999999
 20
2383.1879730000001
 30
0.0
 11
2991.095151999999
 21
2383.1879730000001
 31
0.0
  0
INSERT
  5
7FA3
  8
3
  6
CONTINUOUS
 62
     0
  2
_OPEN
 10
2071.095151999999
 20
2383.1879730000001
 30
0.0
 41
60.0
 42
60.0
 43
60.0
 50
180.0
  0
INSERT
  5
7FA4
  8
3
  6
CONTINUOUS
 62
     0
  2
_OPEN
 10
3051.0951519999999
 20
2383.1879730000001
 30
0.0
 41
60.0
 42
60.0
 43
60.0
  0
TEXT
  8
3
  40
90
  5
8003
  62
0
  72
0
  71
0
 10
2381.10
 20
2298.89
 30
0.000000
  1
980
  0
POINT
  5
7FA6
  8
DEFPOINTS
  6
CONTINUOUS
 62
     0
 10
2071.095151999999
 20
2544.7936639999998
 30
0.0
  0
POINT
  5
7FA7
  8
DEFPOINTS
  6
CONTINUOUS
 62
     0
 10
3051.0951519999999
 20
2626.9540109999998
 30
0.0
  0
POINT
  5
7FA8
  8
DEFPOINTS
  6
CONTINUOUS
 62
     0
 10
3051.0951519999999
 20
2383.1879730000001
 30
0.0
  0
ENDBLK
  5
7D2D
  8
0
  0
BLOCK
  8
0
  2
*D9
 70
     1
 10
0.0
 20
0.0
 30
0.0
  3
*D9
  1

  0
LINE
  5
7FA9
  8
3
  6
CONTINUOUS
 62
     0
 10
4836.524641
 20
3957.9540109999989
 30
0.0
 11
4836.524641
 21
4068.4349939999988
 31
0.0
  0
LINE
  5
7FAA
  8
3
  6
CONTINUOUS
 62
     0
 10
4361.5246409999991
 20
3957.9540109999989
 30
0.0
 11
4361.5246409999991
 21
4068.4349939999988
 31
0.0
  0
LINE
  5
7FAB
  8
3
  6
CONTINUOUS
 62
     0
 10
4896.524641
 20
4038.4349940000002
 30
0.0
 11
4956.524641
 21
4038.4349940000002
 31
0.0
  0
LINE
  5
7FAC
  8
3
  6
CONTINUOUS
 62
     0
 10
4301.524641
 20
4038.4349940000002
 30
0.0
 11
4241.524641
 21
4038.4349940000002
 31
0.0
  0
LINE
  5
7FAD
  8
3
  6
CONTINUOUS
 62
     0
 10
4836.524641
 20
4038.4349940000002
 30
0.0
 11
4361.5246409999991
 21
4038.4349940000002
 31
0.0
  0
INSERT
  5
7FAE
  8
3
  6
CONTINUOUS
 62
     0
  2
_OPEN
 10
4836.524641
 20
4038.4349940000002
 30
0.0
 41
60.0
 42
60.0
 43
60.0
 50
180.0
  0
INSERT
  5
7FAF
  8
3
  6
CONTINUOUS
 62
     0
  2
_OPEN
 10
4361.5246409999991
 20
4038.4349940000002
 30
0.0
 41
60.0
 42
60.0
 43
60.0
  0
TEXT
  8
3
  40
90
  5
8004
  62
0
  72
0
  71
0
 10
4387.24
 20
3954.13
 30
0.000000
  1
475
  0
POINT
  5
7FB1
  8
DEFPOINTS
  6
CONTINUOUS
 62
     0
 10
4836.524641
 20
3942.9540109999989
 30
0.0
  0
POINT
  5
7FB2
  8
DEFPOINTS
  6
CONTINUOUS
 62
     0
 10
4361.5246409999991
 20
3942.9540109999989
 30
0.0
  0
POINT
  5
7FB3
  8
DEFPOINTS
  6
CONTINUOUS
 62
     0
 10
4361.5246409999991
 20
4038.4349940000002
 30
0.0
  0
ENDBLK
  5
7C33
  8
0
  0
BLOCK
  8
0
  2
*D10
 70
     1
 10
0.0
 20
0.0
 30
0.0
  3
*D10
  1

  0
LINE
  5
7FB4
  8
3
  6
CONTINUOUS
 62
     0
 10
4855.0246409999991
 20
3657.9540109999989
 30
0.0
 11
5160.7627120000006
 21
3657.9540109999989
 31
0.0
  0
LINE
  5
7FB5
  8
3
  6
CONTINUOUS
 62
     0
 10
4855.0246409999991
 20
2987.9540109999989
 30
0.0
 11
5160.7627120000006
 21
2987.9540109999989
 31
0.0
  0
LINE
  5
7FB6
  8
3
  6
CONTINUOUS
 62
     0
 10
5130.7627120000006
 20
3597.9540109999989
 30
0.0
 11
5130.7627120000006
 21
3047.9540109999989
 31
0.0
  0
INSERT
  5
7FB7
  8
3
  6
CONTINUOUS
 62
     0
  2
_OPEN
 10
5130.7627120000006
 20
3657.9540109999989
 30
0.0
 41
60.0
 42
60.0
 43
60.0
 50
90.0
  0
INSERT
  5
7FB8
  8
3
  6
CONTINUOUS
 62
     0
  2
_OPEN
 10
5130.7627120000006
 20
2987.9540109999989
 30
0.0
 41
60.0
 42
60.0
 43
60.0
 50
270.0
  0
TEXT
  8
3
  40
90
  5
8005
  62
0
  72
0
  71
0
 10
4875.76
 20
3177.36
 30
0.000000
  1
φ670
  0
POINT
  5
7FBA
  8
DEFPOINTS
  6
CONTINUOUS
 62
     0
 10
4840.024641
 20
3657.9540109999989
 30
0.0
  0
POINT
  5
7FBB
  8
DEFPOINTS
  6
CONTINUOUS
 62
     0
 10
4840.024641
 20
2987.9540109999989
 30
0.0
  0
POINT
  5
7FBC
  8
DEFPOINTS
  6
CONTINUOUS
 62
     0
 10
5130.7627120000006
 20
2987.9540109999989
 30
0.0
  0
ENDBLK
  5
7E4D
  8
0
  0
BLOCK
  8
0
  2
*D11
 70
     1
 10
0.0
 20
0.0
 30
0.0
  3
*D11
  1

  0
LINE
  5
7FBD
  8
3
  6
CONTINUOUS
 62
     0
 10
4119.024641
 20
3867.9540109999998
 30
0.0
 11
4119.024641
 21
4293.9547361429586
 31
0.0
  0
LINE
  5
7FBE
  8
3
  6
CONTINUOUS
 62
     0
 10
4539.024641
 20
4263.9547361429586
 30
0.0
 11
4179.024641
 21
4263.9547361429586
 31
0.0
  0
INSERT
  5
7FBF
  8
3
  6
CONTINUOUS
 62
     0
  2
_OPEN
 10
4599.0246409999991
 20
4263.9547361429586
 30
0.0
 41
60.0
 42
60.0
 43
60.0
  0
INSERT
  5
7FC0
  8
3
  6
CONTINUOUS
 62
     0
  2
_OPEN
 10
4119.024641
 20
4263.9547361429586
 30
0.0
 41
60.0
 42
60.0
 43
60.0
 50
180.0
  0
TEXT
  8
3
  40
90
  5
8006
  62
0
  72
0
  71
0
 10
4179.02
 20
4254.65
 30
0.000000
  1
MAX
  0
TEXT
  8
3
  40
90
  5
8007
  62
0
  72
0
  71
0
 10
4179.02
 20
4137.65
 30
0.000000
  1
530
  0
POINT
  5
7FC2
  8
DEFPOINTS
  6
CONTINUOUS
 62
     0
 10
4599.0246409999991
 20
4174.1055503928474
 30
0.0
  0
POINT
  5
7FC3
  8
DEFPOINTS
  6
CONTINUOUS
 62
     0
 10
4119.024641
 20
3852.9540109999989
 30
0.0
  0
POINT
  5
7FC4
  8
DEFPOINTS
  6
CONTINUOUS
 62
     0
 10
4119.024641
 20
4263.9547361429586
 30
0.0
  0
ENDBLK
  5
7E42
  8
0
  0
BLOCK
  8
0
  2
*D12
 70
     1
 10
0.0
 20
0.0
 30
0.0
  3
*D12
  1

  0
LINE
  5
7FC5
  8
3
  6
CONTINUOUS
 62
     0
 10
4188.024641
 20
2611.9540109999989
 30
0.0
 11
4188.024641
 21
2333.8991739999992
 31
0.0
  0
LINE
  5
7FC6
  8
3
  6
CONTINUOUS
 62
     0
 10
4599.0246409999991
 20
2466.95276280999
 30
0.0
 11
4599.0246409999991
 21
2333.8991739999992
 31
0.0
  0
LINE
  5
7FC7
  8
3
  6
CONTINUOUS
 62
     0
 10
4248.0246409999991
 20
2363.8991739999992
 30
0.0
 11
4539.024641
 21
2363.8991739999992
 31
0.0
  0
INSERT
  5
7FC8
  8
3
  6
CONTINUOUS
 62
     0
  2
_OPEN
 10
4188.024641
 20
2363.8991739999992
 30
0.0
 41
60.0
 42
60.0
 43
60.0
 50
180.0
  0
INSERT
  5
7FC9
  8
3
  6
CONTINUOUS
 62
     0
  2
_OPEN
 10
4599.0246409999991
 20
2363.8991739999992
 30
0.0
 41
60.0
 42
60.0
 43
60.0
  0
TEXT
  8
3
  40
90
  5
8008
  62
0
  72
0
  71
0
 10
4241.17
 20
2279.60
 30
0.000000
  1
411
  0
POINT
  5
7FCB
  8
DEFPOINTS
  6
CONTINUOUS
 62
     0
 10
4188.024641
 20
2626.9540109999998
 30
0.0
  0
POINT
  5
7FCC
  8
DEFPOINTS
  6
CONTINUOUS
 62
     0
 10
4599.0246409999991
 20
2481.95276280999
 30
0.0
  0
POINT
  5
7FCD
  8
DEFPOINTS
  6
CONTINUOUS
 62
     0
 10
4599.0246409999991
 20
2363.8991739999992
 30
0.0
  0
ENDBLK
  5
7E58
  8
0
  0
BLOCK
  8
0
  2
*D13
 70
     1
 10
0.0
 20
0.0
 30
0.0
  3
*D13
  1

  0
LINE
  5
7FCE
  8
3
  6
CONTINUOUS
 62
     0
 10
4888.024641
 20
2611.9540109999989
 30
0.0
 11
4888.024641
 21
2333.8991739999992
 31
0.0
  0
LINE
  5
7FCF
  8
3
  6
CONTINUOUS
 62
     0
 10
4659.024641
 20
2363.8991739999992
 30
0.0
 11
4828.024641
 21
2363.8991739999992
 31
0.0
  0
TEXT
  8
3
  40
90
  5
8009
  62
0
  72
0
  71
0
 10
4569.36
 20
2277.68
 30
0.000000
  1
289
  0
INSERT
  5
7FD1
  8
3
  6
CONTINUOUS
 62
     0
  2
_OPEN
 10
4599.0246409999991
 20
2363.8991739999992
 30
0.0
 41
60.0
 42
60.0
 43
60.0
 50
180.0
  0
INSERT
  5
7FD2
  8
3
  6
CONTINUOUS
 62
     0
  2
_OPEN
 10
4888.024641
 20
2363.8991739999992
 30
0.0
 41
60.0
 42
60.0
 43
60.0
  0
POINT
  5
7FD3
  8
DEFPOINTS
  6
CONTINUOUS
 62
     0
 10
4599.0246409999991
 20
2481.95276280999
 30
0.0
  0
POINT
  5
7FD4
  8
DEFPOINTS
  6
CONTINUOUS
 62
     0
 10
4888.024641
 20
2626.9540109999998
 30
0.0
  0
POINT
  5
7FD5
  8
DEFPOINTS
  6
CONTINUOUS
 62
     0
 10
4888.024641
 20
2363.8991739999992
 30
0.0
  0
ENDBLK
  5
7E62
  8
0
  0
BLOCK
  8
0
  2
*D14
 70
     1
 10
0.0
 20
0.0
 30
0.0
  3
*D14
  1

  0
LINE
  5
7FD6
  8
3
  6
CONTINUOUS
 62
     0
 10
1641.095151999999
 20
5989.4858610000001
 30
0.0
 11
1641.095151999999
 21
6255.4549079999997
 31
0.0
  0
LINE
  5
7FD7
  8
3
  6
CONTINUOUS
 62
     0
 10
3051.0951519999999
 20
5989.4858610000001
 30
0.0
 11
3051.0951519999999
 21
6255.4549079999997
 31
0.0
  0
LINE
  5
7FD8
  8
3
  6
CONTINUOUS
 62
     0
 10
1701.095151999999
 20
6225.4549079999988
 30
0.0
 11
2991.095151999999
 21
6225.4549079999988
 31
0.0
  0
INSERT
  5
7FD9
  8
3
  6
CONTINUOUS
 62
     0
  2
_OPEN
 10
1641.095151999999
 20
6225.4549079999988
 30
0.0
 41
60.0
 42
60.0
 43
60.0
 50
180.0
  0
INSERT
  5
7FDA
  8
3
  6
CONTINUOUS
 62
     0
  2
_OPEN
 10
3051.0951519999999
 20
6225.4549079999988
 30
0.0
 41
60.0
 42
60.0
 43
60.0
  0
TEXT
  8
3
  40
90
  5
800A
  62
0
  72
0
  71
0
 10
2116.69
 20
6141.15
 30
0.000000
  1
1410
  0
POINT
  5
7FDC
  8
DEFPOINTS
  6
CONTINUOUS
 62
     0
 10
1641.095151999999
 20
5974.4858610000001
 30
0.0
  0
POINT
  5
7FDD
  8
DEFPOINTS
  6
CONTINUOUS
 62
     0
 10
3051.0951519999999
 20
5974.4858610000001
 30
0.0
  0
POINT
  5
7FDE
  8
DEFPOINTS
  6
CONTINUOUS
 62
     0
 10
3051.0951519999999
 20
6225.4549079999988
 30
0.0
  0
ENDBLK
  5
7D63
  8
0
  0
BLOCK
  8
0
  2
*D15
 70
     1
 10
0.0
 20
0.0
 30
0.0
  3
*D15
  1

  0
LINE
  5
7FDF
  8
3
  6
CONTINUOUS
 62
     0
 10
3066.095151999999
 20
5974.4858610000001
 30
0.0
 11
3350.236241000001
 21
5974.4858610000001
 31
0.0
  0
LINE
  5
7FE0
  8
3
  6
CONTINUOUS
 62
     0
 10
3066.095151999999
 20
5274.4858610000001
 30
0.0
 11
3350.236241000001
 21
5274.4858610000001
 31
0.0
  0
LINE
  5
7FE1
  8
3
  6
CONTINUOUS
 62
     0
 10
3320.236241000001
 20
5914.4858610000001
 30
0.0
 11
3320.236241000001
 21
5334.4858610000001
 31
0.0
  0
INSERT
  5
7FE2
  8
3
  6
CONTINUOUS
 62
     0
  2
_OPEN
 10
3320.236241000001
 20
5974.4858610000001
 30
0.0
 41
60.0
 42
60.0
 43
60.0
 50
90.0
  0
INSERT
  5
7FE3
  8
3
  6
CONTINUOUS
 62
     0
  2
_OPEN
 10
3320.236241000001
 20
5274.4858610000001
 30
0.0
 41
60.0
 42
60.0
 43
60.0
 50
270.0
  0
TEXT
  8
3
  40
90
  5
800B
  62
0
  72
0
  71
0
 10
3065.24
 20
5437.85
 30
0.000000
  1
700
  0
POINT
  5
7FE5
  8
DEFPOINTS
  6
CONTINUOUS
 62
     0
 10
3051.0951519999999
 20
5974.4858610000001
 30
0.0
  0
POINT
  5
7FE6
  8
DEFPOINTS
  6
CONTINUOUS
 62
     0
 10
3051.0951519999999
 20
5274.4858610000001
 30
0.0
  0
POINT
  5
7FE7
  8
DEFPOINTS
  6
CONTINUOUS
 62
     0
 10
3320.236241000001
 20
5274.4858610000001
 30
0.0
  0
ENDBLK
  5
7CEC
  8
0
  0
BLOCK
  8
0
  2
*D16
 70
     1
 10
0.0
 20
0.0
 30
0.0
  3
*D16
  1

  0
LINE
  5
7FE8
  8
3
  6
CONTINUOUS
 62
     0
 10
2593.0951519999999
 20
3337.9540109999998
 30
0.0
 11
2593.0951519999999
 21
4149.1780230000004
 31
0.0
  0
LINE
  5
7FE9
  8
3
  6
CONTINUOUS
 62
     0
 10
2131.095151999999
 20
4119.1780229999986
 30
0.0
 11
2533.0951519999999
 21
4119.1780229999986
 31
0.0
  0
INSERT
  5
7FEA
  8
3
  6
CONTINUOUS
 62
     0
  2
_OPEN
 10
2071.095151999999
 20
4119.1780229999986
 30
0.0
 41
60.0
 42
60.0
 43
60.0
 50
180.0
  0
INSERT
  5
7FEB
  8
3
  6
CONTINUOUS
 62
     0
  2
_OPEN
 10
2593.0951519999999
 20
4119.1780229999986
 30
0.0
 41
60.0
 42
60.0
 43
60.0
  0
TEXT
  8
3
  40
90
  5
800C
  62
0
  72
0
  71
0
 10
2152.10
 20
4034.88
 30
0.000000
  1
522
  0
POINT
  5
7FED
  8
DEFPOINTS
  6
CONTINUOUS
 62
     0
 10
2071.095151999999
 20
4100.8979009999994
 30
0.0
  0
POINT
  5
7FEE
  8
DEFPOINTS
  6
CONTINUOUS
 62
     0
 10
2593.0951519999999
 20
3322.9540109999998
 30
0.0
  0
POINT
  5
7FEF
  8
DEFPOINTS
  6
CONTINUOUS
 62
     0
 10
2593.0951519999999
 20
4119.1780229999986
 30
0.0
  0
ENDBLK
  5
7D42
  8
0
  0
BLOCK
  8
0
  2
*D17
 70
     1
 10
0.0
 20
0.0
 30
0.0
  3
*D17
  1

  0
LINE
  5
7E2F
  8
0
  6
BYBLOCK
 62
     0
 10
4599.0246409999991
 20
4191.1779895582868
 30
0.0
 11
4599.0246409999991
 21
4293.9547361429586
 31
0.0
  0
LINE
  5
7E30
  8
0
  6
BYBLOCK
 62
     0
 10
4840.024641
 20
3672.9540109999998
 30
0.0
 11
4840.024641
 21
4293.9547361429586
 31
0.0
  0
LINE
  5
7E31
  8
0
  6
BYBLOCK
 62
     0
 10
4659.024641
 20
4263.9547361429586
 30
0.0
 11
4780.0246409999991
 21
4263.9547361429586
 31
0.0
  0
TEXT
  5
7E32
  8
3
 62
     0
 10
4622.4671267836311
 20
4299.0459233102583
 30
0.0
 40
90.0
  1
241
  0
INSERT
  5
7E33
  8
0
  6
BYBLOCK
 62
     0
  2
_OPEN
 10
4599.0246409999991
 20
4263.9547361429586
 30
0.0
 41
60.0
 42
60.0
 43
60.0
 50
180.0
  0
INSERT
  5
7E34
  8
0
  6
BYBLOCK
 62
     0
  2
_OPEN
 10
4840.024641
 20
4263.9547361429586
 30
0.0
 41
60.0
 42
60.0
 43
60.0
  0
POINT
  5
7E35
  8
DEFPOINTS
  6
BYBLOCK
 62
     0
 10
4599.0246409999991
 20
4176.1779895582868
 30
0.0
  0
POINT
  5
7E36
  8
DEFPOINTS
  6
BYBLOCK
 62
     0
 10
4840.024641
 20
3657.9540109999989
 30
0.0
  0
POINT
  5
7E37
  8
DEFPOINTS
  6
BYBLOCK
 62
     0
 10
4840.024641
 20
4263.9547361429586
 30
0.0
  0
ENDBLK
  5
7E38
  8
0
  0
BLOCK
  8
0
  2
*D18
 70
     1
 10
0.0
 20
0.0
 30
0.0
  3
*D18
  1

  0
LINE
  5
7FF0
  8
3
 62
     0
 10
1586.095151999999
 20
3997.9540109999998
 30
0.0
 11
1586.095151999999
 21
4328.2349631583202
 31
0.0
  0
LINE
  5
7FF1
  8
3
 62
     0
 10
3051.0951519999999
 20
2867.9540109999998
 30
0.0
 11
3051.0951519999999
 21
4328.2349631583202
 31
0.0
  0
LINE
  5
7FF2
  8
3
 62
     0
 10
1646.0951520000001
 20
4298.2349631583202
 30
0.0
 11
2991.095151999999
 21
4298.2349631583202
 31
0.0
  0
INSERT
  5
7FF3
  8
3
 62
     0
  2
_OPEN
 10
1586.095151999999
 20
4298.2349631583202
 30
0.0
 41
60.0
 42
60.0
 43
60.0
 50
180.0
  0
INSERT
  5
7FF4
  8
3
 62
     0
  2
_OPEN
 10
3051.0951519999999
 20
4298.2349631583202
 30
0.0
 41
60.0
 42
60.0
 43
60.0
  0
TEXT
  8
3
  40
90
  5
800D
  62
0
  72
0
  71
0
 10
2103.46
 20
4213.93
 30
0.000000
  1
1465
  0
POINT
  5
7FF6
  8
DEFPOINTS
 62
     0
 10
1586.095151999999
 20
3982.9540109999989
 30
0.0
  0
POINT
  5
7FF7
  8
DEFPOINTS
 62
     0
 10
3051.0951519999999
 20
2852.9540109999989
 30
0.0
  0
POINT
  5
7FF8
  8
DEFPOINTS
 62
     0
 10
3051.0951519999999
 20
4298.2349631583202
 30
0.0
  0
ENDBLK
  5
7DEB
  8
0
  0
BLOCK
  8
0
  2
_DOT
 70
     0
 10
0.0
 20
0.0
 30
0.0
  3
_DOT
  1

  0
POLYLINE
  5
7F41
  8
0
  6
BYBLOCK
 62
     0
 66
     1
 10
0.0
 20
0.0
 30
0.0
 70
     1
 40
0.5
 41
0.5
  0
VERTEX
  5
7FF9
  8
0
  6
BYBLOCK
 62
     0
 10
-0.25
 20
0.0
 30
0.0
 42
1.0
  0
VERTEX
  5
7FFA
  8
0
  6
BYBLOCK
 62
     0
 10
0.25
 20
0.0
 30
0.0
 42
1.0
  0
SEQEND
  5
7FFB
  8
0
  6
BYBLOCK
 62
     0
  0
LINE
  5
7F42
  8
0
  6
BYBLOCK
 62
     0
 10
-0.5
 20
0.0
 30
0.0
 11
-1.0
 21
0.0
 31
0.0
  0
ENDBLK
  5
7F44
  8
0
  0
ENDSEC
  0
SECTION
  2
ENTITIES
  0
LINE
  5
7ABE
  8
1
  6
CONTINUOUS
 10
2050.095151999999
 20
5310.4858610000001
 30
0.0
 11
2050.095151999999
 21
5447.9858610000001
 31
0.0
  0
LINE
  5
7ABF
  8
1
  6
CONTINUOUS
 10
2092.0951519999999
 20
5310.4858610000001
 30
0.0
 11
2092.0951519999999
 21
5447.9858610000001
 31
0.0
  0
LINE
  5
7AC0
  8
1
  6
CONTINUOUS
 10
1586.095151999999
 20
5405.4858610000001
 30
0.0
 11
1586.095151999999
 21
5965.485861000001
 31
0.0
  0
LINE
  5
7AC1
  8
1
  6
CONTINUOUS
 10
2953.9440429999991
 20
5377.2177780000002
 30
0.0
 11
2953.9440429999991
 21
5862.2177780000002
 31
0.0
  0
LINE
  5
7AC2
  8
1
  6
CONTINUOUS
 10
2629.944043
 20
5377.2177780000002
 30
0.0
 11
2629.944043
 21
5862.2177780000002
 31
0.0
  0
LINE
  5
7AC3
  8
1
  6
CONTINUOUS
 10
3051.0951519999999
 20
5974.4858610000001
 30
0.0
 11
3051.0951519999999
 21
5274.4858610000001
 31
0.0
  0
LINE
  5
7AC4
  8
1
  6
CONTINUOUS
 10
1641.095151999999
 20
5274.4858610000001
 30
0.0
 11
1641.095151999999
 21
5447.9858610000001
 31
0.0
  0
LINE
  5
7AD1
  8
1
  6
CONTINUOUS
 10
1641.095151999999
 20
2726.9540109999998
 30
0.0
 11
3051.0951519999999
 21
2726.9540109999998
 31
0.0
  0
LINE
  5
7AD2
  8
1
  6
CONTINUOUS
 10
3051.0951519999999
 20
2626.9540109999998
 30
0.0
 11
1641.095151999999
 21
2626.9540109999998
 31
0.0
  0
LINE
  5
7AD3
  8
1
  6
CONTINUOUS
 10
2770.8122649999991
 20
2975.7954209999998
 30
0.0
 11
2031.4730669999999
 21
3178.2816549999998
 31
0.0
  0
LINE
  5
7AD4
  8
1
  6
CONTINUOUS
 10
2826.7014629999999
 20
3125.0090019999998
 30
0.0
 11
2136.2653140000002
 21
3458.0571189999991
 31
0.0
  0
CIRCLE
  5
7AD5
  8
1
  6
CONTINUOUS
 10
2071.095151999999
 20
3322.9540109999998
 30
0.0
 40
150.0
  0
LINE
  5
7AD6
  8
2
  6
CENTER
 10
1465.2542410000001
 20
3322.9540109999998
 30
0.0
 11
3023.4632120000001
 21
3322.9540109999998
 31
0.0
  0
LINE
  5
7AD7
  8
1
  6
CONTINUOUS
 10
2221.095151999999
 20
5240.4858610000001
 30
0.0
 11
1921.095151999999
 21
5240.4858610000001
 31
0.0
  0
LINE
  5
7AD8
  8
1
  6
CONTINUOUS
 10
2221.095151999999
 20
5310.4858610000001
 30
0.0
 11
1921.095151999999
 21
5310.4858610000001
 31
0.0
  0
LINE
  5
7AD9
  8
1
  6
CONTINUOUS
 10
1731.095151999999
 20
5345.4858610000001
 30
0.0
 11
3001.095151999999
 21
5345.4858610000001
 31
0.0
  0
LINE
  5
7ADA
  8
1
  6
CONTINUOUS
 10
1731.095151999999
 20
5205.4858610000001
 30
0.0
 11
3001.095151999999
 21
5205.4858610000001
 31
0.0
  0
ARC
  5
7ADB
  8
1
  6
CONTINUOUS
 10
2106.095151999999
 20
3357.9540109999989
 30
0.0
 40
488.25444700000003
 50
262.64762100000002
 51
355.48601200000002
  0
ARC
  5
7ADC
  8
1
  6
CONTINUOUS
 10
2030.095151999999
 20
3363.9540109999998
 30
0.0
 40
564.49092099999984
 50
355.48601200000002
 51
85.834835999999996
  0
LINE
  5
7ADD
  8
1
  6
CONTINUOUS
 10
3001.095151999999
 20
3152.9540109999998
 30
0.0
 11
2171.095151999999
 21
3852.9540109999989
 31
0.0
  0
LINE
  5
7ADE
  8
1
  6
CONTINUOUS
 10
3051.0951519999999
 20
2752.9540109999989
 30
0.0
 11
1641.095151999999
 21
2752.9540109999989
 31
0.0
  0
LINE
  5
7ADF
  8
1
  6
CONTINUOUS
 10
1641.0951520000001
 20
2852.9540109999989
 30
0.0
 11
3051.0951519999999
 21
2852.9540109999989
 31
0.0
  0
LINE
  5
7AE3
  8
1
  6
CONTINUOUS
 10
1616.095151999999
 20
3292.9540109999989
 30
0.0
 11
1616.095151999999
 21
3941.6344229999991
 31
0.0
  0
LINE
  5
7AE4
  8
1
  6
CONTINUOUS
 10
1731.095151999999
 20
2852.9540109999989
 30
0.0
 11
1731.095151999999
 21
3852.9540109999989
 31
0.0
  0
LINE
  5
7AE6
  8
1
  6
CONTINUOUS
 10
1586.095151999999
 20
3252.9540109999989
 30
0.0
 11
1586.095151999999
 21
3982.9540109999989
 31
0.0
  0
ARC
  5
7AE7
  8
1
  6
CONTINUOUS
 10
2098.095151999999
 20
3295.9540109999998
 30
0.0
 40
425.74044800000001
 50
180.403741
 51
262.64762100000002
  0
LINE
  5
7AE8
  8
1
  6
CONTINUOUS
 10
1641.095151999999
 20
2626.9540109999998
 30
0.0
 11
1641.095151999999
 21
2726.9540109999998
 31
0.0
  0
LINE
  5
7AE9
  8
1
  6
CONTINUOUS
 10
1641.095151999999
 20
2752.9540109999989
 30
0.0
 11
1641.095151999999
 21
2852.9540109999989
 31
0.0
  0
LINE
  5
7AEA
  8
1
  6
CONTINUOUS
 10
1672.3652729999999
 20
3292.9540109999989
 30
0.0
 11
1586.095151999999
 21
3292.9540109999989
 31
0.0
  0
LINE
  5
7AEB
  8
2
  6
CENTER
 10
2071.095151999999
 20
6092.2659270000004
 30
0.0
 11
2071.095151999999
 21
5055.8013520000004
 31
0.0
  0
LINE
  5
7AEC
  8
1
  6
CONTINUOUS
 10
1586.095151999999
 20
3942.9540109999989
 30
0.0
 11
2071.095151999999
 21
3926.9540109999998
 31
0.0
  0
LINE
  5
7AED
  8
1
  6
CONTINUOUS
 10
1731.095151999999
 20
3852.9540109999989
 30
0.0
 11
2171.095151999999
 21
3852.9540109999989
 31
0.0
  0
LINE
  5
7AEE
  8
1
  6
CONTINUOUS
 10
1921.095151999999
 20
5274.4858610000001
 30
0.0
 11
1641.095151999999
 21
5274.4858610000001
 31
0.0
  0
LINE
  5
7AEF
  8
1
  6
CONTINUOUS
 10
1731.095151999999
 20
5205.4858610000001
 30
0.0
 11
1731.095151999999
 21
5345.4858610000001
 31
0.0
  0
LINE
  5
7AF0
  8
1
  6
CONTINUOUS
 10
1921.095151999999
 20
5240.4858610000001
 30
0.0
 11
1921.095151999999
 21
5310.4858610000001
 31
0.0
  0
LINE
  5
7AF2
  8
2
  6
CENTER
 10
2791.944043
 20
3132.9540109999998
 30
0.0
 11
2791.944043
 21
2972.9540109999998
 31
0.0
  0
LINE
  5
7AF3
  8
1
  6
CONTINUOUS
 10
3001.095151999999
 20
2852.9540109999989
 30
0.0
 11
3001.095151999999
 21
3152.9540109999998
 31
0.0
  0
ARC
  5
7AF4
  8
1
  6
CONTINUOUS
 10
2791.944043
 20
3052.9540109999998
 30
0.0
 40
162.0
 50
324.972283
 51
215.02771699999991
  0
CIRCLE
  5
7AF5
  8
1
  6
CONTINUOUS
 10
2791.944043
 20
3052.9540109999998
 30
0.0
 40
80.0
  0
LINE
  5
7AF6
  8
1
  6
CONTINUOUS
 10
2637.944043
 20
2892.9540109999998
 30
0.0
 11
2945.944043
 21
2892.9540109999998
 31
0.0
  0
LINE
  5
7AF7
  8
1
  6
CONTINUOUS
 10
2637.944043
 20
2852.9540109999989
 30
0.0
 11
2637.944043
 21
2910.9540109999989
 31
0.0
  0
LINE
  5
7AF8
  8
1
  6
CONTINUOUS
 10
2637.944043
 20
2910.9540109999989
 30
0.0
 11
2659.2863779999998
 21
2959.970444
 31
0.0
  0
LINE
  5
7AF9
  8
1
  6
CONTINUOUS
 10
3051.0951519999999
 20
2726.9540109999998
 30
0.0
 11
3051.0951519999999
 21
2626.9540109999998
 31
0.0
  0
LINE
  5
7AFA
  8
1
  6
CONTINUOUS
 10
2945.944043
 20
2852.9540109999989
 30
0.0
 11
2945.944043
 21
2910.9540109999989
 31
0.0
  0
LINE
  5
7AFB
  8
1
  6
CONTINUOUS
 10
2945.944043
 20
2892.9540109999998
 30
0.0
 11
2945.944043
 21
2910.9540109999989
 31
0.0
  0
LINE
  5
7AFC
  8
1
  6
CONTINUOUS
 10
2945.944043
 20
2910.9540109999989
 30
0.0
 11
2924.601709
 21
2959.970444
 31
0.0
  0
LINE
  5
7AFD
  8
1
  6
CONTINUOUS
 10
3051.0951519999999
 20
2852.9540109999989
 30
0.0
 11
3051.0951519999999
 21
2752.9540109999989
 31
0.0
  0
LINE
  5
7AFE
  8
2
  6
CENTER
 10
2711.944043
 20
3052.9540109999998
 30
0.0
 11
2871.944043
 21
3052.9540109999998
 31
0.0
  0
LINE
  5
7B04
  8
1
  6
CONTINUOUS
 10
2711.944043
 20
5274.4858610000001
 30
0.0
 11
2221.095151999999
 21
5274.4858610000001
 31
0.0
  0
LINE
  5
7B05
  8
1
  6
CONTINUOUS
 10
2953.9440429999991
 20
5377.2177780000002
 30
0.0
 11
2629.944043
 21
5377.2177780000002
 31
0.0
  0
LINE
  5
7B06
  8
1
  6
CONTINUOUS
 10
2221.095151999999
 20
5240.4858610000001
 30
0.0
 11
2221.095151999999
 21
5310.4858610000001
 31
0.0
  0
LINE
  5
7B07
  8
1
  6
CONTINUOUS
 10
3001.095151999999
 20
5205.4858610000001
 30
0.0
 11
3001.095151999999
 21
5345.4858610000001
 31
0.0
  0
LINE
  5
7B08
  8
1
  6
CONTINUOUS
 10
2871.944043
 20
5310.4858610000001
 30
0.0
 11
2711.944043
 21
5310.4858610000001
 31
0.0
  0
LINE
  5
7B09
  8
1
  6
CONTINUOUS
 10
2871.944043
 20
5240.4858610000001
 30
0.0
 11
2711.944043
 21
5240.4858610000001
 31
0.0
  0
LINE
  5
7B0A
  8
1
  6
CONTINUOUS
 10
2711.944043
 20
5240.4858610000001
 30
0.0
 11
2711.944043
 21
5310.4858610000001
 31
0.0
  0
LINE
  5
7B0B
  8
1
  6
CONTINUOUS
 10
2871.944043
 20
5240.4858610000001
 30
0.0
 11
2871.944043
 21
5310.4858610000001
 31
0.0
  0
LINE
  5
7B0C
  8
1
  6
CONTINUOUS
 10
2812.9440429999991
 20
5310.4858610000001
 30
0.0
 11
2812.9440429999991
 21
5377.2177780000002
 31
0.0
  0
LINE
  5
7B0D
  8
1
  6
CONTINUOUS
 10
2770.944043
 20
5310.4858610000001
 30
0.0
 11
2770.944043
 21
5377.2177780000002
 31
0.0
  0
LINE
  5
7B0E
  8
1
  6
CONTINUOUS
 10
3051.0951519999999
 20
5274.4858610000001
 30
0.0
 11
2871.944043
 21
5274.4858610000001
 31
0.0
  0
LINE
  5
7B39
  8
1
  6
CONTINUOUS
 10
4361.5246409999991
 20
3942.9540109999989
 30
0.0
 11
4361.5246409999991
 21
2852.9540109999989
 31
0.0
  0
LINE
  5
7B3A
  8
1
  6
CONTINUOUS
 10
4836.524641
 20
3942.9540109999989
 30
0.0
 11
4836.524641
 21
2852.9540109999989
 31
0.0
  0
LINE
  5
7B3B
  8
1
  6
CONTINUOUS
 10
4119.024641
 20
3852.9540109999989
 30
0.0
 11
4119.024641
 21
2852.9540109999989
 31
0.0
  0
LINE
  5
7B3C
  8
1
  6
CONTINUOUS
 10
4836.524641
 20
3942.9540109999989
 30
0.0
 11
4361.5246409999991
 21
3292.9540109999989
 31
0.0
  0
LINE
  5
7B3D
  8
1
  6
CONTINUOUS
 10
4361.5246409999991
 20
3942.9540109999989
 30
0.0
 11
4836.524641
 21
3292.9540109999989
 31
0.0
  0
LINE
  5
7B3E
  8
1
  6
CONTINUOUS
 10
4259.0246409999991
 20
3852.9540109999989
 30
0.0
 11
4259.0246409999991
 21
2852.9540109999989
 31
0.0
  0
LINE
  5
7B3F
  8
1
  6
CONTINUOUS
 10
4188.024641
 20
2752.9540109999989
 30
0.0
 11
4888.024641
 21
2752.9540109999989
 31
0.0
  0
LINE
  5
7B40
  8
1
  6
CONTINUOUS
 10
4188.024641
 20
2852.9540109999989
 30
0.0
 11
4888.024641
 21
2852.9540109999989
 31
0.0
  0
LINE
  5
7B41
  8
1
  6
CONTINUOUS
 10
4361.5246409999991
 20
3292.9540109999989
 30
0.0
 11
4836.524641
 21
3292.9540109999989
 31
0.0
  0
LINE
  5
7B42
  8
1
  6
CONTINUOUS
 10
4188.024641
 20
2726.9540109999998
 30
0.0
 11
4888.024641
 21
2726.9540109999998
 31
0.0
  0
LINE
  5
7B43
  8
1
  6
CONTINUOUS
 10
4188.024641
 20
2626.9540109999998
 30
0.0
 11
4888.024641
 21
2626.9540109999998
 31
0.0
  0
LINE
  5
7B44
  8
1
  6
CONTINUOUS
 10
4154.024641
 20
3132.9540109999998
 30
0.0
 11
4154.024641
 21
2972.9540109999998
 31
0.0
  0
LINE
  5
7B45
  8
1
  6
CONTINUOUS
 10
4224.0246409999991
 20
3132.9540109999998
 30
0.0
 11
4224.0246409999991
 21
2972.9540109999998
 31
0.0
  0
LINE
  5
7B46
  8
1
  6
CONTINUOUS
 10
4154.024641
 20
2972.9540109999998
 30
0.0
 11
4224.0246409999991
 21
2972.9540109999998
 31
0.0
  0
LINE
  5
7B47
  8
1
  6
CONTINUOUS
 10
4188.024641
 20
2852.9540109999989
 30
0.0
 11
4188.024641
 21
2752.9540109999989
 31
0.0
  0
LINE
  5
7B48
  8
1
  6
CONTINUOUS
 10
4119.024641
 20
2852.9540109999989
 30
0.0
 11
4188.024641
 21
2852.9540109999989
 31
0.0
  0
LINE
  5
7B49
  8
1
  6
CONTINUOUS
 10
4188.024641
 20
2726.9540109999998
 30
0.0
 11
4188.024641
 21
2626.9540109999998
 31
0.0
  0
LINE
  5
7B4C
  8
1
  6
CONTINUOUS
 10
4154.024641
 20
3172.9540109999989
 30
0.0
 11
4224.0246409999991
 21
3172.9540109999989
 31
0.0
  0
LINE
  5
7B4D
  8
1
  6
CONTINUOUS
 10
4154.024641
 20
3472.9540109999998
 30
0.0
 11
4224.0246409999991
 21
3472.9540109999998
 31
0.0
  0
LINE
  5
7B4E
  8
1
  6
CONTINUOUS
 10
4154.024641
 20
3132.9540109999998
 30
0.0
 11
4224.0246409999991
 21
3132.9540109999998
 31
0.0
  0
LINE
  5
7B4F
  8
1
  6
CONTINUOUS
 10
4154.024641
 20
3472.9540109999998
 30
0.0
 11
4154.024641
 21
3172.9540109999989
 31
0.0
  0
LINE
  5
7B50
  8
1
  6
CONTINUOUS
 10
4224.0246409999991
 20
3301.9540109999998
 30
0.0
 11
4361.5246409999991
 21
3301.9540109999998
 31
0.0
  0
LINE
  5
7B51
  8
1
  6
CONTINUOUS
 10
4224.0246409999991
 20
3343.9540109999989
 30
0.0
 11
4361.5246409999991
 21
3343.9540109999989
 31
0.0
  0
LINE
  5
7B52
  8
1
  6
CONTINUOUS
 10
4224.0246409999991
 20
3472.9540109999998
 30
0.0
 11
4224.0246409999991
 21
3172.9540109999989
 31
0.0
  0
LINE
  5
7B53
  8
1
  6
CONTINUOUS
 10
4224.0246409999991
 20
3031.9540109999989
 30
0.0
 11
4361.5246409999991
 21
3031.9540109999989
 31
0.0
  0
LINE
  5
7B54
  8
1
  6
CONTINUOUS
 10
4224.0246409999991
 20
3073.9540109999998
 30
0.0
 11
4361.5246409999991
 21
3073.9540109999998
 31
0.0
  0
LINE
  5
7B55
  8
1
  6
CONTINUOUS
 10
4888.024641
 20
2852.9540109999989
 30
0.0
 11
4888.024641
 21
2752.9540109999989
 31
0.0
  0
LINE
  5
7B56
  8
1
  6
CONTINUOUS
 10
4888.024641
 20
2726.9540109999998
 30
0.0
 11
4888.024641
 21
2626.9540109999998
 31
0.0
  0
LINE
  5
7B57
  8
1
  6
CONTINUOUS
 10
4361.5246409999991
 20
3942.9540109999989
 30
0.0
 11
4836.524641
 21
3942.9540109999989
 31
0.0
  0
LINE
  5
7B58
  8
1
  6
CONTINUOUS
 10
4259.0246409999991
 20
3852.9540109999989
 30
0.0
 11
4119.024641
 21
3852.9540109999989
 31
0.0
  0
LINE
  5
7B5B
  8
1
  6
CONTINUOUS
 10
1641.095151999999
 20
5974.4858610000001
 30
0.0
 11
3051.0951519999999
 21
5974.4858610000001
 31
0.0
  0
LINE
  5
7B5C
  8
1
  6
CONTINUOUS
 10
1586.095151999999
 20
5447.9858610000001
 30
0.0
 11
2594.5860729999999
 21
5447.9858610000001
 31
0.0
  0
LINE
  5
7B5D
  8
1
  6
CONTINUOUS
 10
1586.095151999999
 20
5922.9858610000001
 30
0.0
 11
2594.5860729999999
 21
5922.9858610000001
 31
0.0
  0
LINE
  5
7B5E
  8
1
  6
CONTINUOUS
 10
1626.095151999999
 20
5447.9858610000001
 30
0.0
 11
1626.095151999999
 21
5922.9858610000001
 31
0.0
  0
LINE
  5
7B5F
  8
1
  6
CONTINUOUS
 10
1641.095151999999
 20
5922.9858610000001
 30
0.0
 11
1641.095151999999
 21
5974.4858610000001
 31
0.0
  0
LINE
  5
7B60
  8
1
  6
CONTINUOUS
 10
2953.9440429999991
 20
5862.2177780000002
 30
0.0
 11
2629.944043
 21
5862.2177780000002
 31
0.0
  0
LINE
  5
7B61
  8
1
  6
CONTINUOUS
 10
2594.5860729999999
 20
5447.9858610000001
 30
0.0
 11
2594.5860729999999
 21
5922.9858610000001
 31
0.0
  0
LINE
  5
7B62
  8
1
  6
CONTINUOUS
 10
2629.944043
 20
5698.9342259999994
 30
0.0
 11
2629.944043
 21
5456.6871859999992
 31
0.0
  0
LINE
  5
7B69
  8
2
  6
CENTER
 10
3146.300604
 20
5685.4858610000001
 30
0.0
 11
1451.5979809999999
 21
5685.4858610000001
 31
0.0
  0
LINE
  5
7B6A
  8
2
  6
CENTER
 10
4599.0246409999991
 20
3976.5902700000001
 30
0.0
 11
4599.0246409999991
 21
2539.3044319999999
 31
0.0
  0
LINE
  5
7B6B
  8
2
  6
CENTER
 10
2071.095151999999
 20
4100.8979009999994
 30
0.0
 11
2071.095151999999
 21
2544.7936639999998
 31
0.0
  0
LINE
  5
7B6C
  8
2
  6
CENTER
 10
4049.4961990000002
 20
3322.9540109999998
 30
0.0
 11
4976.8966840000003
 21
3322.9540109999998
 31
0.0
  0
LINE
  5
7B6D
  8
2
  6
CENTER
 10
4599.0246409999991
 20
2523.6004149999999
 30
0.0
 11
4599.0246409999991
 21
2481.95276280999
 31
0.0
  0
LINE
  5
7B8D
  8
4
  6
CONTINUOUS
 10
5550.0
 20
1500.0
 30
0.0
 11
5550.0
 21
900.0
 31
0.0
  0
LINE
  5
7B8E
  8
4
  6
CONTINUOUS
 10
3450.0
 20
1500.0
 30
0.0
 11
3450.0
 21
900.0
 31
0.0
  0
LINE
  5
7B8F
  8
4
  6
CONTINUOUS
 10
1950.0
 20
1500.0
 30
0.0
 11
1950.0
 21
900.0
 31
0.0
  0
LINE
  5
7B92
  8
4
  6
CONTINUOUS
 10
1950.0
 20
900.0
 30
0.0
 11
5550.0
 21
900.0
 31
0.0
  0
LINE
  5
7B93
  8
4
  6
CONTINUOUS
 10
1950.0
 20
1200.0
 30
0.0
 11
5550.0
 21
1200.0
 31
0.0
  0
TEXT
  5
7B94
  8
4
  6
CONTINUOUS
 10
2065.5062429999989
 20
1294.6290779999999
 30
0.0
 40
150.0
  1
機器名称
  0
TEXT
  5
7B95
  8
4
  6
CONTINUOUS
 10
2058.7743179999989
 20
964.9354699999999
 30
0.0
 40
150.0
  1
機器型番
  0
TEXT
  5
7B96
  8
4
  6
CONTINUOUS
 10
3533.0362359999999
 20
1267.7153069999999
 30
0.0
 40
150.0
  1
ミツヤ多翼送風機
  0
TEXT
  5
7B97
  8
4
  6
CONTINUOUS
 10
3559.9634869999991
 20
951.47875299999987
 30
0.0
 40
150.0
  1
MFE#4-4
  0
TEXT
  5
7B99
  8
4
  6
CONTINUOUS
 10
2361.4644290000001
 20
7150.2865239999992
 30
0.0
 40
162.0
  1
床置防振ベット
  0
TEXT
  5
7B9A
  8
4
  6
CONTINUOUS
 10
948.50278000000014
 20
7601.6429289999996
 30
0.0
 40
216.0
  1
ベルト駆動式片吸込両持排煙ファン
  0
LINE
  5
7B9B
  8
4
  6
CONTINUOUS
 10
750.0
 20
7408.2262629999996
 30
0.0
 11
5550.0
 21
7408.2262629999996
 31
0.0
  0
LINE
  5
7B9C
  8
4
  6
CONTINUOUS
 10
750.0
 20
8008.2262629999996
 30
0.0
 11
5550.0
 21
8008.2262629999996
 31
0.0
  0
LINE
  5
7B9D
  8
4
  6
CONTINUOUS
 10
1950.0
 20
1500.0
 30
0.0
 11
5550.0
 21
1500.0
 31
0.0
  0
LINE
  5
7B9E
  8
4
  6
CONTINUOUS
 10
750.0
 20
8008.2262629999996
 30
0.0
 11
750.0
 21
7408.2262629999996
 31
0.0
  0
TEXT
  5
7B9F
  8
4
  6
CONTINUOUS
 10
1053.8879320000001
 20
7146.9584329999998
 30
0.0
 40
162.0
  1
左回転左横向
  0
TEXT
  5
7BA0
  8
4
  6
CONTINUOUS
 10
4406.9086779999989
 20
8118.1832439999989
 30
0.0
 40
168.0
  1
No.
  0
TEXT
  5
7BA1
  8
4
  6
CONTINUOUS
 10
3933.8881879999999
 20
7150.2865239999992
 30
0.0
 40
162.0
  1
縮尺：1/30
  0
LINE
  5
7BA2
  8
4
  6
CONTINUOUS
 10
5550.0
 20
8008.2262629999996
 30
0.0
 11
5550.0
 21
7408.2262629999996
 31
0.0
  0
LINE
  5
7BA4
  8
4
  6
CONTINUOUS
 10
4321.8522670000002
 20
8043.7907490000007
 30
0.0
 11
4321.8522670000002
 21
8359.9567849999985
 31
0.0
  0
LINE
  5
7BA5
  8
4
  6
CONTINUOUS
 10
4321.8522670000002
 20
8359.9567849999985
 30
0.0
 11
5550.0
 21
8359.9567849999985
 31
0.0
  0
LINE
  5
7BA6
  8
4
  6
CONTINUOUS
 10
5550.0
 20
8359.9567849999985
 30
0.0
 11
5550.0
 21
8043.7907490000007
 31
0.0
  0
LINE
  5
7BA7
  8
4
  6
CONTINUOUS
 10
5550.0
 20
8043.7907490000007
 30
0.0
 11
4321.8522670000002
 21
8043.7907490000007
 31
0.0
  0
DIMENSION
  5
7BBF
  8
3
  6
CONTINUOUS
  2
*D1
 10
1433.703289
 20
3292.9540109999989
 30
0.0
 11
1433.703289
 21
3610.6845320000002
 31
0.0
 70
   128
 13
1586.095151999999
 23
3942.9540109999989
 33
0.0
 14
1586.095151999999
 24
3292.9540109999989
 34
0.0
 50
90.0
1001
ACAD
1000
DSTYLE
1002
{
1070
   287
1070
     3
1070
   287
1070
     3
1070
    40
1040
30.0
1070
   143
1040
0.039
1070
   172
1070
     1
1070
   271
1070
     0
1070
   279
1070
     0
1070
   288
1070
     1
1002
}
  0
DIMENSION
  5
7BCC
  8
3
  6
CONTINUOUS
  2
*D2
 10
1239.698118
 20
3322.9540109999998
 30
0.0
 11
1239.698118
 21
3617.368136
 31
0.0
 70
   128
 13
1586.095151999999
 23
3942.9540109999989
 33
0.0
 14
1465.2542410000001
 24
3322.9540109999998
 34
0.0
 50
90.0
1001
ACAD
1000
DSTYLE
1002
{
1070
   287
1070
     3
1070
   287
1070
     3
1070
    40
1040
30.0
1070
   143
1040
0.039
1070
   172
1070
     1
1070
   271
1070
     0
1070
   279
1070
     0
1070
   288
1070
     1
1002
}
  0
DIMENSION
  5
7BD8
  8
3
  6
CONTINUOUS
  2
*D3
 10
1239.698118
 20
2752.9540109999989
 30
0.0
 11
1164.6981179999991
 21
3037.9540109999998
 31
0.0
 70
     0
 13
1465.2542410000001
 23
3322.9540109999998
 33
0.0
 14
1641.095151999999
 24
2752.9540109999989
 34
0.0
 50
90.0
1001
ACAD
1000
DSTYLE
1002
{
1070
   287
1070
     4
1070
   287
1070
     4
1070
    40
1040
30.0
1070
    75
1070
     1
1070
   143
1040
0.039
1070
   172
1070
     1
1070
   271
1070
     0
1070
   279
1070
     1
1070
   288
1070
     1
1002
}
  0
DIMENSION
  5
7BE8
  8
3
  6
CONTINUOUS
  2
*D4
 10
1238.8729559999999
 20
2626.9540109999998
 30
0.0
 11
1238.8729559999999
 21
2371.9540109999998
 31
0.0
 70
   128
 13
1641.095151999999
 23
2752.9540109999989
 33
0.0
 14
1641.095151999999
 24
2626.9540109999998
 34
0.0
 50
90.0
1001
ACAD
1000
DSTYLE
1002
{
1070
   287
1070
     3
1070
   287
1070
     3
1070
    40
1040
30.0
1070
   143
1040
0.039
1070
   172
1070
     1
1070
   271
1070
     0
1070
   279
1070
     0
1070
   288
1070
     1
1002
}
  0
DIMENSION
  5
7BF5
  8
3
  6
CONTINUOUS
  2
*D5
 10
1062.18894
 20
2626.9540109999998
 30
0.0
 11
1062.18894
 21
3249.7700880000002
 31
0.0
 70
   128
 13
1586.095151999999
 23
3982.9540109999989
 33
0.0
 14
1641.095151999999
 24
2626.9540109999998
 34
0.0
 50
90.0
1001
ACAD
1000
DSTYLE
1002
{
1070
   287
1070
     3
1070
   287
1070
     3
1070
    40
1040
30.0
1070
   143
1040
0.039
1070
   172
1070
     1
1070
   271
1070
     0
1070
   279
1070
     0
1070
   288
1070
     1
1002
}
  0
DIMENSION
  5
7C02
  8
3
  6
CONTINUOUS
  2
*D6
 10
2071.095151999999
 20
4119.1780229999986
 30
0.0
 11
1828.4034389999999
 21
4119.1780229999986
 31
0.0
 70
   128
 13
1586.095151999999
 23
3982.9540109999989
 33
0.0
 14
2071.095151999999
 24
4100.8979009999994
 34
0.0
1001
ACAD
1000
DSTYLE
1002
{
1070
   287
1070
     3
1070
   287
1070
     3
1070
    40
1040
30.0
1070
   143
1040
0.039
1070
   172
1070
     1
1070
   271
1070
     0
1070
   279
1070
     0
1070
   288
1070
     1
1002
}
  0
DIMENSION
  5
7C1B
  8
3
  6
CONTINUOUS
  2
*D7
 10
2071.095151999999
 20
2383.1879730000001
 30
0.0
 11
1865.3808659999991
 21
2383.1879730000001
 31
0.0
 70
   128
 13
1641.095151999999
 23
2626.9540109999998
 33
0.0
 14
2071.095151999999
 24
2544.7936639999998
 34
0.0
1001
ACAD
1000
DSTYLE
1002
{
1070
   287
1070
     3
1070
   287
1070
     3
1070
    40
1040
30.0
1070
   143
1040
0.039
1070
   172
1070
     1
1070
   271
1070
     0
1070
   279
1070
     0
1070
   288
1070
     1
1002
}
  0
DIMENSION
  5
7C27
  8
3
  6
CONTINUOUS
  2
*D8
 10
3051.0951519999999
 20
2383.1879730000001
 30
0.0
 11
2561.0951519999999
 21
2458.1879730000001
 31
0.0
 70
     0
 13
2071.095151999999
 23
2544.7936639999998
 33
0.0
 14
3051.0951519999999
 24
2626.9540109999998
 34
0.0
1001
ACAD
1000
DSTYLE
1002
{
1070
   287
1070
     4
1070
   287
1070
     4
1070
    40
1040
30.0
1070
    75
1070
     1
1070
   143
1040
0.039
1070
   172
1070
     1
1070
   271
1070
     0
1070
   279
1070
     1
1070
   288
1070
     1
1002
}
  0
DIMENSION
  5
7C34
  8
3
  6
CONTINUOUS
  2
*D9
 10
4361.5246409999991
 20
4038.4349940000002
 30
0.0
 11
4567.238926
 21
4038.4349940000002
 31
0.0
 70
   128
 13
4836.524641
 23
3942.9540109999989
 33
0.0
 14
4361.5246409999991
 24
3942.9540109999989
 34
0.0
1001
ACAD
1000
DSTYLE
1002
{
1070
   287
1070
     3
1070
   287
1070
     3
1070
    40
1040
30.0
1070
   143
1040
0.039
1070
   172
1070
     1
1070
   271
1070
     0
1070
   279
1070
     0
1070
   288
1070
     1
1002
}
  0
LINE
  5
7C37
  8
1
  6
CONTINUOUS
 10
4840.024641
 20
3657.9540109999989
 30
0.0
 11
4840.024641
 21
2987.9540109999989
 31
0.0
  0
DIMENSION
  5
7C44
  8
3
  6
CONTINUOUS
  2
*D10
 10
5130.7627120000006
 20
2987.9540109999989
 30
0.0
 11
5130.7627119999997
 21
3336.6568969999989
 31
0.0
 70
   128
 13
4840.024641
 23
3657.9540109999989
 33
0.0
 14
4840.024641
 24
2987.9540109999989
 34
0.0
 50
90.0
1001
ACAD
1000
DSTYLE
1002
{
1070
   287
1070
     3
1070
   287
1070
     3
1070
     3
1000
φ<>
1070
    40
1040
30.0
1070
   143
1040
0.039
1070
   172
1070
     1
1070
   271
1070
     0
1070
   279
1070
     0
1070
   288
1070
     1
1002
}
  0
DIMENSION
  5
7C5E
  8
3
  6
CONTINUOUS
  2
*D11
 10
4119.024641
 20
4263.9547361429586
 30
0.0
 11
4359.024641
 21
4413.9547361429577
 31
0.0
 70
     0
  1
MAX\P530
 13
4599.0246409999991
 23
4174.1055503928474
 33
0.0
 14
4119.024641
 24
3852.9540109999989
 34
0.0
1001
ACAD
1000
DSTYLE
1002
{
1070
   287
1070
     4
1070
   287
1070
     4
1070
    40
1040
30.0
1070
    75
1070
     1
1070
   143
1040
0.039
1070
   172
1070
     1
1070
   271
1070
     0
1070
   279
1070
     1
1070
   288
1070
     1
1002
}
  0
DIMENSION
  5
7C6B
  8
3
  6
CONTINUOUS
  2
*D12
 10
4599.0246409999991
 20
2363.8991739999992
 30
0.0
 11
4421.1674981428569
 21
2363.8991739999992
 31
0.0
 70
   128
 13
4188.024641
 23
2626.9540109999998
 33
0.0
 14
4599.0246409999991
 24
2481.95276280999
 34
0.0
1001
ACAD
1000
DSTYLE
1002
{
1070
   287
1070
     3
1070
   287
1070
     3
1070
    40
1040
30.0
1070
   143
1040
0.039
1070
   172
1070
     1
1070
   271
1070
     0
1070
   279
1070
     0
1070
   288
1070
     1
1002
}
  0
DIMENSION
  5
7C79
  8
3
  6
CONTINUOUS
  2
*D13
 10
4888.024641
 20
2363.8991739999992
 30
0.0
 11
4749.3574600000002
 21
2361.984179999999
 31
0.0
 70
   128
 13
4599.0246409999991
 23
2481.95276280999
 33
0.0
 14
4888.024641
 24
2626.9540109999998
 34
0.0
1001
ACAD
1000
DSTYLE
1002
{
1070
   287
1070
     4
1070
   287
1070
     4
1070
    40
1040
30.0
1070
    75
1070
     1
1070
   143
1040
0.039
1070
   172
1070
     1
1070
   271
1070
     0
1070
   279
1070
     1
1070
   288
1070
     1
1002
}
  0
DIMENSION
  5
7CE0
  8
3
  6
CONTINUOUS
  2
*D14
 10
3051.0951519999999
 20
6225.4549079999988
 30
0.0
 11
2296.691773
 21
6225.4549079999988
 31
0.0
 70
   128
 13
1641.095151999999
 23
5974.4858610000001
 33
0.0
 14
3051.0951519999999
 24
5974.4858610000001
 34
0.0
1001
ACAD
1000
DSTYLE
1002
{
1070
   287
1070
     3
1070
   287
1070
     3
1070
    40
1040
30.0
1070
   143
1040
0.039
1070
   172
1070
     1
1070
   271
1070
     0
1070
   279
1070
     0
1070
   288
1070
     1
1002
}
  0
DIMENSION
  5
7CED
  8
3
  6
CONTINUOUS
  2
*D15
 10
3320.236241000001
 20
5274.4858610000001
 30
0.0
 11
3320.2362409999992
 21
5597.14869
 31
0.0
 70
   128
 13
3051.0951519999999
 23
5974.4858610000001
 33
0.0
 14
3051.0951519999999
 24
5274.4858610000001
 34
0.0
 50
90.0
1001
ACAD
1000
DSTYLE
1002
{
1070
   287
1070
     3
1070
   287
1070
     3
1070
    40
1040
30.0
1070
   143
1040
0.039
1070
   172
1070
     1
1070
   271
1070
     0
1070
   279
1070
     0
1070
   288
1070
     1
1002
}
  0
DIMENSION
  5
7D23
  8
3
  6
CONTINUOUS
  2
*D16
 10
2593.0951519999999
 20
4119.1780229999986
 30
0.0
 11
2332.095151999999
 21
4194.1780230000004
 31
0.0
 70
     0
 13
2071.095151999999
 23
4100.8979009999994
 33
0.0
 14
2593.0951519999999
 24
3322.9540109999998
 34
0.0
1001
ACAD
1000
DSTYLE
1002
{
1070
   287
1070
     4
1070
   287
1070
     4
1070
    40
1040
30.0
1070
    75
1070
     1
1070
   143
1040
0.039
1070
   172
1070
     1
1070
   271
1070
     0
1070
   279
1070
     1
1070
   288
1070
     1
1002
}
  0
DIMENSION
  5
7D9C
  8
3
  6
CONTINUOUS
  2
*D17
 10
4840.024641
 20
4263.9547361429586
 30
0.0
 11
4718.8956982122027
 21
4344.0459233102592
 31
0.0
 70
   128
 13
4599.0246409999991
 23
4176.1779895582868
 33
0.0
 14
4840.024641
 24
3657.9540109999989
 34
0.0
1001
ACAD
1000
DSTYLE
1002
{
1070
   288
1070
     1
1070
   172
1070
     1
1070
    40
1040
30.0
1070
   271
1070
     0
1070
   143
1040
0.039
1002
}
  0
DIMENSION
  5
7DEC
  8
3
  2
*D18
 10
3051.0951519999999
 20
4298.2349631583202
 30
0.0
 11
2283.463167348807
 21
4298.2349631583202
 31
0.0
 70
   128
 13
1586.095151999999
 23
3982.9540109999989
 33
0.0
 14
3051.0951519999999
 24
2852.9540109999989
 34
0.0
1001
ACAD
1000
DSTYLE
1002
{
1070
   287
1070
     3
1070
   287
1070
     3
1070
    40
1040
30.0
1070
   143
1040
0.039
1070
   172
1070
     1
1070
   271
1070
     0
1070
   279
1070
     0
1070
   288
1070
     1
1002
}
  0
LINE
  5
7F4C
  8
1
  6
CONTINUOUS
 10
2481.095151999999
 20
3672.9540109999998
 30
0.0
 11
1661.095151999999
 21
3672.9540109999998
 31
0.0
  0
LINE
  5
7F4D
  8
1
 10
1661.095151999999
 20
3672.9540109999998
 30
0.0
 11
1661.0951520000001
 21
2852.9540109999989
 31
0.0
  0
LINE
  5
7F4E
  8
1
 10
2481.095151999999
 20
3672.9540109999998
 30
0.0
 11
2481.095151999999
 21
2852.9540109999989
 31
0.0
  0
ENDSEC
  0
EOF
