  0
SECTION
  2
HEADER
  9
$ACADVER
  1
AC1009
  9
$INSBASE
 10
0.0
 20
0.0
 30
0.0
  9
$EXTMIN
 10
500.0
 20
600.0
 30
0.0
  9
$EXTMAX
 10
3700.0
 20
5573.3045229999998
 30
0.0
  9
$LIMMIN
 10
0.0
 20
0.0
  9
$LIMMAX
 10
297.0
 20
210.0
  9
$ORTHOMODE
 70
     0
  9
$REGENMODE
 70
     1
  9
$FILLMODE
 70
     0
  9
$QTEXTMODE
 70
     0
  9
$MIRRTEXT
 70
     1
  9
$DRAGMODE
 70
     2
  9
$LTSCALE
 40
100.0
  9
$OSMODE
 70
    37
  9
$ATTMODE
 70
     1
  9
$TEXTSIZE
 40
180.0
  9
$TRACEWID
 40
0.05
  9
$TEXTSTYLE
  7
STANDARD
  9
$CLAYER
  8
3
  9
$CELTYPE
  6
BYLAYER
  9
$CECOLOR
 62
   256
  9
$DIMSCALE
 40
20.0
  9
$DIMASZ
 40
2.0
  9
$DIMEXO
 40
0.5
  9
$DIMDLI
 40
10.0
  9
$DIMRND
 40
0.0
  9
$DIMDLE
 40
0.0
  9
$DIMEXE
 40
1.0
  9
$DIMTP
 40
1.0
  9
$DIMTM
 40
1.0
  9
$DIMTXT
 40
3.0
  9
$DIMCEN
 40
0.0
  9
$DIMTSZ
 40
0.0
  9
$DIMTOL
 70
     0
  9
$DIMLIM
 70
     0
  9
$DIMTIH
 70
     0
  9
$DIMTOH
 70
     0
  9
$DIMSE1
 70
     0
  9
$DIMSE2
 70
     0
  9
$DIMTAD
 70
     1
  9
$DIMZIN
 70
     8
  9
$DIMBLK
  1

  9
$DIMASO
 70
     1
  9
$DIMSHO
 70
     1
  9
$DIMPOST
  1
(<>)
  9
$DIMAPOST
  1

  9
$DIMALT
 70
     0
  9
$DIMALTD
 70
     2
  9
$DIMALTF
 40
0.039
  9
$DIMLFAC
 40
1.0
  9
$DIMTOFL
 70
     1
  9
$DIMTVP
 40
0.0
  9
$DIMTIX
 70
     0
  9
$DIMSOXD
 70
     0
  9
$DIMSAH
 70
     1
  9
$DIMBLK1
  1
DOT
  9
$DIMBLK2
  1
OPEN
  9
$DIMSTYLE
  2
IGA
  9
$DIMCLRD
 70
     0
  9
$DIMCLRE
 70
     0
  9
$DIMCLRT
 70
     0
  9
$DIMTFAC
 40
10.0
  9
$DIMGAP
 40
1.0
  9
$LUNITS
 70
     2
  9
$LUPREC
 70
     3
  9
$SKETCHINC
 40
0.1
  9
$FILLETRAD
 40
50.0
  9
$AUNITS
 70
     0
  9
$AUPREC
 70
     0
  9
$MENU
  1
acad
  9
$ELEVATION
 40
0.0
  9
$PELEVATION
 40
0.0
  9
$THICKNESS
 40
0.0
  9
$LIMCHECK
 70
     0
  9
$BLIPMODE
 70
     0
  9
$CHAMFERA
 40
0.5
  9
$CHAMFERB
 40
0.5
  9
$SKPOLY
 70
     0
  9
$TDCREATE
 40
2450737.3930388889
  9
$TDUPDATE
 40
2454953.8375878008
  9
$TDINDWG
 40
0.0049961343
  9
$TDUSRTIMER
 40
0.0049961343
  9
$USRTIMER
 70
     1
  9
$ANGBASE
 50
0.0
  9
$ANGDIR
 70
     0
  9
$PDMODE
 70
     0
  9
$PDSIZE
 40
0.0
  9
$PLINEWID
 40
0.0
  9
$COORDS
 70
     1
  9
$SPLFRAME
 70
     0
  9
$SPLINETYPE
 70
     6
  9
$SPLINESEGS
 70
     8
  9
$ATTDIA
 70
     0
  9
$ATTREQ
 70
     1
  9
$HANDLING
 70
 10241
  9
$HANDSEED
  5
7F52
  9
$SURFTAB1
 70
     6
  9
$SURFTAB2
 70
     6
  9
$SURFTYPE
 70
     6
  9
$SURFU
 70
     6
  9
$SURFV
 70
     6
  9
$UCSNAME
  2

  9
$UCSORG
 10
0.0
 20
0.0
 30
0.0
  9
$UCSXDIR
 10
1.0
 20
0.0
 30
0.0
  9
$UCSYDIR
 10
0.0
 20
1.0
 30
0.0
  9
$PUCSNAME
  2

  9
$PUCSORG
 10
0.0
 20
0.0
 30
0.0
  9
$PUCSXDIR
 10
1.0
 20
0.0
 30
0.0
  9
$PUCSYDIR
 10
0.0
 20
1.0
 30
0.0
  9
$USERI1
 70
     0
  9
$USERI2
 70
     0
  9
$USERI3
 70
     0
  9
$USERI4
 70
     0
  9
$USERI5
 70
     0
  9
$USERR1
 40
0.0
  9
$USERR2
 40
0.0
  9
$USERR3
 40
0.0
  9
$USERR4
 40
0.0
  9
$USERR5
 40
0.0
  9
$WORLDVIEW
 70
     1
  9
$SHADEDGE
 70
     3
  9
$SHADEDIF
 70
    70
  9
$TILEMODE
 70
     1
  9
$MAXACTVP
 70
    16
  9
$PLIMCHECK
 70
     0
  9
$PEXTMIN
 10
1.0000000000000000E+020
 20
1.0000000000000000E+020
 30
1.0000000000000000E+020
  9
$PEXTMAX
 10
-1.0000000000000000E+020
 20
-1.0000000000000000E+020
 30
-1.0000000000000000E+020
  9
$PLIMMIN
 10
0.0
 20
0.0
  9
$PLIMMAX
 10
12.0
 20
9.0
  9
$UNITMODE
 70
     0
  9
$VISRETAIN
 70
     0
  9
$PLINEGEN
 70
     0
  9
$PSLTSCALE
 70
     1
  0
ENDSEC
  0
SECTION
  2
TABLES
  0
TABLE
  2
VPORT
 70
     2
  0
VPORT
  2
*ACTIVE
 70
     0
 10
0.0
 20
0.0
 11
1.0
 21
1.0
 12
5849.9813286963918
 22
3873.6852624743401
 13
0.0
 23
0.0
 14
10.0
 24
10.0
 15
10.0
 25
10.0
 16
0.0
 26
0.0
 36
1.0
 17
0.0
 27
0.0
 37
0.0
 40
7720.8617819453802
 41
1.5051150895140659
 42
50.0
 43
0.0
 44
0.0
 50
0.0
 51
0.0
 71
     0
 72
   100
 73
     1
 74
     0
 75
     0
 76
     0
 77
     0
 78
     0
  0
ENDTAB
  0
TABLE
  2
LTYPE
 70
     2
  0
LTYPE
  2
CONTINUOUS
 70
     0
  3
Solid line
 72
    65
 73
     0
 40
0.0
  0
LTYPE
  2
CENTER
 70
     0
  3
____ _ ____ _ ____ _ ____ _ ____ _ ____ _ ____ 
 72
    65
 73
     4
 40
2.0
 49
1.25
 49
-0.25
 49
0.25
 49
-0.25
  0
ENDTAB
  0
TABLE
  2
LAYER
 70
     6
  0
LAYER
  2
0
 70
     0
 62
     7
  6
CONTINUOUS
  0
LAYER
  2
3
 70
     0
 62
     2
  6
CONTINUOUS
  0
LAYER
  2
2
 70
     0
 62
     3
  6
CENTER
  0
LAYER
  2
1
 70
     0
 62
     4
  6
CONTINUOUS
  0
LAYER
  2
4
 70
     0
 62
     7
  6
CONTINUOUS
  0
LAYER
  2
DEFPOINTS
 70
     0
 62
     7
  6
CONTINUOUS
  0
ENDTAB
  0
TABLE
  2
STYLE
 70
     1
  0
STYLE
  2
STANDARD
 70
     0
 40
0.0
 41
1.0
 50
0.0
 71
     0
 42
180.0
  3
simplex.shx
  4
extfont.shx
  0
ENDTAB
  0
TABLE
  2
VIEW
 70
     0
  0
ENDTAB
  0
TABLE
  2
UCS
 70
     0
  0
ENDTAB
  0
TABLE
  2
APPID
 70
     1
  0
APPID
  2
ACAD
 70
     0
  0
ENDTAB
  0
TABLE
  2
DIMSTYLE
 70
     1
  0
DIMSTYLE
  2
IGA
 70
     0
  3

  4

  5

  6
OPEN
  7
OPEN
 40
2.0
 41
2.0
 42
0.5
 43
10.0
 44
1.0
 45
0.0
 46
0.0
 47
1.0
 48
1.0
140
3.0
141
0.0
142
0.0
143
0.03937
144
1.0
145
0.0
146
10.0
147
1.0
 71
     0
 72
     0
 73
     0
 74
     0
 75
     0
 76
     0
 77
     1
 78
     8
170
     0
171
     2
172
     0
173
     1
174
     0
175
     0
176
     0
177
     0
178
     0
  0
ENDTAB
  0
ENDSEC
  0
SECTION
  2
BLOCKS
  0
BLOCK
  8
0
  2
$MODEL_SPACE
 70
     0
 10
0.0
 20
0.0
 30
0.0
  3
$MODEL_SPACE
  1

  0
ENDBLK
  5
1B
  8
0
  0
BLOCK
 67
     1
  8
0
  2
$PAPER_SPACE
 70
     0
 10
0.0
 20
0.0
 30
0.0
  3
$PAPER_SPACE
  1

  0
ENDBLK
  5
18
 67
     1
  8
0
  0
BLOCK
  8
0
  2
_OPEN
 70
     0
 10
0.0
 20
0.0
 30
0.0
  3
_OPEN
  1

  0
LINE
  5
7B04
  8
0
  6
BYBLOCK
 62
     0
 10
-1.0
 20
0.166667
 30
0.0
 11
0.0
 21
0.0
 31
0.0
  0
LINE
  5
7B05
  8
0
  6
BYBLOCK
 62
     0
 10
0.0
 20
0.0
 30
0.0
 11
-1.0
 21
-0.166667
 31
0.0
  0
LINE
  5
7B06
  8
0
  6
BYBLOCK
 62
     0
 10
0.0
 20
0.0
 30
0.0
 11
-1.0
 21
0.0
 31
0.0
  0
ENDBLK
  5
7B07
  8
0
  0
BLOCK
  8
0
  2
*D1
 70
     1
 10
0.0
 20
0.0
 30
0.0
  3
*D1
  1

  0
LINE
  5
7EAF
  8
3
  6
CONTINUOUS
 62
     0
 10
1913.744545
 20
2441.910374
 30
0.0
 11
2077.7857979999999
 21
2441.910374
 31
0.0
  0
LINE
  5
7EB0
  8
3
  6
CONTINUOUS
 62
     0
 10
1913.744545
 20
1881.910374
 30
0.0
 11
2077.7857979999999
 21
1881.910374
 31
0.0
  0
LINE
  5
7EB1
  8
3
  6
CONTINUOUS
 62
     0
 10
2057.7857979999999
 20
2401.910374
 30
0.0
 11
2057.7857979999999
 21
1921.9103739999989
 31
0.0
  0
INSERT
  5
7EB2
  8
3
  6
CONTINUOUS
 62
     0
  2
_OPEN
 10
2057.7857979999999
 20
2441.910374
 30
0.0
 41
40.0
 42
40.0
 43
40.0
 50
90.0
  0
INSERT
  5
7EB3
  8
3
  6
CONTINUOUS
 62
     0
  2
_OPEN
 10
2057.7857979999999
 20
1881.910374
 30
0.0
 41
40.0
 42
40.0
 43
40.0
 50
270.0
  0
TEXT
  8
3
  40
60
  5
7F41
  62
0
  72
0
  71
0
 10
1887.79
 20
2074.00
 30
0.000000
  1
560
  0
POINT
  5
7EB5
  8
DEFPOINTS
  6
CONTINUOUS
 62
     0
 10
1903.744545
 20
2441.910374
 30
0.0
  0
POINT
  5
7EB6
  8
DEFPOINTS
  6
CONTINUOUS
 62
     0
 10
1903.744545
 20
1881.910374
 30
0.0
  0
POINT
  5
7EB7
  8
DEFPOINTS
  6
CONTINUOUS
 62
     0
 10
2057.7857979999999
 20
1881.910374
 30
0.0
  0
ENDBLK
  5
7B14
  8
0
  0
BLOCK
  8
0
  2
*D2
 70
     1
 10
0.0
 20
0.0
 30
0.0
  3
*D2
  1

  0
LINE
  5
7EB8
  8
3
  6
CONTINUOUS
 62
     0
 10
1987.719728
 20
2420.9103739999991
 30
0.0
 11
2208.2032899999999
 21
2420.9103739999991
 31
0.0
  0
LINE
  5
7EB9
  8
3
  6
CONTINUOUS
 62
     0
 10
1913.744545
 20
1881.910374
 30
0.0
 11
2208.2032899999999
 21
1881.910374
 31
0.0
  0
LINE
  5
7EBA
  8
3
  6
CONTINUOUS
 62
     0
 10
2188.2032899999999
 20
2380.910374
 30
0.0
 11
2188.2032899999999
 21
1921.9103739999989
 31
0.0
  0
INSERT
  5
7EBB
  8
3
  6
CONTINUOUS
 62
     0
  2
_OPEN
 10
2188.2032899999999
 20
2420.9103739999991
 30
0.0
 41
40.0
 42
40.0
 43
40.0
 50
90.0
  0
INSERT
  5
7EBC
  8
3
  6
CONTINUOUS
 62
     0
  2
_OPEN
 10
2188.2032899999999
 20
1881.910374
 30
0.0
 41
40.0
 42
40.0
 43
40.0
 50
270.0
  0
TEXT
  8
3
  40
60
  5
7F42
  62
0
  72
0
  71
0
 10
2018.20
 20
2083.31
 30
0.000000
  1
539
  0
POINT
  5
7EBE
  8
DEFPOINTS
  6
CONTINUOUS
 62
     0
 10
1977.719728
 20
2420.9103739999991
 30
0.0
  0
POINT
  5
7EBF
  8
DEFPOINTS
  6
CONTINUOUS
 62
     0
 10
1903.744545
 20
1881.910374
 30
0.0
  0
POINT
  5
7EC0
  8
DEFPOINTS
  6
CONTINUOUS
 62
     0
 10
2188.2032899999999
 20
1881.910374
 30
0.0
  0
ENDBLK
  5
7B21
  8
0
  0
BLOCK
  8
0
  2
*D3
 70
     1
 10
0.0
 20
0.0
 30
0.0
  3
*D3
  1

  0
LINE
  5
7EC1
  8
3
  6
CONTINUOUS
 62
     0
 10
1868.744545
 20
2830.910374
 30
0.0
 11
2347.936342
 21
2830.910374
 31
0.0
  0
LINE
  5
7EC2
  8
3
  6
CONTINUOUS
 62
     0
 10
1987.719728
 20
2420.9103739999991
 30
0.0
 11
2347.936342
 21
2420.9103739999991
 31
0.0
  0
LINE
  5
7EC3
  8
3
  6
CONTINUOUS
 62
     0
 10
2327.936342
 20
2790.910374
 30
0.0
 11
2327.936342
 21
2460.910374
 31
0.0
  0
INSERT
  5
7EC4
  8
3
  6
CONTINUOUS
 62
     0
  2
_OPEN
 10
2327.936342
 20
2830.910374
 30
0.0
 41
40.0
 42
40.0
 43
40.0
 50
90.0
  0
INSERT
  5
7EC5
  8
3
  6
CONTINUOUS
 62
     0
  2
_OPEN
 10
2327.936342
 20
2420.9103739999991
 30
0.0
 41
40.0
 42
40.0
 43
40.0
 50
270.0
  0
TEXT
  8
3
  40
60
  5
7F43
  62
0
  72
0
  71
0
 10
2157.94
 20
2530.04
 30
0.000000
  1
410
  0
POINT
  5
7EC7
  8
DEFPOINTS
  6
CONTINUOUS
 62
     0
 10
1858.744545
 20
2830.910374
 30
0.0
  0
POINT
  5
7EC8
  8
DEFPOINTS
  6
CONTINUOUS
 62
     0
 10
1977.719728
 20
2420.9103739999991
 30
0.0
  0
POINT
  5
7EC9
  8
DEFPOINTS
  6
CONTINUOUS
 62
     0
 10
2327.936342
 20
2420.9103739999991
 30
0.0
  0
ENDBLK
  5
7B2E
  8
0
  0
BLOCK
  8
0
  2
*D4
 70
     1
 10
0.0
 20
0.0
 30
0.0
  3
*D4
  1

  0
LINE
  5
7ECA
  8
3
  6
CONTINUOUS
 62
     0
 10
1853.7445449999991
 20
1750.9103739999989
 30
0.0
 11
2347.936342
 21
1750.9103739999989
 31
0.0
  0
LINE
  5
7ECB
  8
3
  6
CONTINUOUS
 62
     0
 10
2327.936342
 20
2380.910374
 30
0.0
 11
2327.936342
 21
1790.910374
 31
0.0
  0
INSERT
  5
7ECC
  8
3
  6
CONTINUOUS
 62
     0
  2
_OPEN
 10
2327.936342
 20
2420.9103739999991
 30
0.0
 41
40.0
 42
40.0
 43
40.0
 50
90.0
  0
INSERT
  5
7ECD
  8
3
  6
CONTINUOUS
 62
     0
  2
_OPEN
 10
2327.936342
 20
1750.9103739999989
 30
0.0
 41
40.0
 42
40.0
 43
40.0
 50
270.0
  0
TEXT
  8
3
  40
60
  5
7F44
  62
0
  72
0
  71
0
 10
2157.94
 20
1979.71
 30
0.000000
  1
670
  0
POINT
  5
7ECF
  8
DEFPOINTS
  6
CONTINUOUS
 62
     0
 10
1977.719728
 20
2420.9103739999991
 30
0.0
  0
POINT
  5
7ED0
  8
DEFPOINTS
  6
CONTINUOUS
 62
     0
 10
1843.744545
 20
1750.9103739999989
 30
0.0
  0
POINT
  5
7ED1
  8
DEFPOINTS
  6
CONTINUOUS
 62
     0
 10
2327.936342
 20
1750.9103739999989
 30
0.0
  0
ENDBLK
  5
7B3A
  8
0
  0
BLOCK
  8
0
  2
*D5
 70
     1
 10
0.0
 20
0.0
 30
0.0
  3
*D5
  1

  0
LINE
  5
7ED2
  8
3
  6
CONTINUOUS
 62
     0
 10
1903.744545
 20
2478.910374
 30
0.0
 11
1903.744545
 21
2995.4556249999991
 31
0.0
  0
LINE
  5
7ED3
  8
3
  6
CONTINUOUS
 62
     0
 10
1498.744545
 20
2966.0194510000001
 30
0.0
 11
1498.744545
 21
2995.4556249999991
 31
0.0
  0
LINE
  5
7ED4
  8
3
  6
CONTINUOUS
 62
     0
 10
1863.744545
 20
2975.4556250000001
 30
0.0
 11
1538.744545
 21
2975.4556250000001
 31
0.0
  0
INSERT
  5
7ED5
  8
3
  6
CONTINUOUS
 62
     0
  2
_OPEN
 10
1903.744545
 20
2975.4556250000001
 30
0.0
 41
40.0
 42
40.0
 43
40.0
  0
INSERT
  5
7ED6
  8
3
  6
CONTINUOUS
 62
     0
  2
_OPEN
 10
1498.744545
 20
2975.4556250000001
 30
0.0
 41
40.0
 42
40.0
 43
40.0
 50
180.0
  0
TEXT
  8
3
  40
60
  5
7F45
  62
0
  72
0
  71
0
 10
1574.48
 20
2919.26
 30
0.000000
  1
405
  0
POINT
  5
7ED8
  8
DEFPOINTS
  6
CONTINUOUS
 62
     0
 10
1903.744545
 20
2468.910374
 30
0.0
  0
POINT
  5
7ED9
  8
DEFPOINTS
  6
CONTINUOUS
 62
     0
 10
1498.744545
 20
2956.0194510000001
 30
0.0
  0
POINT
  5
7EDA
  8
DEFPOINTS
  6
CONTINUOUS
 62
     0
 10
1498.744545
 20
2975.4556250000001
 30
0.0
  0
ENDBLK
  5
7C4F
  8
0
  0
BLOCK
  8
0
  2
*D6
 70
     1
 10
0.0
 20
0.0
 30
0.0
  3
*D6
  1

  0
LINE
  5
7EDB
  8
3
  6
CONTINUOUS
 62
     0
 10
1035.744545
 20
2393.910374
 30
0.0
 11
1035.744545
 21
2995.4556249999991
 31
0.0
  0
LINE
  5
7EDC
  8
3
  6
CONTINUOUS
 62
     0
 10
1458.744545
 20
2975.4556250000001
 30
0.0
 11
1075.744545
 21
2975.4556250000001
 31
0.0
  0
INSERT
  5
7EDD
  8
3
  6
CONTINUOUS
 62
     0
  2
_OPEN
 10
1498.744545
 20
2975.4556250000001
 30
0.0
 41
40.0
 42
40.0
 43
40.0
  0
INSERT
  5
7EDE
  8
3
  6
CONTINUOUS
 62
     0
  2
_OPEN
 10
1035.744545
 20
2975.4556250000001
 30
0.0
 41
40.0
 42
40.0
 43
40.0
 50
180.0
  0
TEXT
  8
3
  40
60
  5
7F46
  62
0
  72
0
  71
0
 10
1147.24
 20
2919.26
 30
0.000000
  1
463
  0
POINT
  5
7EE0
  8
DEFPOINTS
  6
CONTINUOUS
 62
     0
 10
1498.744545
 20
2956.0194510000001
 30
0.0
  0
POINT
  5
7EE1
  8
DEFPOINTS
  6
CONTINUOUS
 62
     0
 10
1035.744545
 20
2383.910374
 30
0.0
  0
POINT
  5
7EE2
  8
DEFPOINTS
  6
CONTINUOUS
 62
     0
 10
1035.744545
 20
2975.4556250000001
 30
0.0
  0
ENDBLK
  5
7D50
  8
0
  0
BLOCK
  8
0
  2
*D7
 70
     1
 10
0.0
 20
0.0
 30
0.0
  3
*D7
  1

  0
LINE
  5
7EE3
  8
3
  6
CONTINUOUS
 62
     0
 10
3431.130846
 20
2715.910374
 30
0.0
 11
3667.6966130000001
 21
2715.910374
 31
0.0
  0
LINE
  5
7EE4
  8
3
  6
CONTINUOUS
 62
     0
 10
3433.130846
 20
2125.910374
 30
0.0
 11
3667.6966130000001
 21
2125.910374
 31
0.0
  0
LINE
  5
7EE5
  8
3
  6
CONTINUOUS
 62
     0
 10
3647.6966130000001
 20
2675.910374
 30
0.0
 11
3647.6966130000001
 21
2165.910374
 31
0.0
  0
INSERT
  5
7EE6
  8
3
  6
CONTINUOUS
 62
     0
  2
_OPEN
 10
3647.6966130000001
 20
2715.910374
 30
0.0
 41
40.0
 42
40.0
 43
40.0
 50
90.0
  0
INSERT
  5
7EE7
  8
3
  6
CONTINUOUS
 62
     0
  2
_OPEN
 10
3647.6966130000001
 20
2125.910374
 30
0.0
 41
40.0
 42
40.0
 43
40.0
 50
270.0
  0
TEXT
  8
3
  40
60
  5
7F47
  62
0
  72
0
  71
0
 10
3477.70
 20
2292.71
 30
0.000000
  1
φ590
  0
POINT
  5
7EE9
  8
DEFPOINTS
  6
CONTINUOUS
 62
     0
 10
3421.130846
 20
2715.910374
 30
0.0
  0
POINT
  5
7EEA
  8
DEFPOINTS
  6
CONTINUOUS
 62
     0
 10
3423.130846
 20
2125.910374
 30
0.0
  0
POINT
  5
7EEB
  8
DEFPOINTS
  6
CONTINUOUS
 62
     0
 10
3647.6966130000001
 20
2125.910374
 30
0.0
  0
ENDBLK
  5
7D3B
  8
0
  0
BLOCK
  8
0
  2
*D8
 70
     1
 10
0.0
 20
0.0
 30
0.0
  3
*D8
  1

  0
LINE
  5
7D27
  8
0
  6
BYBLOCK
 62
     0
 10
3423.130846
 20
2750.910374
 30
0.0
 11
3423.130846
 21
3032.4565389999998
 31
0.0
  0
LINE
  5
7D28
  8
0
  6
BYBLOCK
 62
     0
 10
3211.130846
 20
2979.2890769999999
 30
0.0
 11
3211.130846
 21
3032.4565389999998
 31
0.0
  0
LINE
  5
7D29
  8
0
  6
BYBLOCK
 62
     0
 10
3383.130846
 20
3012.4565389999998
 30
0.0
 11
3251.130846
 21
3012.4565389999998
 31
0.0
  0
TEXT
  5
7D2A
  8
3
 62
     0
 10
3245.702274571428
 20
3046.97664812217
 30
0.0
 40
60.0
  1
212
  0
INSERT
  5
7D2B
  8
0
  6
BYBLOCK
 62
     0
  2
_OPEN
 10
3423.130846
 20
3012.4565389999998
 30
0.0
 41
40.0
 42
40.0
 43
40.0
  0
INSERT
  5
7D2C
  8
0
  6
BYBLOCK
 62
     0
  2
_OPEN
 10
3211.130846
 20
3012.4565389999998
 30
0.0
 41
40.0
 42
40.0
 43
40.0
 50
180.0
  0
POINT
  5
7D2D
  8
DEFPOINTS
  6
BYBLOCK
 62
     0
 10
3423.130846
 20
2740.910374
 30
0.0
  0
POINT
  5
7D2E
  8
DEFPOINTS
  6
BYBLOCK
 62
     0
 10
3211.130846
 20
2969.289076999999
 30
0.0
  0
POINT
  5
7D2F
  8
DEFPOINTS
  6
BYBLOCK
 62
     0
 10
3211.130846
 20
3012.4565389999998
 30
0.0
  0
ENDBLK
  5
7D30
  8
0
  0
BLOCK
  8
0
  2
*D9
 70
     1
 10
0.0
 20
0.0
 30
0.0
  3
*D9
  1

  0
LINE
  5
7EEC
  8
3
  6
CONTINUOUS
 62
     0
 10
2801.130846
 20
2675.910374
 30
0.0
 11
2801.130846
 21
3032.4565389999998
 31
0.0
  0
LINE
  5
7EED
  8
3
  6
CONTINUOUS
 62
     0
 10
3171.130846
 20
3012.4565389999998
 30
0.0
 11
2841.130846
 21
3012.4565389999998
 31
0.0
  0
INSERT
  5
7EEE
  8
3
  6
CONTINUOUS
 62
     0
  2
_OPEN
 10
3211.130846
 20
3012.4565389999998
 30
0.0
 41
40.0
 42
40.0
 43
40.0
  0
INSERT
  5
7EEF
  8
3
  6
CONTINUOUS
 62
     0
  2
_OPEN
 10
2801.130846
 20
3012.4565389999998
 30
0.0
 41
40.0
 42
40.0
 43
40.0
 50
180.0
  0
TEXT
  8
3
  40
60
  5
7F48
  62
0
  72
0
  71
0
 10
2886.13
 20
3006.26
 30
0.000000
  1
MAX
  0
TEXT
  8
3
  40
60
  5
7F49
  62
0
  72
0
  71
0
 10
2886.13
 20
2928.26
 30
0.000000
  1
470
  0
POINT
  5
7EF1
  8
DEFPOINTS
  6
CONTINUOUS
 62
     0
 10
3211.130846
 20
2969.289076999999
 30
0.0
  0
POINT
  5
7EF2
  8
DEFPOINTS
  6
CONTINUOUS
 62
     0
 10
2801.130846
 20
2665.910374
 30
0.0
  0
POINT
  5
7EF3
  8
DEFPOINTS
  6
CONTINUOUS
 62
     0
 10
2801.130846
 20
3012.4565389999998
 30
0.0
  0
ENDBLK
  5
7D45
  8
0
  0
BLOCK
  8
0
  2
*D10
 70
     1
 10
0.0
 20
0.0
 30
0.0
  3
*D10
  1

  0
LINE
  5
7EF4
  8
3
  6
CONTINUOUS
 62
     0
 10
593.74454500000002
 20
4170.910374
 30
0.0
 11
593.74454500000002
 21
4310.9530949999998
 31
0.0
  0
LINE
  5
7EF5
  8
3
  6
CONTINUOUS
 62
     0
 10
1843.744545
 20
4170.910374
 30
0.0
 11
1843.744545
 21
4310.9530949999998
 31
0.0
  0
LINE
  5
7EF6
  8
3
  6
CONTINUOUS
 62
     0
 10
633.74454500000002
 20
4290.9530949999989
 30
0.0
 11
1803.7445449999991
 21
4290.9530949999989
 31
0.0
  0
INSERT
  5
7EF7
  8
3
  6
CONTINUOUS
 62
     0
  2
_OPEN
 10
593.74454500000002
 20
4290.9530949999989
 30
0.0
 41
40.0
 42
40.0
 43
40.0
 50
180.0
  0
INSERT
  5
7EF8
  8
3
  6
CONTINUOUS
 62
     0
  2
_OPEN
 10
1843.744545
 20
4290.9530949999989
 30
0.0
 41
40.0
 42
40.0
 43
40.0
  0
TEXT
  8
3
  40
60
  5
7F4A
  62
0
  72
0
  71
0
 10
1057.47
 20
4234.75
 30
0.000000
  1
1250
  0
POINT
  5
7EFA
  8
DEFPOINTS
  6
CONTINUOUS
 62
     0
 10
593.74454500000002
 20
4160.910374
 30
0.0
  0
POINT
  5
7EFB
  8
DEFPOINTS
  6
CONTINUOUS
 62
     0
 10
1843.744545
 20
4160.910374
 30
0.0
  0
POINT
  5
7EFC
  8
DEFPOINTS
  6
CONTINUOUS
 62
     0
 10
1843.744545
 20
4290.9530949999989
 30
0.0
  0
ENDBLK
  5
7BF7
  8
0
  0
BLOCK
  8
0
  2
*D11
 70
     1
 10
0.0
 20
0.0
 30
0.0
  3
*D11
  1

  0
LINE
  5
7EFD
  8
3
  6
CONTINUOUS
 62
     0
 10
1853.7445449999991
 20
4160.910374
 30
0.0
 11
2156.9678469999999
 21
4160.9103739999991
 31
0.0
  0
LINE
  5
7EFE
  8
3
  6
CONTINUOUS
 62
     0
 10
1853.7445449999991
 20
3650.910374
 30
0.0
 11
2156.9678469999999
 21
3650.910374
 31
0.0
  0
LINE
  5
7EFF
  8
3
  6
CONTINUOUS
 62
     0
 10
2136.9678469999999
 20
4120.9103739999991
 30
0.0
 11
2136.9678469999999
 21
3690.9103739999991
 31
0.0
  0
INSERT
  5
7F00
  8
3
  6
CONTINUOUS
 62
     0
  2
_OPEN
 10
2136.9678469999999
 20
4160.9103739999991
 30
0.0
 41
40.0
 42
40.0
 43
40.0
 50
90.0
  0
INSERT
  5
7F01
  8
3
  6
CONTINUOUS
 62
     0
  2
_OPEN
 10
2136.9678469999999
 20
3650.910374
 30
0.0
 41
40.0
 42
40.0
 43
40.0
 50
270.0
  0
TEXT
  8
3
  40
60
  5
7F4B
  62
0
  72
0
  71
0
 10
1966.97
 20
3793.87
 30
0.000000
  1
510
  0
POINT
  5
7F03
  8
DEFPOINTS
  6
CONTINUOUS
 62
     0
 10
1843.744545
 20
4160.910374
 30
0.0
  0
POINT
  5
7F04
  8
DEFPOINTS
  6
CONTINUOUS
 62
     0
 10
1843.744545
 20
3650.910374
 30
0.0
  0
POINT
  5
7F05
  8
DEFPOINTS
  6
CONTINUOUS
 62
     0
 10
2136.9678469999999
 20
3650.910374
 30
0.0
  0
ENDBLK
  5
7C04
  8
0
  0
BLOCK
  8
0
  2
*D12
 70
     1
 10
0.0
 20
0.0
 30
0.0
  3
*D12
  1

  0
LINE
  5
7F06
  8
3
  6
CONTINUOUS
 62
     0
 10
3001.130846
 20
2789.910374
 30
0.0
 11
3001.130846
 21
2884.4695489999999
 31
0.0
  0
LINE
  5
7F07
  8
3
  6
CONTINUOUS
 62
     0
 10
3421.130846
 20
2789.910374
 30
0.0
 11
3421.130846
 21
2884.4695489999999
 31
0.0
  0
LINE
  5
7F08
  8
3
  6
CONTINUOUS
 62
     0
 10
3041.130846
 20
2864.4695489999999
 30
0.0
 11
3381.130846
 21
2864.4695489999999
 31
0.0
  0
INSERT
  5
7F09
  8
3
  6
CONTINUOUS
 62
     0
  2
_OPEN
 10
3001.130846
 20
2864.4695489999999
 30
0.0
 41
40.0
 42
40.0
 43
40.0
 50
180.0
  0
INSERT
  5
7F0A
  8
3
  6
CONTINUOUS
 62
     0
  2
_OPEN
 10
3421.130846
 20
2864.4695489999999
 30
0.0
 41
40.0
 42
40.0
 43
40.0
  0
TEXT
  8
3
  40
60
  5
7F4C
  62
0
  72
0
  71
0
 10
3085.90
 20
2808.27
 30
0.000000
  1
420
  0
POINT
  5
7F0C
  8
DEFPOINTS
  6
CONTINUOUS
 62
     0
 10
3001.130846
 20
2779.9103739999991
 30
0.0
  0
POINT
  5
7F0D
  8
DEFPOINTS
  6
CONTINUOUS
 62
     0
 10
3421.130846
 20
2779.9103739999991
 30
0.0
  0
POINT
  5
7F0E
  8
DEFPOINTS
  6
CONTINUOUS
 62
     0
 10
3421.130846
 20
2864.4695489999999
 30
0.0
  0
ENDBLK
  5
7CC9
  8
0
  0
BLOCK
  8
0
  2
*D13
 70
     1
 10
0.0
 20
0.0
 30
0.0
  3
*D13
  1

  0
LINE
  5
7F0F
  8
3
 62
     0
 10
593.74454500000002
 20
1580.910374
 30
0.0
 11
593.74454500000002
 21
1433.6363477887151
 31
0.0
  0
LINE
  5
7F10
  8
3
 62
     0
 10
1498.744545
 20
1580.910374
 30
0.0
 11
1498.744545
 21
1433.6363477887151
 31
0.0
  0
LINE
  5
7F11
  8
3
 62
     0
 10
633.74454500000002
 20
1453.6363477887151
 30
0.0
 11
1458.744545
 21
1453.6363477887151
 31
0.0
  0
INSERT
  5
7F12
  8
3
 62
     0
  2
_OPEN
 10
593.74454500000002
 20
1453.6363477887151
 30
0.0
 41
40.0
 42
40.0
 43
40.0
 50
180.0
  0
INSERT
  5
7F13
  8
3
 62
     0
  2
_OPEN
 10
1498.744545
 20
1453.6363477887151
 30
0.0
 41
40.0
 42
40.0
 43
40.0
  0
TEXT
  8
3
  40
60
  5
7F4D
  62
0
  72
0
  71
0
 10
926.245
 20
1397.44
 30
0.000000
  1
905
  0
POINT
  5
7F15
  8
DEFPOINTS
 62
     0
 10
593.74454500000002
 20
1590.910374
 30
0.0
  0
POINT
  5
7F16
  8
DEFPOINTS
 62
     0
 10
1498.744545
 20
1590.9103739999989
 30
0.0
  0
POINT
  5
7F17
  8
DEFPOINTS
 62
     0
 10
1498.744545
 20
1453.6363477887151
 30
0.0
  0
ENDBLK
  5
7D7E
  8
0
  0
BLOCK
  8
0
  2
*D14
 70
     1
 10
0.0
 20
0.0
 30
0.0
  3
*D14
  1

  0
LINE
  5
7F18
  8
3
 62
     0
 10
1498.744545
 20
1580.910374
 30
0.0
 11
1498.744545
 21
1433.6363477887151
 31
0.0
  0
LINE
  5
7F19
  8
3
 62
     0
 10
1843.744545
 20
1580.910374
 30
0.0
 11
1843.744545
 21
1433.6363477887151
 31
0.0
  0
LINE
  5
7F1A
  8
3
 62
     0
 10
1538.744545
 20
1453.6363477887151
 30
0.0
 11
1803.7445449999991
 21
1453.6363477887151
 31
0.0
  0
INSERT
  5
7F1B
  8
3
 62
     0
  2
_OPEN
 10
1498.744545
 20
1453.6363477887151
 30
0.0
 41
40.0
 42
40.0
 43
40.0
 50
180.0
  0
INSERT
  5
7F1C
  8
3
 62
     0
  2
_OPEN
 10
1843.744545
 20
1453.6363477887151
 30
0.0
 41
40.0
 42
40.0
 43
40.0
  0
TEXT
  8
3
  40
60
  5
7F4E
  62
0
  72
0
  71
0
 10
1551.24
 20
1397.44
 30
0.000000
  1
345
  0
POINT
  5
7F1E
  8
DEFPOINTS
 62
     0
 10
1498.744545
 20
1590.9103739999989
 30
0.0
  0
POINT
  5
7F1F
  8
DEFPOINTS
 62
     0
 10
1843.744545
 20
1590.910374
 30
0.0
  0
POINT
  5
7F20
  8
DEFPOINTS
 62
     0
 10
1843.744545
 20
1453.6363477887151
 30
0.0
  0
ENDBLK
  5
7D8B
  8
0
  0
BLOCK
  8
0
  2
*D15
 70
     1
 10
0.0
 20
0.0
 30
0.0
  3
*D15
  1

  0
LINE
  5
7F21
  8
3
 62
     0
 10
2956.130846
 20
1580.910374
 30
0.0
 11
2956.130846
 21
1433.6363477887151
 31
0.0
  0
LINE
  5
7F22
  8
3
 62
     0
 10
3211.130846
 20
1580.910374
 30
0.0
 11
3211.130846
 21
1433.6363477887151
 31
0.0
  0
LINE
  5
7F23
  8
3
 62
     0
 10
2996.130846
 20
1453.6363477887151
 30
0.0
 11
3171.130846
 21
1453.6363477887151
 31
0.0
  0
INSERT
  5
7F24
  8
3
 62
     0
  2
_OPEN
 10
2956.130846
 20
1453.6363477887151
 30
0.0
 41
40.0
 42
40.0
 43
40.0
 50
180.0
  0
INSERT
  5
7F25
  8
3
 62
     0
  2
_OPEN
 10
3211.130846
 20
1453.6363477887151
 30
0.0
 41
40.0
 42
40.0
 43
40.0
  0
TEXT
  8
3
  40
60
  5
7F4F
  62
0
  72
0
  71
0
 10
2963.63
 20
1397.44
 30
0.000000
  1
255
  0
POINT
  5
7F27
  8
DEFPOINTS
 62
     0
 10
2956.130846
 20
1590.910374
 30
0.0
  0
POINT
  5
7F28
  8
DEFPOINTS
 62
     0
 10
3211.130846
 20
1590.910374
 30
0.0
  0
POINT
  5
7F29
  8
DEFPOINTS
 62
     0
 10
3211.130846
 20
1453.6363477887151
 30
0.0
  0
ENDBLK
  5
7D9A
  8
0
  0
BLOCK
  8
0
  2
*D16
 70
     1
 10
0.0
 20
0.0
 30
0.0
  3
*D16
  1

  0
LINE
  5
7F2A
  8
3
 62
     0
 10
3211.130846
 20
1580.910374
 30
0.0
 11
3211.130846
 21
1433.6363477887151
 31
0.0
  0
LINE
  5
7F2B
  8
3
 62
     0
 10
3466.130846
 20
1580.910374
 30
0.0
 11
3466.130846
 21
1433.6363477887151
 31
0.0
  0
LINE
  5
7F2C
  8
3
 62
     0
 10
3251.130846
 20
1453.6363477887151
 30
0.0
 11
3426.130846
 21
1453.6363477887151
 31
0.0
  0
INSERT
  5
7F2D
  8
3
 62
     0
  2
_OPEN
 10
3211.130846
 20
1453.6363477887151
 30
0.0
 41
40.0
 42
40.0
 43
40.0
 50
180.0
  0
INSERT
  5
7F2E
  8
3
 62
     0
  2
_OPEN
 10
3466.130846
 20
1453.6363477887151
 30
0.0
 41
40.0
 42
40.0
 43
40.0
  0
TEXT
  8
3
  40
60
  5
7F50
  62
0
  72
0
  71
0
 10
3218.63
 20
1397.44
 30
0.000000
  1
255
  0
POINT
  5
7F30
  8
DEFPOINTS
 62
     0
 10
3211.130846
 20
1590.910374
 30
0.0
  0
POINT
  5
7F31
  8
DEFPOINTS
 62
     0
 10
3466.130846
 20
1590.910374
 30
0.0
  0
POINT
  5
7F32
  8
DEFPOINTS
 62
     0
 10
3466.130846
 20
1453.6363477887151
 30
0.0
  0
ENDBLK
  5
7DA9
  8
0
  0
BLOCK
  8
0
  2
_DOT
 70
     0
 10
0.0
 20
0.0
 30
0.0
  3
_DOT
  1

  0
POLYLINE
  5
7DAD
  8
0
  6
BYBLOCK
 62
     0
 66
     1
 10
0.0
 20
0.0
 30
0.0
 70
     1
 40
0.5
 41
0.5
  0
VERTEX
  5
7F33
  8
0
  6
BYBLOCK
 62
     0
 10
-0.25
 20
0.0
 30
0.0
 42
1.0
  0
VERTEX
  5
7F34
  8
0
  6
BYBLOCK
 62
     0
 10
0.25
 20
0.0
 30
0.0
 42
1.0
  0
SEQEND
  5
7F35
  8
0
  6
BYBLOCK
 62
     0
  0
LINE
  5
7DB1
  8
0
  6
BYBLOCK
 62
     0
 10
-0.5
 20
0.0
 30
0.0
 11
-1.0
 21
0.0
 31
0.0
  0
ENDBLK
  5
7DB2
  8
0
  0
BLOCK
  8
0
  2
*D18
 70
     1
 10
0.0
 20
0.0
 30
0.0
  3
*D18
  1

  0
LINE
  5
7F36
  8
3
 62
     0
 10
1853.7445449999991
 20
1655.9103739999989
 30
0.0
 11
2350.4970048325699
 21
1655.9103739999989
 31
0.0
  0
LINE
  5
7F37
  8
3
 62
     0
 10
1853.7445449999991
 20
1590.910374
 30
0.0
 11
2350.4970048325699
 21
1590.910374
 31
0.0
  0
LINE
  5
7F38
  8
3
 62
     0
 10
2330.4970048325699
 20
1695.910374
 30
0.0
 11
2330.4970048325699
 21
1735.9103739999989
 31
0.0
  0
LINE
  5
7F39
  8
3
 62
     0
 10
2330.4970048325699
 20
1550.910374
 30
0.0
 11
2330.4970048325699
 21
1373.7675168571429
 31
0.0
  0
LINE
  5
7F3A
  8
3
 62
     0
 10
2330.4970048325699
 20
1655.9103739999989
 30
0.0
 11
2330.4970048325699
 21
1590.910374
 31
0.0
  0
INSERT
  5
7F3B
  8
3
 62
     0
  2
_DOT
 10
2330.4970048325699
 20
1655.9103739999989
 30
0.0
 41
40.0
 42
40.0
 43
40.0
 50
270.0
  0
INSERT
  5
7F3C
  8
3
 62
     0
  2
_OPEN
 10
2330.4970048325699
 20
1590.910374
 30
0.0
 41
40.0
 42
40.0
 43
40.0
 50
90.0
  0
TEXT
  8
3
  40
60
  5
7F51
  62
0
  72
0
  71
0
 10
2160.50
 20
1336.14
 30
0.000000
  1
65
  0
POINT
  5
7F3E
  8
DEFPOINTS
 62
     0
 10
1843.744545
 20
1655.9103739999989
 30
0.0
  0
POINT
  5
7F3F
  8
DEFPOINTS
 62
     0
 10
1843.744545
 20
1590.910374
 30
0.0
  0
POINT
  5
7F40
  8
DEFPOINTS
 62
     0
 10
2330.4970048325699
 20
1590.910374
 30
0.0
  0
ENDBLK
  5
7DC0
  8
0
  0
BLOCK
  8
0
  2
*D19
 70
     1
 10
0.0
 20
0.0
 30
0.0
  3
*D19
  1

  0
LINE
  5
7DC4
  8
0
  6
BYBLOCK
 62
     0
 10
1853.7445449999991
 20
1655.9103739999989
 30
0.0
 11
2350.4970048325699
 21
1655.9103739999989
 31
0.0
  0
LINE
  5
7DC5
  8
0
  6
BYBLOCK
 62
     0
 10
1853.7445449999991
 20
1750.9103739999989
 30
0.0
 11
2350.4970048325699
 21
1750.9103739999989
 31
0.0
  0
LINE
  5
7DC6
  8
0
  6
BYBLOCK
 62
     0
 10
2330.4970048325699
 20
1615.910374
 30
0.0
 11
2330.4970048325699
 21
1575.910374
 31
0.0
  0
LINE
  5
7DC7
  8
0
  6
BYBLOCK
 62
     0
 10
2330.4970048325699
 20
1790.910374
 30
0.0
 11
2330.4970048325699
 21
1830.9103739999989
 31
0.0
  0
TEXT
  5
7DC8
  8
3
 62
     0
 10
2446.2112905468562
 20
1616.267516857142
 30
0.0
 40
60.0
  1
(95)
 50
90.0
  0
LINE
  5
7DC9
  8
0
  6
BYBLOCK
 62
     0
 10
2330.4970048325699
 20
1655.9103739999989
 30
0.0
 11
2330.4970048325699
 21
1750.9103739999989
 31
0.0
  0
INSERT
  5
7DCA
  8
0
  6
BYBLOCK
 62
     0
  2
_DOT
 10
2330.4970048325699
 20
1655.9103739999989
 30
0.0
 41
40.0
 42
40.0
 43
40.0
 50
90.0
  0
INSERT
  5
7DCB
  8
0
  6
BYBLOCK
 62
     0
  2
_OPEN
 10
2330.4970048325699
 20
1750.9103739999989
 30
0.0
 41
40.0
 42
40.0
 43
40.0
 50
270.0
  0
POINT
  5
7DCC
  8
DEFPOINTS
  6
BYBLOCK
 62
     0
 10
1843.744545
 20
1655.9103739999989
 30
0.0
  0
POINT
  5
7DCD
  8
DEFPOINTS
  6
BYBLOCK
 62
     0
 10
1843.744545
 20
1750.9103739999989
 30
0.0
  0
POINT
  5
7DCE
  8
DEFPOINTS
  6
BYBLOCK
 62
     0
 10
2330.4970048325699
 20
1750.9103739999989
 30
0.0
  0
ENDBLK
  5
7DCF
  8
0
  0
ENDSEC
  0
SECTION
  2
ENTITIES
  0
LINE
  5
7A72
  8
1
  6
CONTINUOUS
 10
3466.130846
 20
1590.910374
 30
0.0
 11
2956.130846
 21
1590.910374
 31
0.0
  0
LINE
  5
7A73
  8
1
  6
CONTINUOUS
 10
3466.130846
 20
1655.9103739999989
 30
0.0
 11
2956.130846
 21
1655.9103739999989
 31
0.0
  0
LINE
  5
7A74
  8
1
  6
CONTINUOUS
 10
3001.130846
 20
1881.910374
 30
0.0
 11
3421.130846
 21
2441.910374
 31
0.0
  0
LINE
  5
7A75
  8
1
  6
CONTINUOUS
 10
3001.130846
 20
2441.910374
 30
0.0
 11
3421.130846
 21
1881.910374
 31
0.0
  0
LINE
  5
7A76
  8
1
  6
CONTINUOUS
 10
3001.130846
 20
2779.9103739999991
 30
0.0
 11
3421.130846
 21
2779.9103739999991
 31
0.0
  0
LINE
  5
7A77
  8
1
  6
CONTINUOUS
 10
3466.130846
 20
1830.9103739999989
 30
0.0
 11
2801.130846
 21
1830.9103739999989
 31
0.0
  0
LINE
  5
7A78
  8
1
  6
CONTINUOUS
 10
3466.130846
 20
1750.9103739999989
 30
0.0
 11
2956.130846
 21
1750.9103739999989
 31
0.0
  0
LINE
  5
7A79
  8
1
  6
CONTINUOUS
 10
3001.130846
 20
1881.910374
 30
0.0
 11
3421.130846
 21
1881.910374
 31
0.0
  0
LINE
  5
7A7A
  8
1
  6
CONTINUOUS
 10
3001.130846
 20
2441.910374
 30
0.0
 11
3421.130846
 21
2441.910374
 31
0.0
  0
LINE
  5
7A7B
  8
1
  6
CONTINUOUS
 10
1843.744545
 20
1655.9103739999989
 30
0.0
 11
593.74454500000002
 21
1655.9103739999989
 31
0.0
  0
LINE
  5
7A7C
  8
1
  6
CONTINUOUS
 10
1843.744545
 20
1590.910374
 30
0.0
 11
593.74454500000002
 21
1590.910374
 31
0.0
  0
ARC
  5
7A7D
  8
1
  6
CONTINUOUS
 10
1467.744545
 20
2389.910374
 30
0.0
 40
433.10293799999999
 50
82.746804999999995
 51
174.95754899999989
  0
ARC
  5
7A7E
  8
1
  6
CONTINUOUS
 10
1535.744545
 20
2383.910374
 30
0.0
 40
501.36713099999992
 50
174.95754899999989
 51
265.7678259999999
  0
LINE
  5
7A7F
  8
1
  6
CONTINUOUS
 10
1858.744545
 20
2830.910374
 30
0.0
 11
1138.7445449999991
 21
2830.910374
 31
0.0
  0
LINE
  5
7A80
  8
1
  6
CONTINUOUS
 10
1858.744545
 20
1830.9103739999989
 30
0.0
 11
1138.7445449999991
 21
1830.9103739999989
 31
0.0
  0
CIRCLE
  5
7A81
  8
1
  6
CONTINUOUS
 10
1498.744545
 20
2420.9103739999991
 30
0.0
 40
320.0
  0
CIRCLE
  5
7A82
  8
1
  6
CONTINUOUS
 10
1498.744545
 20
2420.9103739999991
 30
0.0
 40
100.0
  0
LINE
  5
7A83
  8
2
  6
CENTER
 10
3486.0969727459742
 20
2420.9103739999991
 30
0.0
 11
2732.2671260000002
 21
2420.9103739999991
 31
0.0
  0
CIRCLE
  5
7A84
  8
1
  6
CONTINUOUS
 10
1498.744545
 20
2420.9103739999991
 30
0.0
 40
295.0
  0
LINE
  5
7A85
  8
1
  6
CONTINUOUS
 10
1843.744545
 20
1750.9103739999989
 30
0.0
 11
593.74454500000002
 21
1750.9103739999989
 31
0.0
  0
LINE
  5
7A86
  8
1
  6
CONTINUOUS
 10
1499.2445449999991
 20
2665.910374
 30
0.0
 11
639.24454500000002
 21
2060.910374
 31
0.0
  0
LINE
  5
7A87
  8
1
  6
CONTINUOUS
 10
1858.744545
 20
1830.9103739999989
 30
0.0
 11
593.74454500000002
 21
1830.9103739999989
 31
0.0
  0
LINE
  5
7A88
  8
1
  6
CONTINUOUS
 10
761.27996399999995
 20
2072.040782
 30
0.0
 11
1445.2237150000001
 21
2505.3823859999989
 31
0.0
  0
LINE
  5
7A89
  8
1
  6
CONTINUOUS
 10
831.73058600000013
 20
1951.169617
 30
0.0
 11
1545.867461
 21
2332.709292
 31
0.0
  0
CIRCLE
  5
7A8A
  8
1
  6
CONTINUOUS
 10
798.74454500000002
 20
2012.910374
 30
0.0
 40
70.0
  0
LINE
  5
7A8B
  8
1
  6
CONTINUOUS
 10
668.74454500000002
 20
1830.9103739999989
 30
0.0
 11
928.7445449999999
 21
1830.9103739999989
 31
0.0
  0
LINE
  5
7A8C
  8
2
  6
CENTER
 10
728.7445449999999
 20
2012.910374
 30
0.0
 11
868.74454499999979
 21
2012.910374
 31
0.0
  0
ARC
  5
7A8D
  8
1
  6
CONTINUOUS
 10
798.74454500000002
 20
2012.910374
 30
0.0
 40
142.0
 50
324.59875699999998
 51
215.40124299999999
  0
LINE
  5
7A8E
  8
1
  6
CONTINUOUS
 10
639.24454500000002
 20
1830.9103739999989
 30
0.0
 11
639.24454500000002
 21
2060.910374
 31
0.0
  0
LINE
  5
7A8F
  8
1
  6
CONTINUOUS
 10
668.74454500000002
 20
1830.9103739999989
 30
0.0
 11
668.74454500000002
 21
1895.9103739999989
 31
0.0
  0
LINE
  5
7A90
  8
1
  6
CONTINUOUS
 10
593.74454500000002
 20
1655.9103739999989
 30
0.0
 11
593.74454500000002
 21
1590.910374
 31
0.0
  0
LINE
  5
7A91
  8
1
  6
CONTINUOUS
 10
593.74454500000002
 20
1830.9103739999989
 30
0.0
 11
593.74454500000002
 21
1750.9103739999989
 31
0.0
  0
LINE
  5
7A92
  8
1
  6
CONTINUOUS
 10
668.74454500000002
 20
1895.9103739999989
 30
0.0
 11
682.99818200000004
 21
1930.6499369999999
 31
0.0
  0
LINE
  5
7A93
  8
1
  6
CONTINUOUS
 10
1138.7445449999991
 20
1830.9103739999989
 30
0.0
 11
1138.7445449999991
 21
2830.910374
 31
0.0
  0
LINE
  5
7A94
  8
1
  6
CONTINUOUS
 10
928.7445449999999
 20
1830.9103739999989
 30
0.0
 11
928.7445449999999
 21
1895.9103739999989
 31
0.0
  0
LINE
  5
7A95
  8
1
  6
CONTINUOUS
 10
928.7445449999999
 20
1895.9103739999989
 30
0.0
 11
914.49090799999988
 21
1930.6499369999999
 31
0.0
  0
LINE
  5
7A96
  8
2
  6
CENTER
 10
798.74454500000002
 20
1942.910374
 30
0.0
 11
798.74454500000002
 21
2082.910374
 31
0.0
  0
LINE
  5
7A97
  8
1
  6
CONTINUOUS
 10
1903.744545
 20
2468.910374
 30
0.0
 11
1903.744545
 21
1854.910374
 31
0.0
  0
LINE
  5
7A98
  8
1
  6
CONTINUOUS
 10
1858.744545
 20
1830.9103739999989
 30
0.0
 11
1858.744545
 21
2830.910374
 31
0.0
  0
LINE
  5
7A99
  8
1
  6
CONTINUOUS
 10
1878.7445449999991
 20
2441.910374
 30
0.0
 11
1878.7445449999991
 21
1882.033831
 31
0.0
  0
LINE
  5
7A9A
  8
1
  6
CONTINUOUS
 10
1769.244545
 20
1830.9103739999989
 30
0.0
 11
1769.244545
 21
2580.910374
 31
0.0
  0
LINE
  5
7A9B
  8
1
  6
CONTINUOUS
 10
1903.744545
 20
1881.910374
 30
0.0
 11
1498.744545
 21
1883.910374
 31
0.0
  0
LINE
  5
7A9C
  8
1
  6
CONTINUOUS
 10
1843.744545
 20
1655.9103739999989
 30
0.0
 11
1843.744545
 21
1590.910374
 31
0.0
  0
LINE
  5
7A9D
  8
1
  6
CONTINUOUS
 10
1843.744545
 20
1830.9103739999989
 30
0.0
 11
1843.744545
 21
1750.9103739999989
 31
0.0
  0
ARC
  5
7A9E
  8
1
  6
CONTINUOUS
 10
1474.744545
 20
2444.910374
 30
0.0
 40
377.65927299999993
 50
359.54485699999992
 51
82.746804999999995
  0
LINE
  5
7A9F
  8
1
  6
CONTINUOUS
 10
1769.244545
 20
2580.910374
 30
0.0
 11
1499.2445449999991
 21
2665.910374
 31
0.0
  0
LINE
  5
7AA0
  8
2
  6
CENTER
 10
1498.744545
 20
4242.8499909999991
 30
0.0
 11
1498.744545
 21
3390.6779860000001
 31
0.0
  0
LINE
  5
7AA1
  8
1
  6
CONTINUOUS
 10
1852.3919019999989
 20
2441.910374
 30
0.0
 11
1903.744545
 21
2441.910374
 31
0.0
  0
LINE
  5
7AA2
  8
1
  6
CONTINUOUS
 10
3001.130846
 20
1830.9103739999989
 30
0.0
 11
3001.130846
 21
2779.9103739999991
 31
0.0
  0
LINE
  5
7AA3
  8
1
  6
CONTINUOUS
 10
2921.130846
 20
1830.9103739999989
 30
0.0
 11
2921.130846
 21
2665.910374
 31
0.0
  0
LINE
  5
7AA4
  8
1
  6
CONTINUOUS
 10
2801.130846
 20
1830.9103739999989
 30
0.0
 11
2801.130846
 21
2665.910374
 31
0.0
  0
LINE
  5
7AA7
  8
1
  6
CONTINUOUS
 10
2891.130846
 20
1996.9103739999989
 30
0.0
 11
3001.130846
 21
1996.9103739999989
 31
0.0
  0
LINE
  5
7AA8
  8
1
  6
CONTINUOUS
 10
2891.130846
 20
2028.910374
 30
0.0
 11
3001.130846
 21
2028.910374
 31
0.0
  0
LINE
  5
7AA9
  8
1
  6
CONTINUOUS
 10
2891.130846
 20
2082.910374
 30
0.0
 11
2891.130846
 21
1942.910374
 31
0.0
  0
LINE
  5
7AAA
  8
1
  6
CONTINUOUS
 10
2831.130846
 20
2082.910374
 30
0.0
 11
2831.130846
 21
1942.910374
 31
0.0
  0
LINE
  5
7AAB
  8
1
  6
CONTINUOUS
 10
2831.130846
 20
1942.910374
 30
0.0
 11
2891.130846
 21
1942.910374
 31
0.0
  0
LINE
  5
7AAC
  8
1
  6
CONTINUOUS
 10
2831.130846
 20
2082.910374
 30
0.0
 11
2891.130846
 21
2082.910374
 31
0.0
  0
LINE
  5
7AAD
  8
1
  6
CONTINUOUS
 10
2956.130846
 20
1590.910374
 30
0.0
 11
2956.130846
 21
1655.9103739999989
 31
0.0
  0
LINE
  5
7AAE
  8
1
  6
CONTINUOUS
 10
2956.130846
 20
1750.9103739999989
 30
0.0
 11
2956.130846
 21
1830.9103739999989
 31
0.0
  0
LINE
  5
7AAF
  8
1
  6
CONTINUOUS
 10
3001.130846
 20
2404.9103739999991
 30
0.0
 11
2891.130846
 21
2404.9103739999991
 31
0.0
  0
LINE
  5
7AB0
  8
1
  6
CONTINUOUS
 10
3001.130846
 20
2436.9103739999991
 30
0.0
 11
2891.130846
 21
2436.9103739999991
 31
0.0
  0
LINE
  5
7AB1
  8
1
  6
CONTINUOUS
 10
2891.130846
 20
2520.910374
 30
0.0
 11
2891.130846
 21
2320.9103739999991
 31
0.0
  0
LINE
  5
7AB2
  8
1
  6
CONTINUOUS
 10
2831.130846
 20
2520.910374
 30
0.0
 11
2831.130846
 21
2320.9103739999991
 31
0.0
  0
LINE
  5
7AB3
  8
1
  6
CONTINUOUS
 10
2831.130846
 20
2320.9103739999991
 30
0.0
 11
2891.130846
 21
2320.9103739999991
 31
0.0
  0
LINE
  5
7AB4
  8
1
  6
CONTINUOUS
 10
2831.130846
 20
2520.910374
 30
0.0
 11
2891.130846
 21
2520.910374
 31
0.0
  0
LINE
  5
7AB5
  8
1
  6
CONTINUOUS
 10
2801.130846
 20
2665.910374
 30
0.0
 11
2921.130846
 21
2665.910374
 31
0.0
  0
LINE
  5
7AB6
  8
1
  6
CONTINUOUS
 10
1034.377414
 20
4115.910374
 30
0.0
 11
1903.744545
 21
4115.910374
 31
0.0
  0
LINE
  5
7AB7
  8
1
  6
CONTINUOUS
 10
1034.377414
 20
3695.910374
 30
0.0
 11
1903.744545
 21
3695.910374
 31
0.0
  0
LINE
  5
7AB8
  8
1
  6
CONTINUOUS
 10
1769.244545
 20
3615.910374
 30
0.0
 11
639.24454500000002
 21
3615.910374
 31
0.0
  0
LINE
  5
7AB9
  8
1
  6
CONTINUOUS
 10
1769.244545
 20
3495.910374
 30
0.0
 11
639.24454500000002
 21
3495.910374
 31
0.0
  0
LINE
  5
7ABA
  8
1
  6
CONTINUOUS
 10
1843.744545
 20
4160.910374
 30
0.0
 11
593.74454500000002
 21
4160.910374
 31
0.0
  0
LINE
  5
7ABB
  8
1
  6
CONTINUOUS
 10
1398.744545
 20
3585.910374
 30
0.0
 11
1598.744545
 21
3585.910374
 31
0.0
  0
LINE
  5
7ABC
  8
1
  6
CONTINUOUS
 10
1398.744545
 20
3525.910374
 30
0.0
 11
1598.744545
 21
3525.910374
 31
0.0
  0
LINE
  5
7ABD
  8
1
  6
CONTINUOUS
 10
1482.744545
 20
3650.910374
 30
0.0
 11
817.74454500000002
 21
3650.910374
 31
0.0
  0
LINE
  5
7ABE
  8
1
  6
CONTINUOUS
 10
1818.744545
 20
4117.910374
 30
0.0
 11
1178.744545
 21
4117.910374
 31
0.0
  0
LINE
  5
7ABF
  8
1
  6
CONTINUOUS
 10
728.7445449999999
 20
3525.910374
 30
0.0
 11
868.74454499999979
 21
3525.910374
 31
0.0
  0
LINE
  5
7AC0
  8
1
  6
CONTINUOUS
 10
728.7445449999999
 20
3585.910374
 30
0.0
 11
868.74454499999979
 21
3585.910374
 31
0.0
  0
LINE
  5
7AC1
  8
1
  6
CONTINUOUS
 10
656.74454500000002
 20
4069.6482070000002
 30
0.0
 11
940.7445449999999
 21
4069.6482070000002
 31
0.0
  0
LINE
  5
7AC2
  8
1
  6
CONTINUOUS
 10
656.74454500000002
 20
3669.6482070000002
 30
0.0
 11
940.7445449999999
 21
3669.6482070000002
 31
0.0
  0
LINE
  5
7AC3
  8
1
  6
CONTINUOUS
 10
593.74454500000002
 20
4160.910374
 30
0.0
 11
593.74454500000002
 21
3650.910374
 31
0.0
  0
LINE
  5
7AC4
  8
1
  6
CONTINUOUS
 10
779.74454500000002
 20
3585.910374
 30
0.0
 11
779.74454500000002
 21
3669.6482070000002
 31
0.0
  0
LINE
  5
7AC5
  8
1
  6
CONTINUOUS
 10
639.24454500000002
 20
3495.910374
 30
0.0
 11
639.24454500000002
 21
3615.910374
 31
0.0
  0
LINE
  5
7AC6
  8
1
  6
CONTINUOUS
 10
728.7445449999999
 20
3525.910374
 30
0.0
 11
728.7445449999999
 21
3585.910374
 31
0.0
  0
LINE
  5
7AC7
  8
1
  6
CONTINUOUS
 10
779.74454500000002
 20
3650.910374
 30
0.0
 11
593.74454500000002
 21
3650.910374
 31
0.0
  0
LINE
  5
7AC8
  8
1
  6
CONTINUOUS
 10
656.74454500000002
 20
4069.6482070000002
 30
0.0
 11
656.74454500000002
 21
3669.6482070000002
 31
0.0
  0
LINE
  5
7AC9
  8
1
  6
CONTINUOUS
 10
1034.377414
 20
3695.910374
 30
0.0
 11
1034.377414
 21
4115.910374
 31
0.0
  0
LINE
  5
7ACA
  8
1
  6
CONTINUOUS
 10
817.74454500000002
 20
3585.910374
 30
0.0
 11
817.74454500000002
 21
3669.6482070000002
 31
0.0
  0
LINE
  5
7ACB
  8
1
  6
CONTINUOUS
 10
868.74454499999979
 20
3525.910374
 30
0.0
 11
868.74454499999979
 21
3585.910374
 31
0.0
  0
LINE
  5
7ACC
  8
1
  6
CONTINUOUS
 10
940.7445449999999
 20
4069.6482070000002
 30
0.0
 11
940.7445449999999
 21
3669.6482070000002
 31
0.0
  0
LINE
  5
7ACD
  8
1
  6
CONTINUOUS
 10
1398.744545
 20
3525.910374
 30
0.0
 11
1398.744545
 21
3585.910374
 31
0.0
  0
LINE
  5
7ACE
  8
1
  6
CONTINUOUS
 10
1178.744545
 20
4115.910374
 30
0.0
 11
1178.744545
 21
4117.910374
 31
0.0
  0
LINE
  5
7ACF
  8
1
  6
CONTINUOUS
 10
1878.7445449999991
 20
4115.910374
 30
0.0
 11
1878.7445449999991
 21
3695.910374
 31
0.0
  0
LINE
  5
7AD0
  8
1
  6
CONTINUOUS
 10
1903.744545
 20
4142.910374
 30
0.0
 11
1903.744545
 21
3668.910374
 31
0.0
  0
LINE
  5
7AD1
  8
1
  6
CONTINUOUS
 10
1843.744545
 20
3650.910374
 30
0.0
 11
1514.744545
 21
3650.910374
 31
0.0
  0
LINE
  5
7AD2
  8
1
  6
CONTINUOUS
 10
1514.744545
 20
3695.910374
 30
0.0
 11
1514.744545
 21
3585.910374
 31
0.0
  0
LINE
  5
7AD3
  8
1
  6
CONTINUOUS
 10
1482.744545
 20
3695.910374
 30
0.0
 11
1482.744545
 21
3585.910374
 31
0.0
  0
LINE
  5
7AD4
  8
1
  6
CONTINUOUS
 10
1598.744545
 20
3525.910374
 30
0.0
 11
1598.744545
 21
3585.910374
 31
0.0
  0
LINE
  5
7AD5
  8
1
  6
CONTINUOUS
 10
1769.244545
 20
3495.910374
 30
0.0
 11
1769.244545
 21
3615.910374
 31
0.0
  0
LINE
  5
7AD6
  8
1
  6
CONTINUOUS
 10
1843.744545
 20
3695.910374
 30
0.0
 11
1843.744545
 21
3650.910374
 31
0.0
  0
LINE
  5
7AD7
  8
1
  6
CONTINUOUS
 10
1843.744545
 20
4160.910374
 30
0.0
 11
1843.744545
 21
4115.910374
 31
0.0
  0
LINE
  5
7AD8
  8
1
  6
CONTINUOUS
 10
1818.744545
 20
4115.910374
 30
0.0
 11
1818.744545
 21
4117.910374
 31
0.0
  0
LINE
  5
7AD9
  8
1
  6
CONTINUOUS
 10
3421.130846
 20
1830.9103739999989
 30
0.0
 11
3421.130846
 21
2779.9103739999991
 31
0.0
  0
LINE
  5
7ADA
  8
1
  6
CONTINUOUS
 10
3423.130846
 20
2100.910374
 30
0.0
 11
3423.130846
 21
2740.910374
 31
0.0
  0
LINE
  5
7ADB
  8
1
  6
CONTINUOUS
 10
3466.130846
 20
1590.910374
 30
0.0
 11
3466.130846
 21
1655.9103739999989
 31
0.0
  0
LINE
  5
7ADC
  8
1
  6
CONTINUOUS
 10
3466.130846
 20
1750.9103739999989
 30
0.0
 11
3466.130846
 21
1830.9103739999989
 31
0.0
  0
LINE
  5
7ADD
  8
1
  6
CONTINUOUS
 10
3421.130846
 20
2100.910374
 30
0.0
 11
3423.130846
 21
2100.910374
 31
0.0
  0
LINE
  5
7ADE
  8
1
  6
CONTINUOUS
 10
3421.130846
 20
2740.910374
 30
0.0
 11
3423.130846
 21
2740.910374
 31
0.0
  0
LINE
  5
7ADF
  8
2
  6
CENTER
 10
3211.130846
 20
2848.0217349999998
 30
0.0
 11
3211.130846
 21
1590.910374
 31
0.0
  0
LINE
  5
7AE0
  8
2
  6
CENTER
 10
509.4748679999999
 20
3905.910374
 30
0.0
 11
1988.6551939999999
 21
3905.910374
 31
0.0
  0
LINE
  5
7AE1
  8
2
  6
CENTER
 10
1498.744545
 20
2956.0194510000001
 30
0.0
 11
1498.744545
 21
1590.9103739999989
 31
0.0
  0
LINE
  5
7AE2
  8
2
  6
CENTER
 10
1977.719728
 20
2420.9103739999991
 30
0.0
 11
840.43086999999991
 21
2420.9103739999991
 31
0.0
  0
LINE
  5
7AE3
  8
4
  6
CONTINUOUS
 10
3700.0
 20
1000.0
 30
0.0
 11
3700.0
 21
600.0
 31
0.0
  0
LINE
  5
7AE4
  8
4
  6
CONTINUOUS
 10
2300.0
 20
1000.0
 30
0.0
 11
2300.0
 21
600.0
 31
0.0
  0
LINE
  5
7AE5
  8
4
  6
CONTINUOUS
 10
1300.0
 20
1000.0
 30
0.0
 11
1300.0
 21
600.0
 31
0.0
  0
LINE
  5
7AE8
  8
4
  6
CONTINUOUS
 10
1300.0
 20
600.0
 30
0.0
 11
3700.0
 21
600.0
 31
0.0
  0
LINE
  5
7AE9
  8
4
  6
CONTINUOUS
 10
1300.0
 20
800.0
 30
0.0
 11
3700.0
 21
800.0
 31
0.0
  0
TEXT
  5
7AEA
  8
4
  6
CONTINUOUS
 10
1377.004162
 20
863.086052
 30
0.0
 40
100.0
  1
機器名称
  0
TEXT
  5
7AEB
  8
4
  6
CONTINUOUS
 10
1372.516212
 20
643.29031299999986
 30
0.0
 40
100.0
  1
機器型番
  0
TEXT
  5
7AEC
  8
4
  6
CONTINUOUS
 10
2355.3574910000002
 20
845.14353800000015
 30
0.0
 40
100.0
  1
ミツヤ多翼送風機
  0
TEXT
  5
7AED
  8
4
  6
CONTINUOUS
 10
2373.3089909999999
 20
634.31916899999999
 30
0.0
 40
100.0
  1
MFE#3 1/2-4
  0
TEXT
  5
7AEF
  8
4
  6
CONTINUOUS
 10
1551.9731650000001
 20
4766.8576830000002
 30
0.0
 40
108.0
  1
床置防振ベット
  0
TEXT
  5
7AF0
  8
4
  6
CONTINUOUS
 10
632.33518700000002
 20
5067.7619520000007
 30
0.0
 40
144.0
  1
ベルト駆動式片吸込両持排煙ファン
  0
LINE
  5
7AF1
  8
4
  6
CONTINUOUS
 10
500.0
 20
4938.8175090000004
 30
0.0
 11
3700.0
 21
4938.8175090000004
 31
0.0
  0
LINE
  5
7AF2
  8
4
  6
CONTINUOUS
 10
500.0
 20
5338.8175090000004
 30
0.0
 11
3700.0
 21
5338.8175090000004
 31
0.0
  0
LINE
  5
7AF3
  8
4
  6
CONTINUOUS
 10
1300.0
 20
1000.0
 30
0.0
 11
3700.0
 21
1000.0
 31
0.0
  0
LINE
  5
7AF4
  8
4
  6
CONTINUOUS
 10
500.0
 20
5338.8175090000004
 30
0.0
 11
500.0
 21
4938.8175090000004
 31
0.0
  0
TEXT
  5
7AF5
  8
4
  6
CONTINUOUS
 10
680.25550099999987
 20
4764.6389549999994
 30
0.0
 40
108.0
  1
左回転右横向
  0
TEXT
  5
7AF6
  8
4
  6
CONTINUOUS
 10
2937.9391179999998
 20
5412.122163
 30
0.0
 40
112.0
  1
No.
  0
TEXT
  5
7AF7
  8
4
  6
CONTINUOUS
 10
2622.5921250000001
 20
4766.8576830000002
 30
0.0
 40
108.0
  1
縮尺：1/20
  0
LINE
  5
7AF8
  8
4
  6
CONTINUOUS
 10
3700.0
 20
5338.8175090000004
 30
0.0
 11
3700.0
 21
4938.8175090000004
 31
0.0
  0
LINE
  5
7AFA
  8
4
  6
CONTINUOUS
 10
2881.234845
 20
5362.5271659999999
 30
0.0
 11
2881.234845
 21
5573.3045229999998
 31
0.0
  0
LINE
  5
7AFB
  8
4
  6
CONTINUOUS
 10
2881.234845
 20
5573.3045229999998
 30
0.0
 11
3700.0
 21
5573.3045229999998
 31
0.0
  0
LINE
  5
7AFC
  8
4
  6
CONTINUOUS
 10
3700.0
 20
5573.3045229999998
 30
0.0
 11
3700.0
 21
5362.5271659999999
 31
0.0
  0
LINE
  5
7AFD
  8
4
  6
CONTINUOUS
 10
3700.0
 20
5362.5271659999999
 30
0.0
 11
2881.234845
 21
5362.5271659999999
 31
0.0
  0
DIMENSION
  5
7B15
  8
3
  6
CONTINUOUS
  2
*D1
 10
2057.7857979999999
 20
1881.910374
 30
0.0
 11
2057.7857979999999
 21
2180.1997270000002
 31
0.0
 70
   128
 13
1903.744545
 23
2441.910374
 33
0.0
 14
1903.744545
 24
1881.910374
 34
0.0
 50
90.0
1001
ACAD
1000
DSTYLE
1002
{
1070
   287
1070
     3
1070
   287
1070
     3
1070
    40
1040
20.0
1070
   143
1040
0.039
1070
   172
1070
     1
1070
   271
1070
     0
1070
   279
1070
     0
1070
   288
1070
     1
1002
}
  0
DIMENSION
  5
7B22
  8
3
  6
CONTINUOUS
  2
*D2
 10
2188.2032899999999
 20
1881.910374
 30
0.0
 11
2188.2032899999999
 21
2189.5065930000001
 31
0.0
 70
   128
 13
1977.719728
 23
2420.9103739999991
 33
0.0
 14
1903.744545
 24
1881.910374
 34
0.0
 50
90.0
1001
ACAD
1000
DSTYLE
1002
{
1070
   287
1070
     3
1070
   287
1070
     3
1070
    40
1040
20.0
1070
   143
1040
0.039
1070
   172
1070
     1
1070
   271
1070
     0
1070
   279
1070
     0
1070
   288
1070
     1
1002
}
  0
DIMENSION
  5
7B2F
  8
3
  6
CONTINUOUS
  2
*D3
 10
2327.936342
 20
2420.9103739999991
 30
0.0
 11
2327.936342
 21
2636.2357360000001
 31
0.0
 70
   128
 13
1858.744545
 23
2830.910374
 33
0.0
 14
1977.719728
 24
2420.9103739999991
 34
0.0
 50
90.0
1001
ACAD
1000
DSTYLE
1002
{
1070
   287
1070
     3
1070
   287
1070
     3
1070
    40
1040
20.0
1070
   143
1040
0.039
1070
   172
1070
     1
1070
   271
1070
     0
1070
   279
1070
     0
1070
   288
1070
     1
1002
}
  0
DIMENSION
  5
7B3B
  8
3
  6
CONTINUOUS
  2
*D4
 10
2327.936342
 20
1750.9103739999989
 30
0.0
 11
2277.9363419999991
 21
2085.910374
 31
0.0
 70
     0
 13
1977.719728
 23
2420.9103739999991
 33
0.0
 14
1843.744545
 24
1750.9103739999989
 34
0.0
 50
90.0
1001
ACAD
1000
DSTYLE
1002
{
1070
   287
1070
     4
1070
   287
1070
     4
1070
    40
1040
20.0
1070
    75
1070
     1
1070
   143
1040
0.039
1070
   172
1070
     1
1070
   271
1070
     0
1070
   279
1070
     1
1070
   288
1070
     1
1002
}
  0
DIMENSION
  5
7B65
  8
3
  6
CONTINUOUS
  2
*D5
 10
1498.744545
 20
2975.4556250000001
 30
0.0
 11
1694.479904
 21
2975.4556250000001
 31
0.0
 70
   128
 13
1903.744545
 23
2468.910374
 33
0.0
 14
1498.744545
 24
2956.0194510000001
 34
0.0
1001
ACAD
1000
DSTYLE
1002
{
1070
   287
1070
     3
1070
   287
1070
     3
1070
    40
1040
20.0
1070
   143
1040
0.039
1070
   172
1070
     1
1070
   271
1070
     0
1070
   279
1070
     0
1070
   288
1070
     1
1002
}
  0
DIMENSION
  5
7B71
  8
3
  6
CONTINUOUS
  2
*D6
 10
1035.744545
 20
2975.4556250000001
 30
0.0
 11
1267.244545
 21
3025.4556250000001
 31
0.0
 70
     0
 13
1498.744545
 23
2956.0194510000001
 33
0.0
 14
1035.744545
 24
2383.910374
 34
0.0
1001
ACAD
1000
DSTYLE
1002
{
1070
   287
1070
     4
1070
   287
1070
     4
1070
    40
1040
20.0
1070
    75
1070
     1
1070
   143
1040
0.039
1070
   172
1070
     1
1070
   271
1070
     0
1070
   279
1070
     1
1070
   288
1070
     1
1002
}
  0
DIMENSION
  5
7BB3
  8
3
  6
CONTINUOUS
  2
*D7
 10
3647.6966130000001
 20
2125.910374
 30
0.0
 11
3647.6966130000001
 21
2398.9108799999999
 31
0.0
 70
   128
 13
3421.130846
 23
2715.910374
 33
0.0
 14
3423.130846
 24
2125.910374
 34
0.0
 50
90.0
1001
ACAD
1000
DSTYLE
1002
{
1070
   287
1070
     3
1070
   287
1070
     3
1070
     3
1000
φ<>
1070
    40
1040
20.0
1070
   143
1040
0.039
1070
   172
1070
     1
1070
   271
1070
     0
1070
   279
1070
     0
1070
   288
1070
     1
1002
}
  0
DIMENSION
  5
7BC2
  8
3
  6
CONTINUOUS
  2
*D8
 10
3211.130846
 20
3012.4565389999998
 30
0.0
 11
3317.1308459999991
 21
3076.97664812217
 31
0.0
 70
   128
 13
3423.130846
 23
2740.910374
 33
0.0
 14
3211.130846
 24
2969.289076999999
 34
0.0
1001
ACAD
1000
DSTYLE
1002
{
1070
   288
1070
     1
1070
   172
1070
     1
1070
    40
1040
20.0
1070
   271
1070
     0
1070
   143
1040
0.039
1002
}
  0
DIMENSION
  5
7BCE
  8
3
  6
CONTINUOUS
  2
*D9
 10
2801.130846
 20
3012.4565389999998
 30
0.0
 11
3006.130846
 21
3112.4565389999998
 31
0.0
 70
     0
  1
MAX\P470
 13
3211.130846
 23
2969.289076999999
 33
0.0
 14
2801.130846
 24
2665.910374
 34
0.0
1001
ACAD
1000
DSTYLE
1002
{
1070
   287
1070
     4
1070
   287
1070
     4
1070
    40
1040
20.0
1070
    75
1070
     1
1070
   143
1040
0.039
1070
   172
1070
     1
1070
   271
1070
     0
1070
   279
1070
     1
1070
   288
1070
     1
1002
}
  0
DIMENSION
  5
7BF8
  8
3
  6
CONTINUOUS
  2
*D10
 10
1843.744545
 20
4290.9530949999989
 30
0.0
 11
1177.4676549999999
 21
4290.9530949999989
 31
0.0
 70
   128
 13
593.74454500000002
 23
4160.910374
 33
0.0
 14
1843.744545
 24
4160.910374
 34
0.0
1001
ACAD
1000
DSTYLE
1002
{
1070
   287
1070
     3
1070
   287
1070
     3
1070
    40
1040
20.0
1070
   143
1040
0.039
1070
   172
1070
     1
1070
   271
1070
     0
1070
   279
1070
     0
1070
   288
1070
     1
1002
}
  0
DIMENSION
  5
7C05
  8
3
  6
CONTINUOUS
  2
*D11
 10
2136.9678469999999
 20
3650.910374
 30
0.0
 11
2136.9678469999999
 21
3900.0650900000001
 31
0.0
 70
   128
 13
1843.744545
 23
4160.910374
 33
0.0
 14
1843.744545
 24
3650.910374
 34
0.0
 50
90.0
1001
ACAD
1000
DSTYLE
1002
{
1070
   287
1070
     3
1070
   287
1070
     3
1070
    40
1040
20.0
1070
   143
1040
0.039
1070
   172
1070
     1
1070
   271
1070
     0
1070
   279
1070
     0
1070
   288
1070
     1
1002
}
  0
DIMENSION
  5
7CCA
  8
3
  6
CONTINUOUS
  2
*D12
 10
3421.130846
 20
2864.4695489999999
 30
0.0
 11
3205.900298999999
 21
2864.4695489999999
 31
0.0
 70
   128
 13
3001.130846
 23
2779.9103739999991
 33
0.0
 14
3421.130846
 24
2779.9103739999991
 34
0.0
1001
ACAD
1000
DSTYLE
1002
{
1070
   287
1070
     3
1070
   287
1070
     3
1070
    40
1040
20.0
1070
   143
1040
0.039
1070
   172
1070
     1
1070
   271
1070
     0
1070
   279
1070
     0
1070
   288
1070
     1
1002
}
  0
DIMENSION
  5
7D7F
  8
3
  2
*D13
 10
1498.744545
 20
1453.6363477887151
 30
0.0
 11
1046.244545
 21
1503.6363477887151
 31
0.0
 70
     0
 13
593.74454500000002
 23
1590.910374
 33
0.0
 14
1498.744545
 24
1590.9103739999989
 34
0.0
1001
ACAD
1000
DSTYLE
1002
{
1070
   287
1070
     3
1070
   287
1070
     3
1070
    40
1040
20.0
1070
   143
1040
0.039
1070
   172
1070
     1
1070
   271
1070
     0
1070
   279
1070
     0
1002
}
  0
DIMENSION
  5
7D8C
  8
3
  2
*D14
 10
1843.744545
 20
1453.6363477887151
 30
0.0
 11
1671.244545
 21
1503.6363477887151
 31
0.0
 70
     0
 13
1498.744545
 23
1590.9103739999989
 33
0.0
 14
1843.744545
 24
1590.910374
 34
0.0
1001
ACAD
1000
DSTYLE
1002
{
1070
   287
1070
     3
1070
   287
1070
     3
1070
    40
1040
20.0
1070
   143
1040
0.039
1070
   172
1070
     1
1070
   271
1070
     0
1070
   279
1070
     0
1002
}
  0
DIMENSION
  5
7D9B
  8
3
  2
*D15
 10
3211.130846
 20
1453.6363477887151
 30
0.0
 11
3083.630846
 21
1503.6363477887151
 31
0.0
 70
     0
 13
2956.130846
 23
1590.910374
 33
0.0
 14
3211.130846
 24
1590.910374
 34
0.0
1001
ACAD
1000
DSTYLE
1002
{
1070
   287
1070
     3
1070
   287
1070
     3
1070
    40
1040
20.0
1070
   143
1040
0.039
1070
   172
1070
     1
1070
   271
1070
     0
1070
   279
1070
     0
1002
}
  0
DIMENSION
  5
7DAA
  8
3
  2
*D16
 10
3466.130846
 20
1453.6363477887151
 30
0.0
 11
3338.630846
 21
1503.6363477887151
 31
0.0
 70
     0
 13
3211.130846
 23
1590.910374
 33
0.0
 14
3466.130846
 24
1590.910374
 34
0.0
1001
ACAD
1000
DSTYLE
1002
{
1070
   287
1070
     3
1070
   287
1070
     3
1070
    40
1040
20.0
1070
   143
1040
0.039
1070
   172
1070
     1
1070
   271
1070
     0
1070
   279
1070
     0
1002
}
  0
DIMENSION
  5
7DC1
  8
3
  2
*D18
 10
2330.4970048325699
 20
1590.910374
 30
0.0
 11
2280.497004832569
 21
1442.3389454285721
 31
0.0
 70
     0
 13
1843.744545
 23
1655.9103739999989
 33
0.0
 14
1843.744545
 24
1590.910374
 34
0.0
 50
90.0
1001
ACAD
1000
DSTYLE
1002
{
1070
   287
1070
     3
1070
   287
1070
     3
1070
    40
1040
20.0
1070
   143
1040
0.039
1070
   172
1070
     1
1070
   271
1070
     0
1070
   279
1070
     0
1070
     6
1000
DOT
1002
}
  0
DIMENSION
  5
7DD0
  8
3
  2
*D19
 10
2330.4970048325699
 20
1750.9103739999989
 30
0.0
 11
2426.2112905468562
 21
1703.4103739999989
 31
0.0
 70
     0
 13
1843.744545
 23
1655.9103739999989
 33
0.0
 14
1843.744545
 24
1750.9103739999989
 34
0.0
 50
90.0
1001
ACAD
1000
DSTYLE
1002
{
1070
   172
1070
     1
1070
    40
1040
20.0
1070
     3
1000
(<>)
1070
   271
1070
     0
1070
     6
1000
_DOT
1070
   143
1040
0.039
1002
}
  0
ENDSEC
  0
EOF
