  0
SECTION
  2
HEADER
  9
$ACADVER
  1
AC1009
  9
$INSBASE
 10
0.0
 20
0.0
 30
0.0
  9
$EXTMIN
 10
500.0
 20
600.0
 30
0.0
  9
$EXTMAX
 10
3700.0
 20
5573.3045229999998
 30
0.0
  9
$LIMMIN
 10
0.0
 20
0.0
  9
$LIMMAX
 10
297.0
 20
210.0
  9
$ORTHOMODE
 70
     0
  9
$REGENMODE
 70
     1
  9
$FILLMODE
 70
     0
  9
$QTEXTMODE
 70
     0
  9
$MIRRTEXT
 70
     1
  9
$DRAGMODE
 70
     2
  9
$LTSCALE
 40
100.0
  9
$OSMODE
 70
    37
  9
$ATTMODE
 70
     1
  9
$TEXTSIZE
 40
180.0
  9
$TRACEWID
 40
0.05
  9
$TEXTSTYLE
  7
STANDARD
  9
$CLAYER
  8
3
  9
$CELTYPE
  6
BYLAYER
  9
$CECOLOR
 62
   256
  9
$DIMSCALE
 40
20.0
  9
$DIMASZ
 40
2.0
  9
$DIMEXO
 40
0.5
  9
$DIMDLI
 40
10.0
  9
$DIMRND
 40
0.0
  9
$DIMDLE
 40
0.0
  9
$DIMEXE
 40
1.0
  9
$DIMTP
 40
1.0
  9
$DIMTM
 40
1.0
  9
$DIMTXT
 40
3.0
  9
$DIMCEN
 40
0.0
  9
$DIMTSZ
 40
0.0
  9
$DIMTOL
 70
     0
  9
$DIMLIM
 70
     0
  9
$DIMTIH
 70
     0
  9
$DIMTOH
 70
     0
  9
$DIMSE1
 70
     0
  9
$DIMSE2
 70
     0
  9
$DIMTAD
 70
     1
  9
$DIMZIN
 70
     8
  9
$DIMBLK
  1

  9
$DIMASO
 70
     1
  9
$DIMSHO
 70
     1
  9
$DIMPOST
  1

  9
$DIMAPOST
  1

  9
$DIMALT
 70
     0
  9
$DIMALTD
 70
     2
  9
$DIMALTF
 40
0.039
  9
$DIMLFAC
 40
1.0
  9
$DIMTOFL
 70
     1
  9
$DIMTVP
 40
0.0
  9
$DIMTIX
 70
     0
  9
$DIMSOXD
 70
     0
  9
$DIMSAH
 70
     1
  9
$DIMBLK1
  1
OPEN
  9
$DIMBLK2
  1
OPEN
  9
$DIMSTYLE
  2
IGA
  9
$DIMCLRD
 70
     0
  9
$DIMCLRE
 70
     0
  9
$DIMCLRT
 70
     0
  9
$DIMTFAC
 40
10.0
  9
$DIMGAP
 40
1.0
  9
$LUNITS
 70
     2
  9
$LUPREC
 70
     3
  9
$SKETCHINC
 40
0.1
  9
$FILLETRAD
 40
50.0
  9
$AUNITS
 70
     0
  9
$AUPREC
 70
     0
  9
$MENU
  1
acad
  9
$ELEVATION
 40
0.0
  9
$PELEVATION
 40
0.0
  9
$THICKNESS
 40
0.0
  9
$LIMCHECK
 70
     0
  9
$BLIPMODE
 70
     0
  9
$CHAMFERA
 40
0.5
  9
$CHAMFERB
 40
0.5
  9
$SKPOLY
 70
     0
  9
$TDCREATE
 40
2450736.6428131941
  9
$TDUPDATE
 40
2454953.8373534372
  9
$TDINDWG
 40
0.0055509606
  9
$TDUSRTIMER
 40
0.0055509606
  9
$USRTIMER
 70
     1
  9
$ANGBASE
 50
0.0
  9
$ANGDIR
 70
     0
  9
$PDMODE
 70
     0
  9
$PDSIZE
 40
0.0
  9
$PLINEWID
 40
0.0
  9
$COORDS
 70
     1
  9
$SPLFRAME
 70
     0
  9
$SPLINETYPE
 70
     6
  9
$SPLINESEGS
 70
     8
  9
$ATTDIA
 70
     0
  9
$ATTREQ
 70
     1
  9
$HANDLING
 70
 10241
  9
$HANDSEED
  5
7F84
  9
$SURFTAB1
 70
     6
  9
$SURFTAB2
 70
     6
  9
$SURFTYPE
 70
     6
  9
$SURFU
 70
     6
  9
$SURFV
 70
     6
  9
$UCSNAME
  2

  9
$UCSORG
 10
0.0
 20
0.0
 30
0.0
  9
$UCSXDIR
 10
1.0
 20
0.0
 30
0.0
  9
$UCSYDIR
 10
0.0
 20
1.0
 30
0.0
  9
$PUCSNAME
  2

  9
$PUCSORG
 10
0.0
 20
0.0
 30
0.0
  9
$PUCSXDIR
 10
1.0
 20
0.0
 30
0.0
  9
$PUCSYDIR
 10
0.0
 20
1.0
 30
0.0
  9
$USERI1
 70
     0
  9
$USERI2
 70
     0
  9
$USERI3
 70
     0
  9
$USERI4
 70
     0
  9
$USERI5
 70
     0
  9
$USERR1
 40
0.0
  9
$USERR2
 40
0.0
  9
$USERR3
 40
0.0
  9
$USERR4
 40
0.0
  9
$USERR5
 40
0.0
  9
$WORLDVIEW
 70
     1
  9
$SHADEDGE
 70
     3
  9
$SHADEDIF
 70
    70
  9
$TILEMODE
 70
     1
  9
$MAXACTVP
 70
    16
  9
$PLIMCHECK
 70
     0
  9
$PEXTMIN
 10
1.0000000000000000E+020
 20
1.0000000000000000E+020
 30
1.0000000000000000E+020
  9
$PEXTMAX
 10
-1.0000000000000000E+020
 20
-1.0000000000000000E+020
 30
-1.0000000000000000E+020
  9
$PLIMMIN
 10
0.0
 20
0.0
  9
$PLIMMAX
 10
12.0
 20
9.0
  9
$UNITMODE
 70
     0
  9
$VISRETAIN
 70
     0
  9
$PLINEGEN
 70
     0
  9
$PSLTSCALE
 70
     1
  0
ENDSEC
  0
SECTION
  2
TABLES
  0
TABLE
  2
VPORT
 70
     2
  0
VPORT
  2
*ACTIVE
 70
     0
 10
0.0
 20
0.0
 11
1.0
 21
1.0
 12
5859.1895564155138
 22
3652.6877641555461
 13
0.0
 23
0.0
 14
10.0
 24
10.0
 15
10.0
 25
10.0
 16
0.0
 26
0.0
 36
1.0
 17
0.0
 27
0.0
 37
0.0
 40
7720.8617819453802
 41
1.5051150895140659
 42
50.0
 43
0.0
 44
0.0
 50
0.0
 51
0.0
 71
     0
 72
   100
 73
     1
 74
     0
 75
     0
 76
     0
 77
     0
 78
     0
  0
ENDTAB
  0
TABLE
  2
LTYPE
 70
     2
  0
LTYPE
  2
CONTINUOUS
 70
     0
  3
Solid line
 72
    65
 73
     0
 40
0.0
  0
LTYPE
  2
CENTER
 70
     0
  3
____ _ ____ _ ____ _ ____ _ ____ _ ____ _ ____ 
 72
    65
 73
     4
 40
2.0
 49
1.25
 49
-0.25
 49
0.25
 49
-0.25
  0
ENDTAB
  0
TABLE
  2
LAYER
 70
     6
  0
LAYER
  2
0
 70
     0
 62
     7
  6
CONTINUOUS
  0
LAYER
  2
3
 70
     0
 62
     2
  6
CONTINUOUS
  0
LAYER
  2
2
 70
     0
 62
     3
  6
CENTER
  0
LAYER
  2
1
 70
     0
 62
     4
  6
CONTINUOUS
  0
LAYER
  2
4
 70
     0
 62
     7
  6
CONTINUOUS
  0
LAYER
  2
DEFPOINTS
 70
     0
 62
     7
  6
CONTINUOUS
  0
ENDTAB
  0
TABLE
  2
STYLE
 70
     1
  0
STYLE
  2
STANDARD
 70
     0
 40
0.0
 41
1.0
 50
0.0
 71
     0
 42
180.0
  3
simplex.shx
  4
extfont.shx
  0
ENDTAB
  0
TABLE
  2
VIEW
 70
     0
  0
ENDTAB
  0
TABLE
  2
UCS
 70
     0
  0
ENDTAB
  0
TABLE
  2
APPID
 70
     1
  0
APPID
  2
ACAD
 70
     0
  0
ENDTAB
  0
TABLE
  2
DIMSTYLE
 70
     1
  0
DIMSTYLE
  2
IGA
 70
     0
  3

  4

  5

  6
OPEN
  7
OPEN
 40
2.0
 41
2.0
 42
0.5
 43
10.0
 44
1.0
 45
0.0
 46
0.0
 47
1.0
 48
1.0
140
3.0
141
0.0
142
0.0
143
0.03937
144
1.0
145
0.0
146
10.0
147
1.0
 71
     0
 72
     0
 73
     0
 74
     0
 75
     0
 76
     0
 77
     1
 78
     8
170
     0
171
     2
172
     0
173
     1
174
     0
175
     0
176
     0
177
     0
178
     0
  0
ENDTAB
  0
ENDSEC
  0
SECTION
  2
BLOCKS
  0
BLOCK
  8
0
  2
$MODEL_SPACE
 70
     0
 10
0.0
 20
0.0
 30
0.0
  3
$MODEL_SPACE
  1

  0
ENDBLK
  5
1B
  8
0
  0
BLOCK
 67
     1
  8
0
  2
$PAPER_SPACE
 70
     0
 10
0.0
 20
0.0
 30
0.0
  3
$PAPER_SPACE
  1

  0
ENDBLK
  5
18
 67
     1
  8
0
  0
BLOCK
  8
0
  2
_OPEN
 70
     0
 10
0.0
 20
0.0
 30
0.0
  3
_OPEN
  1

  0
LINE
  5
7B02
  8
0
  6
BYBLOCK
 62
     0
 10
-1.0
 20
0.166667
 30
0.0
 11
0.0
 21
0.0
 31
0.0
  0
LINE
  5
7B03
  8
0
  6
BYBLOCK
 62
     0
 10
0.0
 20
0.0
 30
0.0
 11
-1.0
 21
-0.166667
 31
0.0
  0
LINE
  5
7B04
  8
0
  6
BYBLOCK
 62
     0
 10
0.0
 20
0.0
 30
0.0
 11
-1.0
 21
0.0
 31
0.0
  0
ENDBLK
  5
7B05
  8
0
  0
BLOCK
  8
0
  2
*D1
 70
     1
 10
0.0
 20
0.0
 30
0.0
  3
*D1
  1

  0
LINE
  5
7EE6
  8
3
  6
CONTINUOUS
 62
     0
 10
1205.8457269999999
 20
2506.9277000000002
 30
0.0
 11
1205.8457269999999
 21
2669.233303
 31
0.0
  0
LINE
  5
7EE7
  8
3
  6
CONTINUOUS
 62
     0
 10
1765.8457269999999
 20
2506.9277000000002
 30
0.0
 11
1765.8457269999999
 21
2669.233303
 31
0.0
  0
LINE
  5
7EE8
  8
3
  6
CONTINUOUS
 62
     0
 10
1245.845726999999
 20
2649.233303
 30
0.0
 11
1725.8457269999999
 21
2649.233303
 31
0.0
  0
INSERT
  5
7EE9
  8
3
  6
CONTINUOUS
 62
     0
  2
_OPEN
 10
1205.8457269999999
 20
2649.233303
 30
0.0
 41
40.0
 42
40.0
 43
40.0
 50
180.0
  0
INSERT
  5
7EEA
  8
3
  6
CONTINUOUS
 62
     0
  2
_OPEN
 10
1765.8457269999999
 20
2649.233303
 30
0.0
 41
40.0
 42
40.0
 43
40.0
  0
TEXT
  8
3
  40
60
  5
7F73
  62
0
  72
0
  71
0
 10
1362.66
 20
2593.03
 30
0.000000
  1
560
  0
POINT
  5
7EEC
  8
DEFPOINTS
  6
CONTINUOUS
 62
     0
 10
1205.8457269999999
 20
2496.9277000000002
 30
0.0
  0
POINT
  5
7EED
  8
DEFPOINTS
  6
CONTINUOUS
 62
     0
 10
1765.8457269999999
 20
2496.9277000000002
 30
0.0
  0
POINT
  5
7EEE
  8
DEFPOINTS
  6
CONTINUOUS
 62
     0
 10
1765.8457269999999
 20
2649.233303
 30
0.0
  0
ENDBLK
  5
7C5F
  8
0
  0
BLOCK
  8
0
  2
*D2
 70
     1
 10
0.0
 20
0.0
 30
0.0
  3
*D2
  1

  0
LINE
  5
7EEF
  8
3
  6
CONTINUOUS
 62
     0
 10
1205.8457269999999
 20
2506.9277000000002
 30
0.0
 11
1205.8457269999999
 21
2788.4056350000001
 31
0.0
  0
LINE
  5
7EF0
  8
3
  6
CONTINUOUS
 62
     0
 10
1744.845726999999
 20
2695.3379319999999
 30
0.0
 11
1744.845726999999
 21
2788.4056350000001
 31
0.0
  0
LINE
  5
7EF1
  8
3
  6
CONTINUOUS
 62
     0
 10
1245.845726999999
 20
2768.4056350000001
 30
0.0
 11
1704.8457269999999
 21
2768.4056350000001
 31
0.0
  0
INSERT
  5
7EF2
  8
3
  6
CONTINUOUS
 62
     0
  2
_OPEN
 10
1205.8457269999999
 20
2768.4056350000001
 30
0.0
 41
40.0
 42
40.0
 43
40.0
 50
180.0
  0
INSERT
  5
7EF3
  8
3
  6
CONTINUOUS
 62
     0
  2
_OPEN
 10
1744.845726999999
 20
2768.4056350000001
 30
0.0
 41
40.0
 42
40.0
 43
40.0
  0
TEXT
  8
3
  40
60
  5
7F74
  62
0
  72
0
  71
0
 10
1354.14
 20
2712.21
 30
0.000000
  1
539
  0
POINT
  5
7EF5
  8
DEFPOINTS
  6
CONTINUOUS
 62
     0
 10
1205.8457269999999
 20
2496.9277000000002
 30
0.0
  0
POINT
  5
7EF6
  8
DEFPOINTS
  6
CONTINUOUS
 62
     0
 10
1744.845726999999
 20
2685.337931999999
 30
0.0
  0
POINT
  5
7EF7
  8
DEFPOINTS
  6
CONTINUOUS
 62
     0
 10
1744.845726999999
 20
2768.4056350000001
 30
0.0
  0
ENDBLK
  5
7C54
  8
0
  0
BLOCK
  8
0
  2
*D3
 70
     1
 10
0.0
 20
0.0
 30
0.0
  3
*D3
  1

  0
LINE
  5
7EF8
  8
3
  6
CONTINUOUS
 62
     0
 10
2154.8457269999999
 20
2461.9277000000002
 30
0.0
 11
2154.8457269999999
 21
2788.4056350000001
 31
0.0
  0
LINE
  5
7EF9
  8
3
  6
CONTINUOUS
 62
     0
 10
1784.8457269999999
 20
2768.4056350000001
 30
0.0
 11
2114.8457269999999
 21
2768.4056350000001
 31
0.0
  0
INSERT
  5
7EFA
  8
3
  6
CONTINUOUS
 62
     0
  2
_OPEN
 10
1744.845726999999
 20
2768.4056350000001
 30
0.0
 41
40.0
 42
40.0
 43
40.0
 50
180.0
  0
INSERT
  5
7EFB
  8
3
  6
CONTINUOUS
 62
     0
  2
_OPEN
 10
2154.8457269999999
 20
2768.4056350000001
 30
0.0
 41
40.0
 42
40.0
 43
40.0
  0
TEXT
  8
3
  40
60
  5
7F75
  62
0
  72
0
  71
0
 10
1829.85
 20
2712.21
 30
0.000000
  1
410
  0
POINT
  5
7EFD
  8
DEFPOINTS
  6
CONTINUOUS
 62
     0
 10
1744.845726999999
 20
2685.337931999999
 30
0.0
  0
POINT
  5
7EFE
  8
DEFPOINTS
  6
CONTINUOUS
 62
     0
 10
2154.8457269999999
 20
2451.9277000000002
 30
0.0
  0
POINT
  5
7EFF
  8
DEFPOINTS
  6
CONTINUOUS
 62
     0
 10
2154.8457269999999
 20
2768.4056350000001
 30
0.0
  0
ENDBLK
  5
7C49
  8
0
  0
BLOCK
  8
0
  2
*D4
 70
     1
 10
0.0
 20
0.0
 30
0.0
  3
*D4
  1

  0
LINE
  5
7F00
  8
3
  6
CONTINUOUS
 62
     0
 10
1802.8457269999999
 20
2496.9277000000002
 30
0.0
 11
2432.2568769999998
 21
2496.9277000000002
 31
0.0
  0
LINE
  5
7F01
  8
3
  6
CONTINUOUS
 62
     0
 10
2353.171648
 20
2091.9277000000002
 30
0.0
 11
2432.2568769999998
 21
2091.9277000000002
 31
0.0
  0
LINE
  5
7F02
  8
3
  6
CONTINUOUS
 62
     0
 10
2412.2568769999998
 20
2456.9277000000002
 30
0.0
 11
2412.2568769999998
 21
2131.9277000000002
 31
0.0
  0
INSERT
  5
7F03
  8
3
  6
CONTINUOUS
 62
     0
  2
_OPEN
 10
2412.2568769999998
 20
2496.9277000000002
 30
0.0
 41
40.0
 42
40.0
 43
40.0
 50
90.0
  0
INSERT
  5
7F04
  8
3
  6
CONTINUOUS
 62
     0
  2
_OPEN
 10
2412.2568769999998
 20
2091.9277000000002
 30
0.0
 41
40.0
 42
40.0
 43
40.0
 50
270.0
  0
TEXT
  8
3
  40
60
  5
7F76
  62
0
  72
0
  71
0
 10
2242.26
 20
2160.47
 30
0.000000
  1
405
  0
POINT
  5
7F06
  8
DEFPOINTS
  6
CONTINUOUS
 62
     0
 10
1792.8457269999999
 20
2496.9277000000002
 30
0.0
  0
POINT
  5
7F07
  8
DEFPOINTS
  6
CONTINUOUS
 62
     0
 10
2343.171648
 20
2091.9277000000002
 30
0.0
  0
POINT
  5
7F08
  8
DEFPOINTS
  6
CONTINUOUS
 62
     0
 10
2412.2568769999998
 20
2091.9277000000002
 30
0.0
  0
ENDBLK
  5
7CAB
  8
0
  0
BLOCK
  8
0
  2
*D5
 70
     1
 10
0.0
 20
0.0
 30
0.0
  3
*D5
  1

  0
LINE
  5
7F09
  8
3
  6
CONTINUOUS
 62
     0
 10
2099.845726999999
 20
1536.9277
 30
0.0
 11
2432.2568769999998
 21
1536.9277
 31
0.0
  0
LINE
  5
7F0A
  8
3
  6
CONTINUOUS
 62
     0
 10
2412.2568769999989
 20
2051.9277000000002
 30
0.0
 11
2412.2568769999989
 21
1576.9277
 31
0.0
  0
INSERT
  5
7F0B
  8
3
  6
CONTINUOUS
 62
     0
  2
_OPEN
 10
2412.2568769999989
 20
2091.9277000000002
 30
0.0
 41
40.0
 42
40.0
 43
40.0
 50
90.0
  0
INSERT
  5
7F0C
  8
3
  6
CONTINUOUS
 62
     0
  2
_OPEN
 10
2412.2568769999989
 20
1536.9277
 30
0.0
 41
40.0
 42
40.0
 43
40.0
 50
270.0
  0
TEXT
  8
3
  40
60
  5
7F77
  62
0
  72
0
  71
0
 10
2242.26
 20
1708.23
 30
0.000000
  1
555
  0
POINT
  5
7F0E
  8
DEFPOINTS
  6
CONTINUOUS
 62
     0
 10
2343.171648
 20
2091.9277000000002
 30
0.0
  0
POINT
  5
7F0F
  8
DEFPOINTS
  6
CONTINUOUS
 62
     0
 10
2089.845726999999
 20
1536.9277
 30
0.0
  0
POINT
  5
7F10
  8
DEFPOINTS
  6
CONTINUOUS
 62
     0
 10
2412.2568769999989
 20
1536.9277
 30
0.0
  0
ENDBLK
  5
7CA0
  8
0
  0
BLOCK
  8
0
  2
*D6
 70
     1
 10
0.0
 20
0.0
 30
0.0
  3
*D6
  1

  0
LINE
  5
7F11
  8
3
  6
CONTINUOUS
 62
     0
 10
2099.845726999999
 20
1536.9277
 30
0.0
 11
2432.2568769999998
 21
1536.9277
 31
0.0
  0
LINE
  5
7F12
  8
3
  6
CONTINUOUS
 62
     0
 10
2099.845726999999
 20
1449.927699999999
 30
0.0
 11
2432.2568769999998
 21
1449.927699999999
 31
0.0
  0
LINE
  5
7F13
  8
3
  6
CONTINUOUS
 62
     0
 10
2412.2568769999998
 20
1576.9277
 30
0.0
 11
2412.2568769999998
 21
1616.9277
 31
0.0
  0
LINE
  5
7F14
  8
3
  6
CONTINUOUS
 62
     0
 10
2412.2568769999998
 20
1409.9277
 30
0.0
 11
2412.2568769999998
 21
1232.7848428571419
 31
0.0
  0
LINE
  5
7F15
  8
3
  6
CONTINUOUS
 62
     0
 10
2412.2568769999998
 20
1536.9277
 30
0.0
 11
2412.2568769999998
 21
1449.927699999999
 31
0.0
  0
INSERT
  5
7F16
  8
3
  6
CONTINUOUS
 62
     0
  2
_OPEN
 10
2412.2568769999998
 20
1536.9277
 30
0.0
 41
40.0
 42
40.0
 43
40.0
 50
270.0
  0
INSERT
  5
7F17
  8
3
  6
CONTINUOUS
 62
     0
  2
_OPEN
 10
2412.2568769999998
 20
1449.927699999999
 30
0.0
 41
40.0
 42
40.0
 43
40.0
 50
90.0
  0
TEXT
  8
3
  40
60
  5
7F78
  62
0
  72
0
  71
0
 10
2242.26
 20
1195.16
 30
0.000000
  1
87
  0
POINT
  5
7F19
  8
DEFPOINTS
  6
CONTINUOUS
 62
     0
 10
2089.845726999999
 20
1536.9277
 30
0.0
  0
POINT
  5
7F1A
  8
DEFPOINTS
  6
CONTINUOUS
 62
     0
 10
2089.845726999999
 20
1449.927699999999
 30
0.0
  0
POINT
  5
7F1B
  8
DEFPOINTS
  6
CONTINUOUS
 62
     0
 10
2412.2568769999998
 20
1449.927699999999
 30
0.0
  0
ENDBLK
  5
7D9E
  8
0
  0
BLOCK
  8
0
  2
*D7
 70
     1
 10
0.0
 20
0.0
 30
0.0
  3
*D7
  1

  0
LINE
  5
7F1C
  8
3
  6
CONTINUOUS
 62
     0
 10
839.8457269999999
 20
1439.9277
 30
0.0
 11
839.8457269999999
 21
1265.307936992687
 31
0.0
  0
LINE
  5
7F1D
  8
3
  6
CONTINUOUS
 62
     0
 10
1744.845726999999
 20
1331.165006298392
 30
0.0
 11
1744.845726999999
 21
1265.307936992687
 31
0.0
  0
LINE
  5
7F1E
  8
3
  6
CONTINUOUS
 62
     0
 10
879.84572700000001
 20
1285.307936992687
 30
0.0
 11
1704.8457269999999
 21
1285.307936992687
 31
0.0
  0
INSERT
  5
7F1F
  8
3
  6
CONTINUOUS
 62
     0
  2
_OPEN
 10
839.8457269999999
 20
1285.307936992687
 30
0.0
 41
40.0
 42
40.0
 43
40.0
 50
180.0
  0
INSERT
  5
7F20
  8
3
  6
CONTINUOUS
 62
     0
  2
_OPEN
 10
1744.845726999999
 20
1285.307936992687
 30
0.0
 41
40.0
 42
40.0
 43
40.0
  0
TEXT
  8
3
  40
60
  5
7F79
  62
0
  72
0
  71
0
 10
1183.73
 20
1229.11
 30
0.000000
  1
905
  0
POINT
  5
7F22
  8
DEFPOINTS
  6
CONTINUOUS
 62
     0
 10
839.8457269999999
 20
1449.927699999999
 30
0.0
  0
POINT
  5
7F23
  8
DEFPOINTS
  6
CONTINUOUS
 62
     0
 10
1744.845726999999
 20
1341.165006298392
 30
0.0
  0
POINT
  5
7F24
  8
DEFPOINTS
  6
CONTINUOUS
 62
     0
 10
1744.845726999999
 20
1285.307936992687
 30
0.0
  0
ENDBLK
  5
7DD5
  8
0
  0
BLOCK
  8
0
  2
*D8
 70
     1
 10
0.0
 20
0.0
 30
0.0
  3
*D8
  1

  0
LINE
  5
7F25
  8
3
  6
CONTINUOUS
 62
     0
 10
2089.845726999999
 20
1439.9277
 30
0.0
 11
2089.845726999999
 21
1265.307936992687
 31
0.0
  0
LINE
  5
7F26
  8
3
  6
CONTINUOUS
 62
     0
 10
1784.8457269999999
 20
1285.307936992687
 30
0.0
 11
2049.8457269999999
 21
1285.307936992687
 31
0.0
  0
INSERT
  5
7F27
  8
3
  6
CONTINUOUS
 62
     0
  2
_OPEN
 10
1744.845726999999
 20
1285.307936992687
 30
0.0
 41
40.0
 42
40.0
 43
40.0
 50
180.0
  0
INSERT
  5
7F28
  8
3
  6
CONTINUOUS
 62
     0
  2
_OPEN
 10
2089.845726999999
 20
1285.307936992687
 30
0.0
 41
40.0
 42
40.0
 43
40.0
  0
TEXT
  8
3
  40
60
  5
7F7A
  62
0
  72
0
  71
0
 10
1797.35
 20
1229.11
 30
0.000000
  1
345
  0
POINT
  5
7F2A
  8
DEFPOINTS
  6
CONTINUOUS
 62
     0
 10
1744.845726999999
 20
1341.165006298392
 30
0.0
  0
POINT
  5
7F2B
  8
DEFPOINTS
  6
CONTINUOUS
 62
     0
 10
2089.845726999999
 20
1449.927699999999
 30
0.0
  0
POINT
  5
7F2C
  8
DEFPOINTS
  6
CONTINUOUS
 62
     0
 10
2089.845726999999
 20
1285.307936992687
 30
0.0
  0
ENDBLK
  5
7DCA
  8
0
  0
BLOCK
  8
0
  2
*D9
 70
     1
 10
0.0
 20
0.0
 30
0.0
  3
*D9
  1

  0
LINE
  5
7F2D
  8
3
  6
CONTINUOUS
 62
     0
 10
1812.8457269999999
 20
2496.9277000000002
 30
0.0
 11
2575.7159820000002
 21
2496.9277000000002
 31
0.0
  0
LINE
  5
7F2E
  8
3
  6
CONTINUOUS
 62
     0
 10
2099.845726999999
 20
1449.927699999999
 30
0.0
 11
2575.7159820000002
 21
1449.927699999999
 31
0.0
  0
LINE
  5
7F2F
  8
3
  6
CONTINUOUS
 62
     0
 10
2555.7159820000002
 20
2456.9277000000002
 30
0.0
 11
2555.7159820000002
 21
1489.927699999999
 31
0.0
  0
INSERT
  5
7F30
  8
3
  6
CONTINUOUS
 62
     0
  2
_OPEN
 10
2555.7159820000002
 20
2496.9277000000002
 30
0.0
 41
40.0
 42
40.0
 43
40.0
 50
90.0
  0
INSERT
  5
7F31
  8
3
  6
CONTINUOUS
 62
     0
  2
_OPEN
 10
2555.7159820000002
 20
1449.927699999999
 30
0.0
 41
40.0
 42
40.0
 43
40.0
 50
270.0
  0
TEXT
  8
3
  40
60
  5
7F7B
  62
0
  72
0
  71
0
 10
2385.72
 20
1896.59
 30
0.000000
  1
1047
  0
POINT
  5
7F33
  8
DEFPOINTS
  6
CONTINUOUS
 62
     0
 10
1802.8457269999999
 20
2496.9277000000002
 30
0.0
  0
POINT
  5
7F34
  8
DEFPOINTS
  6
CONTINUOUS
 62
     0
 10
2089.845726999999
 20
1449.927699999999
 30
0.0
  0
POINT
  5
7F35
  8
DEFPOINTS
  6
CONTINUOUS
 62
     0
 10
2555.7159820000002
 20
1449.927699999999
 30
0.0
  0
ENDBLK
  5
7C8A
  8
0
  0
BLOCK
  8
0
  2
*D10
 70
     1
 10
0.0
 20
0.0
 30
0.0
  3
*D10
  1

  0
LINE
  5
7F36
  8
3
  6
CONTINUOUS
 62
     0
 10
3397.1133289999989
 20
2386.9277000000002
 30
0.0
 11
3585.8632550000002
 21
2386.9277000000002
 31
0.0
  0
LINE
  5
7F37
  8
3
  6
CONTINUOUS
 62
     0
 10
3397.1133289999989
 20
1796.9277
 30
0.0
 11
3585.8632550000002
 21
1796.927699999999
 31
0.0
  0
LINE
  5
7F38
  8
3
  6
CONTINUOUS
 62
     0
 10
3565.8632550000002
 20
2346.9277000000002
 30
0.0
 11
3565.8632550000002
 21
1836.9277
 31
0.0
  0
INSERT
  5
7F39
  8
3
  6
CONTINUOUS
 62
     0
  2
_OPEN
 10
3565.8632550000002
 20
2386.9277000000002
 30
0.0
 41
40.0
 42
40.0
 43
40.0
 50
90.0
  0
INSERT
  5
7F3A
  8
3
  6
CONTINUOUS
 62
     0
  2
_OPEN
 10
3565.8632550000002
 20
1796.9277
 30
0.0
 41
40.0
 42
40.0
 43
40.0
 50
270.0
  0
TEXT
  8
3
  40
60
  5
7F7C
  62
0
  72
0
  71
0
 10
3395.86
 20
1990.23
 30
0.000000
  1
φ590
  0
POINT
  5
7F3C
  8
DEFPOINTS
  6
CONTINUOUS
 62
     0
 10
3387.1133289999989
 20
2386.9277000000002
 30
0.0
  0
POINT
  5
7F3D
  8
DEFPOINTS
  6
CONTINUOUS
 62
     0
 10
3387.1133289999989
 20
1796.9277
 30
0.0
  0
POINT
  5
7F3E
  8
DEFPOINTS
  6
CONTINUOUS
 62
     0
 10
3565.8632550000002
 20
1796.9277
 30
0.0
  0
ENDBLK
  5
7D58
  8
0
  0
BLOCK
  8
0
  2
*D11
 70
     1
 10
0.0
 20
0.0
 30
0.0
  3
*D11
  1

  0
LINE
  5
7D65
  8
0
  6
BYBLOCK
 62
     0
 10
3387.1133289999989
 20
2421.9277000000002
 30
0.0
 11
3387.1133289999989
 21
2744.9432900000002
 31
0.0
  0
LINE
  5
7D66
  8
0
  6
BYBLOCK
 62
     0
 10
3175.1133289999998
 20
2691.8846960000001
 30
0.0
 11
3175.1133289999998
 21
2744.9432900000002
 31
0.0
  0
LINE
  5
7D67
  8
0
  6
BYBLOCK
 62
     0
 10
3347.1133289999989
 20
2724.9432900000002
 30
0.0
 11
3215.1133289999989
 21
2724.9432900000002
 31
0.0
  0
TEXT
  5
7D68
  8
3
 62
     0
 10
3209.6847575714278
 20
2763.056872891309
 30
0.0
 40
60.0
  1
212
  0
INSERT
  5
7D69
  8
0
  6
BYBLOCK
 62
     0
  2
_OPEN
 10
3387.1133289999989
 20
2724.9432900000002
 30
0.0
 41
40.0
 42
40.0
 43
40.0
  0
INSERT
  5
7D6A
  8
0
  6
BYBLOCK
 62
     0
  2
_OPEN
 10
3175.1133289999998
 20
2724.9432900000002
 30
0.0
 41
40.0
 42
40.0
 43
40.0
 50
180.0
  0
POINT
  5
7D6B
  8
DEFPOINTS
  6
BYBLOCK
 62
     0
 10
3387.1133289999989
 20
2411.9277000000002
 30
0.0
  0
POINT
  5
7D6C
  8
DEFPOINTS
  6
BYBLOCK
 62
     0
 10
3175.1133289999998
 20
2681.8846960000001
 30
0.0
  0
POINT
  5
7D6D
  8
DEFPOINTS
  6
BYBLOCK
 62
     0
 10
3175.1133289999998
 20
2724.9432900000002
 30
0.0
  0
ENDBLK
  5
7D6E
  8
0
  0
BLOCK
  8
0
  2
*D12
 70
     1
 10
0.0
 20
0.0
 30
0.0
  3
*D12
  1

  0
LINE
  5
7F3F
  8
3
  6
CONTINUOUS
 62
     0
 10
2765.1133289999998
 20
2461.9277000000002
 30
0.0
 11
2765.1133289999998
 21
2744.9432900000002
 31
0.0
  0
LINE
  5
7F40
  8
3
  6
CONTINUOUS
 62
     0
 10
3135.1133289999998
 20
2724.9432900000002
 30
0.0
 11
2805.1133289999998
 21
2724.9432900000002
 31
0.0
  0
INSERT
  5
7F41
  8
3
  6
CONTINUOUS
 62
     0
  2
_OPEN
 10
3175.1133289999998
 20
2724.9432900000002
 30
0.0
 41
40.0
 42
40.0
 43
40.0
  0
INSERT
  5
7F42
  8
3
  6
CONTINUOUS
 62
     0
  2
_OPEN
 10
2765.1133289999998
 20
2724.9432900000002
 30
0.0
 41
40.0
 42
40.0
 43
40.0
 50
180.0
  0
TEXT
  8
3
  40
60
  5
7F7D
  62
0
  72
0
  71
0
 10
2850.11
 20
2718.74
 30
0.000000
  1
MAX
  0
TEXT
  8
3
  40
60
  5
7F7E
  62
0
  72
0
  71
0
 10
2850.11
 20
2640.74
 30
0.000000
  1
470
  0
POINT
  5
7F44
  8
DEFPOINTS
  6
CONTINUOUS
 62
     0
 10
3175.1133289999998
 20
2681.8846960000001
 30
0.0
  0
POINT
  5
7F45
  8
DEFPOINTS
  6
CONTINUOUS
 62
     0
 10
2765.1133289999998
 20
2451.9277000000002
 30
0.0
  0
POINT
  5
7F46
  8
DEFPOINTS
  6
CONTINUOUS
 62
     0
 10
2765.1133289999998
 20
2724.9432900000002
 30
0.0
  0
ENDBLK
  5
7E09
  8
0
  0
BLOCK
  8
0
  2
*D13
 70
     1
 10
0.0
 20
0.0
 30
0.0
  3
*D13
  1

  0
LINE
  5
7DEC
  8
0
  6
BYBLOCK
 62
     0
 10
2920.1133289999989
 20
1439.9277
 30
0.0
 11
2920.1133289999989
 21
1293.6582662937601
 31
0.0
  0
LINE
  5
7DED
  8
0
  6
BYBLOCK
 62
     0
 10
3175.1133289999998
 20
1353.915623162751
 30
0.0
 11
3175.1133289999998
 21
1293.6582662937601
 31
0.0
  0
LINE
  5
7DEE
  8
0
  6
BYBLOCK
 62
     0
 10
2960.1133289999998
 20
1313.6582662937601
 30
0.0
 11
3135.1133289999998
 21
1313.6582662937601
 31
0.0
  0
TEXT
  5
7DEF
  8
3
 62
     0
 10
2970.470471857142
 20
1333.5851847912411
 30
0.0
 40
60.0
  1
255
  0
INSERT
  5
7DF0
  8
0
  6
BYBLOCK
 62
     0
  2
_OPEN
 10
2920.1133289999989
 20
1313.6582662937601
 30
0.0
 41
40.0
 42
40.0
 43
40.0
 50
180.0
  0
INSERT
  5
7DF1
  8
0
  6
BYBLOCK
 62
     0
  2
_OPEN
 10
3175.1133289999998
 20
1313.6582662937601
 30
0.0
 41
40.0
 42
40.0
 43
40.0
  0
POINT
  5
7DF2
  8
DEFPOINTS
  6
BYBLOCK
 62
     0
 10
2920.1133289999989
 20
1449.927699999999
 30
0.0
  0
POINT
  5
7DF3
  8
DEFPOINTS
  6
BYBLOCK
 62
     0
 10
3175.1133289999998
 20
1363.915623162751
 30
0.0
  0
POINT
  5
7DF4
  8
DEFPOINTS
  6
BYBLOCK
 62
     0
 10
3175.1133289999998
 20
1313.6582662937601
 30
0.0
  0
ENDBLK
  5
7DF5
  8
0
  0
BLOCK
  8
0
  2
*D14
 70
     1
 10
0.0
 20
0.0
 30
0.0
  3
*D14
  1

  0
LINE
  5
7F47
  8
3
  6
CONTINUOUS
 62
     0
 10
3430.1133289999989
 20
1439.9277
 30
0.0
 11
3430.1133289999989
 21
1293.6582662937601
 31
0.0
  0
LINE
  5
7F48
  8
3
  6
CONTINUOUS
 62
     0
 10
3215.1133289999989
 20
1313.6582662937601
 30
0.0
 11
3390.1133289999998
 21
1313.6582662937601
 31
0.0
  0
TEXT
  8
3
  40
60
  5
7F7F
  62
0
  72
0
  71
0
 10
3187.30
 20
1256.99
 30
0.000000
  1
255
  0
INSERT
  5
7F4A
  8
3
  6
CONTINUOUS
 62
     0
  2
_OPEN
 10
3175.1133289999998
 20
1313.6582662937601
 30
0.0
 41
40.0
 42
40.0
 43
40.0
 50
180.0
  0
INSERT
  5
7F4B
  8
3
  6
CONTINUOUS
 62
     0
  2
_OPEN
 10
3430.1133289999989
 20
1313.6582662937601
 30
0.0
 41
40.0
 42
40.0
 43
40.0
  0
POINT
  5
7F4C
  8
DEFPOINTS
  6
CONTINUOUS
 62
     0
 10
3175.1133289999998
 20
1363.915623162751
 30
0.0
  0
POINT
  5
7F4D
  8
DEFPOINTS
  6
CONTINUOUS
 62
     0
 10
3430.1133289999989
 20
1449.927699999999
 30
0.0
  0
POINT
  5
7F4E
  8
DEFPOINTS
  6
CONTINUOUS
 62
     0
 10
3430.1133289999989
 20
1313.6582662937601
 30
0.0
  0
ENDBLK
  5
7DFF
  8
0
  0
BLOCK
  8
0
  2
*D15
 70
     1
 10
0.0
 20
0.0
 30
0.0
  3
*D15
  1

  0
LINE
  5
7F4F
  8
3
  6
CONTINUOUS
 62
     0
 10
839.8457269999999
 20
3956.9276999999988
 30
0.0
 11
839.8457269999999
 21
4167.0751409999993
 31
0.0
  0
LINE
  5
7F50
  8
3
  6
CONTINUOUS
 62
     0
 10
2089.845726999999
 20
3956.9276999999988
 30
0.0
 11
2089.845726999999
 21
4167.0751409999993
 31
0.0
  0
LINE
  5
7F51
  8
3
  6
CONTINUOUS
 62
     0
 10
879.84572700000001
 20
4147.0751409999993
 30
0.0
 11
2049.8457269999999
 21
4147.0751409999993
 31
0.0
  0
INSERT
  5
7F52
  8
3
  6
CONTINUOUS
 62
     0
  2
_OPEN
 10
839.8457269999999
 20
4147.0751409999993
 30
0.0
 41
40.0
 42
40.0
 43
40.0
 50
180.0
  0
INSERT
  5
7F53
  8
3
  6
CONTINUOUS
 62
     0
  2
_OPEN
 10
2089.845726999999
 20
4147.0751409999993
 30
0.0
 41
40.0
 42
40.0
 43
40.0
  0
TEXT
  8
3
  40
60
  5
7F80
  62
0
  72
0
  71
0
 10
1349.88
 20
4090.88
 30
0.000000
  1
1250
  0
POINT
  5
7F55
  8
DEFPOINTS
  6
CONTINUOUS
 62
     0
 10
839.8457269999999
 20
3946.9277000000002
 30
0.0
  0
POINT
  5
7F56
  8
DEFPOINTS
  6
CONTINUOUS
 62
     0
 10
2089.845726999999
 20
3946.9277000000002
 30
0.0
  0
POINT
  5
7F57
  8
DEFPOINTS
  6
CONTINUOUS
 62
     0
 10
2089.845726999999
 20
4147.0751409999993
 30
0.0
  0
ENDBLK
  5
7CB6
  8
0
  0
BLOCK
  8
0
  2
*D16
 70
     1
 10
0.0
 20
0.0
 30
0.0
  3
*D16
  1

  0
LINE
  5
7F58
  8
3
  6
CONTINUOUS
 62
     0
 10
2099.845726999999
 20
3946.9277000000002
 30
0.0
 11
2388.7668560000002
 21
3946.9277000000002
 31
0.0
  0
LINE
  5
7F59
  8
3
  6
CONTINUOUS
 62
     0
 10
2099.845726999999
 20
3436.9277000000002
 30
0.0
 11
2388.7668560000002
 21
3436.9277000000002
 31
0.0
  0
LINE
  5
7F5A
  8
3
  6
CONTINUOUS
 62
     0
 10
2368.7668560000002
 20
3906.9277000000002
 30
0.0
 11
2368.7668560000002
 21
3476.9277000000002
 31
0.0
  0
INSERT
  5
7F5B
  8
3
  6
CONTINUOUS
 62
     0
  2
_OPEN
 10
2368.7668560000002
 20
3946.9277000000002
 30
0.0
 41
40.0
 42
40.0
 43
40.0
 50
90.0
  0
INSERT
  5
7F5C
  8
3
  6
CONTINUOUS
 62
     0
  2
_OPEN
 10
2368.7668560000002
 20
3436.9277000000002
 30
0.0
 41
40.0
 42
40.0
 43
40.0
 50
270.0
  0
TEXT
  8
3
  40
60
  5
7F81
  62
0
  72
0
  71
0
 10
2198.77
 20
3588.80
 30
0.000000
  1
510
  0
POINT
  5
7F5E
  8
DEFPOINTS
  6
CONTINUOUS
 62
     0
 10
2089.845726999999
 20
3946.9277000000002
 30
0.0
  0
POINT
  5
7F5F
  8
DEFPOINTS
  6
CONTINUOUS
 62
     0
 10
2089.845726999999
 20
3436.9277000000002
 30
0.0
  0
POINT
  5
7F60
  8
DEFPOINTS
  6
CONTINUOUS
 62
     0
 10
2368.7668560000002
 20
3436.9277000000002
 30
0.0
  0
ENDBLK
  5
7C1E
  8
0
  0
BLOCK
  8
0
  2
*D17
 70
     1
 10
0.0
 20
0.0
 30
0.0
  3
*D17
  1

  0
LINE
  5
7F61
  8
3
  6
CONTINUOUS
 62
     0
 10
2965.1133289999989
 20
2506.9277000000002
 30
0.0
 11
2965.1133289999989
 21
2617.9796780000001
 31
0.0
  0
LINE
  5
7F62
  8
3
  6
CONTINUOUS
 62
     0
 10
3385.1133289999998
 20
2506.9277000000002
 30
0.0
 11
3385.1133289999998
 21
2617.9796780000001
 31
0.0
  0
LINE
  5
7F63
  8
3
  6
CONTINUOUS
 62
     0
 10
3005.1133289999998
 20
2597.9796780000001
 30
0.0
 11
3345.1133289999998
 21
2597.9796780000001
 31
0.0
  0
INSERT
  5
7F64
  8
3
  6
CONTINUOUS
 62
     0
  2
_OPEN
 10
2965.1133289999989
 20
2597.9796780000001
 30
0.0
 41
40.0
 42
40.0
 43
40.0
 50
180.0
  0
INSERT
  5
7F65
  8
3
  6
CONTINUOUS
 62
     0
  2
_OPEN
 10
3385.1133289999998
 20
2597.9796780000001
 30
0.0
 41
40.0
 42
40.0
 43
40.0
  0
TEXT
  8
3
  40
60
  5
7F82
  62
0
  72
0
  71
0
 10
3074.70
 20
2541.78
 30
0.000000
  1
420
  0
POINT
  5
7F67
  8
DEFPOINTS
  6
CONTINUOUS
 62
     0
 10
2965.1133289999989
 20
2496.9277000000002
 30
0.0
  0
POINT
  5
7F68
  8
DEFPOINTS
  6
CONTINUOUS
 62
     0
 10
3385.1133289999998
 20
2496.9277000000002
 30
0.0
  0
POINT
  5
7F69
  8
DEFPOINTS
  6
CONTINUOUS
 62
     0
 10
3385.1133289999998
 20
2597.9796780000001
 30
0.0
  0
ENDBLK
  5
7D43
  8
0
  0
BLOCK
  8
0
  2
*D18
 70
     1
 10
0.0
 20
0.0
 30
0.0
  3
*D18
  1

  0
LINE
  5
7F6A
  8
3
 62
     0
 10
2154.8457269999999
 20
2461.9277000000002
 30
0.0
 11
2154.8457269999999
 21
2910.3385277979678
 31
0.0
  0
LINE
  5
7F6B
  8
3
 62
     0
 10
839.8457269999999
 20
1626.927699999999
 30
0.0
 11
839.8457269999999
 21
2910.3385277979678
 31
0.0
  0
LINE
  5
7F6C
  8
3
 62
     0
 10
2114.8457269999999
 20
2890.3385277979678
 30
0.0
 11
879.84572700000001
 21
2890.3385277979678
 31
0.0
  0
INSERT
  5
7F6D
  8
3
 62
     0
  2
_OPEN
 10
2154.8457269999999
 20
2890.3385277979678
 30
0.0
 41
40.0
 42
40.0
 43
40.0
  0
INSERT
  5
7F6E
  8
3
 62
     0
  2
_OPEN
 10
839.8457269999999
 20
2890.3385277979678
 30
0.0
 41
40.0
 42
40.0
 43
40.0
 50
180.0
  0
TEXT
  8
3
  40
60
  5
7F83
  62
0
  72
0
  71
0
 10
1405.48
 20
2834.14
 30
0.000000
  1
1315
  0
POINT
  5
7F70
  8
DEFPOINTS
 62
     0
 10
2154.8457269999999
 20
2451.9277000000002
 30
0.0
  0
POINT
  5
7F71
  8
DEFPOINTS
 62
     0
 10
839.8457269999999
 20
1616.9277
 30
0.0
  0
POINT
  5
7F72
  8
DEFPOINTS
 62
     0
 10
839.8457269999999
 20
2890.3385277979678
 30
0.0
  0
ENDBLK
  5
7DAA
  8
0
  0
ENDSEC
  0
SECTION
  2
ENTITIES
  0
LINE
  5
7A73
  8
1
  6
CONTINUOUS
 10
3430.1133289999989
 20
1616.9277
 30
0.0
 11
2765.1133289999998
 21
1616.9277
 31
0.0
  0
LINE
  5
7A74
  8
1
  6
CONTINUOUS
 10
2795.1133289999989
 20
1728.927699999999
 30
0.0
 11
2855.1133289999989
 21
1728.927699999999
 31
0.0
  0
LINE
  5
7A75
  8
1
  6
CONTINUOUS
 10
2795.1133289999989
 20
1868.9277
 30
0.0
 11
2855.1133289999989
 21
1868.9277
 31
0.0
  0
LINE
  5
7A76
  8
1
  6
CONTINUOUS
 10
2795.1133289999989
 20
1991.9277
 30
0.0
 11
2855.1133289999989
 21
1991.9277
 31
0.0
  0
LINE
  5
7A77
  8
1
  6
CONTINUOUS
 10
2795.1133289999989
 20
2191.9277000000002
 30
0.0
 11
2855.1133289999989
 21
2191.9277000000002
 31
0.0
  0
LINE
  5
7A78
  8
1
  6
CONTINUOUS
 10
2765.1133289999998
 20
2451.9277000000002
 30
0.0
 11
2885.1133289999998
 21
2451.9277000000002
 31
0.0
  0
LINE
  5
7A79
  8
1
  6
CONTINUOUS
 10
2089.845726999999
 20
1514.9277
 30
0.0
 11
839.8457269999999
 21
1514.9277
 31
0.0
  0
LINE
  5
7A7A
  8
1
  6
CONTINUOUS
 10
2089.845726999999
 20
1449.927699999999
 30
0.0
 11
839.8457269999999
 21
1449.927699999999
 31
0.0
  0
LINE
  5
7A7B
  8
1
  6
CONTINUOUS
 10
1792.8457269999999
 20
2496.9277000000002
 30
0.0
 11
1178.845726999999
 21
2496.9277000000002
 31
0.0
  0
ARC
  5
7A7C
  8
1
  6
CONTINUOUS
 10
1707.845726999999
 20
2128.9277000000002
 30
0.0
 40
501.36713099999992
 50
184.2321739999999
 51
275.04245099999991
  0
LINE
  5
7A7D
  8
1
  6
CONTINUOUS
 10
1765.8457269999999
 20
2471.9277000000002
 30
0.0
 11
1205.969184
 21
2471.9277000000002
 31
0.0
  0
LINE
  5
7A7E
  8
1
  6
CONTINUOUS
 10
2089.845726999999
 20
1536.9277
 30
0.0
 11
839.8457269999999
 21
1536.9277
 31
0.0
  0
LINE
  5
7A7F
  8
1
  6
CONTINUOUS
 10
1745.345726999999
 20
2451.9277000000002
 30
0.0
 11
885.3457269999999
 21
1846.9277
 31
0.0
  0
LINE
  5
7A80
  8
1
  6
CONTINUOUS
 10
2104.8457269999999
 20
1616.9277
 30
0.0
 11
839.8457269999999
 21
1616.9277
 31
0.0
  0
LINE
  5
7A81
  8
1
  6
CONTINUOUS
 10
1015.286263
 20
1862.3803439999999
 30
0.0
 11
1702.617921
 21
2182.5743349999998
 31
0.0
  0
LINE
  5
7A82
  8
1
  6
CONTINUOUS
 10
1069.2996859999989
 20
1733.338037
 30
0.0
 11
1779.7799540000001
 21
1998.228180999999
 31
0.0
  0
CIRCLE
  5
7A83
  8
1
  6
CONTINUOUS
 10
1044.8457269999999
 20
1798.9277
 30
0.0
 40
70.0
  0
LINE
  5
7A84
  8
1
  6
CONTINUOUS
 10
914.8457269999999
 20
1616.9277
 30
0.0
 11
1174.845726999999
 21
1616.9277
 31
0.0
  0
LINE
  5
7A85
  8
2
  6
CENTER
 10
974.84572700000012
 20
1798.9277
 30
0.0
 11
1114.8457269999999
 21
1798.9277
 31
0.0
  0
ARC
  5
7A86
  8
1
  6
CONTINUOUS
 10
1044.8457269999999
 20
1798.9277
 30
0.0
 40
142.0
 50
324.59875699999998
 51
215.40124299999999
  0
LINE
  5
7A87
  8
1
  6
CONTINUOUS
 10
885.3457269999999
 20
1616.9277
 30
0.0
 11
885.3457269999999
 21
1846.9277
 31
0.0
  0
LINE
  5
7A88
  8
1
  6
CONTINUOUS
 10
914.8457269999999
 20
1616.9277
 30
0.0
 11
914.8457269999999
 21
1681.9277
 31
0.0
  0
LINE
  5
7A89
  8
1
  6
CONTINUOUS
 10
839.8457269999999
 20
1514.9277
 30
0.0
 11
839.8457269999999
 21
1449.927699999999
 31
0.0
  0
LINE
  5
7A8A
  8
1
  6
CONTINUOUS
 10
839.8457269999999
 20
1616.9277
 30
0.0
 11
839.8457269999999
 21
1536.9277
 31
0.0
  0
LINE
  5
7A8B
  8
1
  6
CONTINUOUS
 10
914.8457269999999
 20
1681.9277
 30
0.0
 11
929.09936399999992
 21
1716.6672629999989
 31
0.0
  0
LINE
  5
7A8C
  8
1
  6
CONTINUOUS
 10
1174.845726999999
 20
1616.9277
 30
0.0
 11
1174.845726999999
 21
1681.9277
 31
0.0
  0
LINE
  5
7A8D
  8
2
  6
CENTER
 10
1044.8457269999999
 20
1728.927699999999
 30
0.0
 11
1044.8457269999999
 21
1868.9277
 31
0.0
  0
LINE
  5
7A8E
  8
1
  6
CONTINUOUS
 10
1174.845726999999
 20
1681.9277
 30
0.0
 11
1160.5920900000001
 21
1716.6672629999989
 31
0.0
  0
LINE
  5
7A8F
  8
1
  6
CONTINUOUS
 10
1205.8457269999999
 20
2496.9277000000002
 30
0.0
 11
1207.8457269999999
 21
2091.9277000000002
 31
0.0
  0
ARC
  5
7A90
  8
1
  6
CONTINUOUS
 10
1713.845726999999
 20
2060.9277000000002
 30
0.0
 40
433.10293799999999
 50
275.04245099999991
 51
7.2531949999999998
  0
ARC
  5
7A91
  8
1
  6
CONTINUOUS
 10
1768.8457269999999
 20
2067.9277000000002
 30
0.0
 40
377.65927299999993
 50
7.2531949999999998
 51
90.455143000000007
  0
LINE
  5
7A92
  8
1
  6
CONTINUOUS
 10
1334.8457269999999
 20
2451.9277000000002
 30
0.0
 11
2154.8457269999999
 21
2451.9277000000002
 31
0.0
  0
LINE
  5
7A93
  8
1
  6
CONTINUOUS
 10
1334.8457269999999
 20
1616.9277
 30
0.0
 11
2154.8457269999999
 21
1616.9277
 31
0.0
  0
CIRCLE
  5
7A94
  8
1
  6
CONTINUOUS
 10
1744.845726999999
 20
2091.9277000000002
 30
0.0
 40
320.0
  0
CIRCLE
  5
7A95
  8
1
  6
CONTINUOUS
 10
1744.845726999999
 20
2091.9277000000002
 30
0.0
 40
295.0
  0
LINE
  5
7A96
  8
1
  6
CONTINUOUS
 10
2015.3457269999999
 20
2366.9277000000002
 30
0.0
 11
1745.345726999999
 21
2451.9277000000002
 31
0.0
  0
LINE
  5
7A97
  8
1
  6
CONTINUOUS
 10
1334.8457269999999
 20
2451.9277000000002
 30
0.0
 11
1334.8457269999999
 21
1616.9277
 31
0.0
  0
CIRCLE
  5
7A98
  8
1
  6
CONTINUOUS
 10
1744.845726999999
 20
2091.9277000000002
 30
0.0
 40
100.0
  0
LINE
  5
7A99
  8
2
  6
CENTER
 10
1744.845726999999
 20
4040.5122279999991
 30
0.0
 11
1744.845726999999
 21
3192.746502
 31
0.0
  0
LINE
  5
7A9A
  8
2
  6
CENTER
 10
3438.0593549999999
 20
2091.9277000000002
 30
0.0
 11
2700.7899510000002
 21
2091.9277000000002
 31
0.0
  0
LINE
  5
7A9B
  8
1
  6
CONTINUOUS
 10
1765.8457269999999
 20
2445.575057
 30
0.0
 11
1765.8457269999999
 21
2496.9277000000002
 31
0.0
  0
LINE
  5
7A9C
  8
1
  6
CONTINUOUS
 10
2154.8457269999999
 20
2451.9277000000002
 30
0.0
 11
2154.8457269999999
 21
1616.9277
 31
0.0
  0
LINE
  5
7A9D
  8
1
  6
CONTINUOUS
 10
2015.3457269999999
 20
1616.9277
 30
0.0
 11
2015.3457269999999
 21
2366.9277000000002
 31
0.0
  0
LINE
  5
7A9E
  8
1
  6
CONTINUOUS
 10
2795.1133289999989
 20
2191.9277000000002
 30
0.0
 11
2795.1133289999989
 21
1991.9277
 31
0.0
  0
LINE
  5
7A9F
  8
1
  6
CONTINUOUS
 10
2765.1133289999998
 20
1616.9277
 30
0.0
 11
2765.1133289999998
 21
2451.9277000000002
 31
0.0
  0
LINE
  5
7AA0
  8
1
  6
CONTINUOUS
 10
2089.845726999999
 20
1514.9277
 30
0.0
 11
2089.845726999999
 21
1449.927699999999
 31
0.0
  0
LINE
  5
7AA1
  8
1
  6
CONTINUOUS
 10
2089.845726999999
 20
1616.9277
 30
0.0
 11
2089.845726999999
 21
1536.9277
 31
0.0
  0
LINE
  5
7AA2
  8
1
  6
CONTINUOUS
 10
2795.1133289999989
 20
1868.9277
 30
0.0
 11
2795.1133289999989
 21
1728.927699999999
 31
0.0
  0
LINE
  5
7AA3
  8
1
  6
CONTINUOUS
 10
1765.8457269999999
 20
3901.9277000000002
 30
0.0
 11
1205.8457269999999
 21
3481.9276999999988
 31
0.0
  0
LINE
  5
7AA4
  8
1
  6
CONTINUOUS
 10
1205.8457269999999
 20
3901.9277000000002
 30
0.0
 11
1765.8457269999999
 21
3481.9276999999988
 31
0.0
  0
LINE
  5
7AA5
  8
1
  6
CONTINUOUS
 10
2154.8457269999999
 20
3481.9276999999988
 30
0.0
 11
1205.8457269999999
 21
3481.9276999999988
 31
0.0
  0
LINE
  5
7AA6
  8
1
  6
CONTINUOUS
 10
2154.8457269999999
 20
3901.9277000000002
 30
0.0
 11
1205.8457269999999
 21
3901.9277000000002
 31
0.0
  0
LINE
  5
7AA7
  8
1
  6
CONTINUOUS
 10
2015.3457269999999
 20
3401.9277000000002
 30
0.0
 11
885.3457269999999
 21
3401.9277000000002
 31
0.0
  0
LINE
  5
7AA8
  8
1
  6
CONTINUOUS
 10
2015.3457269999999
 20
3281.9277000000002
 30
0.0
 11
885.3457269999999
 21
3281.9277000000002
 31
0.0
  0
LINE
  5
7AA9
  8
1
  6
CONTINUOUS
 10
2089.845726999999
 20
3946.9277000000002
 30
0.0
 11
839.8457269999999
 21
3946.9277000000002
 31
0.0
  0
LINE
  5
7AAA
  8
1
  6
CONTINUOUS
 10
1728.845726999999
 20
3436.9277000000002
 30
0.0
 11
1063.8457269999999
 21
3436.9277000000002
 31
0.0
  0
LINE
  5
7AAB
  8
1
  6
CONTINUOUS
 10
1205.8457269999999
 20
3901.9277000000002
 30
0.0
 11
1205.8457269999999
 21
3481.9276999999988
 31
0.0
  0
LINE
  5
7AAC
  8
1
  6
CONTINUOUS
 10
839.8457269999999
 20
3946.9277000000002
 30
0.0
 11
839.8457269999999
 21
3436.9277000000002
 31
0.0
  0
LINE
  5
7AAD
  8
1
  6
CONTINUOUS
 10
974.84572700000012
 20
3311.9277000000002
 30
0.0
 11
1114.8457269999999
 21
3311.9277000000002
 31
0.0
  0
LINE
  5
7AAE
  8
1
  6
CONTINUOUS
 10
974.84572700000012
 20
3371.9277000000002
 30
0.0
 11
1114.8457269999999
 21
3371.9277000000002
 31
0.0
  0
LINE
  5
7AAF
  8
1
  6
CONTINUOUS
 10
902.84572700000001
 20
3855.665532999999
 30
0.0
 11
1186.845726999999
 21
3855.665532999999
 31
0.0
  0
LINE
  5
7AB0
  8
1
  6
CONTINUOUS
 10
902.84572700000001
 20
3455.665532999999
 30
0.0
 11
1186.845726999999
 21
3455.665532999999
 31
0.0
  0
LINE
  5
7AB1
  8
1
  6
CONTINUOUS
 10
1025.845726999999
 20
3436.9277000000002
 30
0.0
 11
839.8457269999999
 21
3436.9277000000002
 31
0.0
  0
LINE
  5
7AB2
  8
1
  6
CONTINUOUS
 10
974.84572700000012
 20
3311.9277000000002
 30
0.0
 11
974.84572700000012
 21
3371.9277000000002
 31
0.0
  0
LINE
  5
7AB3
  8
1
  6
CONTINUOUS
 10
885.3457269999999
 20
3281.9277000000002
 30
0.0
 11
885.3457269999999
 21
3401.9277000000002
 31
0.0
  0
LINE
  5
7AB4
  8
1
  6
CONTINUOUS
 10
902.84572700000001
 20
3855.665532999999
 30
0.0
 11
902.84572700000001
 21
3455.665532999999
 31
0.0
  0
LINE
  5
7AB5
  8
1
  6
CONTINUOUS
 10
1063.8457269999999
 20
3371.9277000000002
 30
0.0
 11
1063.8457269999999
 21
3455.665532999999
 31
0.0
  0
LINE
  5
7AB6
  8
1
  6
CONTINUOUS
 10
1025.845726999999
 20
3371.9277000000002
 30
0.0
 11
1025.845726999999
 21
3455.665532999999
 31
0.0
  0
LINE
  5
7AB7
  8
1
  6
CONTINUOUS
 10
1114.8457269999999
 20
3311.9277000000002
 30
0.0
 11
1114.8457269999999
 21
3371.9277000000002
 31
0.0
  0
LINE
  5
7AB8
  8
1
  6
CONTINUOUS
 10
1186.845726999999
 20
3855.665532999999
 30
0.0
 11
1186.845726999999
 21
3455.665532999999
 31
0.0
  0
LINE
  5
7AB9
  8
1
  6
CONTINUOUS
 10
2089.845726999999
 20
3436.9277000000002
 30
0.0
 11
1760.845726999999
 21
3436.9277000000002
 31
0.0
  0
LINE
  5
7ABA
  8
1
  6
CONTINUOUS
 10
2064.845726999999
 20
3903.9277000000002
 30
0.0
 11
1424.8457269999999
 21
3903.9277000000002
 31
0.0
  0
LINE
  5
7ABB
  8
1
  6
CONTINUOUS
 10
1765.8457269999999
 20
3901.9277000000002
 30
0.0
 11
1765.8457269999999
 21
3481.9276999999988
 31
0.0
  0
LINE
  5
7ABC
  8
1
  6
CONTINUOUS
 10
1760.845726999999
 20
3481.9276999999988
 30
0.0
 11
1760.845726999999
 21
3371.9277000000002
 31
0.0
  0
LINE
  5
7ABD
  8
1
  6
CONTINUOUS
 10
1728.845726999999
 20
3481.9276999999988
 30
0.0
 11
1728.845726999999
 21
3371.9277000000002
 31
0.0
  0
LINE
  5
7ABE
  8
1
  6
CONTINUOUS
 10
1644.845726999999
 20
3371.9277000000002
 30
0.0
 11
1844.8457269999999
 21
3371.9277000000002
 31
0.0
  0
LINE
  5
7ABF
  8
1
  6
CONTINUOUS
 10
1644.845726999999
 20
3311.9277000000002
 30
0.0
 11
1844.8457269999999
 21
3311.9277000000002
 31
0.0
  0
LINE
  5
7AC0
  8
1
  6
CONTINUOUS
 10
1644.845726999999
 20
3311.9277000000002
 30
0.0
 11
1644.845726999999
 21
3371.9277000000002
 31
0.0
  0
LINE
  5
7AC1
  8
1
  6
CONTINUOUS
 10
1844.8457269999999
 20
3311.9277000000002
 30
0.0
 11
1844.8457269999999
 21
3371.9277000000002
 31
0.0
  0
LINE
  5
7AC2
  8
1
  6
CONTINUOUS
 10
1424.8457269999999
 20
3901.9277000000002
 30
0.0
 11
1424.8457269999999
 21
3903.9277000000002
 31
0.0
  0
LINE
  5
7AC3
  8
1
  6
CONTINUOUS
 10
2154.8457269999999
 20
3481.9276999999988
 30
0.0
 11
2154.8457269999999
 21
3901.9277000000002
 31
0.0
  0
LINE
  5
7AC4
  8
1
  6
CONTINUOUS
 10
2015.3457269999999
 20
3281.9277000000002
 30
0.0
 11
2015.3457269999999
 21
3401.9277000000002
 31
0.0
  0
LINE
  5
7AC5
  8
1
  6
CONTINUOUS
 10
2089.845726999999
 20
3481.9276999999988
 30
0.0
 11
2089.845726999999
 21
3436.9277000000002
 31
0.0
  0
LINE
  5
7AC6
  8
1
  6
CONTINUOUS
 10
2089.845726999999
 20
3946.9277000000002
 30
0.0
 11
2089.845726999999
 21
3901.9277000000002
 31
0.0
  0
LINE
  5
7AC7
  8
1
  6
CONTINUOUS
 10
2064.845726999999
 20
3901.9277000000002
 30
0.0
 11
2064.845726999999
 21
3903.9277000000002
 31
0.0
  0
LINE
  5
7AC8
  8
1
  6
CONTINUOUS
 10
3385.1133289999998
 20
1616.9277
 30
0.0
 11
3385.1133289999998
 21
2496.9277000000002
 31
0.0
  0
LINE
  5
7AC9
  8
1
  6
CONTINUOUS
 10
2965.1133289999989
 20
1616.9277
 30
0.0
 11
2965.1133289999989
 21
2496.9277000000002
 31
0.0
  0
LINE
  5
7ACA
  8
1
  6
CONTINUOUS
 10
2855.1133289999989
 20
2191.9277000000002
 30
0.0
 11
2855.1133289999989
 21
1991.9277
 31
0.0
  0
LINE
  5
7ACB
  8
1
  6
CONTINUOUS
 10
2885.1133289999998
 20
1616.9277
 30
0.0
 11
2885.1133289999998
 21
2451.9277000000002
 31
0.0
  0
LINE
  5
7ACC
  8
1
  6
CONTINUOUS
 10
3387.1133289999989
 20
1771.9277
 30
0.0
 11
3387.1133289999989
 21
2411.9277000000002
 31
0.0
  0
LINE
  5
7ACD
  8
1
  6
CONTINUOUS
 10
3430.1133289999989
 20
1449.927699999999
 30
0.0
 11
2920.1133289999989
 21
1449.927699999999
 31
0.0
  0
LINE
  5
7ACE
  8
1
  6
CONTINUOUS
 10
3430.1133289999989
 20
1514.9277
 30
0.0
 11
2920.1133289999989
 21
1514.9277
 31
0.0
  0
LINE
  5
7ACF
  8
1
  6
CONTINUOUS
 10
3430.1133289999989
 20
1536.9277
 30
0.0
 11
2920.1133289999989
 21
1536.9277
 31
0.0
  0
LINE
  5
7AD0
  8
1
  6
CONTINUOUS
 10
2920.1133289999989
 20
1449.927699999999
 30
0.0
 11
2920.1133289999989
 21
1514.9277
 31
0.0
  0
LINE
  5
7AD1
  8
1
  6
CONTINUOUS
 10
2920.1133289999989
 20
1536.9277
 30
0.0
 11
2920.1133289999989
 21
1616.9277
 31
0.0
  0
LINE
  5
7AD2
  8
1
  6
CONTINUOUS
 10
2855.1133289999989
 20
1868.9277
 30
0.0
 11
2855.1133289999989
 21
1728.927699999999
 31
0.0
  0
LINE
  5
7AD3
  8
1
  6
CONTINUOUS
 10
2855.1133289999989
 20
1782.9277
 30
0.0
 11
2965.1133289999989
 21
1782.9277
 31
0.0
  0
LINE
  5
7AD4
  8
1
  6
CONTINUOUS
 10
2855.1133289999989
 20
1814.9277
 30
0.0
 11
2965.1133289999989
 21
1814.9277
 31
0.0
  0
LINE
  5
7AD5
  8
1
  6
CONTINUOUS
 10
3430.1133289999989
 20
1449.927699999999
 30
0.0
 11
3430.1133289999989
 21
1514.9277
 31
0.0
  0
LINE
  5
7AD6
  8
1
  6
CONTINUOUS
 10
3430.1133289999989
 20
1536.9277
 30
0.0
 11
3430.1133289999989
 21
1616.9277
 31
0.0
  0
LINE
  5
7AD7
  8
1
  6
CONTINUOUS
 10
3385.1133289999998
 20
1771.9277
 30
0.0
 11
3387.1133289999989
 21
1771.9277
 31
0.0
  0
LINE
  5
7AD8
  8
1
  6
CONTINUOUS
 10
2938.1133289999998
 20
2496.9277000000002
 30
0.0
 11
3412.1133289999989
 21
2496.9277000000002
 31
0.0
  0
LINE
  5
7AD9
  8
1
  6
CONTINUOUS
 10
2965.1133289999989
 20
2471.9277000000002
 30
0.0
 11
3385.1133289999998
 21
2471.9277000000002
 31
0.0
  0
LINE
  5
7ADA
  8
1
  6
CONTINUOUS
 10
2965.1133289999989
 20
2075.9277000000002
 30
0.0
 11
2855.1133289999989
 21
2075.9277000000002
 31
0.0
  0
LINE
  5
7ADB
  8
1
  6
CONTINUOUS
 10
2965.1133289999989
 20
2107.9277000000002
 30
0.0
 11
2855.1133289999989
 21
2107.9277000000002
 31
0.0
  0
LINE
  5
7ADC
  8
1
  6
CONTINUOUS
 10
3385.1133289999998
 20
2411.9277000000002
 30
0.0
 11
3387.1133289999989
 21
2411.9277000000002
 31
0.0
  0
LINE
  5
7ADD
  8
2
  6
CENTER
 10
2220.7529696208221
 20
3691.9277000000002
 30
0.0
 11
750.54897800000003
 21
3691.9277000000002
 31
0.0
  0
LINE
  5
7ADE
  8
2
  6
CENTER
 10
3175.1133289999998
 20
2587.899077
 30
0.0
 11
3175.1133289999998
 21
1363.915623162751
 31
0.0
  0
LINE
  5
7ADF
  8
2
  6
CENTER
 10
1744.845726999999
 20
2685.337931999999
 30
0.0
 11
1744.845726999999
 21
1341.165006298392
 31
0.0
  0
LINE
  5
7AE0
  8
2
  6
CENTER
 10
2343.171648
 20
2091.9277000000002
 30
0.0
 11
1072.5358332890819
 21
2091.9277000000002
 31
0.0
  0
LINE
  5
7AE1
  8
4
  6
CONTINUOUS
 10
3700.0
 20
1000.0
 30
0.0
 11
3700.0
 21
600.0
 31
0.0
  0
LINE
  5
7AE2
  8
4
  6
CONTINUOUS
 10
2300.0
 20
1000.0
 30
0.0
 11
2300.0
 21
600.0
 31
0.0
  0
LINE
  5
7AE3
  8
4
  6
CONTINUOUS
 10
1300.0
 20
1000.0
 30
0.0
 11
1300.0
 21
600.0
 31
0.0
  0
LINE
  5
7AE6
  8
4
  6
CONTINUOUS
 10
1300.0
 20
600.0
 30
0.0
 11
3700.0
 21
600.0
 31
0.0
  0
LINE
  5
7AE7
  8
4
  6
CONTINUOUS
 10
1300.0
 20
800.0
 30
0.0
 11
3700.0
 21
800.0
 31
0.0
  0
TEXT
  5
7AE8
  8
4
  6
CONTINUOUS
 10
1377.004162
 20
863.086052
 30
0.0
 40
100.0
  1
機器名称
  0
TEXT
  5
7AE9
  8
4
  6
CONTINUOUS
 10
1372.516212
 20
643.29031299999986
 30
0.0
 40
100.0
  1
機器型番
  0
TEXT
  5
7AEA
  8
4
  6
CONTINUOUS
 10
2355.3574910000002
 20
845.14353800000015
 30
0.0
 40
100.0
  1
ミツヤ多翼送風機
  0
TEXT
  5
7AEB
  8
4
  6
CONTINUOUS
 10
2373.3089909999999
 20
634.31916899999999
 30
0.0
 40
100.0
  1
MFE#3 1/2-4
  0
TEXT
  5
7AED
  8
4
  6
CONTINUOUS
 10
1582.436522
 20
4766.8576830000002
 30
0.0
 40
108.0
  1
床置防振ベット
  0
TEXT
  5
7AEE
  8
4
  6
CONTINUOUS
 10
632.33518700000002
 20
5067.7619520000007
 30
0.0
 40
144.0
  1
ベルト駆動式片吸込両持排煙ファン
  0
LINE
  5
7AEF
  8
4
  6
CONTINUOUS
 10
500.0
 20
4938.8175090000004
 30
0.0
 11
3700.0
 21
4938.8175090000004
 31
0.0
  0
LINE
  5
7AF0
  8
4
  6
CONTINUOUS
 10
500.0
 20
5338.8175090000004
 30
0.0
 11
3700.0
 21
5338.8175090000004
 31
0.0
  0
LINE
  5
7AF1
  8
4
  6
CONTINUOUS
 10
1300.0
 20
1000.0
 30
0.0
 11
3700.0
 21
1000.0
 31
0.0
  0
LINE
  5
7AF2
  8
4
  6
CONTINUOUS
 10
500.0
 20
5338.8175090000004
 30
0.0
 11
500.0
 21
4938.8175090000004
 31
0.0
  0
TEXT
  5
7AF3
  8
4
  6
CONTINUOUS
 10
710.71885699999996
 20
4764.6389549999994
 30
0.0
 40
108.0
  1
右回転上向
  0
TEXT
  5
7AF4
  8
4
  6
CONTINUOUS
 10
2937.9391179999998
 20
5412.122163
 30
0.0
 40
112.0
  1
No.
  0
TEXT
  5
7AF5
  8
4
  6
CONTINUOUS
 10
2622.5921250000001
 20
4766.8576830000002
 30
0.0
 40
108.0
  1
縮尺：1/20
  0
LINE
  5
7AF6
  8
4
  6
CONTINUOUS
 10
3700.0
 20
5338.8175090000004
 30
0.0
 11
3700.0
 21
4938.8175090000004
 31
0.0
  0
LINE
  5
7AF8
  8
4
  6
CONTINUOUS
 10
2881.234845
 20
5362.5271659999999
 30
0.0
 11
2881.234845
 21
5573.3045229999998
 31
0.0
  0
LINE
  5
7AF9
  8
4
  6
CONTINUOUS
 10
2881.234845
 20
5573.3045229999998
 30
0.0
 11
3700.0
 21
5573.3045229999998
 31
0.0
  0
LINE
  5
7AFA
  8
4
  6
CONTINUOUS
 10
3700.0
 20
5573.3045229999998
 30
0.0
 11
3700.0
 21
5362.5271659999999
 31
0.0
  0
LINE
  5
7AFB
  8
4
  6
CONTINUOUS
 10
3700.0
 20
5362.5271659999999
 30
0.0
 11
2881.234845
 21
5362.5271659999999
 31
0.0
  0
DIMENSION
  5
7B20
  8
3
  6
CONTINUOUS
  2
*D1
 10
1765.8457269999999
 20
2649.233303
 30
0.0
 11
1482.659885999999
 21
2649.233303
 31
0.0
 70
   128
 13
1205.8457269999999
 23
2496.9277000000002
 33
0.0
 14
1765.8457269999999
 24
2496.9277000000002
 34
0.0
1001
ACAD
1000
DSTYLE
1002
{
1070
   287
1070
     3
1070
   287
1070
     3
1070
    40
1040
20.0
1070
   143
1040
0.039
1070
   172
1070
     1
1070
   271
1070
     0
1070
   279
1070
     0
1070
   288
1070
     1
1002
}
  0
DIMENSION
  5
7B2D
  8
3
  6
CONTINUOUS
  2
*D2
 10
1744.845726999999
 20
2768.4056350000001
 30
0.0
 11
1474.1396239999999
 21
2768.4056350000001
 31
0.0
 70
   128
 13
1205.8457269999999
 23
2496.9277000000002
 33
0.0
 14
1744.845726999999
 24
2685.337931999999
 34
0.0
1001
ACAD
1000
DSTYLE
1002
{
1070
   287
1070
     3
1070
   287
1070
     3
1070
    40
1040
20.0
1070
   143
1040
0.039
1070
   172
1070
     1
1070
   271
1070
     0
1070
   279
1070
     0
1070
   288
1070
     1
1002
}
  0
DIMENSION
  5
7B39
  8
3
  6
CONTINUOUS
  2
*D3
 10
2154.8457269999999
 20
2768.4056350000001
 30
0.0
 11
1949.845726999999
 21
2818.4056350000001
 31
0.0
 70
     0
 13
1744.845726999999
 23
2685.337931999999
 33
0.0
 14
2154.8457269999999
 24
2451.9277000000002
 34
0.0
1001
ACAD
1000
DSTYLE
1002
{
1070
   287
1070
     4
1070
   287
1070
     4
1070
    40
1040
20.0
1070
    75
1070
     1
1070
   143
1040
0.039
1070
   172
1070
     1
1070
   271
1070
     0
1070
   279
1070
     1
1070
   288
1070
     1
1002
}
  0
DIMENSION
  5
7B6F
  8
3
  6
CONTINUOUS
  2
*D4
 10
2412.2568769999998
 20
2091.9277000000002
 30
0.0
 11
2412.2568769999989
 21
2266.6716899999992
 31
0.0
 70
   128
 13
1792.8457269999999
 23
2496.9277000000002
 33
0.0
 14
2343.171648
 24
2091.9277000000002
 34
0.0
 50
90.0
1001
ACAD
1000
DSTYLE
1002
{
1070
   287
1070
     3
1070
   287
1070
     3
1070
    40
1040
20.0
1070
   143
1040
0.039
1070
   172
1070
     1
1070
   271
1070
     0
1070
   279
1070
     0
1070
   288
1070
     1
1002
}
  0
DIMENSION
  5
7B7B
  8
3
  6
CONTINUOUS
  2
*D5
 10
2412.2568769999989
 20
1536.9277
 30
0.0
 11
2362.2568769999989
 21
1814.4277
 31
0.0
 70
     0
 13
2343.171648
 23
2091.9277000000002
 33
0.0
 14
2089.845726999999
 24
1536.9277
 34
0.0
 50
90.0
1001
ACAD
1000
DSTYLE
1002
{
1070
   287
1070
     4
1070
   287
1070
     4
1070
    40
1040
20.0
1070
    75
1070
     1
1070
   143
1040
0.039
1070
   172
1070
     1
1070
   271
1070
     0
1070
   279
1070
     1
1070
   288
1070
     1
1002
}
  0
DIMENSION
  5
7B8B
  8
3
  6
CONTINUOUS
  2
*D6
 10
2412.2568769999998
 20
1449.927699999999
 30
0.0
 11
2412.2568769999989
 21
1301.3562714285711
 31
0.0
 70
   128
 13
2089.845726999999
 23
1536.9277
 33
0.0
 14
2089.845726999999
 24
1449.927699999999
 34
0.0
 50
90.0
1001
ACAD
1000
DSTYLE
1002
{
1070
   287
1070
     3
1070
   287
1070
     3
1070
    40
1040
20.0
1070
   143
1040
0.039
1070
   172
1070
     1
1070
   271
1070
     0
1070
   279
1070
     0
1070
   288
1070
     1
1002
}
  0
DIMENSION
  5
7B98
  8
3
  6
CONTINUOUS
  2
*D7
 10
1744.845726999999
 20
1285.307936992687
 30
0.0
 11
1303.7344399999999
 21
1285.307936992687
 31
0.0
 70
   128
 13
839.8457269999999
 23
1449.927699999999
 33
0.0
 14
1744.845726999999
 24
1341.165006298392
 34
0.0
1001
ACAD
1000
DSTYLE
1002
{
1070
   287
1070
     3
1070
   287
1070
     3
1070
    40
1040
20.0
1070
   143
1040
0.039
1070
   172
1070
     1
1070
   271
1070
     0
1070
   279
1070
     0
1070
   288
1070
     1
1002
}
  0
DIMENSION
  5
7BA4
  8
3
  6
CONTINUOUS
  2
*D8
 10
2089.845726999999
 20
1285.307936992687
 30
0.0
 11
1917.3457269999999
 21
1335.307936992687
 31
0.0
 70
     0
 13
1744.845726999999
 23
1341.165006298392
 33
0.0
 14
2089.845726999999
 24
1449.927699999999
 34
0.0
1001
ACAD
1000
DSTYLE
1002
{
1070
   287
1070
     4
1070
   287
1070
     4
1070
    40
1040
20.0
1070
    75
1070
     1
1070
   143
1040
0.039
1070
   172
1070
     1
1070
   271
1070
     0
1070
   279
1070
     1
1070
   288
1070
     1
1002
}
  0
DIMENSION
  5
7BB1
  8
3
  6
CONTINUOUS
  2
*D9
 10
2555.7159820000002
 20
1449.927699999999
 30
0.0
 11
2555.7159820000002
 21
2002.790101
 31
0.0
 70
   128
 13
1802.8457269999999
 23
2496.9277000000002
 33
0.0
 14
2089.845726999999
 24
1449.927699999999
 34
0.0
 50
90.0
1001
ACAD
1000
DSTYLE
1002
{
1070
   287
1070
     3
1070
   287
1070
     3
1070
    40
1040
20.0
1070
   143
1040
0.039
1070
   172
1070
     1
1070
   271
1070
     0
1070
   279
1070
     0
1070
   288
1070
     1
1002
}
  0
DIMENSION
  5
7BCD
  8
3
  6
CONTINUOUS
  2
*D10
 10
3565.8632550000002
 20
1796.9277
 30
0.0
 11
3565.8632550000002
 21
2096.425495
 31
0.0
 70
   128
 13
3387.1133289999989
 23
2386.9277000000002
 33
0.0
 14
3387.1133289999989
 24
1796.9277
 34
0.0
 50
90.0
1001
ACAD
1000
DSTYLE
1002
{
1070
   287
1070
     3
1070
   287
1070
     3
1070
     3
1000
φ<>
1070
    40
1040
20.0
1070
   143
1040
0.039
1070
   172
1070
     1
1070
   271
1070
     0
1070
   279
1070
     0
1070
   288
1070
     1
1002
}
  0
DIMENSION
  5
7BDC
  8
3
  6
CONTINUOUS
  2
*D11
 10
3175.1133289999998
 20
2724.9432900000002
 30
0.0
 11
3281.1133289999998
 21
2793.056872891309
 31
0.0
 70
   128
 13
3387.1133289999989
 23
2411.9277000000002
 33
0.0
 14
3175.1133289999998
 24
2681.8846960000001
 34
0.0
1001
ACAD
1000
DSTYLE
1002
{
1070
   288
1070
     1
1070
   172
1070
     1
1070
    40
1040
20.0
1070
   271
1070
     0
1070
   143
1040
0.039
1002
}
  0
DIMENSION
  5
7BE8
  8
3
  6
CONTINUOUS
  2
*D12
 10
2765.1133289999998
 20
2724.9432900000002
 30
0.0
 11
2970.1133289999998
 21
2824.9432900000002
 31
0.0
 70
     0
  1
MAX\P470
 13
3175.1133289999998
 23
2681.8846960000001
 33
0.0
 14
2765.1133289999998
 24
2451.9277000000002
 34
0.0
1001
ACAD
1000
DSTYLE
1002
{
1070
   287
1070
     4
1070
   287
1070
     4
1070
    40
1040
20.0
1070
    75
1070
     1
1070
   143
1040
0.039
1070
   172
1070
     1
1070
   271
1070
     0
1070
   279
1070
     1
1070
   288
1070
     1
1002
}
  0
DIMENSION
  5
7BF7
  8
3
  6
CONTINUOUS
  2
*D13
 10
3175.1133289999998
 20
1313.6582662937601
 30
0.0
 11
3047.6133289999998
 21
1363.5851847912411
 31
0.0
 70
   128
 13
2920.1133289999989
 23
1449.927699999999
 33
0.0
 14
3175.1133289999998
 24
1363.915623162751
 34
0.0
1001
ACAD
1000
DSTYLE
1002
{
1070
   288
1070
     1
1070
   172
1070
     1
1070
    40
1040
20.0
1070
   271
1070
     0
1070
   143
1040
0.039
1002
}
  0
DIMENSION
  5
7C05
  8
3
  6
CONTINUOUS
  2
*D14
 10
3430.1133289999989
 20
1313.6582662937601
 30
0.0
 11
3307.298843
 21
1313.19226229376
 31
0.0
 70
   128
 13
3175.1133289999998
 23
1363.915623162751
 33
0.0
 14
3430.1133289999989
 24
1449.927699999999
 34
0.0
1001
ACAD
1000
DSTYLE
1002
{
1070
   287
1070
     4
1070
   287
1070
     4
1070
    40
1040
20.0
1070
    75
1070
     1
1070
   143
1040
0.039
1070
   172
1070
     1
1070
   271
1070
     0
1070
   279
1070
     1
1070
   288
1070
     1
1002
}
  0
DIMENSION
  5
7C12
  8
3
  6
CONTINUOUS
  2
*D15
 10
2089.845726999999
 20
4147.0751409999993
 30
0.0
 11
1469.879494
 21
4147.0751409999993
 31
0.0
 70
   128
 13
839.8457269999999
 23
3946.9277000000002
 33
0.0
 14
2089.845726999999
 24
3946.9277000000002
 34
0.0
1001
ACAD
1000
DSTYLE
1002
{
1070
   287
1070
     3
1070
   287
1070
     3
1070
    40
1040
20.0
1070
   143
1040
0.039
1070
   172
1070
     1
1070
   271
1070
     0
1070
   279
1070
     0
1070
   288
1070
     1
1002
}
  0
DIMENSION
  5
7C1F
  8
3
  6
CONTINUOUS
  2
*D16
 10
2368.7668560000002
 20
3436.9277000000002
 30
0.0
 11
2368.7668560000002
 21
3694.998857
 31
0.0
 70
   128
 13
2089.845726999999
 23
3946.9277000000002
 33
0.0
 14
2089.845726999999
 24
3436.9277000000002
 34
0.0
 50
90.0
1001
ACAD
1000
DSTYLE
1002
{
1070
   287
1070
     3
1070
   287
1070
     3
1070
    40
1040
20.0
1070
   143
1040
0.039
1070
   172
1070
     1
1070
   271
1070
     0
1070
   279
1070
     0
1070
   288
1070
     1
1002
}
  0
DIMENSION
  5
7D09
  8
3
  6
CONTINUOUS
  2
*D17
 10
3385.1133289999998
 20
2597.9796780000001
 30
0.0
 11
3194.6983620000001
 21
2597.9796780000001
 31
0.0
 70
   128
 13
2965.1133289999989
 23
2496.9277000000002
 33
0.0
 14
3385.1133289999998
 24
2496.9277000000002
 34
0.0
1001
ACAD
1000
DSTYLE
1002
{
1070
   287
1070
     3
1070
   287
1070
     3
1070
    40
1040
20.0
1070
   143
1040
0.039
1070
   172
1070
     1
1070
   271
1070
     0
1070
   279
1070
     0
1070
   288
1070
     1
1002
}
  0
DIMENSION
  5
7DAB
  8
3
  2
*D18
 10
839.8457269999999
 20
2890.3385277979678
 30
0.0
 11
1525.4808020877599
 21
2890.3385277979678
 31
0.0
 70
   128
 13
2154.8457269999999
 23
2451.9277000000002
 33
0.0
 14
839.8457269999999
 24
1616.9277
 34
0.0
1001
ACAD
1000
DSTYLE
1002
{
1070
   287
1070
     3
1070
   287
1070
     3
1070
    40
1040
20.0
1070
   143
1040
0.039
1070
   172
1070
     1
1070
   271
1070
     0
1070
   279
1070
     0
1070
   288
1070
     1
1002
}
  0
ENDSEC
  0
EOF
