  0
SECTION
  2
HEADER
  9
$ACADVER
  1
AC1009
  9
$INSBASE
 10
0.0
 20
0.0
 30
0.0
  9
$EXTMIN
 10
500.0
 20
600.0
 30
0.0
  9
$EXTMAX
 10
3700.0
 20
5573.3045229999998
 30
0.0
  9
$LIMMIN
 10
0.0
 20
0.0
  9
$LIMMAX
 10
297.0
 20
210.0
  9
$ORTHOMODE
 70
     0
  9
$REGENMODE
 70
     1
  9
$FILLMODE
 70
     0
  9
$QTEXTMODE
 70
     0
  9
$MIRRTEXT
 70
     1
  9
$DRAGMODE
 70
     2
  9
$LTSCALE
 40
100.0
  9
$OSMODE
 70
    37
  9
$ATTMODE
 70
     1
  9
$TEXTSIZE
 40
180.0
  9
$TRACEWID
 40
0.05
  9
$TEXTSTYLE
  7
STANDARD
  9
$CLAYER
  8
3
  9
$CELTYPE
  6
BYLAYER
  9
$CECOLOR
 62
   256
  9
$DIMSCALE
 40
20.0
  9
$DIMASZ
 40
2.0
  9
$DIMEXO
 40
0.5
  9
$DIMDLI
 40
10.0
  9
$DIMRND
 40
0.0
  9
$DIMDLE
 40
0.0
  9
$DIMEXE
 40
1.0
  9
$DIMTP
 40
1.0
  9
$DIMTM
 40
1.0
  9
$DIMTXT
 40
3.0
  9
$DIMCEN
 40
0.0
  9
$DIMTSZ
 40
0.0
  9
$DIMTOL
 70
     0
  9
$DIMLIM
 70
     0
  9
$DIMTIH
 70
     0
  9
$DIMTOH
 70
     0
  9
$DIMSE1
 70
     0
  9
$DIMSE2
 70
     0
  9
$DIMTAD
 70
     1
  9
$DIMZIN
 70
     8
  9
$DIMBLK
  1

  9
$DIMASO
 70
     1
  9
$DIMSHO
 70
     1
  9
$DIMPOST
  1

  9
$DIMAPOST
  1

  9
$DIMALT
 70
     0
  9
$DIMALTD
 70
     2
  9
$DIMALTF
 40
0.039
  9
$DIMLFAC
 40
1.0
  9
$DIMTOFL
 70
     1
  9
$DIMTVP
 40
0.0
  9
$DIMTIX
 70
     0
  9
$DIMSOXD
 70
     0
  9
$DIMSAH
 70
     1
  9
$DIMBLK1
  1
OPEN
  9
$DIMBLK2
  1
OPEN
  9
$DIMSTYLE
  2
IGA
  9
$DIMCLRD
 70
     0
  9
$DIMCLRE
 70
     0
  9
$DIMCLRT
 70
     0
  9
$DIMTFAC
 40
10.0
  9
$DIMGAP
 40
1.0
  9
$LUNITS
 70
     2
  9
$LUPREC
 70
     3
  9
$SKETCHINC
 40
0.1
  9
$FILLETRAD
 40
50.0
  9
$AUNITS
 70
     0
  9
$AUPREC
 70
     0
  9
$MENU
  1
acad
  9
$ELEVATION
 40
0.0
  9
$PELEVATION
 40
0.0
  9
$THICKNESS
 40
0.0
  9
$LIMCHECK
 70
     0
  9
$BLIPMODE
 70
     0
  9
$CHAMFERA
 40
0.5
  9
$CHAMFERB
 40
0.5
  9
$SKPOLY
 70
     0
  9
$TDCREATE
 40
2450736.6111090272
  9
$TDUPDATE
 40
2454953.837295393
  9
$TDINDWG
 40
0.0048092245
  9
$TDUSRTIMER
 40
0.0048092245
  9
$USRTIMER
 70
     1
  9
$ANGBASE
 50
0.0
  9
$ANGDIR
 70
     0
  9
$PDMODE
 70
     0
  9
$PDSIZE
 40
0.0
  9
$PLINEWID
 40
0.0
  9
$COORDS
 70
     1
  9
$SPLFRAME
 70
     0
  9
$SPLINETYPE
 70
     6
  9
$SPLINESEGS
 70
     8
  9
$ATTDIA
 70
     0
  9
$ATTREQ
 70
     1
  9
$HANDLING
 70
 10241
  9
$HANDSEED
  5
7EDD
  9
$SURFTAB1
 70
     6
  9
$SURFTAB2
 70
     6
  9
$SURFTYPE
 70
     6
  9
$SURFU
 70
     6
  9
$SURFV
 70
     6
  9
$UCSNAME
  2

  9
$UCSORG
 10
0.0
 20
0.0
 30
0.0
  9
$UCSXDIR
 10
1.0
 20
0.0
 30
0.0
  9
$UCSYDIR
 10
0.0
 20
1.0
 30
0.0
  9
$PUCSNAME
  2

  9
$PUCSORG
 10
0.0
 20
0.0
 30
0.0
  9
$PUCSXDIR
 10
1.0
 20
0.0
 30
0.0
  9
$PUCSYDIR
 10
0.0
 20
1.0
 30
0.0
  9
$USERI1
 70
     0
  9
$USERI2
 70
     0
  9
$USERI3
 70
     0
  9
$USERI4
 70
     0
  9
$USERI5
 70
     0
  9
$USERR1
 40
0.0
  9
$USERR2
 40
0.0
  9
$USERR3
 40
0.0
  9
$USERR4
 40
0.0
  9
$USERR5
 40
0.0
  9
$WORLDVIEW
 70
     1
  9
$SHADEDGE
 70
     3
  9
$SHADEDIF
 70
    70
  9
$TILEMODE
 70
     1
  9
$MAXACTVP
 70
    16
  9
$PLIMCHECK
 70
     0
  9
$PEXTMIN
 10
1.0000000000000000E+020
 20
1.0000000000000000E+020
 30
1.0000000000000000E+020
  9
$PEXTMAX
 10
-1.0000000000000000E+020
 20
-1.0000000000000000E+020
 30
-1.0000000000000000E+020
  9
$PLIMMIN
 10
0.0
 20
0.0
  9
$PLIMMAX
 10
12.0
 20
9.0
  9
$UNITMODE
 70
     0
  9
$VISRETAIN
 70
     0
  9
$PLINEGEN
 70
     0
  9
$PSLTSCALE
 70
     1
  0
ENDSEC
  0
SECTION
  2
TABLES
  0
TABLE
  2
VPORT
 70
     2
  0
VPORT
  2
*ACTIVE
 70
     0
 10
0.0
 20
0.0
 11
1.0
 21
1.0
 12
5859.1895564155138
 22
3753.978280193046
 13
0.0
 23
0.0
 14
10.0
 24
10.0
 15
10.0
 25
10.0
 16
0.0
 26
0.0
 36
1.0
 17
0.0
 27
0.0
 37
0.0
 40
7720.8617819453802
 41
1.5051150895140659
 42
50.0
 43
0.0
 44
0.0
 50
0.0
 51
0.0
 71
     0
 72
   100
 73
     1
 74
     0
 75
     0
 76
     0
 77
     0
 78
     0
  0
ENDTAB
  0
TABLE
  2
LTYPE
 70
     2
  0
LTYPE
  2
CONTINUOUS
 70
     0
  3
Solid line
 72
    65
 73
     0
 40
0.0
  0
LTYPE
  2
CENTER
 70
     0
  3
____ _ ____ _ ____ _ ____ _ ____ _ ____ _ ____ 
 72
    65
 73
     4
 40
2.0
 49
1.25
 49
-0.25
 49
0.25
 49
-0.25
  0
ENDTAB
  0
TABLE
  2
LAYER
 70
     6
  0
LAYER
  2
0
 70
     0
 62
     7
  6
CONTINUOUS
  0
LAYER
  2
3
 70
     0
 62
     2
  6
CONTINUOUS
  0
LAYER
  2
2
 70
     0
 62
     3
  6
CENTER
  0
LAYER
  2
1
 70
     0
 62
     4
  6
CONTINUOUS
  0
LAYER
  2
4
 70
     0
 62
     7
  6
CONTINUOUS
  0
LAYER
  2
DEFPOINTS
 70
     0
 62
     7
  6
CONTINUOUS
  0
ENDTAB
  0
TABLE
  2
STYLE
 70
     1
  0
STYLE
  2
STANDARD
 70
     0
 40
0.0
 41
1.0
 50
0.0
 71
     0
 42
180.0
  3
simplex.shx
  4
extfont.shx
  0
ENDTAB
  0
TABLE
  2
VIEW
 70
     0
  0
ENDTAB
  0
TABLE
  2
UCS
 70
     0
  0
ENDTAB
  0
TABLE
  2
APPID
 70
     1
  0
APPID
  2
ACAD
 70
     0
  0
ENDTAB
  0
TABLE
  2
DIMSTYLE
 70
     1
  0
DIMSTYLE
  2
IGA
 70
     0
  3

  4

  5

  6
OPEN
  7
OPEN
 40
2.0
 41
2.0
 42
0.5
 43
10.0
 44
1.0
 45
0.0
 46
0.0
 47
1.0
 48
1.0
140
3.0
141
0.0
142
0.0
143
0.03937
144
1.0
145
0.0
146
10.0
147
1.0
 71
     0
 72
     0
 73
     0
 74
     0
 75
     0
 76
     0
 77
     1
 78
     8
170
     0
171
     2
172
     0
173
     1
174
     0
175
     0
176
     0
177
     0
178
     0
  0
ENDTAB
  0
ENDSEC
  0
SECTION
  2
BLOCKS
  0
BLOCK
  8
0
  2
$MODEL_SPACE
 70
     0
 10
0.0
 20
0.0
 30
0.0
  3
$MODEL_SPACE
  1

  0
ENDBLK
  5
1B
  8
0
  0
BLOCK
 67
     1
  8
0
  2
$PAPER_SPACE
 70
     0
 10
0.0
 20
0.0
 30
0.0
  3
$PAPER_SPACE
  1

  0
ENDBLK
  5
18
 67
     1
  8
0
  0
BLOCK
  8
0
  2
_OPEN
 70
     0
 10
0.0
 20
0.0
 30
0.0
  3
_OPEN
  1

  0
LINE
  5
7B00
  8
0
  6
BYBLOCK
 62
     0
 10
-1.0
 20
0.166667
 30
0.0
 11
0.0
 21
0.0
 31
0.0
  0
LINE
  5
7B01
  8
0
  6
BYBLOCK
 62
     0
 10
0.0
 20
0.0
 30
0.0
 11
-1.0
 21
-0.166667
 31
0.0
  0
LINE
  5
7B02
  8
0
  6
BYBLOCK
 62
     0
 10
0.0
 20
0.0
 30
0.0
 11
-1.0
 21
0.0
 31
0.0
  0
ENDBLK
  5
7B03
  8
0
  0
BLOCK
  8
0
  2
*D1
 70
     1
 10
0.0
 20
0.0
 30
0.0
  3
*D1
  1

  0
LINE
  5
7E3F
  8
3
  6
CONTINUOUS
 62
     0
 10
2015.3024399999999
 20
2664.4278800000002
 30
0.0
 11
2173.779618
 21
2664.4278800000002
 31
0.0
  0
LINE
  5
7E40
  8
3
  6
CONTINUOUS
 62
     0
 10
2015.3024399999999
 20
2104.4278800000002
 30
0.0
 11
2173.779618
 21
2104.4278800000002
 31
0.0
  0
LINE
  5
7E41
  8
3
  6
CONTINUOUS
 62
     0
 10
2153.779618
 20
2624.4278800000002
 30
0.0
 11
2153.779618
 21
2144.4278800000002
 31
0.0
  0
INSERT
  5
7E42
  8
3
  6
CONTINUOUS
 62
     0
  2
_OPEN
 10
2153.779618
 20
2664.4278800000002
 30
0.0
 41
40.0
 42
40.0
 43
40.0
 50
90.0
  0
INSERT
  5
7E43
  8
3
  6
CONTINUOUS
 62
     0
  2
_OPEN
 10
2153.779618
 20
2104.4278800000002
 30
0.0
 41
40.0
 42
40.0
 43
40.0
 50
270.0
  0
TEXT
  8
3
  40
60
  5
7ECC
  62
0
  72
0
  71
0
 10
1983.78
 20
2256.49
 30
0.000000
  1
560
  0
POINT
  5
7E45
  8
DEFPOINTS
  6
CONTINUOUS
 62
     0
 10
2005.302439999999
 20
2664.4278800000002
 30
0.0
  0
POINT
  5
7E46
  8
DEFPOINTS
  6
CONTINUOUS
 62
     0
 10
2005.302439999999
 20
2104.4278800000002
 30
0.0
  0
POINT
  5
7E47
  8
DEFPOINTS
  6
CONTINUOUS
 62
     0
 10
2153.779618
 20
2104.4278800000002
 30
0.0
  0
ENDBLK
  5
7B10
  8
0
  0
BLOCK
  8
0
  2
*D2
 70
     1
 10
0.0
 20
0.0
 30
0.0
  3
*D2
  1

  0
LINE
  5
7E48
  8
3
  6
CONTINUOUS
 62
     0
 10
2015.3024399999999
 20
2664.4278800000002
 30
0.0
 11
2296.3777930000001
 21
2664.4278800000002
 31
0.0
  0
LINE
  5
7E49
  8
3
  6
CONTINUOUS
 62
     0
 10
2107.807248999999
 20
2125.4278800000002
 30
0.0
 11
2296.3777930000001
 21
2125.4278800000002
 31
0.0
  0
LINE
  5
7E4A
  8
3
  6
CONTINUOUS
 62
     0
 10
2276.3777930000001
 20
2624.4278800000002
 30
0.0
 11
2276.3777930000001
 21
2165.4278800000002
 31
0.0
  0
INSERT
  5
7E4B
  8
3
  6
CONTINUOUS
 62
     0
  2
_OPEN
 10
2276.3777930000001
 20
2664.4278800000002
 30
0.0
 41
40.0
 42
40.0
 43
40.0
 50
90.0
  0
INSERT
  5
7E4C
  8
3
  6
CONTINUOUS
 62
     0
  2
_OPEN
 10
2276.3777930000001
 20
2125.4278800000002
 30
0.0
 41
40.0
 42
40.0
 43
40.0
 50
270.0
  0
TEXT
  8
3
  40
60
  5
7ECD
  62
0
  72
0
  71
0
 10
2106.38
 20
2260.32
 30
0.000000
  1
539
  0
POINT
  5
7E4E
  8
DEFPOINTS
  6
CONTINUOUS
 62
     0
 10
2005.302439999999
 20
2664.4278800000002
 30
0.0
  0
POINT
  5
7E4F
  8
DEFPOINTS
  6
CONTINUOUS
 62
     0
 10
2097.807249
 20
2125.4278800000002
 30
0.0
  0
POINT
  5
7E50
  8
DEFPOINTS
  6
CONTINUOUS
 62
     0
 10
2276.3777930000001
 20
2125.4278800000002
 30
0.0
  0
ENDBLK
  5
7B1D
  8
0
  0
BLOCK
  8
0
  2
*D3
 70
     1
 10
0.0
 20
0.0
 30
0.0
  3
*D3
  1

  0
LINE
  5
7E51
  8
3
  6
CONTINUOUS
 62
     0
 10
1955.302439999999
 20
1635.42788
 30
0.0
 11
2296.3777930000001
 21
1635.42788
 31
0.0
  0
LINE
  5
7E52
  8
3
  6
CONTINUOUS
 62
     0
 10
2276.3777929999992
 20
2085.4278800000002
 30
0.0
 11
2276.3777929999992
 21
1675.42788
 31
0.0
  0
INSERT
  5
7E53
  8
3
  6
CONTINUOUS
 62
     0
  2
_OPEN
 10
2276.3777929999992
 20
2125.4278800000002
 30
0.0
 41
40.0
 42
40.0
 43
40.0
 50
90.0
  0
INSERT
  5
7E54
  8
3
  6
CONTINUOUS
 62
     0
  2
_OPEN
 10
2276.3777929999992
 20
1635.42788
 30
0.0
 41
40.0
 42
40.0
 43
40.0
 50
270.0
  0
TEXT
  8
3
  40
60
  5
7ECE
  62
0
  72
0
  71
0
 10
2106.38
 20
1774.23
 30
0.000000
  1
490
  0
POINT
  5
7E56
  8
DEFPOINTS
  6
CONTINUOUS
 62
     0
 10
2097.807249
 20
2125.4278800000002
 30
0.0
  0
POINT
  5
7E57
  8
DEFPOINTS
  6
CONTINUOUS
 62
     0
 10
1945.3024399999999
 20
1635.42788
 30
0.0
  0
POINT
  5
7E58
  8
DEFPOINTS
  6
CONTINUOUS
 62
     0
 10
2276.3777929999992
 20
1635.42788
 30
0.0
  0
ENDBLK
  5
7B37
  8
0
  0
BLOCK
  8
0
  2
*D4
 70
     1
 10
0.0
 20
0.0
 30
0.0
  3
*D4
  1

  0
LINE
  5
7E59
  8
3
  6
CONTINUOUS
 62
     0
 10
1955.302439999999
 20
1635.42788
 30
0.0
 11
2296.3326010000001
 21
1635.42788
 31
0.0
  0
LINE
  5
7E5A
  8
3
  6
CONTINUOUS
 62
     0
 10
1955.302439999999
 20
1548.42788
 30
0.0
 11
2296.3326010000001
 21
1548.42788
 31
0.0
  0
LINE
  5
7E5B
  8
3
  6
CONTINUOUS
 62
     0
 10
2276.3326010000001
 20
1675.42788
 30
0.0
 11
2276.3326010000001
 21
1715.42788
 31
0.0
  0
LINE
  5
7E5C
  8
3
  6
CONTINUOUS
 62
     0
 10
2276.3326010000001
 20
1508.42788
 30
0.0
 11
2276.3326010000001
 21
1331.2850228571431
 31
0.0
  0
LINE
  5
7E5D
  8
3
  6
CONTINUOUS
 62
     0
 10
2276.3326010000001
 20
1635.42788
 30
0.0
 11
2276.3326010000001
 21
1548.42788
 31
0.0
  0
INSERT
  5
7E5E
  8
3
  6
CONTINUOUS
 62
     0
  2
_OPEN
 10
2276.3326010000001
 20
1635.42788
 30
0.0
 41
40.0
 42
40.0
 43
40.0
 50
270.0
  0
INSERT
  5
7E5F
  8
3
  6
CONTINUOUS
 62
     0
  2
_OPEN
 10
2276.3326010000001
 20
1548.42788
 30
0.0
 41
40.0
 42
40.0
 43
40.0
 50
90.0
  0
TEXT
  8
3
  40
60
  5
7ECF
  62
0
  72
0
  71
0
 10
2106.33
 20
1293.66
 30
0.000000
  1
87
  0
POINT
  5
7E61
  8
DEFPOINTS
  6
CONTINUOUS
 62
     0
 10
1945.3024399999999
 20
1635.42788
 30
0.0
  0
POINT
  5
7E62
  8
DEFPOINTS
  6
CONTINUOUS
 62
     0
 10
1945.3024399999999
 20
1548.42788
 30
0.0
  0
POINT
  5
7E63
  8
DEFPOINTS
  6
CONTINUOUS
 62
     0
 10
2276.3326010000001
 20
1548.42788
 30
0.0
  0
ENDBLK
  5
7D62
  8
0
  0
BLOCK
  8
0
  2
*D5
 70
     1
 10
0.0
 20
0.0
 30
0.0
  3
*D5
  1

  0
LINE
  5
7E64
  8
3
  6
CONTINUOUS
 62
     0
 10
2015.3024399999999
 20
2691.4278800000002
 30
0.0
 11
2432.993817
 21
2691.4278800000002
 31
0.0
  0
LINE
  5
7E65
  8
3
  6
CONTINUOUS
 62
     0
 10
1955.302439999999
 20
1548.42788
 30
0.0
 11
2432.993817
 21
1548.42788
 31
0.0
  0
LINE
  5
7E66
  8
3
  6
CONTINUOUS
 62
     0
 10
2412.993817
 20
2651.4278800000002
 30
0.0
 11
2412.993817
 21
1588.42788
 31
0.0
  0
INSERT
  5
7E67
  8
3
  6
CONTINUOUS
 62
     0
  2
_OPEN
 10
2412.993817
 20
2691.4278800000002
 30
0.0
 41
40.0
 42
40.0
 43
40.0
 50
90.0
  0
INSERT
  5
7E68
  8
3
  6
CONTINUOUS
 62
     0
  2
_OPEN
 10
2412.993817
 20
1548.42788
 30
0.0
 41
40.0
 42
40.0
 43
40.0
 50
270.0
  0
TEXT
  8
3
  40
60
  5
7ED0
  62
0
  72
0
  71
0
 10
2242.99
 20
2003.87
 30
0.000000
  1
1143
  0
POINT
  5
7E6A
  8
DEFPOINTS
  6
CONTINUOUS
 62
     0
 10
2005.302439999999
 20
2691.4278800000002
 30
0.0
  0
POINT
  5
7E6B
  8
DEFPOINTS
  6
CONTINUOUS
 62
     0
 10
1945.3024399999999
 20
1548.42788
 30
0.0
  0
POINT
  5
7E6C
  8
DEFPOINTS
  6
CONTINUOUS
 62
     0
 10
2412.993817
 20
1548.42788
 30
0.0
  0
ENDBLK
  5
7C20
  8
0
  0
BLOCK
  8
0
  2
*D6
 70
     1
 10
0.0
 20
0.0
 30
0.0
  3
*D6
  1

  0
LINE
  5
7E6D
  8
3
  6
CONTINUOUS
 62
     0
 10
2005.302439999999
 20
2701.4278800000002
 30
0.0
 11
2005.302439999999
 21
2859.2301090000001
 31
0.0
  0
LINE
  5
7E6E
  8
3
  6
CONTINUOUS
 62
     0
 10
1600.3024399999999
 20
2821.823011
 30
0.0
 11
1600.3024399999999
 21
2859.2301090000001
 31
0.0
  0
LINE
  5
7E6F
  8
3
  6
CONTINUOUS
 62
     0
 10
1965.3024399999999
 20
2839.2301090000001
 30
0.0
 11
1640.3024399999999
 21
2839.2301090000001
 31
0.0
  0
INSERT
  5
7E70
  8
3
  6
CONTINUOUS
 62
     0
  2
_OPEN
 10
2005.302439999999
 20
2839.2301090000001
 30
0.0
 41
40.0
 42
40.0
 43
40.0
  0
INSERT
  5
7E71
  8
3
  6
CONTINUOUS
 62
     0
  2
_OPEN
 10
1600.3024399999999
 20
2839.2301090000001
 30
0.0
 41
40.0
 42
40.0
 43
40.0
 50
180.0
  0
TEXT
  8
3
  40
60
  5
7ED1
  62
0
  72
0
  71
0
 10
1673.65
 20
2783.03
 30
0.000000
  1
405
  0
POINT
  5
7E73
  8
DEFPOINTS
  6
CONTINUOUS
 62
     0
 10
2005.302439999999
 20
2691.4278800000002
 30
0.0
  0
POINT
  5
7E74
  8
DEFPOINTS
  6
CONTINUOUS
 62
     0
 10
1600.3024399999999
 20
2811.823010999999
 30
0.0
  0
POINT
  5
7E75
  8
DEFPOINTS
  6
CONTINUOUS
 62
     0
 10
1600.3024399999999
 20
2839.2301090000001
 30
0.0
  0
ENDBLK
  5
7C4A
  8
0
  0
BLOCK
  8
0
  2
*D7
 70
     1
 10
0.0
 20
0.0
 30
0.0
  3
*D7
  1

  0
LINE
  5
7E76
  8
3
  6
CONTINUOUS
 62
     0
 10
1125.3024399999999
 20
2545.4278800000002
 30
0.0
 11
1125.3024399999999
 21
2859.2301090000001
 31
0.0
  0
LINE
  5
7E77
  8
3
  6
CONTINUOUS
 62
     0
 10
1560.3024399999999
 20
2839.2301090000001
 30
0.0
 11
1165.3024399999999
 21
2839.2301090000001
 31
0.0
  0
INSERT
  5
7E78
  8
3
  6
CONTINUOUS
 62
     0
  2
_OPEN
 10
1600.3024399999999
 20
2839.2301090000001
 30
0.0
 41
40.0
 42
40.0
 43
40.0
  0
INSERT
  5
7E79
  8
3
  6
CONTINUOUS
 62
     0
  2
_OPEN
 10
1125.3024399999999
 20
2839.2301090000001
 30
0.0
 41
40.0
 42
40.0
 43
40.0
 50
180.0
  0
TEXT
  8
3
  40
60
  5
7ED2
  62
0
  72
0
  71
0
 10
1242.80
 20
2783.03
 30
0.000000
  1
475
  0
POINT
  5
7E7B
  8
DEFPOINTS
  6
CONTINUOUS
 62
     0
 10
1600.3024399999999
 20
2811.823010999999
 30
0.0
  0
POINT
  5
7E7C
  8
DEFPOINTS
  6
CONTINUOUS
 62
     0
 10
1125.3024399999999
 20
2535.4278800000002
 30
0.0
  0
POINT
  5
7E7D
  8
DEFPOINTS
  6
CONTINUOUS
 62
     0
 10
1125.3024399999999
 20
2839.2301090000001
 30
0.0
  0
ENDBLK
  5
7C3F
  8
0
  0
BLOCK
  8
0
  2
*D8
 70
     1
 10
0.0
 20
0.0
 30
0.0
  3
*D8
  1

  0
LINE
  5
7E7E
  8
3
  6
CONTINUOUS
 62
     0
 10
695.30244000000005
 20
1538.42788
 30
0.0
 11
695.30244000000005
 21
1355.9515247873251
 31
0.0
  0
LINE
  5
7E7F
  8
3
  6
CONTINUOUS
 62
     0
 10
1600.3024399999999
 20
1439.291508787325
 30
0.0
 11
1600.3024399999999
 21
1355.9515247873251
 31
0.0
  0
LINE
  5
7E80
  8
3
  6
CONTINUOUS
 62
     0
 10
735.30244000000005
 20
1375.9515247873251
 30
0.0
 11
1560.3024399999999
 21
1375.9515247873251
 31
0.0
  0
INSERT
  5
7E81
  8
3
  6
CONTINUOUS
 62
     0
  2
_OPEN
 10
695.30244000000005
 20
1375.9515247873251
 30
0.0
 41
40.0
 42
40.0
 43
40.0
 50
180.0
  0
INSERT
  5
7E82
  8
3
  6
CONTINUOUS
 62
     0
  2
_OPEN
 10
1600.3024399999999
 20
1375.9515247873251
 30
0.0
 41
40.0
 42
40.0
 43
40.0
  0
TEXT
  8
3
  40
60
  5
7ED3
  62
0
  72
0
  71
0
 10
1018.51
 20
1319.75
 30
0.000000
  1
905
  0
POINT
  5
7E84
  8
DEFPOINTS
  6
CONTINUOUS
 62
     0
 10
695.30244000000005
 20
1548.42788
 30
0.0
  0
POINT
  5
7E85
  8
DEFPOINTS
  6
CONTINUOUS
 62
     0
 10
1600.3024399999999
 20
1449.291508787325
 30
0.0
  0
POINT
  5
7E86
  8
DEFPOINTS
  6
CONTINUOUS
 62
     0
 10
1600.3024399999999
 20
1375.9515247873251
 30
0.0
  0
ENDBLK
  5
7D40
  8
0
  0
BLOCK
  8
0
  2
*D9
 70
     1
 10
0.0
 20
0.0
 30
0.0
  3
*D9
  1

  0
LINE
  5
7E87
  8
3
  6
CONTINUOUS
 62
     0
 10
1945.3024399999999
 20
1538.42788
 30
0.0
 11
1945.3024399999999
 21
1355.9515247873251
 31
0.0
  0
LINE
  5
7E88
  8
3
  6
CONTINUOUS
 62
     0
 10
1640.3024399999999
 20
1375.9515247873251
 30
0.0
 11
1905.302439999999
 21
1375.9515247873251
 31
0.0
  0
INSERT
  5
7E89
  8
3
  6
CONTINUOUS
 62
     0
  2
_OPEN
 10
1600.3024399999999
 20
1375.9515247873251
 30
0.0
 41
40.0
 42
40.0
 43
40.0
 50
180.0
  0
INSERT
  5
7E8A
  8
3
  6
CONTINUOUS
 62
     0
  2
_OPEN
 10
1945.3024399999999
 20
1375.9515247873251
 30
0.0
 41
40.0
 42
40.0
 43
40.0
  0
TEXT
  8
3
  40
60
  5
7ED4
  62
0
  72
0
  71
0
 10
1652.80
 20
1319.75
 30
0.000000
  1
345
  0
POINT
  5
7E8C
  8
DEFPOINTS
  6
CONTINUOUS
 62
     0
 10
1600.3024399999999
 20
1449.291508787325
 30
0.0
  0
POINT
  5
7E8D
  8
DEFPOINTS
  6
CONTINUOUS
 62
     0
 10
1945.3024399999999
 20
1548.42788
 30
0.0
  0
POINT
  5
7E8E
  8
DEFPOINTS
  6
CONTINUOUS
 62
     0
 10
1945.3024399999999
 20
1375.9515247873251
 30
0.0
  0
ENDBLK
  5
7D35
  8
0
  0
BLOCK
  8
0
  2
*D10
 70
     1
 10
0.0
 20
0.0
 30
0.0
  3
*D10
  1

  0
LINE
  5
7D01
  8
0
  6
BYBLOCK
 62
     0
 10
2823.0003879999999
 20
1538.42788
 30
0.0
 11
2823.0003879999999
 21
1366.164978
 31
0.0
  0
LINE
  5
7D02
  8
0
  6
BYBLOCK
 62
     0
 10
3078.000387999999
 20
1444.271785716076
 30
0.0
 11
3078.000387999999
 21
1366.164978
 31
0.0
  0
LINE
  5
7D03
  8
0
  6
BYBLOCK
 62
     0
 10
2863.0003879999999
 20
1386.164978
 30
0.0
 11
3038.0003879999999
 21
1386.164978
 31
0.0
  0
TEXT
  5
7D04
  8
3
 62
     0
 10
2873.357530857143
 20
1401.7366253951909
 30
0.0
 40
60.0
  1
255
  0
INSERT
  5
7D05
  8
0
  6
BYBLOCK
 62
     0
  2
_OPEN
 10
2823.0003879999999
 20
1386.164978
 30
0.0
 41
40.0
 42
40.0
 43
40.0
 50
180.0
  0
INSERT
  5
7D06
  8
0
  6
BYBLOCK
 62
     0
  2
_OPEN
 10
3078.000387999999
 20
1386.164978
 30
0.0
 41
40.0
 42
40.0
 43
40.0
  0
POINT
  5
7D07
  8
DEFPOINTS
  6
BYBLOCK
 62
     0
 10
2823.0003879999999
 20
1548.42788
 30
0.0
  0
POINT
  5
7D08
  8
DEFPOINTS
  6
BYBLOCK
 62
     0
 10
3078.000387999999
 20
1454.271785716076
 30
0.0
  0
POINT
  5
7D09
  8
DEFPOINTS
  6
BYBLOCK
 62
     0
 10
3078.000387999999
 20
1386.164978
 30
0.0
  0
ENDBLK
  5
7D0A
  8
0
  0
BLOCK
  8
0
  2
*D11
 70
     1
 10
0.0
 20
0.0
 30
0.0
  3
*D11
  1

  0
LINE
  5
7E8F
  8
3
  6
CONTINUOUS
 62
     0
 10
3333.0003879999999
 20
1538.42788
 30
0.0
 11
3333.0003879999999
 21
1366.164978
 31
0.0
  0
LINE
  5
7E90
  8
3
  6
CONTINUOUS
 62
     0
 10
3118.0003879999999
 20
1386.164978
 30
0.0
 11
3293.0003879999999
 21
1386.164978
 31
0.0
  0
TEXT
  8
3
  40
60
  5
7ED5
  62
0
  72
0
  71
0
 10
3087.82
 20
1330.27
 30
0.000000
  1
255
  0
INSERT
  5
7E92
  8
3
  6
CONTINUOUS
 62
     0
  2
_OPEN
 10
3078.000387999999
 20
1386.164978
 30
0.0
 41
40.0
 42
40.0
 43
40.0
 50
180.0
  0
INSERT
  5
7E93
  8
3
  6
CONTINUOUS
 62
     0
  2
_OPEN
 10
3333.0003879999999
 20
1386.164978
 30
0.0
 41
40.0
 42
40.0
 43
40.0
  0
POINT
  5
7E94
  8
DEFPOINTS
  6
CONTINUOUS
 62
     0
 10
3078.000387999999
 20
1454.271785716076
 30
0.0
  0
POINT
  5
7E95
  8
DEFPOINTS
  6
CONTINUOUS
 62
     0
 10
3333.0003879999999
 20
1548.42788
 30
0.0
  0
POINT
  5
7E96
  8
DEFPOINTS
  6
CONTINUOUS
 62
     0
 10
3333.0003879999999
 20
1386.164978
 30
0.0
  0
ENDBLK
  5
7D14
  8
0
  0
BLOCK
  8
0
  2
*D12
 70
     1
 10
0.0
 20
0.0
 30
0.0
  3
*D12
  1

  0
LINE
  5
7E97
  8
3
  6
CONTINUOUS
 62
     0
 10
3300.0003879999999
 20
2420.4278800000002
 30
0.0
 11
3497.400494
 21
2420.4278800000002
 31
0.0
  0
LINE
  5
7E98
  8
3
  6
CONTINUOUS
 62
     0
 10
3300.0003879999999
 20
1830.42788
 30
0.0
 11
3497.400494
 21
1830.42788
 31
0.0
  0
LINE
  5
7E99
  8
3
  6
CONTINUOUS
 62
     0
 10
3477.400494
 20
2380.4278800000002
 30
0.0
 11
3477.400494
 21
1870.42788
 31
0.0
  0
INSERT
  5
7E9A
  8
3
  6
CONTINUOUS
 62
     0
  2
_OPEN
 10
3477.400494
 20
2420.4278800000002
 30
0.0
 41
40.0
 42
40.0
 43
40.0
 50
90.0
  0
INSERT
  5
7E9B
  8
3
  6
CONTINUOUS
 62
     0
  2
_OPEN
 10
3477.400494
 20
1830.42788
 30
0.0
 41
40.0
 42
40.0
 43
40.0
 50
270.0
  0
TEXT
  8
3
  40
60
  5
7ED6
  62
0
  72
0
  71
0
 10
3307.40
 20
2007.69
 30
0.000000
  1
φ590
  0
POINT
  5
7E9D
  8
DEFPOINTS
  6
CONTINUOUS
 62
     0
 10
3290.0003879999999
 20
2420.4278800000002
 30
0.0
  0
POINT
  5
7E9E
  8
DEFPOINTS
  6
CONTINUOUS
 62
     0
 10
3290.0003879999999
 20
1830.42788
 30
0.0
  0
POINT
  5
7E9F
  8
DEFPOINTS
  6
CONTINUOUS
 62
     0
 10
3477.400494
 20
1830.42788
 30
0.0
  0
ENDBLK
  5
7CE9
  8
0
  0
BLOCK
  8
0
  2
*D13
 70
     1
 10
0.0
 20
0.0
 30
0.0
  3
*D13
  1

  0
LINE
  5
7D4C
  8
0
  6
BYBLOCK
 62
     0
 10
3290.0003879999999
 20
2455.4278800000002
 30
0.0
 11
3290.0003879999999
 21
2929.4670742048661
 31
0.0
  0
LINE
  5
7D4D
  8
0
  6
BYBLOCK
 62
     0
 10
3078.000387999999
 20
2844.2556920000002
 30
0.0
 11
3078.000387999999
 21
2929.4670742048661
 31
0.0
  0
LINE
  5
7D4E
  8
0
  6
BYBLOCK
 62
     0
 10
3250.0003879999999
 20
2909.467074204867
 30
0.0
 11
3118.0003879999999
 21
2909.467074204867
 31
0.0
  0
TEXT
  5
7D4F
  8
3
 62
     0
 10
3112.5718165714279
 20
2935.1579570257509
 30
0.0
 40
60.0
  1
212
  0
INSERT
  5
7D50
  8
0
  6
BYBLOCK
 62
     0
  2
_OPEN
 10
3290.0003879999999
 20
2909.467074204867
 30
0.0
 41
40.0
 42
40.0
 43
40.0
  0
INSERT
  5
7D51
  8
0
  6
BYBLOCK
 62
     0
  2
_OPEN
 10
3078.000387999999
 20
2909.467074204867
 30
0.0
 41
40.0
 42
40.0
 43
40.0
 50
180.0
  0
POINT
  5
7D52
  8
DEFPOINTS
  6
BYBLOCK
 62
     0
 10
3290.0003879999999
 20
2445.4278800000002
 30
0.0
  0
POINT
  5
7D53
  8
DEFPOINTS
  6
BYBLOCK
 62
     0
 10
3078.000387999999
 20
2834.2556920000002
 30
0.0
  0
POINT
  5
7D54
  8
DEFPOINTS
  6
BYBLOCK
 62
     0
 10
3078.000387999999
 20
2909.467074204867
 30
0.0
  0
ENDBLK
  5
7D55
  8
0
  0
BLOCK
  8
0
  2
*D14
 70
     1
 10
0.0
 20
0.0
 30
0.0
  3
*D14
  1

  0
LINE
  5
7EA0
  8
3
  6
CONTINUOUS
 62
     0
 10
2668.0003879999999
 20
2560.4278800000002
 30
0.0
 11
2668.0003879999999
 21
2929.4670742048661
 31
0.0
  0
LINE
  5
7EA1
  8
3
  6
CONTINUOUS
 62
     0
 10
3038.0003879999999
 20
2909.467074204867
 30
0.0
 11
2708.0003879999999
 21
2909.467074204867
 31
0.0
  0
INSERT
  5
7EA2
  8
3
  6
CONTINUOUS
 62
     0
  2
_OPEN
 10
3078.000387999999
 20
2909.467074204867
 30
0.0
 41
40.0
 42
40.0
 43
40.0
  0
INSERT
  5
7EA3
  8
3
  6
CONTINUOUS
 62
     0
  2
_OPEN
 10
2668.0003879999999
 20
2909.467074204867
 30
0.0
 41
40.0
 42
40.0
 43
40.0
 50
180.0
  0
TEXT
  8
3
  40
60
  5
7ED7
  62
0
  72
0
  71
0
 10
2753.00
 20
2903.27
 30
0.000000
  1
MAX
  0
TEXT
  8
3
  40
60
  5
7ED8
  62
0
  72
0
  71
0
 10
2753.00
 20
2825.27
 30
0.000000
  1
470
  0
POINT
  5
7EA5
  8
DEFPOINTS
  6
CONTINUOUS
 62
     0
 10
3078.000387999999
 20
2834.2556920000002
 30
0.0
  0
POINT
  5
7EA6
  8
DEFPOINTS
  6
CONTINUOUS
 62
     0
 10
2668.0003879999999
 20
2550.4278800000002
 30
0.0
  0
POINT
  5
7EA7
  8
DEFPOINTS
  6
CONTINUOUS
 62
     0
 10
2668.0003879999999
 20
2909.467074204867
 30
0.0
  0
ENDBLK
  5
7D4A
  8
0
  0
BLOCK
  8
0
  2
*D15
 70
     1
 10
0.0
 20
0.0
 30
0.0
  3
*D15
  1

  0
LINE
  5
7EA8
  8
3
  6
CONTINUOUS
 62
     0
 10
695.30244000000005
 20
4055.4278799999988
 30
0.0
 11
695.30244000000005
 21
4243.0415369999992
 31
0.0
  0
LINE
  5
7EA9
  8
3
  6
CONTINUOUS
 62
     0
 10
1945.3024399999999
 20
4055.4278799999988
 30
0.0
 11
1945.3024399999999
 21
4243.0415369999992
 31
0.0
  0
LINE
  5
7EAA
  8
3
  6
CONTINUOUS
 62
     0
 10
735.30244000000005
 20
4223.0415370000001
 30
0.0
 11
1905.302439999999
 21
4223.0415370000001
 31
0.0
  0
INSERT
  5
7EAB
  8
3
  6
CONTINUOUS
 62
     0
  2
_OPEN
 10
695.30244000000005
 20
4223.0415370000001
 30
0.0
 41
40.0
 42
40.0
 43
40.0
 50
180.0
  0
INSERT
  5
7EAC
  8
3
  6
CONTINUOUS
 62
     0
  2
_OPEN
 10
1945.3024399999999
 20
4223.0415370000001
 30
0.0
 41
40.0
 42
40.0
 43
40.0
  0
TEXT
  8
3
  40
60
  5
7ED9
  62
0
  72
0
  71
0
 10
1225.40
 20
4166.84
 30
0.000000
  1
1250
  0
POINT
  5
7EAE
  8
DEFPOINTS
  6
CONTINUOUS
 62
     0
 10
695.30244000000005
 20
4045.4278800000002
 30
0.0
  0
POINT
  5
7EAF
  8
DEFPOINTS
  6
CONTINUOUS
 62
     0
 10
1945.3024399999999
 20
4045.4278800000002
 30
0.0
  0
POINT
  5
7EB0
  8
DEFPOINTS
  6
CONTINUOUS
 62
     0
 10
1945.3024399999999
 20
4223.0415370000001
 30
0.0
  0
ENDBLK
  5
7C55
  8
0
  0
BLOCK
  8
0
  2
*D16
 70
     1
 10
0.0
 20
0.0
 30
0.0
  3
*D16
  1

  0
LINE
  5
7EB1
  8
3
  6
CONTINUOUS
 62
     0
 10
1955.302439999999
 20
4045.4278800000002
 30
0.0
 11
2208.26035
 21
4045.4278800000002
 31
0.0
  0
LINE
  5
7EB2
  8
3
  6
CONTINUOUS
 62
     0
 10
1955.302439999999
 20
3535.4278799999988
 30
0.0
 11
2208.26035
 21
3535.4278799999988
 31
0.0
  0
LINE
  5
7EB3
  8
3
  6
CONTINUOUS
 62
     0
 10
2188.26035
 20
4005.4278800000002
 30
0.0
 11
2188.26035
 21
3575.4278800000002
 31
0.0
  0
INSERT
  5
7EB4
  8
3
  6
CONTINUOUS
 62
     0
  2
_OPEN
 10
2188.26035
 20
4045.4278800000002
 30
0.0
 41
40.0
 42
40.0
 43
40.0
 50
90.0
  0
INSERT
  5
7EB5
  8
3
  6
CONTINUOUS
 62
     0
  2
_OPEN
 10
2188.26035
 20
3535.4278799999988
 30
0.0
 41
40.0
 42
40.0
 43
40.0
 50
270.0
  0
TEXT
  8
3
  40
60
  5
7EDA
  62
0
  72
0
  71
0
 10
2018.26
 20
3702.14
 30
0.000000
  1
510
  0
POINT
  5
7EB7
  8
DEFPOINTS
  6
CONTINUOUS
 62
     0
 10
1945.3024399999999
 20
4045.4278800000002
 30
0.0
  0
POINT
  5
7EB8
  8
DEFPOINTS
  6
CONTINUOUS
 62
     0
 10
1945.3024399999999
 20
3535.4278799999988
 30
0.0
  0
POINT
  5
7EB9
  8
DEFPOINTS
  6
CONTINUOUS
 62
     0
 10
2188.26035
 20
3535.4278799999988
 30
0.0
  0
ENDBLK
  5
7BF4
  8
0
  0
BLOCK
  8
0
  2
*D17
 70
     1
 10
0.0
 20
0.0
 30
0.0
  3
*D17
  1

  0
LINE
  5
7EBA
  8
3
  6
CONTINUOUS
 62
     0
 10
2868.0003879999999
 20
2674.4278800000002
 30
0.0
 11
2868.0003879999999
 21
2766.8409780000002
 31
0.0
  0
LINE
  5
7EBB
  8
3
  6
CONTINUOUS
 62
     0
 10
3288.000387999999
 20
2674.4278800000002
 30
0.0
 11
3288.000387999999
 21
2766.8409780000002
 31
0.0
  0
LINE
  5
7EBC
  8
3
  6
CONTINUOUS
 62
     0
 10
2908.000387999999
 20
2746.8409780000002
 30
0.0
 11
3248.000387999999
 21
2746.8409780000002
 31
0.0
  0
INSERT
  5
7EBD
  8
3
  6
CONTINUOUS
 62
     0
  2
_OPEN
 10
2868.0003879999999
 20
2746.8409780000002
 30
0.0
 41
40.0
 42
40.0
 43
40.0
 50
180.0
  0
INSERT
  5
7EBE
  8
3
  6
CONTINUOUS
 62
     0
  2
_OPEN
 10
3288.000387999999
 20
2746.8409780000002
 30
0.0
 41
40.0
 42
40.0
 43
40.0
  0
TEXT
  8
3
  40
60
  5
7EDB
  62
0
  72
0
  71
0
 10
2948.84
 20
2690.64
 30
0.000000
  1
420
  0
POINT
  5
7EC0
  8
DEFPOINTS
  6
CONTINUOUS
 62
     0
 10
2868.0003879999999
 20
2664.4278800000002
 30
0.0
  0
POINT
  5
7EC1
  8
DEFPOINTS
  6
CONTINUOUS
 62
     0
 10
3288.000387999999
 20
2664.4278800000002
 30
0.0
  0
POINT
  5
7EC2
  8
DEFPOINTS
  6
CONTINUOUS
 62
     0
 10
3288.000387999999
 20
2746.8409780000002
 30
0.0
  0
ENDBLK
  5
7CA5
  8
0
  0
BLOCK
  8
0
  2
*D18
 70
     1
 10
0.0
 20
0.0
 30
0.0
  3
*D18
  1

  0
LINE
  5
7EC3
  8
3
 62
     0
 10
2005.302439999999
 20
2701.4278800000002
 30
0.0
 11
2005.302439999999
 21
2998.0384391076982
 31
0.0
  0
LINE
  5
7EC4
  8
3
 62
     0
 10
695.30243999999993
 20
1725.42788
 30
0.0
 11
695.30244000000005
 21
2998.0384391076982
 31
0.0
  0
LINE
  5
7EC5
  8
3
 62
     0
 10
1965.3024399999999
 20
2978.0384391076982
 30
0.0
 11
735.30244000000005
 21
2978.0384391076982
 31
0.0
  0
INSERT
  5
7EC6
  8
3
 62
     0
  2
_OPEN
 10
2005.302439999999
 20
2978.0384391076982
 30
0.0
 41
40.0
 42
40.0
 43
40.0
  0
INSERT
  5
7EC7
  8
3
 62
     0
  2
_OPEN
 10
695.30244000000005
 20
2978.0384391076982
 30
0.0
 41
40.0
 42
40.0
 43
40.0
 50
180.0
  0
TEXT
  8
3
  40
60
  5
7EDC
  62
0
  72
0
  71
0
 10
1307.08
 20
2921.84
 30
0.000000
  1
1310
  0
POINT
  5
7EC9
  8
DEFPOINTS
 62
     0
 10
2005.302439999999
 20
2691.4278800000002
 30
0.0
  0
POINT
  5
7ECA
  8
DEFPOINTS
 62
     0
 10
695.30243999999993
 20
1715.42788
 30
0.0
  0
POINT
  5
7ECB
  8
DEFPOINTS
 62
     0
 10
695.30244000000005
 20
2978.0384391076982
 30
0.0
  0
ENDBLK
  5
7D2A
  8
0
  0
ENDSEC
  0
SECTION
  2
ENTITIES
  0
LINE
  5
7A70
  8
1
  6
CONTINUOUS
 10
1945.3024399999999
 20
1548.42788
 30
0.0
 11
695.30244000000005
 21
1548.42788
 31
0.0
  0
LINE
  5
7A71
  8
1
  6
CONTINUOUS
 10
1945.3024399999999
 20
1613.42788
 30
0.0
 11
695.30244000000005
 21
1613.42788
 31
0.0
  0
LINE
  5
7A72
  8
1
  6
CONTINUOUS
 10
1960.302439999999
 20
1715.42788
 30
0.0
 11
695.30244000000005
 21
1715.42788
 31
0.0
  0
LINE
  5
7A73
  8
1
  6
CONTINUOUS
 10
1945.3024399999999
 20
1635.42788
 30
0.0
 11
695.30244000000005
 21
1635.42788
 31
0.0
  0
ARC
  5
7A74
  8
1
  6
CONTINUOUS
 10
900.30244000000005
 20
1897.42788
 30
0.0
 40
142.0
 50
324.59875699999998
 51
215.40124299999999
  0
LINE
  5
7A75
  8
1
  6
CONTINUOUS
 10
770.30244000000005
 20
1715.42788
 30
0.0
 11
1030.3024399999999
 21
1715.42788
 31
0.0
  0
LINE
  5
7A76
  8
1
  6
CONTINUOUS
 10
1600.8024399999999
 20
2550.4278800000002
 30
0.0
 11
740.80244000000005
 21
1945.42788
 31
0.0
  0
LINE
  5
7A77
  8
1
  6
CONTINUOUS
 10
770.30244000000005
 20
1715.42788
 30
0.0
 11
770.30244000000005
 21
1780.42788
 31
0.0
  0
LINE
  5
7A78
  8
1
  6
CONTINUOUS
 10
740.80244000000005
 20
1715.42788
 30
0.0
 11
740.80244000000005
 21
1945.42788
 31
0.0
  0
LINE
  5
7A79
  8
1
  6
CONTINUOUS
 10
695.30244000000005
 20
1613.42788
 30
0.0
 11
695.30244000000005
 21
1548.42788
 31
0.0
  0
LINE
  5
7A7A
  8
1
  6
CONTINUOUS
 10
695.30244000000005
 20
1715.42788
 30
0.0
 11
695.30244000000005
 21
1635.42788
 31
0.0
  0
LINE
  5
7A7B
  8
1
  6
CONTINUOUS
 10
770.30244000000005
 20
1780.42788
 30
0.0
 11
784.55607699999985
 21
1815.1674429999989
 31
0.0
  0
LINE
  5
7A7C
  8
1
  6
CONTINUOUS
 10
1960.302439999999
 20
2535.4278800000002
 30
0.0
 11
1125.3024399999999
 21
2535.4278800000002
 31
0.0
  0
ARC
  5
7A7D
  8
1
  6
CONTINUOUS
 10
1569.3024399999999
 20
2156.4278800000002
 30
0.0
 40
433.10293799999999
 50
185.042451
 51
277.25319500000001
  0
ARC
  5
7A7E
  8
1
  6
CONTINUOUS
 10
1637.3024399999999
 20
2162.4278800000002
 30
0.0
 40
501.36713099999992
 50
94.232174000000001
 51
185.042451
  0
CIRCLE
  5
7A7F
  8
1
  6
CONTINUOUS
 10
1600.3024399999999
 20
2125.4278800000002
 30
0.0
 40
295.0
  0
CIRCLE
  5
7A80
  8
1
  6
CONTINUOUS
 10
1600.3024399999999
 20
2125.4278800000002
 30
0.0
 40
320.0
  0
LINE
  5
7A81
  8
1
  6
CONTINUOUS
 10
875.92916999999977
 20
1963.04757
 30
0.0
 11
1565.4834820000001
 21
2219.1702939999991
 31
0.0
  0
LINE
  5
7A82
  8
1
  6
CONTINUOUS
 10
919.25119600000005
 20
1830.0413479999991
 30
0.0
 11
1627.372091
 21
2029.1614059999999
 31
0.0
  0
LINE
  5
7A83
  8
1
  6
CONTINUOUS
 10
1125.3024399999999
 20
2535.4278800000002
 30
0.0
 11
1125.3024399999999
 21
1715.42788
 31
0.0
  0
LINE
  5
7A84
  8
1
  6
CONTINUOUS
 10
1030.3024399999999
 20
1715.42788
 30
0.0
 11
1030.3024399999999
 21
1780.42788
 31
0.0
  0
LINE
  5
7A85
  8
2
  6
CENTER
 10
830.30243999999993
 20
1897.42788
 30
0.0
 11
970.30244000000005
 21
1897.42788
 31
0.0
  0
CIRCLE
  5
7A86
  8
1
  6
CONTINUOUS
 10
900.30244000000005
 20
1897.42788
 30
0.0
 40
70.0
  0
LINE
  5
7A87
  8
2
  6
CENTER
 10
900.30244000000005
 20
1827.42788
 30
0.0
 11
900.30244000000005
 21
1967.42788
 31
0.0
  0
LINE
  5
7A88
  8
1
  6
CONTINUOUS
 10
1030.3024399999999
 20
1780.42788
 30
0.0
 11
1016.048803
 21
1815.1674429999989
 31
0.0
  0
LINE
  5
7A89
  8
1
  6
CONTINUOUS
 10
1960.302439999999
 20
2535.4278800000002
 30
0.0
 11
1960.302439999999
 21
1715.42788
 31
0.0
  0
LINE
  5
7A8A
  8
2
  6
CENTER
 10
1600.3024399999999
 20
4137.6210250000004
 30
0.0
 11
1600.3024399999999
 21
3302.459593
 31
0.0
  0
LINE
  5
7A8B
  8
1
  6
CONTINUOUS
 10
2005.302439999999
 20
2077.4278800000002
 30
0.0
 11
2005.302439999999
 21
2691.4278800000002
 31
0.0
  0
LINE
  5
7A8C
  8
1
  6
CONTINUOUS
 10
1980.302439999999
 20
2104.4278800000002
 30
0.0
 11
1980.302439999999
 21
2664.304423
 31
0.0
  0
LINE
  5
7A8D
  8
1
  6
CONTINUOUS
 10
1870.8024399999999
 20
1715.42788
 30
0.0
 11
1870.8024399999999
 21
2465.4278800000002
 31
0.0
  0
CIRCLE
  5
7A8E
  8
1
  6
CONTINUOUS
 10
1600.3024399999999
 20
2125.4278800000002
 30
0.0
 40
100.0
  0
ARC
  5
7A8F
  8
1
  6
CONTINUOUS
 10
1576.3024399999999
 20
2101.4278800000002
 30
0.0
 40
377.65927299999993
 50
277.25319500000001
 51
0.455143
  0
LINE
  5
7A90
  8
2
  6
CENTER
 10
3350.971117999999
 20
2125.4278800000002
 30
0.0
 11
2605.7817759999998
 21
2125.4278800000002
 31
0.0
  0
LINE
  5
7A91
  8
1
  6
CONTINUOUS
 10
1945.3024399999999
 20
1613.42788
 30
0.0
 11
1945.3024399999999
 21
1548.42788
 31
0.0
  0
LINE
  5
7A92
  8
1
  6
CONTINUOUS
 10
1945.3024399999999
 20
1715.42788
 30
0.0
 11
1945.3024399999999
 21
1635.42788
 31
0.0
  0
LINE
  5
7A93
  8
1
  6
CONTINUOUS
 10
1953.9497969999991
 20
2104.4278800000002
 30
0.0
 11
2005.302439999999
 21
2104.4278800000002
 31
0.0
  0
LINE
  5
7A94
  8
1
  6
CONTINUOUS
 10
2005.302439999999
 20
2664.4278800000002
 30
0.0
 11
1600.3024399999999
 21
2662.4278800000002
 31
0.0
  0
LINE
  5
7A95
  8
1
  6
CONTINUOUS
 10
1870.8024399999999
 20
2465.4278800000002
 30
0.0
 11
1600.8024399999999
 21
2550.4278800000002
 31
0.0
  0
LINE
  5
7A96
  8
1
  6
CONTINUOUS
 10
758.30244000000005
 20
3554.1657129999999
 30
0.0
 11
1042.3024399999999
 21
3554.1657129999999
 31
0.0
  0
LINE
  5
7A97
  8
1
  6
CONTINUOUS
 10
758.30244000000005
 20
3954.1657129999999
 30
0.0
 11
1042.3024399999999
 21
3954.1657129999999
 31
0.0
  0
LINE
  5
7A98
  8
1
  6
CONTINUOUS
 10
1945.3024399999999
 20
4045.4278800000002
 30
0.0
 11
695.30244000000005
 21
4045.4278800000002
 31
0.0
  0
LINE
  5
7A99
  8
1
  6
CONTINUOUS
 10
1870.8024399999999
 20
3380.4278800000002
 30
0.0
 11
740.80244000000005
 21
3380.4278800000002
 31
0.0
  0
LINE
  5
7A9A
  8
1
  6
CONTINUOUS
 10
1870.8024399999999
 20
3500.4278800000002
 30
0.0
 11
740.80244000000005
 21
3500.4278800000002
 31
0.0
  0
LINE
  5
7A9B
  8
1
  6
CONTINUOUS
 10
881.30244000000005
 20
3535.4278799999988
 30
0.0
 11
695.30244000000005
 21
3535.4278799999988
 31
0.0
  0
LINE
  5
7A9C
  8
1
  6
CONTINUOUS
 10
695.30244000000005
 20
4045.4278800000002
 30
0.0
 11
695.30244000000005
 21
3535.4278799999988
 31
0.0
  0
LINE
  5
7A9D
  8
1
  6
CONTINUOUS
 10
740.80244000000005
 20
3380.4278800000002
 30
0.0
 11
740.80244000000005
 21
3500.4278800000002
 31
0.0
  0
LINE
  5
7A9E
  8
1
  6
CONTINUOUS
 10
758.30244000000005
 20
3954.1657129999999
 30
0.0
 11
758.30244000000005
 21
3554.1657129999999
 31
0.0
  0
LINE
  5
7A9F
  8
1
  6
CONTINUOUS
 10
1125.3024399999999
 20
3580.4278800000002
 30
0.0
 11
2005.302439999999
 21
3580.4278800000002
 31
0.0
  0
LINE
  5
7AA0
  8
1
  6
CONTINUOUS
 10
1125.3024399999999
 20
4000.4278800000002
 30
0.0
 11
2005.302439999999
 21
4000.4278800000002
 31
0.0
  0
LINE
  5
7AA1
  8
1
  6
CONTINUOUS
 10
1584.3024399999999
 20
3535.4278799999988
 30
0.0
 11
919.30244000000005
 21
3535.4278799999988
 31
0.0
  0
LINE
  5
7AA2
  8
1
  6
CONTINUOUS
 10
1280.3024399999999
 20
4002.4278799999988
 30
0.0
 11
1920.3024399999999
 21
4002.4278799999988
 31
0.0
  0
LINE
  5
7AA3
  8
1
  6
CONTINUOUS
 10
1125.3024399999999
 20
3580.4278800000002
 30
0.0
 11
1125.3024399999999
 21
4000.4278800000002
 31
0.0
  0
LINE
  5
7AA4
  8
1
  6
CONTINUOUS
 10
881.30244000000005
 20
3470.4278799999988
 30
0.0
 11
881.30244000000005
 21
3554.1657129999999
 31
0.0
  0
LINE
  5
7AA5
  8
1
  6
CONTINUOUS
 10
919.30244000000005
 20
3470.4278799999988
 30
0.0
 11
919.30244000000005
 21
3554.1657129999999
 31
0.0
  0
LINE
  5
7AA6
  8
1
  6
CONTINUOUS
 10
830.30243999999993
 20
3470.4278799999988
 30
0.0
 11
970.30244000000005
 21
3470.4278799999988
 31
0.0
  0
LINE
  5
7AA7
  8
1
  6
CONTINUOUS
 10
830.30243999999993
 20
3410.4278799999988
 30
0.0
 11
970.30244000000005
 21
3410.4278799999988
 31
0.0
  0
LINE
  5
7AA8
  8
1
  6
CONTINUOUS
 10
830.30243999999993
 20
3410.4278799999988
 30
0.0
 11
830.30243999999993
 21
3470.4278799999988
 31
0.0
  0
LINE
  5
7AA9
  8
1
  6
CONTINUOUS
 10
970.30244000000005
 20
3410.4278799999988
 30
0.0
 11
970.30244000000005
 21
3470.4278799999988
 31
0.0
  0
LINE
  5
7AAA
  8
1
  6
CONTINUOUS
 10
1042.3024399999999
 20
3954.1657129999999
 30
0.0
 11
1042.3024399999999
 21
3554.1657129999999
 31
0.0
  0
LINE
  5
7AAB
  8
1
  6
CONTINUOUS
 10
1280.3024399999999
 20
4000.4278800000002
 30
0.0
 11
1280.3024399999999
 21
4002.4278799999988
 31
0.0
  0
LINE
  5
7AAC
  8
1
  6
CONTINUOUS
 10
2005.302439999999
 20
4027.4278800000002
 30
0.0
 11
2005.302439999999
 21
3553.4278799999988
 31
0.0
  0
LINE
  5
7AAD
  8
1
  6
CONTINUOUS
 10
1980.302439999999
 20
4000.4278800000002
 30
0.0
 11
1980.302439999999
 21
3580.4278800000002
 31
0.0
  0
LINE
  5
7AAE
  8
1
  6
CONTINUOUS
 10
1945.3024399999999
 20
3535.4278799999988
 30
0.0
 11
1616.3024399999999
 21
3535.4278799999988
 31
0.0
  0
LINE
  5
7AAF
  8
1
  6
CONTINUOUS
 10
1584.3024399999999
 20
3580.4278800000002
 30
0.0
 11
1584.3024399999999
 21
3470.4278799999988
 31
0.0
  0
LINE
  5
7AB0
  8
1
  6
CONTINUOUS
 10
1616.3024399999999
 20
3580.4278800000002
 30
0.0
 11
1616.3024399999999
 21
3470.4278799999988
 31
0.0
  0
LINE
  5
7AB1
  8
1
  6
CONTINUOUS
 10
1500.3024399999999
 20
3410.4278799999988
 30
0.0
 11
1700.3024399999999
 21
3410.4278799999988
 31
0.0
  0
LINE
  5
7AB2
  8
1
  6
CONTINUOUS
 10
1500.3024399999999
 20
3470.4278799999988
 30
0.0
 11
1700.3024399999999
 21
3470.4278799999988
 31
0.0
  0
LINE
  5
7AB3
  8
1
  6
CONTINUOUS
 10
1500.3024399999999
 20
3410.4278799999988
 30
0.0
 11
1500.3024399999999
 21
3470.4278799999988
 31
0.0
  0
LINE
  5
7AB4
  8
1
  6
CONTINUOUS
 10
1700.3024399999999
 20
3410.4278799999988
 30
0.0
 11
1700.3024399999999
 21
3470.4278799999988
 31
0.0
  0
LINE
  5
7AB5
  8
1
  6
CONTINUOUS
 10
1870.8024399999999
 20
3380.4278800000002
 30
0.0
 11
1870.8024399999999
 21
3500.4278800000002
 31
0.0
  0
LINE
  5
7AB6
  8
1
  6
CONTINUOUS
 10
1945.3024399999999
 20
3580.4278800000002
 30
0.0
 11
1945.3024399999999
 21
3535.4278799999988
 31
0.0
  0
LINE
  5
7AB7
  8
1
  6
CONTINUOUS
 10
1945.3024399999999
 20
4045.4278800000002
 30
0.0
 11
1945.3024399999999
 21
4000.4278800000002
 31
0.0
  0
LINE
  5
7AB8
  8
1
  6
CONTINUOUS
 10
1920.3024399999999
 20
4000.4278800000002
 30
0.0
 11
1920.3024399999999
 21
4002.4278799999988
 31
0.0
  0
LINE
  5
7AB9
  8
1
  6
CONTINUOUS
 10
3333.0003879999999
 20
1613.42788
 30
0.0
 11
2823.0003879999999
 21
1613.42788
 31
0.0
  0
LINE
  5
7ABA
  8
1
  6
CONTINUOUS
 10
3333.0003879999999
 20
1548.42788
 30
0.0
 11
2823.0003879999999
 21
1548.42788
 31
0.0
  0
LINE
  5
7ABB
  8
1
  6
CONTINUOUS
 10
3333.0003879999999
 20
1635.42788
 30
0.0
 11
2823.0003879999999
 21
1635.42788
 31
0.0
  0
LINE
  5
7ABC
  8
1
  6
CONTINUOUS
 10
3333.0003879999999
 20
1715.42788
 30
0.0
 11
2668.0003879999999
 21
1715.42788
 31
0.0
  0
LINE
  5
7ABD
  8
1
  6
CONTINUOUS
 10
2868.0003879999999
 20
2664.4278800000002
 30
0.0
 11
3288.000387999999
 21
2664.4278800000002
 31
0.0
  0
LINE
  5
7ABE
  8
1
  6
CONTINUOUS
 10
2868.0003879999999
 20
2104.4278800000002
 30
0.0
 11
3288.000387999999
 21
2104.4278800000002
 31
0.0
  0
LINE
  5
7ABF
  8
1
  6
CONTINUOUS
 10
2868.0003879999999
 20
2664.4278800000002
 30
0.0
 11
3288.000387999999
 21
2104.4278800000002
 31
0.0
  0
LINE
  5
7AC0
  8
1
  6
CONTINUOUS
 10
2868.0003879999999
 20
2104.4278800000002
 30
0.0
 11
3288.000387999999
 21
2664.4278800000002
 31
0.0
  0
LINE
  5
7AC1
  8
1
  6
CONTINUOUS
 10
2868.0003879999999
 20
1715.42788
 30
0.0
 11
2868.0003879999999
 21
2664.4278800000002
 31
0.0
  0
LINE
  5
7AC2
  8
1
  6
CONTINUOUS
 10
2668.0003879999999
 20
1715.42788
 30
0.0
 11
2668.0003879999999
 21
2550.4278800000002
 31
0.0
  0
LINE
  5
7AC3
  8
1
  6
CONTINUOUS
 10
2788.0003879999999
 20
1715.42788
 30
0.0
 11
2788.0003879999999
 21
2550.4278800000002
 31
0.0
  0
LINE
  5
7AC4
  8
1
  6
CONTINUOUS
 10
2698.0003879999999
 20
2225.4278800000002
 30
0.0
 11
2698.0003879999999
 21
2025.42788
 31
0.0
  0
LINE
  5
7AC5
  8
1
  6
CONTINUOUS
 10
2758.0003879999999
 20
2225.4278800000002
 30
0.0
 11
2758.0003879999999
 21
2025.42788
 31
0.0
  0
LINE
  5
7AC8
  8
1
  6
CONTINUOUS
 10
2698.0003879999999
 20
2025.42788
 30
0.0
 11
2758.0003879999999
 21
2025.42788
 31
0.0
  0
LINE
  5
7AC9
  8
1
  6
CONTINUOUS
 10
2698.0003879999999
 20
1967.42788
 30
0.0
 11
2758.0003879999999
 21
1967.42788
 31
0.0
  0
LINE
  5
7ACA
  8
1
  6
CONTINUOUS
 10
2698.0003879999999
 20
1827.42788
 30
0.0
 11
2758.0003879999999
 21
1827.42788
 31
0.0
  0
LINE
  5
7ACB
  8
1
  6
CONTINUOUS
 10
2698.0003879999999
 20
1967.42788
 30
0.0
 11
2698.0003879999999
 21
1827.42788
 31
0.0
  0
LINE
  5
7ACC
  8
1
  6
CONTINUOUS
 10
2823.0003879999999
 20
1548.42788
 30
0.0
 11
2823.0003879999999
 21
1613.42788
 31
0.0
  0
LINE
  5
7ACD
  8
1
  6
CONTINUOUS
 10
2823.0003879999999
 20
1635.42788
 30
0.0
 11
2823.0003879999999
 21
1715.42788
 31
0.0
  0
LINE
  5
7ACE
  8
1
  6
CONTINUOUS
 10
2758.0003879999999
 20
1913.42788
 30
0.0
 11
2868.0003879999999
 21
1913.42788
 31
0.0
  0
LINE
  5
7ACF
  8
1
  6
CONTINUOUS
 10
2758.0003879999999
 20
1881.42788
 30
0.0
 11
2868.0003879999999
 21
1881.42788
 31
0.0
  0
LINE
  5
7AD0
  8
1
  6
CONTINUOUS
 10
2868.0003879999999
 20
2141.4278800000002
 30
0.0
 11
2758.0003879999999
 21
2141.4278800000002
 31
0.0
  0
LINE
  5
7AD1
  8
1
  6
CONTINUOUS
 10
2868.0003879999999
 20
2109.4278800000002
 30
0.0
 11
2758.0003879999999
 21
2109.4278800000002
 31
0.0
  0
LINE
  5
7AD2
  8
1
  6
CONTINUOUS
 10
2758.0003879999999
 20
1967.42788
 30
0.0
 11
2758.0003879999999
 21
1827.42788
 31
0.0
  0
LINE
  5
7AD3
  8
1
  6
CONTINUOUS
 10
2668.0003879999999
 20
2550.4278800000002
 30
0.0
 11
2788.0003879999999
 21
2550.4278800000002
 31
0.0
  0
LINE
  5
7AD4
  8
1
  6
CONTINUOUS
 10
2698.0003879999999
 20
2225.4278800000002
 30
0.0
 11
2758.0003879999999
 21
2225.4278800000002
 31
0.0
  0
LINE
  5
7AD5
  8
1
  6
CONTINUOUS
 10
3288.000387999999
 20
1715.42788
 30
0.0
 11
3288.000387999999
 21
2664.4278800000002
 31
0.0
  0
LINE
  5
7AD6
  8
1
  6
CONTINUOUS
 10
3290.0003879999999
 20
1805.42788
 30
0.0
 11
3290.0003879999999
 21
2445.4278800000002
 31
0.0
  0
LINE
  5
7AD7
  8
1
  6
CONTINUOUS
 10
3288.000387999999
 20
1805.42788
 30
0.0
 11
3290.0003879999999
 21
1805.42788
 31
0.0
  0
LINE
  5
7AD8
  8
1
  6
CONTINUOUS
 10
3333.0003879999999
 20
1548.42788
 30
0.0
 11
3333.0003879999999
 21
1613.42788
 31
0.0
  0
LINE
  5
7AD9
  8
1
  6
CONTINUOUS
 10
3333.0003879999999
 20
1635.42788
 30
0.0
 11
3333.0003879999999
 21
1715.42788
 31
0.0
  0
LINE
  5
7ADA
  8
1
  6
CONTINUOUS
 10
3288.000387999999
 20
2445.4278800000002
 30
0.0
 11
3290.0003879999999
 21
2445.4278800000002
 31
0.0
  0
LINE
  5
7ADB
  8
2
  6
CENTER
 10
604.19610499999999
 20
3790.4278800000002
 30
0.0
 11
2119.5200159999999
 21
3790.4278800000002
 31
0.0
  0
LINE
  5
7ADC
  8
2
  6
CENTER
 10
3078.000387999999
 20
2719.2634119999998
 30
0.0
 11
3078.000387999999
 21
1454.271785716076
 31
0.0
  0
LINE
  5
7ADD
  8
2
  6
CENTER
 10
1600.3024399999999
 20
2811.823010999999
 30
0.0
 11
1600.3024399999999
 21
1449.291508787325
 31
0.0
  0
LINE
  5
7ADE
  8
2
  6
CENTER
 10
2097.807249
 20
2125.4278800000002
 30
0.0
 11
858.58460603587446
 21
2125.4278800000002
 31
0.0
  0
LINE
  5
7ADF
  8
4
  6
CONTINUOUS
 10
3700.0
 20
1000.0
 30
0.0
 11
3700.0
 21
600.0
 31
0.0
  0
LINE
  5
7AE0
  8
4
  6
CONTINUOUS
 10
2300.0
 20
1000.0
 30
0.0
 11
2300.0
 21
600.0
 31
0.0
  0
LINE
  5
7AE1
  8
4
  6
CONTINUOUS
 10
1300.0
 20
1000.0
 30
0.0
 11
1300.0
 21
600.0
 31
0.0
  0
LINE
  5
7AE4
  8
4
  6
CONTINUOUS
 10
1300.0
 20
600.0
 30
0.0
 11
3700.0
 21
600.0
 31
0.0
  0
LINE
  5
7AE5
  8
4
  6
CONTINUOUS
 10
1300.0
 20
800.0
 30
0.0
 11
3700.0
 21
800.0
 31
0.0
  0
TEXT
  5
7AE6
  8
4
  6
CONTINUOUS
 10
1377.004162
 20
863.086052
 30
0.0
 40
100.0
  1
機器名称
  0
TEXT
  5
7AE7
  8
4
  6
CONTINUOUS
 10
1372.516212
 20
643.29031299999986
 30
0.0
 40
100.0
  1
機器型番
  0
TEXT
  5
7AE8
  8
4
  6
CONTINUOUS
 10
2355.3574910000002
 20
845.14353800000015
 30
0.0
 40
100.0
  1
ミツヤ多翼送風機
  0
TEXT
  5
7AE9
  8
4
  6
CONTINUOUS
 10
2373.3089909999999
 20
634.31916899999999
 30
0.0
 40
100.0
  1
MFE#3 1/2-4
  0
TEXT
  5
7AEB
  8
4
  6
CONTINUOUS
 10
1506.724868
 20
4766.8576830000002
 30
0.0
 40
108.0
  1
床置防振ベット
  0
TEXT
  5
7AEC
  8
4
  6
CONTINUOUS
 10
632.33518700000002
 20
5067.7619520000007
 30
0.0
 40
144.0
  1
ベルト駆動式片吸込両持排煙ファン
  0
LINE
  5
7AED
  8
4
  6
CONTINUOUS
 10
500.0
 20
4938.8175090000004
 30
0.0
 11
3700.0
 21
4938.8175090000004
 31
0.0
  0
LINE
  5
7AEE
  8
4
  6
CONTINUOUS
 10
500.0
 20
5338.8175090000004
 30
0.0
 11
3700.0
 21
5338.8175090000004
 31
0.0
  0
LINE
  5
7AEF
  8
4
  6
CONTINUOUS
 10
1300.0
 20
1000.0
 30
0.0
 11
3700.0
 21
1000.0
 31
0.0
  0
LINE
  5
7AF0
  8
4
  6
CONTINUOUS
 10
500.0
 20
5338.8175090000004
 30
0.0
 11
500.0
 21
4938.8175090000004
 31
0.0
  0
TEXT
  5
7AF1
  8
4
  6
CONTINUOUS
 10
635.007204
 20
4764.6389549999994
 30
0.0
 40
108.0
  1
右回転右横向
  0
TEXT
  5
7AF2
  8
4
  6
CONTINUOUS
 10
2937.9391179999998
 20
5412.122163
 30
0.0
 40
112.0
  1
No.
  0
TEXT
  5
7AF3
  8
4
  6
CONTINUOUS
 10
2622.5921250000001
 20
4766.8576830000002
 30
0.0
 40
108.0
  1
縮尺：1/20
  0
LINE
  5
7AF4
  8
4
  6
CONTINUOUS
 10
3700.0
 20
5338.8175090000004
 30
0.0
 11
3700.0
 21
4938.8175090000004
 31
0.0
  0
LINE
  5
7AF6
  8
4
  6
CONTINUOUS
 10
2881.234845
 20
5362.5271659999999
 30
0.0
 11
2881.234845
 21
5573.3045229999998
 31
0.0
  0
LINE
  5
7AF7
  8
4
  6
CONTINUOUS
 10
2881.234845
 20
5573.3045229999998
 30
0.0
 11
3700.0
 21
5573.3045229999998
 31
0.0
  0
LINE
  5
7AF8
  8
4
  6
CONTINUOUS
 10
3700.0
 20
5573.3045229999998
 30
0.0
 11
3700.0
 21
5362.5271659999999
 31
0.0
  0
LINE
  5
7AF9
  8
4
  6
CONTINUOUS
 10
3700.0
 20
5362.5271659999999
 30
0.0
 11
2881.234845
 21
5362.5271659999999
 31
0.0
  0
DIMENSION
  5
7B11
  8
3
  6
CONTINUOUS
  2
*D1
 10
2153.779618
 20
2104.4278800000002
 30
0.0
 11
2153.779618
 21
2362.6884540000001
 31
0.0
 70
   128
 13
2005.302439999999
 23
2664.4278800000002
 33
0.0
 14
2005.302439999999
 24
2104.4278800000002
 34
0.0
 50
90.0
1001
ACAD
1000
DSTYLE
1002
{
1070
   287
1070
     3
1070
   287
1070
     3
1070
    40
1040
20.0
1070
   143
1040
0.039
1070
   172
1070
     1
1070
   271
1070
     0
1070
   279
1070
     0
1070
   288
1070
     1
1002
}
  0
DIMENSION
  5
7B1E
  8
3
  6
CONTINUOUS
  2
*D2
 10
2276.3777930000001
 20
2125.4278800000002
 30
0.0
 11
2276.3777929999992
 21
2366.5160729999998
 31
0.0
 70
   128
 13
2005.302439999999
 23
2664.4278800000002
 33
0.0
 14
2097.807249
 24
2125.4278800000002
 34
0.0
 50
90.0
1001
ACAD
1000
DSTYLE
1002
{
1070
   287
1070
     3
1070
   287
1070
     3
1070
    40
1040
20.0
1070
   143
1040
0.039
1070
   172
1070
     1
1070
   271
1070
     0
1070
   279
1070
     0
1070
   288
1070
     1
1002
}
  0
DIMENSION
  5
7B38
  8
3
  6
CONTINUOUS
  2
*D3
 10
2276.3777929999992
 20
1635.42788
 30
0.0
 11
2226.3777929999992
 21
1880.42788
 31
0.0
 70
     0
 13
2097.807249
 23
2125.4278800000002
 33
0.0
 14
1945.3024399999999
 24
1635.42788
 34
0.0
 50
90.0
1001
ACAD
1000
DSTYLE
1002
{
1070
   287
1070
     4
1070
   287
1070
     4
1070
    40
1040
20.0
1070
    75
1070
     1
1070
   143
1040
0.039
1070
   172
1070
     1
1070
   271
1070
     0
1070
   279
1070
     1
1070
   288
1070
     1
1002
}
  0
DIMENSION
  5
7B48
  8
3
  6
CONTINUOUS
  2
*D4
 10
2276.3326010000001
 20
1548.42788
 30
0.0
 11
2276.3326010000001
 21
1399.856451428572
 31
0.0
 70
   128
 13
1945.3024399999999
 23
1635.42788
 33
0.0
 14
1945.3024399999999
 24
1548.42788
 34
0.0
 50
90.0
1001
ACAD
1000
DSTYLE
1002
{
1070
   287
1070
     3
1070
   287
1070
     3
1070
    40
1040
20.0
1070
   143
1040
0.039
1070
   172
1070
     1
1070
   271
1070
     0
1070
   279
1070
     0
1070
   288
1070
     1
1002
}
  0
DIMENSION
  5
7B55
  8
3
  6
CONTINUOUS
  2
*D5
 10
2412.993817
 20
1548.42788
 30
0.0
 11
2412.993817
 21
2110.065642999999
 31
0.0
 70
   128
 13
2005.302439999999
 23
2691.4278800000002
 33
0.0
 14
1945.3024399999999
 24
1548.42788
 34
0.0
 50
90.0
1001
ACAD
1000
DSTYLE
1002
{
1070
   287
1070
     3
1070
   287
1070
     3
1070
    40
1040
20.0
1070
   143
1040
0.039
1070
   172
1070
     1
1070
   271
1070
     0
1070
   279
1070
     0
1070
   288
1070
     1
1002
}
  0
DIMENSION
  5
7B62
  8
3
  6
CONTINUOUS
  2
*D6
 10
1600.3024399999999
 20
2839.2301090000001
 30
0.0
 11
1793.647469
 21
2839.2301090000001
 31
0.0
 70
   128
 13
2005.302439999999
 23
2691.4278800000002
 33
0.0
 14
1600.3024399999999
 24
2811.823010999999
 34
0.0
1001
ACAD
1000
DSTYLE
1002
{
1070
   287
1070
     3
1070
   287
1070
     3
1070
    40
1040
20.0
1070
   143
1040
0.039
1070
   172
1070
     1
1070
   271
1070
     0
1070
   279
1070
     0
1070
   288
1070
     1
1002
}
  0
DIMENSION
  5
7B6E
  8
3
  6
CONTINUOUS
  2
*D7
 10
1125.3024399999999
 20
2839.2301090000001
 30
0.0
 11
1362.8024399999999
 21
2889.2301090000001
 31
0.0
 70
     0
 13
1600.3024399999999
 23
2811.823010999999
 33
0.0
 14
1125.3024399999999
 24
2535.4278800000002
 34
0.0
1001
ACAD
1000
DSTYLE
1002
{
1070
   287
1070
     4
1070
   287
1070
     4
1070
    40
1040
20.0
1070
    75
1070
     1
1070
   143
1040
0.039
1070
   172
1070
     1
1070
   271
1070
     0
1070
   279
1070
     1
1070
   288
1070
     1
1002
}
  0
DIMENSION
  5
7B7B
  8
3
  6
CONTINUOUS
  2
*D8
 10
1600.3024399999999
 20
1375.9515247873251
 30
0.0
 11
1138.5134840000001
 21
1375.9515247873251
 31
0.0
 70
   128
 13
695.30244000000005
 23
1548.42788
 33
0.0
 14
1600.3024399999999
 24
1449.291508787325
 34
0.0
1001
ACAD
1000
DSTYLE
1002
{
1070
   287
1070
     3
1070
   287
1070
     3
1070
    40
1040
20.0
1070
   143
1040
0.039
1070
   172
1070
     1
1070
   271
1070
     0
1070
   279
1070
     0
1070
   288
1070
     1
1002
}
  0
DIMENSION
  5
7B87
  8
3
  6
CONTINUOUS
  2
*D9
 10
1945.3024399999999
 20
1375.9515247873251
 30
0.0
 11
1772.802439999999
 21
1425.9515247873251
 31
0.0
 70
     0
 13
1600.3024399999999
 23
1449.291508787325
 33
0.0
 14
1945.3024399999999
 24
1548.42788
 34
0.0
1001
ACAD
1000
DSTYLE
1002
{
1070
   287
1070
     4
1070
   287
1070
     4
1070
    40
1040
20.0
1070
    75
1070
     1
1070
   143
1040
0.039
1070
   172
1070
     1
1070
   271
1070
     0
1070
   279
1070
     1
1070
   288
1070
     1
1002
}
  0
DIMENSION
  5
7B96
  8
3
  6
CONTINUOUS
  2
*D10
 10
3078.000387999999
 20
1386.164978
 30
0.0
 11
2950.5003879999999
 21
1431.7366253951909
 31
0.0
 70
   128
 13
2823.0003879999999
 23
1548.42788
 33
0.0
 14
3078.000387999999
 24
1454.271785716076
 34
0.0
1001
ACAD
1000
DSTYLE
1002
{
1070
   288
1070
     1
1070
   172
1070
     1
1070
    40
1040
20.0
1070
   271
1070
     0
1070
   143
1040
0.039
1002
}
  0
DIMENSION
  5
7BA4
  8
3
  6
CONTINUOUS
  2
*D11
 10
3333.0003879999999
 20
1386.164978
 30
0.0
 11
3207.819880999999
 21
1386.4728520000001
 31
0.0
 70
   128
 13
3078.000387999999
 23
1454.271785716076
 33
0.0
 14
3333.0003879999999
 24
1548.42788
 34
0.0
1001
ACAD
1000
DSTYLE
1002
{
1070
   287
1070
     4
1070
   287
1070
     4
1070
    40
1040
20.0
1070
    75
1070
     1
1070
   143
1040
0.039
1070
   172
1070
     1
1070
   271
1070
     0
1070
   279
1070
     1
1070
   288
1070
     1
1002
}
  0
DIMENSION
  5
7BC0
  8
3
  6
CONTINUOUS
  2
*D12
 10
3477.400494
 20
1830.42788
 30
0.0
 11
3477.4004939999991
 21
2113.893262
 31
0.0
 70
   128
 13
3290.0003879999999
 23
2420.4278800000002
 33
0.0
 14
3290.0003879999999
 24
1830.42788
 34
0.0
 50
90.0
1001
ACAD
1000
DSTYLE
1002
{
1070
   287
1070
     3
1070
   287
1070
     3
1070
     3
1000
φ<>
1070
    40
1040
20.0
1070
   143
1040
0.039
1070
   172
1070
     1
1070
   271
1070
     0
1070
   279
1070
     0
1070
   288
1070
     1
1002
}
  0
DIMENSION
  5
7BCF
  8
3
  6
CONTINUOUS
  2
*D13
 10
3078.000387999999
 20
2909.467074204867
 30
0.0
 11
3184.0003879999999
 21
2965.1579570257509
 31
0.0
 70
   128
 13
3290.0003879999999
 23
2445.4278800000002
 33
0.0
 14
3078.000387999999
 24
2834.2556920000002
 34
0.0
1001
ACAD
1000
DSTYLE
1002
{
1070
   288
1070
     1
1070
   172
1070
     1
1070
    40
1040
20.0
1070
   271
1070
     0
1070
   143
1040
0.039
1002
}
  0
DIMENSION
  5
7BDB
  8
3
  6
CONTINUOUS
  2
*D14
 10
2668.0003879999999
 20
2909.467074204867
 30
0.0
 11
2873.000387999999
 21
3009.467074204867
 31
0.0
 70
     0
  1
MAX\P470
 13
3078.000387999999
 23
2834.2556920000002
 33
0.0
 14
2668.0003879999999
 24
2550.4278800000002
 34
0.0
1001
ACAD
1000
DSTYLE
1002
{
1070
   287
1070
     4
1070
   287
1070
     4
1070
    40
1040
20.0
1070
    75
1070
     1
1070
   143
1040
0.039
1070
   172
1070
     1
1070
   271
1070
     0
1070
   279
1070
     1
1070
   288
1070
     1
1002
}
  0
DIMENSION
  5
7BE8
  8
3
  6
CONTINUOUS
  2
*D15
 10
1945.3024399999999
 20
4223.0415370000001
 30
0.0
 11
1345.3979019999999
 21
4223.0415370000001
 31
0.0
 70
   128
 13
695.30244000000005
 23
4045.4278800000002
 33
0.0
 14
1945.3024399999999
 24
4045.4278800000002
 34
0.0
1001
ACAD
1000
DSTYLE
1002
{
1070
   287
1070
     3
1070
   287
1070
     3
1070
    40
1040
20.0
1070
   143
1040
0.039
1070
   172
1070
     1
1070
   271
1070
     0
1070
   279
1070
     0
1070
   288
1070
     1
1002
}
  0
DIMENSION
  5
7BF5
  8
3
  6
CONTINUOUS
  2
*D16
 10
2188.26035
 20
3535.4278799999988
 30
0.0
 11
2188.26035
 21
3808.3396240000002
 31
0.0
 70
   128
 13
1945.3024399999999
 23
4045.4278800000002
 33
0.0
 14
1945.3024399999999
 24
3535.4278799999988
 34
0.0
 50
90.0
1001
ACAD
1000
DSTYLE
1002
{
1070
   287
1070
     3
1070
   287
1070
     3
1070
    40
1040
20.0
1070
   143
1040
0.039
1070
   172
1070
     1
1070
   271
1070
     0
1070
   279
1070
     0
1070
   288
1070
     1
1002
}
  0
DIMENSION
  5
7CA6
  8
3
  6
CONTINUOUS
  2
*D17
 10
3288.000387999999
 20
2746.8409780000002
 30
0.0
 11
3068.8448719999992
 21
2746.8409780000002
 31
0.0
 70
   128
 13
2868.0003879999999
 23
2664.4278800000002
 33
0.0
 14
3288.000387999999
 24
2664.4278800000002
 34
0.0
1001
ACAD
1000
DSTYLE
1002
{
1070
   287
1070
     3
1070
   287
1070
     3
1070
    40
1040
20.0
1070
   143
1040
0.039
1070
   172
1070
     1
1070
   271
1070
     0
1070
   279
1070
     0
1070
   288
1070
     1
1002
}
  0
DIMENSION
  5
7D2B
  8
3
  2
*D18
 10
695.30244000000005
 20
2978.0384391076982
 30
0.0
 11
1427.082990190436
 21
2978.0384391076982
 31
0.0
 70
   128
 13
2005.302439999999
 23
2691.4278800000002
 33
0.0
 14
695.30243999999993
 24
1715.42788
 34
0.0
1001
ACAD
1000
DSTYLE
1002
{
1070
   287
1070
     3
1070
   287
1070
     3
1070
    40
1040
20.0
1070
   143
1040
0.039
1070
   172
1070
     1
1070
   271
1070
     0
1070
   279
1070
     0
1070
   288
1070
     1
1002
}
  0
ENDSEC
  0
EOF
