  0
SECTION
  2
HEADER
  9
$ACADVER
  1
AC1009
  9
$INSBASE
 10
0.0
 20
0.0
 30
0.0
  9
$EXTMIN
 10
500.0
 20
600.0
 30
0.0
  9
$EXTMAX
 10
3700.0
 20
5573.3045229999998
 30
0.0
  9
$LIMMIN
 10
0.0
 20
0.0
  9
$LIMMAX
 10
297.0
 20
210.0
  9
$ORTHOMODE
 70
     0
  9
$REGENMODE
 70
     1
  9
$FILLMODE
 70
     0
  9
$QTEXTMODE
 70
     0
  9
$MIRRTEXT
 70
     1
  9
$DRAGMODE
 70
     2
  9
$LTSCALE
 40
100.0
  9
$OSMODE
 70
    37
  9
$ATTMODE
 70
     1
  9
$TEXTSIZE
 40
180.0
  9
$TRACEWID
 40
0.05
  9
$TEXTSTYLE
  7
STANDARD
  9
$CLAYER
  8
3
  9
$CELTYPE
  6
BYLAYER
  9
$CECOLOR
 62
   256
  9
$DIMSCALE
 40
20.0
  9
$DIMASZ
 40
2.0
  9
$DIMEXO
 40
0.5
  9
$DIMDLI
 40
10.0
  9
$DIMRND
 40
0.0
  9
$DIMDLE
 40
0.0
  9
$DIMEXE
 40
1.0
  9
$DIMTP
 40
1.0
  9
$DIMTM
 40
1.0
  9
$DIMTXT
 40
3.0
  9
$DIMCEN
 40
0.0
  9
$DIMTSZ
 40
0.0
  9
$DIMTOL
 70
     0
  9
$DIMLIM
 70
     0
  9
$DIMTIH
 70
     0
  9
$DIMTOH
 70
     0
  9
$DIMSE1
 70
     0
  9
$DIMSE2
 70
     0
  9
$DIMTAD
 70
     1
  9
$DIMZIN
 70
     8
  9
$DIMBLK
  1

  9
$DIMASO
 70
     1
  9
$DIMSHO
 70
     1
  9
$DIMPOST
  1

  9
$DIMAPOST
  1

  9
$DIMALT
 70
     0
  9
$DIMALTD
 70
     2
  9
$DIMALTF
 40
0.039
  9
$DIMLFAC
 40
1.0
  9
$DIMTOFL
 70
     1
  9
$DIMTVP
 40
0.0
  9
$DIMTIX
 70
     0
  9
$DIMSOXD
 70
     0
  9
$DIMSAH
 70
     1
  9
$DIMBLK1
  1
OPEN
  9
$DIMBLK2
  1
OPEN
  9
$DIMSTYLE
  2
IGA
  9
$DIMCLRD
 70
     0
  9
$DIMCLRE
 70
     0
  9
$DIMCLRT
 70
     0
  9
$DIMTFAC
 40
10.0
  9
$DIMGAP
 40
1.0
  9
$LUNITS
 70
     2
  9
$LUPREC
 70
     3
  9
$SKETCHINC
 40
0.1
  9
$FILLETRAD
 40
50.0
  9
$AUNITS
 70
     0
  9
$AUPREC
 70
     0
  9
$MENU
  1
acad
  9
$ELEVATION
 40
0.0
  9
$PELEVATION
 40
0.0
  9
$THICKNESS
 40
0.0
  9
$LIMCHECK
 70
     0
  9
$BLIPMODE
 70
     0
  9
$CHAMFERA
 40
0.5
  9
$CHAMFERB
 40
0.5
  9
$SKPOLY
 70
     0
  9
$TDCREATE
 40
2450736.6302807871
  9
$TDUPDATE
 40
2454953.837177488
  9
$TDINDWG
 40
0.0049833449
  9
$TDUSRTIMER
 40
0.0049833449
  9
$USRTIMER
 70
     1
  9
$ANGBASE
 50
0.0
  9
$ANGDIR
 70
     0
  9
$PDMODE
 70
     0
  9
$PDSIZE
 40
0.0
  9
$PLINEWID
 40
0.0
  9
$COORDS
 70
     1
  9
$SPLFRAME
 70
     0
  9
$SPLINETYPE
 70
     6
  9
$SPLINESEGS
 70
     8
  9
$ATTDIA
 70
     0
  9
$ATTREQ
 70
     1
  9
$HANDLING
 70
 10241
  9
$HANDSEED
  5
7FDC
  9
$SURFTAB1
 70
     6
  9
$SURFTAB2
 70
     6
  9
$SURFTYPE
 70
     6
  9
$SURFU
 70
     6
  9
$SURFV
 70
     6
  9
$UCSNAME
  2

  9
$UCSORG
 10
0.0
 20
0.0
 30
0.0
  9
$UCSXDIR
 10
1.0
 20
0.0
 30
0.0
  9
$UCSYDIR
 10
0.0
 20
1.0
 30
0.0
  9
$PUCSNAME
  2

  9
$PUCSORG
 10
0.0
 20
0.0
 30
0.0
  9
$PUCSXDIR
 10
1.0
 20
0.0
 30
0.0
  9
$PUCSYDIR
 10
0.0
 20
1.0
 30
0.0
  9
$USERI1
 70
     0
  9
$USERI2
 70
     0
  9
$USERI3
 70
     0
  9
$USERI4
 70
     0
  9
$USERI5
 70
     0
  9
$USERR1
 40
0.0
  9
$USERR2
 40
0.0
  9
$USERR3
 40
0.0
  9
$USERR4
 40
0.0
  9
$USERR5
 40
0.0
  9
$WORLDVIEW
 70
     1
  9
$SHADEDGE
 70
     3
  9
$SHADEDIF
 70
    70
  9
$TILEMODE
 70
     1
  9
$MAXACTVP
 70
    16
  9
$PLIMCHECK
 70
     0
  9
$PEXTMIN
 10
1.0000000000000000E+020
 20
1.0000000000000000E+020
 30
1.0000000000000000E+020
  9
$PEXTMAX
 10
-1.0000000000000000E+020
 20
-1.0000000000000000E+020
 30
-1.0000000000000000E+020
  9
$PLIMMIN
 10
0.0
 20
0.0
  9
$PLIMMAX
 10
12.0
 20
9.0
  9
$UNITMODE
 70
     0
  9
$VISRETAIN
 70
     0
  9
$PLINEGEN
 70
     0
  9
$PSLTSCALE
 70
     1
  0
ENDSEC
  0
SECTION
  2
TABLES
  0
TABLE
  2
VPORT
 70
     2
  0
VPORT
  2
*ACTIVE
 70
     0
 10
0.0
 20
0.0
 11
1.0
 21
1.0
 12
5868.3977841346386
 22
3836.8523460878741
 13
0.0
 23
0.0
 14
10.0
 24
10.0
 15
10.0
 25
10.0
 16
0.0
 26
0.0
 36
1.0
 17
0.0
 27
0.0
 37
0.0
 40
7720.8617819453802
 41
1.5051150895140659
 42
50.0
 43
0.0
 44
0.0
 50
0.0
 51
0.0
 71
     0
 72
   100
 73
     1
 74
     0
 75
     0
 76
     0
 77
     0
 78
     0
  0
ENDTAB
  0
TABLE
  2
LTYPE
 70
     2
  0
LTYPE
  2
CONTINUOUS
 70
     0
  3
Solid line
 72
    65
 73
     0
 40
0.0
  0
LTYPE
  2
CENTER
 70
     0
  3
____ _ ____ _ ____ _ ____ _ ____ _ ____ _ ____ 
 72
    65
 73
     4
 40
2.0
 49
1.25
 49
-0.25
 49
0.25
 49
-0.25
  0
ENDTAB
  0
TABLE
  2
LAYER
 70
     6
  0
LAYER
  2
0
 70
     0
 62
     7
  6
CONTINUOUS
  0
LAYER
  2
3
 70
     0
 62
     2
  6
CONTINUOUS
  0
LAYER
  2
2
 70
     0
 62
     3
  6
CENTER
  0
LAYER
  2
1
 70
     0
 62
     4
  6
CONTINUOUS
  0
LAYER
  2
4
 70
     0
 62
     7
  6
CONTINUOUS
  0
LAYER
  2
DEFPOINTS
 70
     0
 62
     7
  6
CONTINUOUS
  0
ENDTAB
  0
TABLE
  2
STYLE
 70
     1
  0
STYLE
  2
STANDARD
 70
     0
 40
0.0
 41
1.0
 50
0.0
 71
     0
 42
180.0
  3
simplex.shx
  4
extfont.shx
  0
ENDTAB
  0
TABLE
  2
VIEW
 70
     0
  0
ENDTAB
  0
TABLE
  2
UCS
 70
     0
  0
ENDTAB
  0
TABLE
  2
APPID
 70
     1
  0
APPID
  2
ACAD
 70
     0
  0
ENDTAB
  0
TABLE
  2
DIMSTYLE
 70
     1
  0
DIMSTYLE
  2
IGA
 70
     0
  3

  4

  5

  6
OPEN
  7
OPEN
 40
2.0
 41
2.0
 42
0.5
 43
10.0
 44
1.0
 45
0.0
 46
0.0
 47
1.0
 48
1.0
140
3.0
141
0.0
142
0.0
143
0.03937
144
1.0
145
0.0
146
10.0
147
1.0
 71
     0
 72
     0
 73
     0
 74
     0
 75
     0
 76
     0
 77
     1
 78
     8
170
     0
171
     2
172
     0
173
     1
174
     0
175
     0
176
     0
177
     0
178
     0
  0
ENDTAB
  0
ENDSEC
  0
SECTION
  2
BLOCKS
  0
BLOCK
  8
0
  2
$MODEL_SPACE
 70
     0
 10
0.0
 20
0.0
 30
0.0
  3
$MODEL_SPACE
  1

  0
ENDBLK
  5
1B
  8
0
  0
BLOCK
 67
     1
  8
0
  2
$PAPER_SPACE
 70
     0
 10
0.0
 20
0.0
 30
0.0
  3
$PAPER_SPACE
  1

  0
ENDBLK
  5
18
 67
     1
  8
0
  0
BLOCK
  8
0
  2
_OPEN
 70
     0
 10
0.0
 20
0.0
 30
0.0
  3
_OPEN
  1

  0
LINE
  5
7B9E
  8
0
  6
BYBLOCK
 62
     0
 10
-1.0
 20
0.166667
 30
0.0
 11
0.0
 21
0.0
 31
0.0
  0
LINE
  5
7B9F
  8
0
  6
BYBLOCK
 62
     0
 10
0.0
 20
0.0
 30
0.0
 11
-1.0
 21
-0.166667
 31
0.0
  0
LINE
  5
7BA0
  8
0
  6
BYBLOCK
 62
     0
 10
0.0
 20
0.0
 30
0.0
 11
-1.0
 21
0.0
 31
0.0
  0
ENDBLK
  5
7BA1
  8
0
  0
BLOCK
  8
0
  2
*D1
 70
     1
 10
0.0
 20
0.0
 30
0.0
  3
*D1
  1

  0
LINE
  5
7F3E
  8
3
  6
CONTINUOUS
 62
     0
 10
1920.858684
 20
2541.7879320000002
 30
0.0
 11
1920.858684
 21
2677.7178389999999
 31
0.0
  0
LINE
  5
7F3F
  8
3
  6
CONTINUOUS
 62
     0
 10
1360.858684
 20
2541.7879320000002
 30
0.0
 11
1360.858684
 21
2677.7178389999999
 31
0.0
  0
LINE
  5
7F40
  8
3
  6
CONTINUOUS
 62
     0
 10
1880.858684
 20
2657.7178389999999
 30
0.0
 11
1400.858684
 21
2657.7178389999999
 31
0.0
  0
INSERT
  5
7F41
  8
3
  6
CONTINUOUS
 62
     0
  2
_OPEN
 10
1920.858684
 20
2657.7178389999999
 30
0.0
 41
40.0
 42
40.0
 43
40.0
  0
INSERT
  5
7F42
  8
3
  6
CONTINUOUS
 62
     0
  2
_OPEN
 10
1360.858684
 20
2657.7178389999999
 30
0.0
 41
40.0
 42
40.0
 43
40.0
 50
180.0
  0
TEXT
  8
3
  40
60
  5
7FCB
  62
0
  72
0
  71
0
 10
1502.96
 20
2601.52
 30
0.000000
  1
560
  0
POINT
  5
7F44
  8
DEFPOINTS
  6
CONTINUOUS
 62
     0
 10
1920.858684
 20
2531.7879320000002
 30
0.0
  0
POINT
  5
7F45
  8
DEFPOINTS
  6
CONTINUOUS
 62
     0
 10
1360.858684
 20
2531.7879320000002
 30
0.0
  0
POINT
  5
7F46
  8
DEFPOINTS
  6
CONTINUOUS
 62
     0
 10
1360.858684
 20
2657.7178389999999
 30
0.0
  0
ENDBLK
  5
7CF3
  8
0
  0
BLOCK
  8
0
  2
*D2
 70
     1
 10
0.0
 20
0.0
 30
0.0
  3
*D2
  1

  0
LINE
  5
7F47
  8
3
  6
CONTINUOUS
 62
     0
 10
1920.858684
 20
2541.7879320000002
 30
0.0
 11
1920.858684
 21
2805.3203020000001
 31
0.0
  0
LINE
  5
7F48
  8
3
  6
CONTINUOUS
 62
     0
 10
1381.858684
 20
2655.184549999999
 30
0.0
 11
1381.858684
 21
2805.3203020000001
 31
0.0
  0
LINE
  5
7F49
  8
3
  6
CONTINUOUS
 62
     0
 10
1880.858684
 20
2785.3203020000001
 30
0.0
 11
1421.858684
 21
2785.3203020000001
 31
0.0
  0
INSERT
  5
7F4A
  8
3
  6
CONTINUOUS
 62
     0
  2
_OPEN
 10
1920.858684
 20
2785.3203020000001
 30
0.0
 41
40.0
 42
40.0
 43
40.0
  0
INSERT
  5
7F4B
  8
3
  6
CONTINUOUS
 62
     0
  2
_OPEN
 10
1381.858684
 20
2785.3203020000001
 30
0.0
 41
40.0
 42
40.0
 43
40.0
 50
180.0
  0
TEXT
  8
3
  40
60
  5
7FCC
  62
0
  72
0
  71
0
 10
1502.96
 20
2729.12
 30
0.000000
  1
539
  0
POINT
  5
7F4D
  8
DEFPOINTS
  6
CONTINUOUS
 62
     0
 10
1920.858684
 20
2531.7879320000002
 30
0.0
  0
POINT
  5
7F4E
  8
DEFPOINTS
  6
CONTINUOUS
 62
     0
 10
1381.858684
 20
2645.1845499999999
 30
0.0
  0
POINT
  5
7F4F
  8
DEFPOINTS
  6
CONTINUOUS
 62
     0
 10
1381.858684
 20
2785.3203020000001
 30
0.0
  0
ENDBLK
  5
7CE8
  8
0
  0
BLOCK
  8
0
  2
*D3
 70
     1
 10
0.0
 20
0.0
 30
0.0
  3
*D3
  1

  0
LINE
  5
7F50
  8
3
  6
CONTINUOUS
 62
     0
 10
971.85868400000004
 20
2496.7879320000002
 30
0.0
 11
971.85868400000004
 21
2805.3203020000001
 31
0.0
  0
LINE
  5
7F51
  8
3
  6
CONTINUOUS
 62
     0
 10
1341.858684
 20
2785.3203020000001
 30
0.0
 11
1011.858684
 21
2785.3203020000001
 31
0.0
  0
INSERT
  5
7F52
  8
3
  6
CONTINUOUS
 62
     0
  2
_OPEN
 10
1381.858684
 20
2785.3203020000001
 30
0.0
 41
40.0
 42
40.0
 43
40.0
  0
INSERT
  5
7F53
  8
3
  6
CONTINUOUS
 62
     0
  2
_OPEN
 10
971.85868400000004
 20
2785.3203020000001
 30
0.0
 41
40.0
 42
40.0
 43
40.0
 50
180.0
  0
TEXT
  8
3
  40
60
  5
7FCD
  62
0
  72
0
  71
0
 10
1056.86
 20
2729.12
 30
0.000000
  1
410
  0
POINT
  5
7F55
  8
DEFPOINTS
  6
CONTINUOUS
 62
     0
 10
1381.858684
 20
2645.1845499999999
 30
0.0
  0
POINT
  5
7F56
  8
DEFPOINTS
  6
CONTINUOUS
 62
     0
 10
971.85868400000004
 20
2486.7879320000002
 30
0.0
  0
POINT
  5
7F57
  8
DEFPOINTS
  6
CONTINUOUS
 62
     0
 10
971.85868400000004
 20
2785.3203020000001
 30
0.0
  0
ENDBLK
  5
7CFD
  8
0
  0
BLOCK
  8
0
  2
*D4
 70
     1
 10
0.0
 20
0.0
 30
0.0
  3
*D4
  1

  0
LINE
  5
7F58
  8
3
  6
CONTINUOUS
 62
     0
 10
1323.858684
 20
2531.7879320000002
 30
0.0
 11
810.40426500000046
 21
2531.7879320000002
 31
0.0
  0
LINE
  5
7F59
  8
3
  6
CONTINUOUS
 62
     0
 10
900.75211915836201
 20
2126.7879320000002
 30
0.0
 11
810.40426500000035
 21
2126.7879320000002
 31
0.0
  0
LINE
  5
7F5A
  8
3
  6
CONTINUOUS
 62
     0
 10
830.40426500000035
 20
2491.7879320000011
 30
0.0
 11
830.40426500000035
 21
2166.7879320000002
 31
0.0
  0
INSERT
  5
7F5B
  8
3
  6
CONTINUOUS
 62
     0
  2
_OPEN
 10
830.40426500000035
 20
2531.7879320000002
 30
0.0
 41
40.0
 42
40.0
 43
40.0
 50
90.0
  0
INSERT
  5
7F5C
  8
3
  6
CONTINUOUS
 62
     0
  2
_OPEN
 10
830.40426500000035
 20
2126.7879320000002
 30
0.0
 41
40.0
 42
40.0
 43
40.0
 50
270.0
  0
TEXT
  8
3
  40
60
  5
7FCE
  62
0
  72
0
  71
0
 10
660.404
 20
2191.90
 30
0.000000
  1
405
  0
POINT
  5
7F5E
  8
DEFPOINTS
  6
CONTINUOUS
 62
     0
 10
1333.858684
 20
2531.7879320000002
 30
0.0
  0
POINT
  5
7F5F
  8
DEFPOINTS
  6
CONTINUOUS
 62
     0
 10
910.75211915836201
 20
2126.7879320000002
 30
0.0
  0
POINT
  5
7F60
  8
DEFPOINTS
  6
CONTINUOUS
 62
     0
 10
830.40426500000035
 20
2126.7879320000002
 30
0.0
  0
ENDBLK
  5
7E57
  8
0
  0
BLOCK
  8
0
  2
*D5
 70
     1
 10
0.0
 20
0.0
 30
0.0
  3
*D5
  1

  0
LINE
  5
7F61
  8
3
  6
CONTINUOUS
 62
     0
 10
1026.858684
 20
1571.787932
 30
0.0
 11
810.40426500000001
 21
1571.787932
 31
0.0
  0
LINE
  5
7F62
  8
3
  6
CONTINUOUS
 62
     0
 10
830.40426500000012
 20
2086.7879320000002
 30
0.0
 11
830.4042649999999
 21
1611.787932
 31
0.0
  0
INSERT
  5
7F63
  8
3
  6
CONTINUOUS
 62
     0
  2
_OPEN
 10
830.40426500000012
 20
2126.7879320000002
 30
0.0
 41
40.0
 42
40.0
 43
40.0
 50
90.0
  0
INSERT
  5
7F64
  8
3
  6
CONTINUOUS
 62
     0
  2
_OPEN
 10
830.4042649999999
 20
1571.787932
 30
0.0
 41
40.0
 42
40.0
 43
40.0
 50
270.0
  0
TEXT
  8
3
  40
60
  5
7FCF
  62
0
  72
0
  71
0
 10
660.404
 20
1743.09
 30
0.000000
  1
555
  0
POINT
  5
7F66
  8
DEFPOINTS
  6
CONTINUOUS
 62
     0
 10
910.75211915836201
 20
2126.7879320000002
 30
0.0
  0
POINT
  5
7F67
  8
DEFPOINTS
  6
CONTINUOUS
 62
     0
 10
1036.858684
 20
1571.787932
 30
0.0
  0
POINT
  5
7F68
  8
DEFPOINTS
  6
CONTINUOUS
 62
     0
 10
830.4042649999999
 20
1571.787932
 30
0.0
  0
ENDBLK
  5
7E61
  8
0
  0
BLOCK
  8
0
  2
*D6
 70
     1
 10
0.0
 20
0.0
 30
0.0
  3
*D6
  1

  0
LINE
  5
7F69
  8
3
  6
CONTINUOUS
 62
     0
 10
1026.858684
 20
1571.787932
 30
0.0
 11
809.81006800000011
 21
1571.787932
 31
0.0
  0
LINE
  5
7F6A
  8
3
  6
CONTINUOUS
 62
     0
 10
1026.858684
 20
1484.787932
 30
0.0
 11
809.81006800000011
 21
1484.787932
 31
0.0
  0
LINE
  5
7F6B
  8
3
  6
CONTINUOUS
 62
     0
 10
829.81006800000023
 20
1611.787932
 30
0.0
 11
829.81006800000023
 21
1651.787931999999
 31
0.0
  0
LINE
  5
7F6C
  8
3
  6
CONTINUOUS
 62
     0
 10
829.81006800000023
 20
1444.787932
 30
0.0
 11
829.81006800000011
 21
1267.6450748571431
 31
0.0
  0
LINE
  5
7F6D
  8
3
  6
CONTINUOUS
 62
     0
 10
829.81006800000023
 20
1571.787932
 30
0.0
 11
829.81006800000023
 21
1484.787932
 31
0.0
  0
INSERT
  5
7F6E
  8
3
  6
CONTINUOUS
 62
     0
  2
_OPEN
 10
829.81006800000023
 20
1571.787932
 30
0.0
 41
40.0
 42
40.0
 43
40.0
 50
270.0
  0
INSERT
  5
7F6F
  8
3
  6
CONTINUOUS
 62
     0
  2
_OPEN
 10
829.81006800000023
 20
1484.787932
 30
0.0
 41
40.0
 42
40.0
 43
40.0
 50
90.0
  0
TEXT
  8
3
  40
60
  5
7FD0
  62
0
  72
0
  71
0
 10
659.810
 20
1230.02
 30
0.000000
  1
87
  0
POINT
  5
7F71
  8
DEFPOINTS
  6
CONTINUOUS
 62
     0
 10
1036.858684
 20
1571.787932
 30
0.0
  0
POINT
  5
7F72
  8
DEFPOINTS
  6
CONTINUOUS
 62
     0
 10
1036.858684
 20
1484.787932
 30
0.0
  0
POINT
  5
7F73
  8
DEFPOINTS
  6
CONTINUOUS
 62
     0
 10
829.81006800000023
 20
1484.787932
 30
0.0
  0
ENDBLK
  5
7DF8
  8
0
  0
BLOCK
  8
0
  2
*D7
 70
     1
 10
0.0
 20
0.0
 30
0.0
  3
*D7
  1

  0
LINE
  5
7F74
  8
3
  6
CONTINUOUS
 62
     0
 10
1313.858684
 20
2531.7879320000002
 30
0.0
 11
642.98640000000034
 21
2531.7879320000002
 31
0.0
  0
LINE
  5
7F75
  8
3
  6
CONTINUOUS
 62
     0
 10
1026.858684
 20
1484.787932
 30
0.0
 11
642.98640000000023
 21
1484.787932
 31
0.0
  0
LINE
  5
7F76
  8
3
  6
CONTINUOUS
 62
     0
 10
662.98640000000034
 20
2491.7879320000011
 30
0.0
 11
662.98640000000023
 21
1524.787931999999
 31
0.0
  0
INSERT
  5
7F77
  8
3
  6
CONTINUOUS
 62
     0
  2
_OPEN
 10
662.98640000000034
 20
2531.7879320000002
 30
0.0
 41
40.0
 42
40.0
 43
40.0
 50
90.0
  0
INSERT
  5
7F78
  8
3
  6
CONTINUOUS
 62
     0
  2
_OPEN
 10
662.98640000000023
 20
1484.787932
 30
0.0
 41
40.0
 42
40.0
 43
40.0
 50
270.0
  0
TEXT
  8
3
  40
60
  5
7FD1
  62
0
  72
0
  71
0
 10
492.986
 20
1887.30
 30
0.000000
  1
1047
  0
POINT
  5
7F7A
  8
DEFPOINTS
  6
CONTINUOUS
 62
     0
 10
1323.858684
 20
2531.7879320000002
 30
0.0
  0
POINT
  5
7F7B
  8
DEFPOINTS
  6
CONTINUOUS
 62
     0
 10
1036.858684
 20
1484.787932
 30
0.0
  0
POINT
  5
7F7C
  8
DEFPOINTS
  6
CONTINUOUS
 62
     0
 10
662.98640000000023
 20
1484.787932
 30
0.0
  0
ENDBLK
  5
7BFD
  8
0
  0
BLOCK
  8
0
  2
*D8
 70
     1
 10
0.0
 20
0.0
 30
0.0
  3
*D8
  1

  0
LINE
  5
7F7D
  8
3
  6
CONTINUOUS
 62
     0
 10
1036.858684
 20
1474.787931999999
 30
0.0
 11
1036.858684
 21
1302.33967816892
 31
0.0
  0
LINE
  5
7F7E
  8
3
  6
CONTINUOUS
 62
     0
 10
1381.858684
 20
1386.5639935741799
 30
0.0
 11
1381.858684
 21
1302.33967816892
 31
0.0
  0
LINE
  5
7F7F
  8
3
  6
CONTINUOUS
 62
     0
 10
1076.858684
 20
1322.33967816892
 30
0.0
 11
1341.858684
 21
1322.33967816892
 31
0.0
  0
INSERT
  5
7F80
  8
3
  6
CONTINUOUS
 62
     0
  2
_OPEN
 10
1036.858684
 20
1322.33967816892
 30
0.0
 41
40.0
 42
40.0
 43
40.0
 50
180.0
  0
INSERT
  5
7F81
  8
3
  6
CONTINUOUS
 62
     0
  2
_OPEN
 10
1381.858684
 20
1322.33967816892
 30
0.0
 41
40.0
 42
40.0
 43
40.0
  0
TEXT
  8
3
  40
60
  5
7FD2
  62
0
  72
0
  71
0
 10
1086.83
 20
1266.14
 30
0.000000
  1
345
  0
POINT
  5
7F83
  8
DEFPOINTS
  6
CONTINUOUS
 62
     0
 10
1036.858684
 20
1484.787932
 30
0.0
  0
POINT
  5
7F84
  8
DEFPOINTS
  6
CONTINUOUS
 62
     0
 10
1381.858684
 20
1396.5639935741799
 30
0.0
  0
POINT
  5
7F85
  8
DEFPOINTS
  6
CONTINUOUS
 62
     0
 10
1381.858684
 20
1322.33967816892
 30
0.0
  0
ENDBLK
  5
7E37
  8
0
  0
BLOCK
  8
0
  2
*D9
 70
     1
 10
0.0
 20
0.0
 30
0.0
  3
*D9
  1

  0
LINE
  5
7F86
  8
3
  6
CONTINUOUS
 62
     0
 10
2286.8586839999989
 20
1474.787931999999
 30
0.0
 11
2286.8586839999989
 21
1302.33967816892
 31
0.0
  0
LINE
  5
7F87
  8
3
  6
CONTINUOUS
 62
     0
 10
1421.858684
 20
1322.33967816892
 30
0.0
 11
2246.8586839999989
 21
1322.33967816892
 31
0.0
  0
INSERT
  5
7F88
  8
3
  6
CONTINUOUS
 62
     0
  2
_OPEN
 10
1381.858684
 20
1322.33967816892
 30
0.0
 41
40.0
 42
40.0
 43
40.0
 50
180.0
  0
INSERT
  5
7F89
  8
3
  6
CONTINUOUS
 62
     0
  2
_OPEN
 10
2286.8586839999989
 20
1322.33967816892
 30
0.0
 41
40.0
 42
40.0
 43
40.0
  0
TEXT
  8
3
  40
60
  5
7FD3
  62
0
  72
0
  71
0
 10
1714.36
 20
1266.14
 30
0.000000
  1
905
  0
POINT
  5
7F8B
  8
DEFPOINTS
  6
CONTINUOUS
 62
     0
 10
1381.858684
 20
1387.6386563806479
 30
0.0
  0
POINT
  5
7F8C
  8
DEFPOINTS
  6
CONTINUOUS
 62
     0
 10
2286.8586839999989
 20
1484.787932
 30
0.0
  0
POINT
  5
7F8D
  8
DEFPOINTS
  6
CONTINUOUS
 62
     0
 10
2286.8586839999989
 20
1322.33967816892
 30
0.0
  0
ENDBLK
  5
7E2C
  8
0
  0
BLOCK
  8
0
  2
*D10
 70
     1
 10
0.0
 20
0.0
 30
0.0
  3
*D10
  1

  0
LINE
  5
7F8E
  8
3
  6
CONTINUOUS
 62
     0
 10
3360.807397
 20
2421.7879320000002
 30
0.0
 11
3538.1829189999999
 21
2421.7879320000002
 31
0.0
  0
LINE
  5
7F8F
  8
3
  6
CONTINUOUS
 62
     0
 10
3360.807397
 20
1831.787932
 30
0.0
 11
3538.1829189999999
 21
1831.787932
 31
0.0
  0
LINE
  5
7F90
  8
3
  6
CONTINUOUS
 62
     0
 10
3518.1829189999999
 20
2381.7879320000002
 30
0.0
 11
3518.1829189999999
 21
1871.787932
 31
0.0
  0
INSERT
  5
7F91
  8
3
  6
CONTINUOUS
 62
     0
  2
_OPEN
 10
3518.1829189999999
 20
2421.7879320000002
 30
0.0
 41
40.0
 42
40.0
 43
40.0
 50
90.0
  0
INSERT
  5
7F92
  8
3
  6
CONTINUOUS
 62
     0
  2
_OPEN
 10
3518.1829189999999
 20
1831.787932
 30
0.0
 41
40.0
 42
40.0
 43
40.0
 50
270.0
  0
TEXT
  8
3
  40
60
  5
7FD4
  62
0
  72
0
  71
0
 10
3348.18
 20
2018.61
 30
0.000000
  1
φ590
  0
POINT
  5
7F94
  8
DEFPOINTS
  6
CONTINUOUS
 62
     0
 10
3350.807397
 20
2421.7879320000002
 30
0.0
  0
POINT
  5
7F95
  8
DEFPOINTS
  6
CONTINUOUS
 62
     0
 10
3350.807397
 20
1831.787932
 30
0.0
  0
POINT
  5
7F96
  8
DEFPOINTS
  6
CONTINUOUS
 62
     0
 10
3518.1829189999999
 20
1831.787932
 30
0.0
  0
ENDBLK
  5
7DDE
  8
0
  0
BLOCK
  8
0
  2
*D11
 70
     1
 10
0.0
 20
0.0
 30
0.0
  3
*D11
  1

  0
LINE
  5
7DB5
  8
0
  6
BYBLOCK
 62
     0
 10
3352.807397
 20
2456.7879320000002
 30
0.0
 11
3352.807397
 21
2778.6608550000001
 31
0.0
  0
LINE
  5
7DB6
  8
0
  6
BYBLOCK
 62
     0
 10
3140.807397
 20
2734.425381
 30
0.0
 11
3140.807397
 21
2778.6608550000001
 31
0.0
  0
LINE
  5
7DB7
  8
0
  6
BYBLOCK
 62
     0
 10
3312.807397
 20
2758.6608550000001
 30
0.0
 11
3180.807397
 21
2758.6608550000001
 31
0.0
  0
TEXT
  5
7DB8
  8
3
 62
     0
 10
3175.378825571428
 20
2786.388401024305
 30
0.0
 40
60.0
  1
212
  0
INSERT
  5
7DB9
  8
0
  6
BYBLOCK
 62
     0
  2
_OPEN
 10
3352.807397
 20
2758.6608550000001
 30
0.0
 41
40.0
 42
40.0
 43
40.0
  0
INSERT
  5
7DBA
  8
0
  6
BYBLOCK
 62
     0
  2
_OPEN
 10
3140.807397
 20
2758.6608550000001
 30
0.0
 41
40.0
 42
40.0
 43
40.0
 50
180.0
  0
POINT
  5
7DBB
  8
DEFPOINTS
  6
BYBLOCK
 62
     0
 10
3352.807397
 20
2446.7879320000002
 30
0.0
  0
POINT
  5
7DBC
  8
DEFPOINTS
  6
BYBLOCK
 62
     0
 10
3140.807397
 20
2724.425381
 30
0.0
  0
POINT
  5
7DBD
  8
DEFPOINTS
  6
BYBLOCK
 62
     0
 10
3140.807397
 20
2758.6608550000001
 30
0.0
  0
ENDBLK
  5
7DBE
  8
0
  0
BLOCK
  8
0
  2
*D12
 70
     1
 10
0.0
 20
0.0
 30
0.0
  3
*D12
  1

  0
LINE
  5
7F97
  8
3
  6
CONTINUOUS
 62
     0
 10
2730.807397
 20
2496.7879320000002
 30
0.0
 11
2730.807397
 21
2778.6608550000001
 31
0.0
  0
LINE
  5
7F98
  8
3
  6
CONTINUOUS
 62
     0
 10
3100.807397
 20
2758.6608550000001
 30
0.0
 11
2770.807397
 21
2758.6608550000001
 31
0.0
  0
INSERT
  5
7F99
  8
3
  6
CONTINUOUS
 62
     0
  2
_OPEN
 10
3140.807397
 20
2758.6608550000001
 30
0.0
 41
40.0
 42
40.0
 43
40.0
  0
INSERT
  5
7F9A
  8
3
  6
CONTINUOUS
 62
     0
  2
_OPEN
 10
2730.807397
 20
2758.6608550000001
 30
0.0
 41
40.0
 42
40.0
 43
40.0
 50
180.0
  0
TEXT
  8
3
  40
60
  5
7FD5
  62
0
  72
0
  71
0
 10
2815.81
 20
2752.46
 30
0.000000
  1
MAX
  0
TEXT
  8
3
  40
60
  5
7FD6
  62
0
  72
0
  71
0
 10
2815.81
 20
2674.46
 30
0.000000
  1
470
  0
POINT
  5
7F9C
  8
DEFPOINTS
  6
CONTINUOUS
 62
     0
 10
3140.807397
 20
2724.425381
 30
0.0
  0
POINT
  5
7F9D
  8
DEFPOINTS
  6
CONTINUOUS
 62
     0
 10
2730.807397
 20
2486.7879320000002
 30
0.0
  0
POINT
  5
7F9E
  8
DEFPOINTS
  6
CONTINUOUS
 62
     0
 10
2730.807397
 20
2758.6608550000001
 30
0.0
  0
ENDBLK
  5
7DD3
  8
0
  0
BLOCK
  8
0
  2
*D13
 70
     1
 10
0.0
 20
0.0
 30
0.0
  3
*D13
  1

  0
LINE
  5
7E39
  8
0
  6
BYBLOCK
 62
     0
 10
2885.807397
 20
1474.787931999999
 30
0.0
 11
2885.807397
 21
1287.90986
 31
0.0
  0
LINE
  5
7E3A
  8
0
  6
BYBLOCK
 62
     0
 10
3140.807397
 20
1372.0898927091739
 30
0.0
 11
3140.807397
 21
1287.90986
 31
0.0
  0
LINE
  5
7E3B
  8
0
  6
BYBLOCK
 62
     0
 10
2925.807397
 20
1307.90986
 30
0.0
 11
3100.807397
 21
1307.90986
 31
0.0
  0
TEXT
  5
7E3C
  8
3
 62
     0
 10
2936.1645398571418
 20
1326.345550698039
 30
0.0
 40
60.0
  1
255
  0
INSERT
  5
7E3D
  8
0
  6
BYBLOCK
 62
     0
  2
_OPEN
 10
2885.807397
 20
1307.90986
 30
0.0
 41
40.0
 42
40.0
 43
40.0
 50
180.0
  0
INSERT
  5
7E3E
  8
0
  6
BYBLOCK
 62
     0
  2
_OPEN
 10
3140.807397
 20
1307.90986
 30
0.0
 41
40.0
 42
40.0
 43
40.0
  0
POINT
  5
7E3F
  8
DEFPOINTS
  6
BYBLOCK
 62
     0
 10
2885.807397
 20
1484.787932
 30
0.0
  0
POINT
  5
7E40
  8
DEFPOINTS
  6
BYBLOCK
 62
     0
 10
3140.807397
 20
1382.0898927091739
 30
0.0
  0
POINT
  5
7E41
  8
DEFPOINTS
  6
BYBLOCK
 62
     0
 10
3140.807397
 20
1307.90986
 30
0.0
  0
ENDBLK
  5
7E42
  8
0
  0
BLOCK
  8
0
  2
*D14
 70
     1
 10
0.0
 20
0.0
 30
0.0
  3
*D14
  1

  0
LINE
  5
7F9F
  8
3
  6
CONTINUOUS
 62
     0
 10
3395.807397
 20
1474.787931999999
 30
0.0
 11
3395.807397
 21
1287.90986
 31
0.0
  0
LINE
  5
7FA0
  8
3
  6
CONTINUOUS
 62
     0
 10
3180.807397
 20
1307.90986
 30
0.0
 11
3355.807397
 21
1307.90986
 31
0.0
  0
TEXT
  8
3
  40
60
  5
7FD7
  62
0
  72
0
  71
0
 10
3173.80
 20
1251.51
 30
0.000000
  1
255
  0
INSERT
  5
7FA2
  8
3
  6
CONTINUOUS
 62
     0
  2
_OPEN
 10
3140.807397
 20
1307.90986
 30
0.0
 41
40.0
 42
40.0
 43
40.0
 50
180.0
  0
INSERT
  5
7FA3
  8
3
  6
CONTINUOUS
 62
     0
  2
_OPEN
 10
3395.807397
 20
1307.90986
 30
0.0
 41
40.0
 42
40.0
 43
40.0
  0
POINT
  5
7FA4
  8
DEFPOINTS
  6
CONTINUOUS
 62
     0
 10
3140.807397
 20
1375.013649559565
 30
0.0
  0
POINT
  5
7FA5
  8
DEFPOINTS
  6
CONTINUOUS
 62
     0
 10
3395.807397
 20
1484.787932
 30
0.0
  0
POINT
  5
7FA6
  8
DEFPOINTS
  6
CONTINUOUS
 62
     0
 10
3395.807397
 20
1307.90986
 30
0.0
  0
ENDBLK
  5
7E4C
  8
0
  0
BLOCK
  8
0
  2
*D15
 70
     1
 10
0.0
 20
0.0
 30
0.0
  3
*D15
  1

  0
LINE
  5
7FA7
  8
3
  6
CONTINUOUS
 62
     0
 10
1036.858684
 20
3991.7879320000002
 30
0.0
 11
1036.858684
 21
4184.8238460000002
 31
0.0
  0
LINE
  5
7FA8
  8
3
  6
CONTINUOUS
 62
     0
 10
2286.8586839999989
 20
3991.7879320000002
 30
0.0
 11
2286.8586839999989
 21
4184.8238460000002
 31
0.0
  0
LINE
  5
7FA9
  8
3
  6
CONTINUOUS
 62
     0
 10
1076.858684
 20
4164.8238459999993
 30
0.0
 11
2246.8586839999989
 21
4164.8238459999993
 31
0.0
  0
INSERT
  5
7FAA
  8
3
  6
CONTINUOUS
 62
     0
  2
_OPEN
 10
1036.858684
 20
4164.8238459999993
 30
0.0
 41
40.0
 42
40.0
 43
40.0
 50
180.0
  0
INSERT
  5
7FAB
  8
3
  6
CONTINUOUS
 62
     0
  2
_OPEN
 10
2286.8586839999989
 20
4164.8238459999993
 30
0.0
 41
40.0
 42
40.0
 43
40.0
  0
TEXT
  8
3
  40
60
  5
7FD8
  62
0
  72
0
  71
0
 10
1486.48
 20
4108.62
 30
0.000000
  1
1250
  0
POINT
  5
7FAD
  8
DEFPOINTS
  6
CONTINUOUS
 62
     0
 10
1036.858684
 20
3981.7879320000002
 30
0.0
  0
POINT
  5
7FAE
  8
DEFPOINTS
  6
CONTINUOUS
 62
     0
 10
2286.8586839999989
 20
3981.7879320000002
 30
0.0
  0
POINT
  5
7FAF
  8
DEFPOINTS
  6
CONTINUOUS
 62
     0
 10
2286.8586839999989
 20
4164.8238459999993
 30
0.0
  0
ENDBLK
  5
7D08
  8
0
  0
BLOCK
  8
0
  2
*D16
 70
     1
 10
0.0
 20
0.0
 30
0.0
  3
*D16
  1

  0
LINE
  5
7FB0
  8
3
  6
CONTINUOUS
 62
     0
 10
2296.8586839999989
 20
3981.7879320000002
 30
0.0
 11
2501.4339519999999
 21
3981.7879320000002
 31
0.0
  0
LINE
  5
7FB1
  8
3
  6
CONTINUOUS
 62
     0
 10
2296.8586839999989
 20
3471.7879320000002
 30
0.0
 11
2501.4339519999999
 21
3471.7879320000002
 31
0.0
  0
LINE
  5
7FB2
  8
3
  6
CONTINUOUS
 62
     0
 10
2481.4339519999999
 20
3941.7879320000002
 30
0.0
 11
2481.4339519999999
 21
3511.7879320000002
 31
0.0
  0
INSERT
  5
7FB3
  8
3
  6
CONTINUOUS
 62
     0
  2
_OPEN
 10
2481.4339519999999
 20
3981.7879320000002
 30
0.0
 41
40.0
 42
40.0
 43
40.0
 50
90.0
  0
INSERT
  5
7FB4
  8
3
  6
CONTINUOUS
 62
     0
  2
_OPEN
 10
2481.4339519999999
 20
3471.7879320000002
 30
0.0
 41
40.0
 42
40.0
 43
40.0
 50
270.0
  0
TEXT
  8
3
  40
60
  5
7FD9
  62
0
  72
0
  71
0
 10
2311.43
 20
3630.89
 30
0.000000
  1
510
  0
POINT
  5
7FB6
  8
DEFPOINTS
  6
CONTINUOUS
 62
     0
 10
2286.8586839999989
 20
3981.7879320000002
 30
0.0
  0
POINT
  5
7FB7
  8
DEFPOINTS
  6
CONTINUOUS
 62
     0
 10
2286.8586839999989
 20
3471.7879320000002
 30
0.0
  0
POINT
  5
7FB8
  8
DEFPOINTS
  6
CONTINUOUS
 62
     0
 10
2481.4339519999999
 20
3471.7879320000002
 30
0.0
  0
ENDBLK
  5
7D13
  8
0
  0
BLOCK
  8
0
  2
*D17
 70
     1
 10
0.0
 20
0.0
 30
0.0
  3
*D17
  1

  0
LINE
  5
7FB9
  8
3
  6
CONTINUOUS
 62
     0
 10
2930.807397
 20
2541.7879320000002
 30
0.0
 11
2930.807397
 21
2647.8045969999998
 31
0.0
  0
LINE
  5
7FBA
  8
3
  6
CONTINUOUS
 62
     0
 10
3350.807397
 20
2541.7879320000002
 30
0.0
 11
3350.807397
 21
2647.8045969999998
 31
0.0
  0
LINE
  5
7FBB
  8
3
  6
CONTINUOUS
 62
     0
 10
2970.807397
 20
2627.8045969999989
 30
0.0
 11
3310.807397
 21
2627.8045969999989
 31
0.0
  0
INSERT
  5
7FBC
  8
3
  6
CONTINUOUS
 62
     0
  2
_OPEN
 10
2930.807397
 20
2627.8045969999989
 30
0.0
 41
40.0
 42
40.0
 43
40.0
 50
180.0
  0
INSERT
  5
7FBD
  8
3
  6
CONTINUOUS
 62
     0
  2
_OPEN
 10
3350.807397
 20
2627.8045969999989
 30
0.0
 41
40.0
 42
40.0
 43
40.0
  0
TEXT
  8
3
  40
60
  5
7FDA
  62
0
  72
0
  71
0
 10
3001.51
 20
2571.60
 30
0.000000
  1
420
  0
POINT
  5
7FBF
  8
DEFPOINTS
  6
CONTINUOUS
 62
     0
 10
2930.807397
 20
2531.7879320000002
 30
0.0
  0
POINT
  5
7FC0
  8
DEFPOINTS
  6
CONTINUOUS
 62
     0
 10
3350.807397
 20
2531.7879320000002
 30
0.0
  0
POINT
  5
7FC1
  8
DEFPOINTS
  6
CONTINUOUS
 62
     0
 10
3350.807397
 20
2627.8045969999989
 30
0.0
  0
ENDBLK
  5
7D7A
  8
0
  0
BLOCK
  8
0
  2
*D18
 70
     1
 10
0.0
 20
0.0
 30
0.0
  3
*D18
  1

  0
LINE
  5
7FC2
  8
3
 62
     0
 10
971.85868400000004
 20
2496.7879320000002
 30
0.0
 11
971.85868400000004
 21
2935.447349501997
 31
0.0
  0
LINE
  5
7FC3
  8
3
 62
     0
 10
2286.8586839999989
 20
1661.787932
 30
0.0
 11
2286.8586839999989
 21
2935.447349501997
 31
0.0
  0
LINE
  5
7FC4
  8
3
 62
     0
 10
1011.858684
 20
2915.447349501997
 30
0.0
 11
2246.8586839999989
 21
2915.447349501997
 31
0.0
  0
INSERT
  5
7FC5
  8
3
 62
     0
  2
_OPEN
 10
971.85868400000004
 20
2915.447349501997
 30
0.0
 41
40.0
 42
40.0
 43
40.0
 50
180.0
  0
INSERT
  5
7FC6
  8
3
 62
     0
  2
_OPEN
 10
2286.8586839999989
 20
2915.447349501997
 30
0.0
 41
40.0
 42
40.0
 43
40.0
  0
TEXT
  8
3
  40
60
  5
7FDB
  62
0
  72
0
  71
0
 10
1544.98
 20
2859.25
 30
0.000000
  1
1315
  0
POINT
  5
7FC8
  8
DEFPOINTS
 62
     0
 10
971.85868400000004
 20
2486.7879320000002
 30
0.0
  0
POINT
  5
7FC9
  8
DEFPOINTS
 62
     0
 10
2286.8586839999989
 20
1651.787931999999
 30
0.0
  0
POINT
  5
7FCA
  8
DEFPOINTS
 62
     0
 10
2286.8586839999989
 20
2915.447349501997
 30
0.0
  0
ENDBLK
  5
7DEA
  8
0
  0
ENDSEC
  0
SECTION
  2
ENTITIES
  0
LINE
  5
7ABF
  8
1
  6
CONTINUOUS
 10
2057.4047249999999
 20
1768.198269
 30
0.0
 11
1346.9244570000001
 21
2033.0884129999999
 31
0.0
  0
LINE
  5
7AC0
  8
1
  6
CONTINUOUS
 10
2111.4181480000002
 20
1897.2405759999999
 30
0.0
 11
1424.0864899999999
 21
2217.4345669999998
 31
0.0
  0
LINE
  5
7AC1
  8
1
  6
CONTINUOUS
 10
1397.858684
 20
3471.7879320000002
 30
0.0
 11
2062.8586839999989
 21
3471.7879320000002
 31
0.0
  0
LINE
  5
7AC2
  8
1
  6
CONTINUOUS
 10
2223.8586839999998
 20
3490.5257649999999
 30
0.0
 11
1939.858684
 21
3490.5257649999999
 31
0.0
  0
LINE
  5
7AC3
  8
1
  6
CONTINUOUS
 10
2223.8586839999998
 20
3890.5257649999999
 30
0.0
 11
1939.858684
 21
3890.5257649999999
 31
0.0
  0
LINE
  5
7AC4
  8
1
  6
CONTINUOUS
 10
1036.858684
 20
3981.7879320000002
 30
0.0
 11
2286.8586839999989
 21
3981.7879320000002
 31
0.0
  0
LINE
  5
7AC5
  8
1
  6
CONTINUOUS
 10
1111.358684
 20
3316.7879320000002
 30
0.0
 11
2241.3586839999989
 21
3316.7879320000002
 31
0.0
  0
LINE
  5
7AC6
  8
1
  6
CONTINUOUS
 10
1111.358684
 20
3436.7879320000002
 30
0.0
 11
2241.3586839999989
 21
3436.7879320000002
 31
0.0
  0
LINE
  5
7AC7
  8
1
  6
CONTINUOUS
 10
1021.858684
 20
1651.787931999999
 30
0.0
 11
2286.8586839999989
 21
1651.787931999999
 31
0.0
  0
ARC
  5
7AC8
  8
1
  6
CONTINUOUS
 10
2081.8586839999989
 20
1833.787931999999
 30
0.0
 40
142.0
 50
324.59875699999998
 51
215.40124299999999
  0
LINE
  5
7AC9
  8
1
  6
CONTINUOUS
 10
1381.358684
 20
2486.7879320000002
 30
0.0
 11
2241.3586839999989
 21
1881.787931999999
 31
0.0
  0
LINE
  5
7ACA
  8
1
  6
CONTINUOUS
 10
1036.858684
 20
1571.787932
 30
0.0
 11
2286.8586839999989
 21
1571.787932
 31
0.0
  0
ARC
  5
7ACB
  8
1
  6
CONTINUOUS
 10
1418.858684
 20
2163.7879320000002
 30
0.0
 40
501.36713099999992
 50
264.95754899999997
 51
355.7678259999999
  0
LINE
  5
7ACC
  8
1
  6
CONTINUOUS
 10
1333.858684
 20
2531.7879320000002
 30
0.0
 11
1947.858684
 21
2531.7879320000002
 31
0.0
  0
LINE
  5
7ACD
  8
1
  6
CONTINUOUS
 10
1036.858684
 20
1484.787932
 30
0.0
 11
2286.8586839999989
 21
1484.787932
 31
0.0
  0
LINE
  5
7ACE
  8
1
  6
CONTINUOUS
 10
1036.858684
 20
1549.787932
 30
0.0
 11
2286.8586839999989
 21
1549.787932
 31
0.0
  0
LINE
  5
7ACF
  8
1
  6
CONTINUOUS
 10
1111.358684
 20
2401.7879320000002
 30
0.0
 11
1381.358684
 21
2486.7879320000002
 31
0.0
  0
CIRCLE
  5
7AD0
  8
1
  6
CONTINUOUS
 10
1381.858684
 20
2126.7879320000002
 30
0.0
 40
295.0
  0
LINE
  5
7AD1
  8
2
  6
CENTER
 10
910.75211915836201
 20
2126.7879320000002
 30
0.0
 11
2118.6311335047349
 21
2126.7879320000002
 31
0.0
  0
CIRCLE
  5
7AD2
  8
1
  6
CONTINUOUS
 10
1381.858684
 20
2126.7879320000002
 30
0.0
 40
100.0
  0
CIRCLE
  5
7AD3
  8
1
  6
CONTINUOUS
 10
1381.858684
 20
2126.7879320000002
 30
0.0
 40
320.0
  0
LINE
  5
7AD4
  8
1
  6
CONTINUOUS
 10
1791.858684
 20
1651.787931999999
 30
0.0
 11
971.85868400000004
 21
1651.787931999999
 31
0.0
  0
LINE
  5
7AD5
  8
1
  6
CONTINUOUS
 10
1791.858684
 20
2486.7879320000002
 30
0.0
 11
971.85868400000004
 21
2486.7879320000002
 31
0.0
  0
ARC
  5
7AD6
  8
1
  6
CONTINUOUS
 10
1357.8586839999989
 20
2102.7879320000002
 30
0.0
 40
377.65927299999993
 50
89.544856999999993
 51
172.74680499999991
  0
ARC
  5
7AD7
  8
1
  6
CONTINUOUS
 10
1412.858684
 20
2095.7879320000002
 30
0.0
 40
433.10293799999999
 50
172.74680499999991
 51
264.95754899999997
  0
LINE
  5
7AD8
  8
1
  6
CONTINUOUS
 10
1111.358684
 20
1651.787931999999
 30
0.0
 11
1111.358684
 21
2401.7879320000002
 31
0.0
  0
LINE
  5
7AD9
  8
1
  6
CONTINUOUS
 10
971.85868400000004
 20
2486.7879320000002
 30
0.0
 11
971.85868400000004
 21
1651.787931999999
 31
0.0
  0
LINE
  5
7ADA
  8
1
  6
CONTINUOUS
 10
1036.858684
 20
1651.787931999999
 30
0.0
 11
1036.858684
 21
1571.787932
 31
0.0
  0
LINE
  5
7ADB
  8
1
  6
CONTINUOUS
 10
1036.858684
 20
1549.787932
 30
0.0
 11
1036.858684
 21
1484.787932
 31
0.0
  0
LINE
  5
7ADC
  8
2
  6
CENTER
 10
1381.858684
 20
4120.9558470000002
 30
0.0
 11
1381.858684
 21
3232.182714
 31
0.0
  0
LINE
  5
7ADD
  8
1
  6
CONTINUOUS
 10
1791.858684
 20
2486.7879320000002
 30
0.0
 11
1791.858684
 21
1651.787931999999
 31
0.0
  0
LINE
  5
7ADE
  8
1
  6
CONTINUOUS
 10
1360.858684
 20
2506.7879320000002
 30
0.0
 11
1920.735226999999
 21
2506.7879320000002
 31
0.0
  0
LINE
  5
7ADF
  8
1
  6
CONTINUOUS
 10
1360.858684
 20
2480.435289
 30
0.0
 11
1360.858684
 21
2531.7879320000002
 31
0.0
  0
LINE
  5
7AE0
  8
1
  6
CONTINUOUS
 10
1920.858684
 20
2531.7879320000002
 30
0.0
 11
1918.8586839999989
 21
2126.7879320000002
 31
0.0
  0
LINE
  5
7AE1
  8
1
  6
CONTINUOUS
 10
1061.858684
 20
3938.7879320000002
 30
0.0
 11
1701.858684
 21
3938.7879320000002
 31
0.0
  0
LINE
  5
7AE2
  8
1
  6
CONTINUOUS
 10
1481.858684
 20
3346.7879320000002
 30
0.0
 11
1281.858684
 21
3346.7879320000002
 31
0.0
  0
LINE
  5
7AE3
  8
1
  6
CONTINUOUS
 10
1481.858684
 20
3406.7879320000002
 30
0.0
 11
1281.858684
 21
3406.7879320000002
 31
0.0
  0
LINE
  5
7AE4
  8
1
  6
CONTINUOUS
 10
1036.858684
 20
3471.7879320000002
 30
0.0
 11
1365.8586839999989
 21
3471.7879320000002
 31
0.0
  0
LINE
  5
7AE5
  8
1
  6
CONTINUOUS
 10
971.85868400000004
 20
3936.7879320000002
 30
0.0
 11
1920.858684
 21
3936.7879320000002
 31
0.0
  0
LINE
  5
7AE6
  8
1
  6
CONTINUOUS
 10
971.85868400000004
 20
3516.7879320000002
 30
0.0
 11
1920.858684
 21
3516.7879320000002
 31
0.0
  0
LINE
  5
7AE7
  8
1
  6
CONTINUOUS
 10
971.85868400000004
 20
3516.7879320000002
 30
0.0
 11
971.85868400000004
 21
3936.7879320000002
 31
0.0
  0
LINE
  5
7AE8
  8
1
  6
CONTINUOUS
 10
1111.358684
 20
3316.7879320000002
 30
0.0
 11
1111.358684
 21
3436.7879320000002
 31
0.0
  0
LINE
  5
7AE9
  8
1
  6
CONTINUOUS
 10
1281.858684
 20
3346.7879320000002
 30
0.0
 11
1281.858684
 21
3406.7879320000002
 31
0.0
  0
LINE
  5
7AEA
  8
1
  6
CONTINUOUS
 10
1036.858684
 20
3516.7879320000002
 30
0.0
 11
1036.858684
 21
3471.7879320000002
 31
0.0
  0
LINE
  5
7AEB
  8
1
  6
CONTINUOUS
 10
1061.858684
 20
3936.7879320000002
 30
0.0
 11
1061.858684
 21
3938.7879320000002
 31
0.0
  0
LINE
  5
7AEC
  8
1
  6
CONTINUOUS
 10
1036.858684
 20
3981.7879320000002
 30
0.0
 11
1036.858684
 21
3936.7879320000002
 31
0.0
  0
LINE
  5
7AED
  8
1
  6
CONTINUOUS
 10
1920.858684
 20
3936.7879320000002
 30
0.0
 11
1920.858684
 21
3516.7879320000002
 31
0.0
  0
LINE
  5
7AEE
  8
1
  6
CONTINUOUS
 10
1360.858684
 20
3936.7879320000002
 30
0.0
 11
1360.858684
 21
3516.7879320000002
 31
0.0
  0
LINE
  5
7AEF
  8
1
  6
CONTINUOUS
 10
1920.858684
 20
3936.7879320000002
 30
0.0
 11
1360.858684
 21
3516.7879320000002
 31
0.0
  0
LINE
  5
7AF0
  8
1
  6
CONTINUOUS
 10
1360.858684
 20
3936.7879320000002
 30
0.0
 11
1920.858684
 21
3516.7879320000002
 31
0.0
  0
LINE
  5
7AF1
  8
1
  6
CONTINUOUS
 10
1397.858684
 20
3516.7879320000002
 30
0.0
 11
1397.858684
 21
3406.7879320000002
 31
0.0
  0
LINE
  5
7AF2
  8
1
  6
CONTINUOUS
 10
1365.8586839999989
 20
3516.7879320000002
 30
0.0
 11
1365.8586839999989
 21
3406.7879320000002
 31
0.0
  0
LINE
  5
7AF3
  8
1
  6
CONTINUOUS
 10
1481.858684
 20
3346.7879320000002
 30
0.0
 11
1481.858684
 21
3406.7879320000002
 31
0.0
  0
LINE
  5
7AF4
  8
1
  6
CONTINUOUS
 10
1939.858684
 20
3890.5257649999999
 30
0.0
 11
1939.858684
 21
3490.5257649999999
 31
0.0
  0
LINE
  5
7AF5
  8
1
  6
CONTINUOUS
 10
1701.858684
 20
3936.7879320000002
 30
0.0
 11
1701.858684
 21
3938.7879320000002
 31
0.0
  0
LINE
  5
7AF8
  8
1
  6
CONTINUOUS
 10
3395.807397
 20
1651.787931999999
 30
0.0
 11
2730.807397
 21
1651.787931999999
 31
0.0
  0
LINE
  5
7AF9
  8
1
  6
CONTINUOUS
 10
2760.807397
 20
1763.787932
 30
0.0
 11
2820.807397
 21
1763.787932
 31
0.0
  0
LINE
  5
7AFA
  8
1
  6
CONTINUOUS
 10
2760.807397
 20
1903.787932
 30
0.0
 11
2820.807397
 21
1903.787932
 31
0.0
  0
LINE
  5
7AFB
  8
1
  6
CONTINUOUS
 10
2760.807397
 20
2026.787931999999
 30
0.0
 11
2820.807397
 21
2026.787931999999
 31
0.0
  0
LINE
  5
7AFC
  8
1
  6
CONTINUOUS
 10
2760.807397
 20
2226.7879320000002
 30
0.0
 11
2820.807397
 21
2226.7879320000002
 31
0.0
  0
LINE
  5
7AFD
  8
1
  6
CONTINUOUS
 10
2730.807397
 20
2486.7879320000002
 30
0.0
 11
2850.807397
 21
2486.7879320000002
 31
0.0
  0
LINE
  5
7B08
  8
1
  6
CONTINUOUS
 10
1951.858684
 20
1651.787931999999
 30
0.0
 11
1951.858684
 21
1716.787932
 31
0.0
  0
LINE
  5
7B09
  8
1
  6
CONTINUOUS
 10
2211.8586839999998
 20
1651.787931999999
 30
0.0
 11
2211.8586839999998
 21
1716.787932
 31
0.0
  0
LINE
  5
7B0A
  8
1
  6
CONTINUOUS
 10
2241.3586839999989
 20
1651.787931999999
 30
0.0
 11
2241.3586839999989
 21
1881.787931999999
 31
0.0
  0
LINE
  5
7B0B
  8
1
  6
CONTINUOUS
 10
2211.8586839999998
 20
1651.787931999999
 30
0.0
 11
1951.858684
 21
1651.787931999999
 31
0.0
  0
LINE
  5
7B0C
  8
2
  6
CENTER
 10
2151.8586839999998
 20
1833.787931999999
 30
0.0
 11
2011.858684
 21
1833.787931999999
 31
0.0
  0
CIRCLE
  5
7B0D
  8
1
  6
CONTINUOUS
 10
2081.8586839999989
 20
1833.787931999999
 30
0.0
 40
70.0
  0
LINE
  5
7B0E
  8
2
  6
CENTER
 10
2081.8586839999989
 20
1763.787932
 30
0.0
 11
2081.8586839999989
 21
1903.787932
 31
0.0
  0
LINE
  5
7B0F
  8
1
  6
CONTINUOUS
 10
1951.858684
 20
1716.787932
 30
0.0
 11
1966.1123209999989
 21
1751.5274949999989
 31
0.0
  0
LINE
  5
7B10
  8
1
  6
CONTINUOUS
 10
2211.8586839999998
 20
1716.787932
 30
0.0
 11
2197.605047
 21
1751.5274949999989
 31
0.0
  0
LINE
  5
7B11
  8
1
  6
CONTINUOUS
 10
2286.8586839999989
 20
1651.787931999999
 30
0.0
 11
2286.8586839999989
 21
1571.787932
 31
0.0
  0
LINE
  5
7B12
  8
1
  6
CONTINUOUS
 10
2286.8586839999989
 20
1549.787932
 30
0.0
 11
2286.8586839999989
 21
1484.787932
 31
0.0
  0
LINE
  5
7B30
  8
1
  6
CONTINUOUS
 10
2760.807397
 20
2226.7879320000002
 30
0.0
 11
2760.807397
 21
2026.787931999999
 31
0.0
  0
LINE
  5
7B31
  8
1
  6
CONTINUOUS
 10
2730.807397
 20
1651.787931999999
 30
0.0
 11
2730.807397
 21
2486.7879320000002
 31
0.0
  0
LINE
  5
7B34
  8
1
  6
CONTINUOUS
 10
2760.807397
 20
1903.787932
 30
0.0
 11
2760.807397
 21
1763.787932
 31
0.0
  0
LINE
  5
7B3D
  8
1
  6
CONTINUOUS
 10
2286.8586839999989
 20
3981.7879320000002
 30
0.0
 11
2286.8586839999989
 21
3471.7879320000002
 31
0.0
  0
LINE
  5
7B3E
  8
1
  6
CONTINUOUS
 10
2100.8586839999989
 20
3471.7879320000002
 30
0.0
 11
2286.8586839999989
 21
3471.7879320000002
 31
0.0
  0
LINE
  5
7B3F
  8
1
  6
CONTINUOUS
 10
2100.8586839999989
 20
3406.7879320000002
 30
0.0
 11
2100.8586839999989
 21
3490.5257649999999
 31
0.0
  0
LINE
  5
7B40
  8
1
  6
CONTINUOUS
 10
2062.8586839999989
 20
3406.7879320000002
 30
0.0
 11
2062.8586839999989
 21
3490.5257649999999
 31
0.0
  0
LINE
  5
7B41
  8
1
  6
CONTINUOUS
 10
2151.8586839999998
 20
3406.7879320000002
 30
0.0
 11
2011.858684
 21
3406.7879320000002
 31
0.0
  0
LINE
  5
7B42
  8
1
  6
CONTINUOUS
 10
2151.8586839999998
 20
3346.7879320000002
 30
0.0
 11
2011.858684
 21
3346.7879320000002
 31
0.0
  0
LINE
  5
7B43
  8
1
  6
CONTINUOUS
 10
2011.858684
 20
3346.7879320000002
 30
0.0
 11
2011.858684
 21
3406.7879320000002
 31
0.0
  0
LINE
  5
7B44
  8
1
  6
CONTINUOUS
 10
2241.3586839999989
 20
3316.7879320000002
 30
0.0
 11
2241.3586839999989
 21
3436.7879320000002
 31
0.0
  0
LINE
  5
7B45
  8
1
  6
CONTINUOUS
 10
2151.8586839999998
 20
3346.7879320000002
 30
0.0
 11
2151.8586839999998
 21
3406.7879320000002
 31
0.0
  0
LINE
  5
7B46
  8
1
  6
CONTINUOUS
 10
2223.8586839999998
 20
3890.5257649999999
 30
0.0
 11
2223.8586839999998
 21
3490.5257649999999
 31
0.0
  0
LINE
  5
7B64
  8
1
  6
CONTINUOUS
 10
3350.807397
 20
1651.787931999999
 30
0.0
 11
3350.807397
 21
2531.7879320000002
 31
0.0
  0
LINE
  5
7B65
  8
1
  6
CONTINUOUS
 10
2930.807397
 20
1651.787931999999
 30
0.0
 11
2930.807397
 21
2531.7879320000002
 31
0.0
  0
LINE
  5
7B66
  8
1
  6
CONTINUOUS
 10
2820.807397
 20
2226.7879320000002
 30
0.0
 11
2820.807397
 21
2026.787931999999
 31
0.0
  0
LINE
  5
7B67
  8
1
  6
CONTINUOUS
 10
2850.807397
 20
1651.787931999999
 30
0.0
 11
2850.807397
 21
2486.7879320000002
 31
0.0
  0
LINE
  5
7B68
  8
1
  6
CONTINUOUS
 10
3352.807397
 20
1806.787931999999
 30
0.0
 11
3352.807397
 21
2446.7879320000002
 31
0.0
  0
LINE
  5
7B69
  8
1
  6
CONTINUOUS
 10
3395.807397
 20
1484.787932
 30
0.0
 11
2885.807397
 21
1484.787932
 31
0.0
  0
LINE
  5
7B6A
  8
1
  6
CONTINUOUS
 10
3395.807397
 20
1549.787932
 30
0.0
 11
2885.807397
 21
1549.787932
 31
0.0
  0
LINE
  5
7B6B
  8
1
  6
CONTINUOUS
 10
3395.807397
 20
1571.787932
 30
0.0
 11
2885.807397
 21
1571.787932
 31
0.0
  0
LINE
  5
7B6C
  8
1
  6
CONTINUOUS
 10
2885.807397
 20
1484.787932
 30
0.0
 11
2885.807397
 21
1549.787932
 31
0.0
  0
LINE
  5
7B6D
  8
1
  6
CONTINUOUS
 10
2885.807397
 20
1571.787932
 30
0.0
 11
2885.807397
 21
1651.787931999999
 31
0.0
  0
LINE
  5
7B6E
  8
1
  6
CONTINUOUS
 10
2820.807397
 20
1903.787932
 30
0.0
 11
2820.807397
 21
1763.787932
 31
0.0
  0
LINE
  5
7B6F
  8
1
  6
CONTINUOUS
 10
2820.807397
 20
1817.787931999999
 30
0.0
 11
2930.807397
 21
1817.787931999999
 31
0.0
  0
LINE
  5
7B70
  8
1
  6
CONTINUOUS
 10
2820.807397
 20
1849.787931999999
 30
0.0
 11
2930.807397
 21
1849.787931999999
 31
0.0
  0
LINE
  5
7B71
  8
1
  6
CONTINUOUS
 10
3395.807397
 20
1484.787932
 30
0.0
 11
3395.807397
 21
1549.787932
 31
0.0
  0
LINE
  5
7B72
  8
1
  6
CONTINUOUS
 10
3395.807397
 20
1571.787932
 30
0.0
 11
3395.807397
 21
1651.787931999999
 31
0.0
  0
LINE
  5
7B73
  8
1
  6
CONTINUOUS
 10
3350.807397
 20
1806.787931999999
 30
0.0
 11
3352.807397
 21
1806.787931999999
 31
0.0
  0
LINE
  5
7B74
  8
1
  6
CONTINUOUS
 10
2903.8073969999991
 20
2531.7879320000002
 30
0.0
 11
3377.807397
 21
2531.7879320000002
 31
0.0
  0
LINE
  5
7B75
  8
1
  6
CONTINUOUS
 10
2930.807397
 20
2506.7879320000002
 30
0.0
 11
3350.807397
 21
2506.7879320000002
 31
0.0
  0
LINE
  5
7B76
  8
1
  6
CONTINUOUS
 10
2930.807397
 20
2110.7879320000002
 30
0.0
 11
2820.807397
 21
2110.7879320000002
 31
0.0
  0
LINE
  5
7B77
  8
1
  6
CONTINUOUS
 10
2930.807397
 20
2142.7879320000002
 30
0.0
 11
2820.807397
 21
2142.7879320000002
 31
0.0
  0
LINE
  5
7B78
  8
1
  6
CONTINUOUS
 10
3350.807397
 20
2446.7879320000002
 30
0.0
 11
3352.807397
 21
2446.7879320000002
 31
0.0
  0
LINE
  5
7B79
  8
2
  6
CENTER
 10
3140.807397
 20
2615.03962
 30
0.0
 11
3140.807397
 21
1375.2260397186801
 31
0.0
  0
LINE
  5
7B7A
  8
2
  6
CENTER
 10
913.59344248309208
 20
3726.7879320000002
 30
0.0
 11
2371.1006790000001
 21
3726.7879320000002
 31
0.0
  0
LINE
  5
7B7B
  8
2
  6
CENTER
 10
1381.858684
 20
2645.1845499999999
 30
0.0
 11
1381.858684
 21
1396.403794565716
 31
0.0
  0
LINE
  5
7B7C
  8
2
  6
CENTER
 10
2649.6646978762692
 20
2126.7879320000002
 30
0.0
 11
3411.0615590000002
 21
2126.7879320000002
 31
0.0
  0
LINE
  5
7B7D
  8
4
  6
CONTINUOUS
 10
3700.0
 20
1000.0
 30
0.0
 11
3700.0
 21
600.0
 31
0.0
  0
LINE
  5
7B7E
  8
4
  6
CONTINUOUS
 10
2300.0
 20
1000.0
 30
0.0
 11
2300.0
 21
600.0
 31
0.0
  0
LINE
  5
7B7F
  8
4
  6
CONTINUOUS
 10
1300.0
 20
1000.0
 30
0.0
 11
1300.0
 21
600.0
 31
0.0
  0
LINE
  5
7B82
  8
4
  6
CONTINUOUS
 10
1300.0
 20
600.0
 30
0.0
 11
3700.0
 21
600.0
 31
0.0
  0
LINE
  5
7B83
  8
4
  6
CONTINUOUS
 10
1300.0
 20
800.0
 30
0.0
 11
3700.0
 21
800.0
 31
0.0
  0
TEXT
  5
7B84
  8
4
  6
CONTINUOUS
 10
1377.004162
 20
863.086052
 30
0.0
 40
100.0
  1
機器名称
  0
TEXT
  5
7B85
  8
4
  6
CONTINUOUS
 10
1372.516212
 20
643.29031299999986
 30
0.0
 40
100.0
  1
機器型番
  0
TEXT
  5
7B86
  8
4
  6
CONTINUOUS
 10
2355.3574910000002
 20
845.14353800000015
 30
0.0
 40
100.0
  1
ミツヤ多翼送風機
  0
TEXT
  5
7B87
  8
4
  6
CONTINUOUS
 10
2373.3089909999999
 20
634.31916899999999
 30
0.0
 40
100.0
  1
MFE#3 1/2-4
  0
TEXT
  5
7B89
  8
4
  6
CONTINUOUS
 10
1569.8179090000001
 20
4766.8576830000002
 30
0.0
 40
108.0
  1
床置防振ベット
  0
TEXT
  5
7B8A
  8
4
  6
CONTINUOUS
 10
632.33518700000002
 20
5067.7619520000007
 30
0.0
 40
144.0
  1
ベルト駆動式片吸込両持排煙ファン
  0
LINE
  5
7B8B
  8
4
  6
CONTINUOUS
 10
500.0
 20
4938.8175090000004
 30
0.0
 11
3700.0
 21
4938.8175090000004
 31
0.0
  0
LINE
  5
7B8C
  8
4
  6
CONTINUOUS
 10
500.0
 20
5338.8175090000004
 30
0.0
 11
3700.0
 21
5338.8175090000004
 31
0.0
  0
LINE
  5
7B8D
  8
4
  6
CONTINUOUS
 10
1300.0
 20
1000.0
 30
0.0
 11
3700.0
 21
1000.0
 31
0.0
  0
LINE
  5
7B8E
  8
4
  6
CONTINUOUS
 10
500.0
 20
5338.8175090000004
 30
0.0
 11
500.0
 21
4938.8175090000004
 31
0.0
  0
TEXT
  5
7B8F
  8
4
  6
CONTINUOUS
 10
698.10024400000009
 20
4764.6389549999994
 30
0.0
 40
108.0
  1
左回転上向
  0
TEXT
  5
7B90
  8
4
  6
CONTINUOUS
 10
2937.9391179999998
 20
5412.122163
 30
0.0
 40
112.0
  1
No.
  0
TEXT
  5
7B91
  8
4
  6
CONTINUOUS
 10
2622.5921250000001
 20
4766.8576830000002
 30
0.0
 40
108.0
  1
縮尺：1/20
  0
LINE
  5
7B92
  8
4
  6
CONTINUOUS
 10
3700.0
 20
5338.8175090000004
 30
0.0
 11
3700.0
 21
4938.8175090000004
 31
0.0
  0
LINE
  5
7B94
  8
4
  6
CONTINUOUS
 10
2881.234845
 20
5362.5271659999999
 30
0.0
 11
2881.234845
 21
5573.3045229999998
 31
0.0
  0
LINE
  5
7B95
  8
4
  6
CONTINUOUS
 10
2881.234845
 20
5573.3045229999998
 30
0.0
 11
3700.0
 21
5573.3045229999998
 31
0.0
  0
LINE
  5
7B96
  8
4
  6
CONTINUOUS
 10
3700.0
 20
5573.3045229999998
 30
0.0
 11
3700.0
 21
5362.5271659999999
 31
0.0
  0
LINE
  5
7B97
  8
4
  6
CONTINUOUS
 10
3700.0
 20
5362.5271659999999
 30
0.0
 11
2881.234845
 21
5362.5271659999999
 31
0.0
  0
DIMENSION
  5
7BAF
  8
3
  6
CONTINUOUS
  2
*D1
 10
1360.858684
 20
2657.7178389999999
 30
0.0
 11
1622.9586739999991
 21
2657.7178389999999
 31
0.0
 70
   128
 13
1920.858684
 23
2531.7879320000002
 33
0.0
 14
1360.858684
 24
2531.7879320000002
 34
0.0
1001
ACAD
1000
DSTYLE
1002
{
1070
   287
1070
     3
1070
   287
1070
     3
1070
    40
1040
20.0
1070
   143
1040
0.039
1070
   172
1070
     1
1070
   271
1070
     0
1070
   279
1070
     0
1070
   288
1070
     1
1002
}
  0
DIMENSION
  5
7BBC
  8
3
  6
CONTINUOUS
  2
*D2
 10
1381.858684
 20
2785.3203020000001
 30
0.0
 11
1622.9586739999991
 21
2785.3203020000001
 31
0.0
 70
   128
 13
1920.858684
 23
2531.7879320000002
 33
0.0
 14
1381.858684
 24
2645.1845499999999
 34
0.0
1001
ACAD
1000
DSTYLE
1002
{
1070
   287
1070
     3
1070
   287
1070
     3
1070
    40
1040
20.0
1070
   143
1040
0.039
1070
   172
1070
     1
1070
   271
1070
     0
1070
   279
1070
     0
1070
   288
1070
     1
1002
}
  0
DIMENSION
  5
7BC8
  8
3
  6
CONTINUOUS
  2
*D3
 10
971.85868400000004
 20
2785.3203020000001
 30
0.0
 11
1176.858684
 21
2835.3203020000001
 31
0.0
 70
     0
 13
1381.858684
 23
2645.1845499999999
 33
0.0
 14
971.85868400000004
 24
2486.7879320000002
 34
0.0
1001
ACAD
1000
DSTYLE
1002
{
1070
   287
1070
     4
1070
   287
1070
     4
1070
    40
1040
20.0
1070
    75
1070
     1
1070
   143
1040
0.039
1070
   172
1070
     1
1070
   271
1070
     0
1070
   279
1070
     1
1070
   288
1070
     1
1002
}
  0
DIMENSION
  5
7BD5
  8
3
  6
CONTINUOUS
  2
*D4
 10
830.40426500000035
 20
2126.7879320000002
 30
0.0
 11
830.4042649999999
 21
2298.0973800000002
 31
0.0
 70
   128
 13
1333.858684
 23
2531.7879320000002
 33
0.0
 14
910.75211915836201
 24
2126.7879320000002
 34
0.0
 50
90.0
1001
ACAD
1000
DSTYLE
1002
{
1070
   287
1070
     3
1070
   287
1070
     3
1070
    40
1040
20.0
1070
   143
1040
0.039
1070
   172
1070
     1
1070
   271
1070
     0
1070
   279
1070
     0
1070
   288
1070
     1
1002
}
  0
DIMENSION
  5
7BE1
  8
3
  6
CONTINUOUS
  2
*D5
 10
830.4042649999999
 20
1571.787932
 30
0.0
 11
780.40426499999967
 21
1849.287932
 31
0.0
 70
     0
 13
910.75211915836201
 23
2126.7879320000002
 33
0.0
 14
1036.858684
 24
1571.787932
 34
0.0
 50
90.0
1001
ACAD
1000
DSTYLE
1002
{
1070
   287
1070
     4
1070
   287
1070
     4
1070
    40
1040
20.0
1070
    75
1070
     1
1070
   143
1040
0.039
1070
   172
1070
     1
1070
   271
1070
     0
1070
   279
1070
     1
1070
   288
1070
     1
1002
}
  0
DIMENSION
  5
7BF1
  8
3
  6
CONTINUOUS
  2
*D6
 10
829.81006800000023
 20
1484.787932
 30
0.0
 11
829.81006800000011
 21
1336.216503428572
 31
0.0
 70
   128
 13
1036.858684
 23
1571.787932
 33
0.0
 14
1036.858684
 24
1484.787932
 34
0.0
 50
90.0
1001
ACAD
1000
DSTYLE
1002
{
1070
   287
1070
     3
1070
   287
1070
     3
1070
    40
1040
20.0
1070
   143
1040
0.039
1070
   172
1070
     1
1070
   271
1070
     0
1070
   279
1070
     0
1070
   288
1070
     1
1002
}
  0
DIMENSION
  5
7BFE
  8
3
  6
CONTINUOUS
  2
*D7
 10
662.98640000000023
 20
1484.787932
 30
0.0
 11
662.9864
 21
1993.4979510000001
 31
0.0
 70
   128
 13
1323.858684
 23
2531.7879320000002
 33
0.0
 14
1036.858684
 24
1484.787932
 34
0.0
 50
90.0
1001
ACAD
1000
DSTYLE
1002
{
1070
   287
1070
     3
1070
   287
1070
     3
1070
    40
1040
20.0
1070
   143
1040
0.039
1070
   172
1070
     1
1070
   271
1070
     0
1070
   279
1070
     0
1070
   288
1070
     1
1002
}
  0
DIMENSION
  5
7C0B
  8
3
  6
CONTINUOUS
  2
*D8
 10
1381.858684
 20
1322.33967816892
 30
0.0
 11
1206.8333640000001
 21
1322.33967816892
 31
0.0
 70
   128
 13
1036.858684
 23
1484.787932
 33
0.0
 14
1381.858684
 24
1396.5639935741799
 34
0.0
1001
ACAD
1000
DSTYLE
1002
{
1070
   287
1070
     3
1070
   287
1070
     3
1070
    40
1040
20.0
1070
   143
1040
0.039
1070
   172
1070
     1
1070
   271
1070
     0
1070
   279
1070
     0
1070
   288
1070
     1
1002
}
  0
DIMENSION
  5
7C17
  8
3
  6
CONTINUOUS
  2
*D9
 10
2286.8586839999989
 20
1322.33967816892
 30
0.0
 11
1834.3586839999989
 21
1372.33967816892
 31
0.0
 70
     0
 13
1381.858684
 23
1387.6386563806479
 33
0.0
 14
2286.8586839999989
 24
1484.787932
 34
0.0
1001
ACAD
1000
DSTYLE
1002
{
1070
   287
1070
     4
1070
   287
1070
     4
1070
    40
1040
20.0
1070
    75
1070
     1
1070
   143
1040
0.039
1070
   172
1070
     1
1070
   271
1070
     0
1070
   279
1070
     1
1070
   288
1070
     1
1002
}
  0
DIMENSION
  5
7C33
  8
3
  6
CONTINUOUS
  2
*D10
 10
3518.1829189999999
 20
1831.787932
 30
0.0
 11
3518.1829189999999
 21
2124.811177999999
 31
0.0
 70
   128
 13
3350.807397
 23
2421.7879320000002
 33
0.0
 14
3350.807397
 24
1831.787932
 34
0.0
 50
90.0
1001
ACAD
1000
DSTYLE
1002
{
1070
   287
1070
     3
1070
   287
1070
     3
1070
     3
1000
φ<>
1070
    40
1040
20.0
1070
   143
1040
0.039
1070
   172
1070
     1
1070
   271
1070
     0
1070
   279
1070
     0
1070
   288
1070
     1
1002
}
  0
DIMENSION
  5
7C42
  8
3
  6
CONTINUOUS
  2
*D11
 10
3140.807397
 20
2758.6608550000001
 30
0.0
 11
3246.8073969999991
 21
2816.388401024305
 31
0.0
 70
   128
 13
3352.807397
 23
2446.7879320000002
 33
0.0
 14
3140.807397
 24
2724.425381
 34
0.0
1001
ACAD
1000
DSTYLE
1002
{
1070
   288
1070
     1
1070
   172
1070
     1
1070
    40
1040
20.0
1070
   271
1070
     0
1070
   143
1040
0.039
1002
}
  0
DIMENSION
  5
7C4E
  8
3
  6
CONTINUOUS
  2
*D12
 10
2730.807397
 20
2758.6608550000001
 30
0.0
 11
2935.8073969999991
 21
2858.6608550000001
 31
0.0
 70
     0
  1
MAX\P470
 13
3140.807397
 23
2724.425381
 33
0.0
 14
2730.807397
 24
2486.7879320000002
 34
0.0
1001
ACAD
1000
DSTYLE
1002
{
1070
   287
1070
     4
1070
   287
1070
     4
1070
    40
1040
20.0
1070
    75
1070
     1
1070
   143
1040
0.039
1070
   172
1070
     1
1070
   271
1070
     0
1070
   279
1070
     1
1070
   288
1070
     1
1002
}
  0
DIMENSION
  5
7C5D
  8
3
  6
CONTINUOUS
  2
*D13
 10
3140.807397
 20
1307.90986
 30
0.0
 11
3013.307397
 21
1356.345550698039
 31
0.0
 70
   128
 13
2885.807397
 23
1484.787932
 33
0.0
 14
3140.807397
 24
1382.0898927091739
 34
0.0
1001
ACAD
1000
DSTYLE
1002
{
1070
   288
1070
     1
1070
   172
1070
     1
1070
    40
1040
20.0
1070
   271
1070
     0
1070
   143
1040
0.039
1002
}
  0
DIMENSION
  5
7C6B
  8
3
  6
CONTINUOUS
  2
*D14
 10
3395.807397
 20
1307.90986
 30
0.0
 11
3293.7958519999988
 21
1307.711579
 31
0.0
 70
   128
 13
3140.807397
 23
1375.013649559565
 33
0.0
 14
3395.807397
 24
1484.787932
 34
0.0
1001
ACAD
1000
DSTYLE
1002
{
1070
   287
1070
     4
1070
   287
1070
     4
1070
    40
1040
20.0
1070
    75
1070
     1
1070
   143
1040
0.039
1070
   172
1070
     1
1070
   271
1070
     0
1070
   279
1070
     1
1070
   288
1070
     1
1002
}
  0
DIMENSION
  5
7C78
  8
3
  6
CONTINUOUS
  2
*D15
 10
2286.8586839999989
 20
4164.8238459999993
 30
0.0
 11
1606.4784629999999
 21
4164.8238459999993
 31
0.0
 70
   128
 13
1036.858684
 23
3981.7879320000002
 33
0.0
 14
2286.8586839999989
 24
3981.7879320000002
 34
0.0
1001
ACAD
1000
DSTYLE
1002
{
1070
   287
1070
     3
1070
   287
1070
     3
1070
    40
1040
20.0
1070
   143
1040
0.039
1070
   172
1070
     1
1070
   271
1070
     0
1070
   279
1070
     0
1070
   288
1070
     1
1002
}
  0
DIMENSION
  5
7C85
  8
3
  6
CONTINUOUS
  2
*D16
 10
2481.4339519999999
 20
3471.7879320000002
 30
0.0
 11
2481.4339519999999
 21
3737.0868119999991
 31
0.0
 70
   128
 13
2286.8586839999989
 23
3981.7879320000002
 33
0.0
 14
2286.8586839999989
 24
3471.7879320000002
 34
0.0
 50
90.0
1001
ACAD
1000
DSTYLE
1002
{
1070
   287
1070
     3
1070
   287
1070
     3
1070
    40
1040
20.0
1070
   143
1040
0.039
1070
   172
1070
     1
1070
   271
1070
     0
1070
   279
1070
     0
1070
   288
1070
     1
1002
}
  0
DIMENSION
  5
7D7B
  8
3
  6
CONTINUOUS
  2
*D17
 10
3350.807397
 20
2627.8045969999989
 30
0.0
 11
3121.5086620000002
 21
2627.8045969999989
 31
0.0
 70
   128
 13
2930.807397
 23
2531.7879320000002
 33
0.0
 14
3350.807397
 24
2531.7879320000002
 34
0.0
1001
ACAD
1000
DSTYLE
1002
{
1070
   287
1070
     3
1070
   287
1070
     3
1070
    40
1040
20.0
1070
   143
1040
0.039
1070
   172
1070
     1
1070
   271
1070
     0
1070
   279
1070
     0
1070
   288
1070
     1
1002
}
  0
DIMENSION
  5
7DEB
  8
3
  2
*D18
 10
2286.8586839999989
 20
2915.447349501997
 30
0.0
 11
1664.9845771738219
 21
2915.447349501997
 31
0.0
 70
   128
 13
971.85868400000004
 23
2486.7879320000002
 33
0.0
 14
2286.8586839999989
 24
1651.787931999999
 34
0.0
1001
ACAD
1000
DSTYLE
1002
{
1070
   287
1070
     3
1070
   287
1070
     3
1070
    40
1040
20.0
1070
   143
1040
0.039
1070
   172
1070
     1
1070
   271
1070
     0
1070
   279
1070
     0
1070
   288
1070
     1
1002
}
  0
ENDSEC
  0
EOF
