  0
SECTION
  2
HEADER
  9
$ACADVER
  1
AC1009
  9
$INSBASE
 10
0.0
 20
0.0
 30
0.0
  9
$EXTMIN
 10
500.0
 20
600.0
 30
0.0
  9
$EXTMAX
 10
3700.0
 20
5573.3045229999998
 30
0.0
  9
$LIMMIN
 10
0.0
 20
0.0
  9
$LIMMAX
 10
297.0
 20
210.0
  9
$ORTHOMODE
 70
     0
  9
$REGENMODE
 70
     1
  9
$FILLMODE
 70
     0
  9
$QTEXTMODE
 70
     0
  9
$MIRRTEXT
 70
     1
  9
$DRAGMODE
 70
     2
  9
$LTSCALE
 40
100.0
  9
$OSMODE
 70
    37
  9
$ATTMODE
 70
     1
  9
$TEXTSIZE
 40
180.0
  9
$TRACEWID
 40
0.05
  9
$TEXTSTYLE
  7
STANDARD
  9
$CLAYER
  8
3
  9
$CELTYPE
  6
BYLAYER
  9
$CECOLOR
 62
   256
  9
$DIMSCALE
 40
20.0
  9
$DIMASZ
 40
2.0
  9
$DIMEXO
 40
0.5
  9
$DIMDLI
 40
10.0
  9
$DIMRND
 40
0.0
  9
$DIMDLE
 40
0.0
  9
$DIMEXE
 40
1.0
  9
$DIMTP
 40
1.0
  9
$DIMTM
 40
1.0
  9
$DIMTXT
 40
3.0
  9
$DIMCEN
 40
0.0
  9
$DIMTSZ
 40
0.0
  9
$DIMTOL
 70
     0
  9
$DIMLIM
 70
     0
  9
$DIMTIH
 70
     0
  9
$DIMTOH
 70
     0
  9
$DIMSE1
 70
     0
  9
$DIMSE2
 70
     0
  9
$DIMTAD
 70
     1
  9
$DIMZIN
 70
     8
  9
$DIMBLK
  1

  9
$DIMASO
 70
     1
  9
$DIMSHO
 70
     1
  9
$DIMPOST
  1

  9
$DIMAPOST
  1

  9
$DIMALT
 70
     0
  9
$DIMALTD
 70
     2
  9
$DIMALTF
 40
0.039
  9
$DIMLFAC
 40
1.0
  9
$DIMTOFL
 70
     1
  9
$DIMTVP
 40
0.0
  9
$DIMTIX
 70
     0
  9
$DIMSOXD
 70
     0
  9
$DIMSAH
 70
     1
  9
$DIMBLK1
  1
OPEN
  9
$DIMBLK2
  1
OPEN
  9
$DIMSTYLE
  2
IGA
  9
$DIMCLRD
 70
     0
  9
$DIMCLRE
 70
     0
  9
$DIMCLRT
 70
     0
  9
$DIMTFAC
 40
10.0
  9
$DIMGAP
 40
1.0
  9
$LUNITS
 70
     2
  9
$LUPREC
 70
     3
  9
$SKETCHINC
 40
0.1
  9
$FILLETRAD
 40
50.0
  9
$AUNITS
 70
     0
  9
$AUPREC
 70
     0
  9
$MENU
  1
acad
  9
$ELEVATION
 40
0.0
  9
$PELEVATION
 40
0.0
  9
$THICKNESS
 40
0.0
  9
$LIMCHECK
 70
     0
  9
$BLIPMODE
 70
     0
  9
$CHAMFERA
 40
0.5
  9
$CHAMFERB
 40
0.5
  9
$SKPOLY
 70
     0
  9
$TDCREATE
 40
2450736.5743171289
  9
$TDUPDATE
 40
2454953.8370612031
  9
$TDINDWG
 40
0.0083680093
  9
$TDUSRTIMER
 40
0.0083680093
  9
$USRTIMER
 70
     1
  9
$ANGBASE
 50
0.0
  9
$ANGDIR
 70
     0
  9
$PDMODE
 70
     0
  9
$PDSIZE
 40
0.0
  9
$PLINEWID
 40
0.0
  9
$COORDS
 70
     1
  9
$SPLFRAME
 70
     0
  9
$SPLINETYPE
 70
     6
  9
$SPLINESEGS
 70
     8
  9
$ATTDIA
 70
     0
  9
$ATTREQ
 70
     1
  9
$HANDLING
 70
 10241
  9
$HANDSEED
  5
7F03
  9
$SURFTAB1
 70
     6
  9
$SURFTAB2
 70
     6
  9
$SURFTYPE
 70
     6
  9
$SURFU
 70
     6
  9
$SURFV
 70
     6
  9
$UCSNAME
  2

  9
$UCSORG
 10
0.0
 20
0.0
 30
0.0
  9
$UCSXDIR
 10
1.0
 20
0.0
 30
0.0
  9
$UCSYDIR
 10
0.0
 20
1.0
 30
0.0
  9
$PUCSNAME
  2

  9
$PUCSORG
 10
0.0
 20
0.0
 30
0.0
  9
$PUCSXDIR
 10
1.0
 20
0.0
 30
0.0
  9
$PUCSYDIR
 10
0.0
 20
1.0
 30
0.0
  9
$USERI1
 70
     0
  9
$USERI2
 70
     0
  9
$USERI3
 70
     0
  9
$USERI4
 70
     0
  9
$USERI5
 70
     0
  9
$USERR1
 40
0.0
  9
$USERR2
 40
0.0
  9
$USERR3
 40
0.0
  9
$USERR4
 40
0.0
  9
$USERR5
 40
0.0
  9
$WORLDVIEW
 70
     1
  9
$SHADEDGE
 70
     3
  9
$SHADEDIF
 70
    70
  9
$TILEMODE
 70
     1
  9
$MAXACTVP
 70
    16
  9
$PLIMCHECK
 70
     0
  9
$PEXTMIN
 10
1.0000000000000000E+020
 20
1.0000000000000000E+020
 30
1.0000000000000000E+020
  9
$PEXTMAX
 10
-1.0000000000000000E+020
 20
-1.0000000000000000E+020
 30
-1.0000000000000000E+020
  9
$PLIMMIN
 10
0.0
 20
0.0
  9
$PLIMMAX
 10
12.0
 20
9.0
  9
$UNITMODE
 70
     0
  9
$VISRETAIN
 70
     0
  9
$PLINEGEN
 70
     0
  9
$PSLTSCALE
 70
     1
  0
ENDSEC
  0
SECTION
  2
TABLES
  0
TABLE
  2
VPORT
 70
     2
  0
VPORT
  2
*ACTIVE
 70
     0
 10
0.0
 20
0.0
 11
1.0
 21
1.0
 12
5785.5237100498898
 22
3984.1840116337362
 13
0.0
 23
0.0
 14
10.0
 24
10.0
 15
10.0
 25
10.0
 16
0.0
 26
0.0
 36
1.0
 17
0.0
 27
0.0
 37
0.0
 40
7720.8617819453802
 41
1.5051150895140659
 42
50.0
 43
0.0
 44
0.0
 50
0.0
 51
0.0
 71
     0
 72
   100
 73
     1
 74
     0
 75
     0
 76
     0
 77
     0
 78
     0
  0
ENDTAB
  0
TABLE
  2
LTYPE
 70
     2
  0
LTYPE
  2
CONTINUOUS
 70
     0
  3
Solid line
 72
    65
 73
     0
 40
0.0
  0
LTYPE
  2
CENTER
 70
     0
  3
____ _ ____ _ ____ _ ____ _ ____ _ ____ _ ____ 
 72
    65
 73
     4
 40
2.0
 49
1.25
 49
-0.25
 49
0.25
 49
-0.25
  0
ENDTAB
  0
TABLE
  2
LAYER
 70
     6
  0
LAYER
  2
0
 70
     0
 62
     7
  6
CONTINUOUS
  0
LAYER
  2
3
 70
     0
 62
     2
  6
CONTINUOUS
  0
LAYER
  2
2
 70
     0
 62
     3
  6
CENTER
  0
LAYER
  2
1
 70
     0
 62
     4
  6
CONTINUOUS
  0
LAYER
  2
4
 70
     0
 62
     7
  6
CONTINUOUS
  0
LAYER
  2
DEFPOINTS
 70
     0
 62
     7
  6
CONTINUOUS
  0
ENDTAB
  0
TABLE
  2
STYLE
 70
     1
  0
STYLE
  2
STANDARD
 70
     0
 40
0.0
 41
1.0
 50
0.0
 71
     0
 42
180.0
  3
simplex.shx
  4
extfont.shx
  0
ENDTAB
  0
TABLE
  2
VIEW
 70
     0
  0
ENDTAB
  0
TABLE
  2
UCS
 70
     0
  0
ENDTAB
  0
TABLE
  2
APPID
 70
     1
  0
APPID
  2
ACAD
 70
     0
  0
ENDTAB
  0
TABLE
  2
DIMSTYLE
 70
     1
  0
DIMSTYLE
  2
IGA
 70
     0
  3

  4

  5

  6
OPEN
  7
OPEN
 40
2.0
 41
2.0
 42
0.5
 43
10.0
 44
1.0
 45
0.0
 46
0.0
 47
1.0
 48
1.0
140
3.0
141
0.0
142
0.0
143
0.03937
144
1.0
145
0.0
146
10.0
147
1.0
 71
     0
 72
     0
 73
     0
 74
     0
 75
     0
 76
     0
 77
     1
 78
     8
170
     0
171
     2
172
     0
173
     1
174
     0
175
     0
176
     0
177
     0
178
     0
  0
ENDTAB
  0
ENDSEC
  0
SECTION
  2
BLOCKS
  0
BLOCK
  8
0
  2
$MODEL_SPACE
 70
     0
 10
0.0
 20
0.0
 30
0.0
  3
$MODEL_SPACE
  1

  0
ENDBLK
  5
1B
  8
0
  0
BLOCK
 67
     1
  8
0
  2
$PAPER_SPACE
 70
     0
 10
0.0
 20
0.0
 30
0.0
  3
$PAPER_SPACE
  1

  0
ENDBLK
  5
18
 67
     1
  8
0
  0
BLOCK
  8
0
  2
_OPEN
 70
     0
 10
0.0
 20
0.0
 30
0.0
  3
_OPEN
  1

  0
LINE
  5
7B74
  8
0
  6
BYBLOCK
 62
     0
 10
-1.0
 20
0.166667
 30
0.0
 11
0.0
 21
0.0
 31
0.0
  0
LINE
  5
7B75
  8
0
  6
BYBLOCK
 62
     0
 10
0.0
 20
0.0
 30
0.0
 11
-1.0
 21
-0.166667
 31
0.0
  0
LINE
  5
7B76
  8
0
  6
BYBLOCK
 62
     0
 10
0.0
 20
0.0
 30
0.0
 11
-1.0
 21
0.0
 31
0.0
  0
ENDBLK
  5
7B77
  8
0
  0
BLOCK
  8
0
  2
*D1
 70
     1
 10
0.0
 20
0.0
 30
0.0
  3
*D1
  1

  0
LINE
  5
7E67
  8
3
  6
CONTINUOUS
 62
     0
 10
1231.850021
 20
2192.4976150000002
 30
0.0
 11
1129.85166
 21
2192.4976150000002
 31
0.0
  0
LINE
  5
7E68
  8
3
  6
CONTINUOUS
 62
     0
 10
1231.850021
 20
1632.497615
 30
0.0
 11
1129.85166
 21
1632.497615
 31
0.0
  0
LINE
  5
7E69
  8
3
  6
CONTINUOUS
 62
     0
 10
1149.85166
 20
2152.4976149999989
 30
0.0
 11
1149.85166
 21
1672.497615
 31
0.0
  0
INSERT
  5
7E6A
  8
3
  6
CONTINUOUS
 62
     0
  2
_OPEN
 10
1149.85166
 20
2192.4976150000002
 30
0.0
 41
40.0
 42
40.0
 43
40.0
 50
90.0
  0
INSERT
  5
7E6B
  8
3
  6
CONTINUOUS
 62
     0
  2
_OPEN
 10
1149.85166
 20
1632.497615
 30
0.0
 41
40.0
 42
40.0
 43
40.0
 50
270.0
  0
TEXT
  8
3
  40
60
  5
7EF2
  62
0
  72
0
  71
0
 10
979.852
 20
1786.16
 30
0.000000
  1
560
  0
POINT
  5
7E6D
  8
DEFPOINTS
  6
CONTINUOUS
 62
     0
 10
1241.850021
 20
2192.4976150000002
 30
0.0
  0
POINT
  5
7E6E
  8
DEFPOINTS
  6
CONTINUOUS
 62
     0
 10
1241.850021
 20
1632.497615
 30
0.0
  0
POINT
  5
7E6F
  8
DEFPOINTS
  6
CONTINUOUS
 62
     0
 10
1149.85166
 20
1632.497615
 30
0.0
  0
ENDBLK
  5
7B84
  8
0
  0
BLOCK
  8
0
  2
*D2
 70
     1
 10
0.0
 20
0.0
 30
0.0
  3
*D2
  1

  0
LINE
  5
7E70
  8
3
  6
CONTINUOUS
 62
     0
 10
1130.7717059999991
 20
2171.4976149999989
 30
0.0
 11
991.6365420000003
 21
2171.4976150000002
 31
0.0
  0
LINE
  5
7E71
  8
3
  6
CONTINUOUS
 62
     0
 10
1231.850021
 20
1632.497615
 30
0.0
 11
991.63654200000008
 21
1632.497615
 31
0.0
  0
LINE
  5
7E72
  8
3
  6
CONTINUOUS
 62
     0
 10
1011.636542
 20
2131.4976150000002
 30
0.0
 11
1011.636542
 21
1672.497615
 31
0.0
  0
INSERT
  5
7E73
  8
3
  6
CONTINUOUS
 62
     0
  2
_OPEN
 10
1011.636542
 20
2171.4976150000002
 30
0.0
 41
40.0
 42
40.0
 43
40.0
 50
90.0
  0
INSERT
  5
7E74
  8
3
  6
CONTINUOUS
 62
     0
  2
_OPEN
 10
1011.636542
 20
1632.497615
 30
0.0
 41
40.0
 42
40.0
 43
40.0
 50
270.0
  0
TEXT
  8
3
  40
60
  5
7EF3
  62
0
  72
0
  71
0
 10
841.637
 20
1786.16
 30
0.000000
  1
539
  0
POINT
  5
7E76
  8
DEFPOINTS
  6
CONTINUOUS
 62
     0
 10
1140.7717059999991
 20
2171.4976149999989
 30
0.0
  0
POINT
  5
7E77
  8
DEFPOINTS
  6
CONTINUOUS
 62
     0
 10
1241.850021
 20
1632.497615
 30
0.0
  0
POINT
  5
7E78
  8
DEFPOINTS
  6
CONTINUOUS
 62
     0
 10
1011.636542
 20
1632.497615
 30
0.0
  0
ENDBLK
  5
7B91
  8
0
  0
BLOCK
  8
0
  2
*D3
 70
     1
 10
0.0
 20
0.0
 30
0.0
  3
*D3
  1

  0
LINE
  5
7E79
  8
3
  6
CONTINUOUS
 62
     0
 10
1276.850021
 20
2581.4976149999989
 30
0.0
 11
844.50433000000055
 21
2581.4976150000002
 31
0.0
  0
LINE
  5
7E7A
  8
3
  6
CONTINUOUS
 62
     0
 10
1130.7717059999991
 20
2171.4976149999989
 30
0.0
 11
844.50433000000055
 21
2171.4976150000002
 31
0.0
  0
LINE
  5
7E7B
  8
3
  6
CONTINUOUS
 62
     0
 10
864.50433000000055
 20
2541.4976150000002
 30
0.0
 11
864.50433000000044
 21
2211.4976150000002
 31
0.0
  0
INSERT
  5
7E7C
  8
3
  6
CONTINUOUS
 62
     0
  2
_OPEN
 10
864.50433000000055
 20
2581.4976150000002
 30
0.0
 41
40.0
 42
40.0
 43
40.0
 50
90.0
  0
INSERT
  5
7E7D
  8
3
  6
CONTINUOUS
 62
     0
  2
_OPEN
 10
864.50433000000044
 20
2171.4976150000002
 30
0.0
 41
40.0
 42
40.0
 43
40.0
 50
270.0
  0
TEXT
  8
3
  40
60
  5
7EF4
  62
0
  72
0
  71
0
 10
694.504
 20
2262.78
 30
0.000000
  1
410
  0
POINT
  5
7E7F
  8
DEFPOINTS
  6
CONTINUOUS
 62
     0
 10
1286.850021
 20
2581.4976149999989
 30
0.0
  0
POINT
  5
7E80
  8
DEFPOINTS
  6
CONTINUOUS
 62
     0
 10
1140.7717059999991
 20
2171.4976149999989
 30
0.0
  0
POINT
  5
7E81
  8
DEFPOINTS
  6
CONTINUOUS
 62
     0
 10
864.50433000000044
 20
2171.4976150000002
 30
0.0
  0
ENDBLK
  5
7B9E
  8
0
  0
BLOCK
  8
0
  2
*D4
 70
     1
 10
0.0
 20
0.0
 30
0.0
  3
*D4
  1

  0
LINE
  5
7E82
  8
3
  6
CONTINUOUS
 62
     0
 10
1291.850021
 20
1501.497615
 30
0.0
 11
844.5043300000001
 21
1501.497615
 31
0.0
  0
LINE
  5
7E83
  8
3
  6
CONTINUOUS
 62
     0
 10
864.50433000000021
 20
2131.4976150000002
 30
0.0
 11
864.5043300000001
 21
1541.497615
 31
0.0
  0
INSERT
  5
7E84
  8
3
  6
CONTINUOUS
 62
     0
  2
_OPEN
 10
864.50433000000021
 20
2171.4976150000002
 30
0.0
 41
40.0
 42
40.0
 43
40.0
 50
90.0
  0
INSERT
  5
7E85
  8
3
  6
CONTINUOUS
 62
     0
  2
_OPEN
 10
864.5043300000001
 20
1501.497615
 30
0.0
 41
40.0
 42
40.0
 43
40.0
 50
270.0
  0
TEXT
  8
3
  40
60
  5
7EF5
  62
0
  72
0
  71
0
 10
694.504
 20
1730.30
 30
0.000000
  1
670
  0
POINT
  5
7E87
  8
DEFPOINTS
  6
CONTINUOUS
 62
     0
 10
1140.7717059999991
 20
2171.4976149999989
 30
0.0
  0
POINT
  5
7E88
  8
DEFPOINTS
  6
CONTINUOUS
 62
     0
 10
1301.850021
 20
1501.497615
 30
0.0
  0
POINT
  5
7E89
  8
DEFPOINTS
  6
CONTINUOUS
 62
     0
 10
864.5043300000001
 20
1501.497615
 30
0.0
  0
ENDBLK
  5
7BAA
  8
0
  0
BLOCK
  8
0
  2
*D5
 70
     1
 10
0.0
 20
0.0
 30
0.0
  3
*D5
  1

  0
LINE
  5
7E8A
  8
3
  6
CONTINUOUS
 62
     0
 10
1301.850021
 20
1491.497615
 30
0.0
 11
1301.850021
 21
1326.0567898010979
 31
0.0
  0
LINE
  5
7E8B
  8
3
  6
CONTINUOUS
 62
     0
 10
1646.850021
 20
1410.243289
 30
0.0
 11
1646.850021
 21
1326.0567898010979
 31
0.0
  0
LINE
  5
7E8C
  8
3
  6
CONTINUOUS
 62
     0
 10
1341.850021
 20
1346.0567898010991
 30
0.0
 11
1606.850021
 21
1346.0567898010991
 31
0.0
  0
INSERT
  5
7E8D
  8
3
  6
CONTINUOUS
 62
     0
  2
_OPEN
 10
1301.850021
 20
1346.0567898010991
 30
0.0
 41
40.0
 42
40.0
 43
40.0
 50
180.0
  0
INSERT
  5
7E8E
  8
3
  6
CONTINUOUS
 62
     0
  2
_OPEN
 10
1646.850021
 20
1346.0567898010991
 30
0.0
 41
40.0
 42
40.0
 43
40.0
  0
TEXT
  8
3
  40
60
  5
7EF6
  62
0
  72
0
  71
0
 10
1350.87
 20
1289.86
 30
0.000000
  1
345
  0
POINT
  5
7E90
  8
DEFPOINTS
  6
CONTINUOUS
 62
     0
 10
1301.850021
 20
1501.497615
 30
0.0
  0
POINT
  5
7E91
  8
DEFPOINTS
  6
CONTINUOUS
 62
     0
 10
1646.850021
 20
1420.243289
 30
0.0
  0
POINT
  5
7E92
  8
DEFPOINTS
  6
CONTINUOUS
 62
     0
 10
1646.850021
 20
1346.0567898010991
 30
0.0
  0
ENDBLK
  5
7D81
  8
0
  0
BLOCK
  8
0
  2
*D6
 70
     1
 10
0.0
 20
0.0
 30
0.0
  3
*D6
  1

  0
LINE
  5
7E93
  8
3
  6
CONTINUOUS
 62
     0
 10
2551.8500210000002
 20
1491.497615
 30
0.0
 11
2551.8500210000002
 21
1326.0567898010979
 31
0.0
  0
LINE
  5
7E94
  8
3
  6
CONTINUOUS
 62
     0
 10
1686.850021
 20
1346.0567898010991
 30
0.0
 11
2511.8500210000002
 21
1346.0567898010991
 31
0.0
  0
INSERT
  5
7E95
  8
3
  6
CONTINUOUS
 62
     0
  2
_OPEN
 10
1646.850021
 20
1346.0567898010991
 30
0.0
 41
40.0
 42
40.0
 43
40.0
 50
180.0
  0
INSERT
  5
7E96
  8
3
  6
CONTINUOUS
 62
     0
  2
_OPEN
 10
2551.8500210000002
 20
1346.0567898010991
 30
0.0
 41
40.0
 42
40.0
 43
40.0
  0
TEXT
  8
3
  40
60
  5
7EF7
  62
0
  72
0
  71
0
 10
1979.35
 20
1289.86
 30
0.000000
  1
905
  0
POINT
  5
7E98
  8
DEFPOINTS
  6
CONTINUOUS
 62
     0
 10
1646.850021
 20
1420.243289
 30
0.0
  0
POINT
  5
7E99
  8
DEFPOINTS
  6
CONTINUOUS
 62
     0
 10
2551.8500210000002
 20
1501.497615
 30
0.0
  0
POINT
  5
7E9A
  8
DEFPOINTS
  6
CONTINUOUS
 62
     0
 10
2551.8500210000002
 20
1346.0567898010991
 30
0.0
  0
ENDBLK
  5
7D76
  8
0
  0
BLOCK
  8
0
  2
*D7
 70
     1
 10
0.0
 20
0.0
 30
0.0
  3
*D7
  1

  0
LINE
  5
7E9B
  8
3
  6
CONTINUOUS
 62
     0
 10
1241.850021
 20
2229.4976149999989
 30
0.0
 11
1241.850021
 21
2749.7878340000002
 31
0.0
  0
LINE
  5
7E9C
  8
3
  6
CONTINUOUS
 62
     0
 10
1646.850021
 20
2677.7086239999999
 30
0.0
 11
1646.850021
 21
2749.7878340000002
 31
0.0
  0
LINE
  5
7E9D
  8
3
  6
CONTINUOUS
 62
     0
 10
1281.850021
 20
2729.7878340000002
 30
0.0
 11
1606.850021
 21
2729.7878340000002
 31
0.0
  0
INSERT
  5
7E9E
  8
3
  6
CONTINUOUS
 62
     0
  2
_OPEN
 10
1241.850021
 20
2729.7878340000002
 30
0.0
 41
40.0
 42
40.0
 43
40.0
 50
180.0
  0
INSERT
  5
7E9F
  8
3
  6
CONTINUOUS
 62
     0
  2
_OPEN
 10
1646.850021
 20
2729.7878340000002
 30
0.0
 41
40.0
 42
40.0
 43
40.0
  0
TEXT
  8
3
  40
60
  5
7EF8
  62
0
  72
0
  71
0
 10
1306.28
 20
2673.59
 30
0.000000
  1
405
  0
POINT
  5
7EA1
  8
DEFPOINTS
  6
CONTINUOUS
 62
     0
 10
1241.850021
 20
2219.4976149999989
 30
0.0
  0
POINT
  5
7EA2
  8
DEFPOINTS
  6
CONTINUOUS
 62
     0
 10
1646.850021
 20
2667.708623999999
 30
0.0
  0
POINT
  5
7EA3
  8
DEFPOINTS
  6
CONTINUOUS
 62
     0
 10
1646.850021
 20
2729.7878340000002
 30
0.0
  0
ENDBLK
  5
7BD0
  8
0
  0
BLOCK
  8
0
  2
*D8
 70
     1
 10
0.0
 20
0.0
 30
0.0
  3
*D8
  1

  0
LINE
  5
7EA4
  8
3
  6
CONTINUOUS
 62
     0
 10
2109.8500210000002
 20
2144.4976150000002
 30
0.0
 11
2109.8500210000002
 21
2749.7878340000002
 31
0.0
  0
LINE
  5
7EA5
  8
3
  6
CONTINUOUS
 62
     0
 10
1686.850021
 20
2729.7878340000002
 30
0.0
 11
2069.8500210000002
 21
2729.7878340000002
 31
0.0
  0
INSERT
  5
7EA6
  8
3
  6
CONTINUOUS
 62
     0
  2
_OPEN
 10
1646.850021
 20
2729.7878340000002
 30
0.0
 41
40.0
 42
40.0
 43
40.0
 50
180.0
  0
INSERT
  5
7EA7
  8
3
  6
CONTINUOUS
 62
     0
  2
_OPEN
 10
2109.8500210000002
 20
2729.7878340000002
 30
0.0
 41
40.0
 42
40.0
 43
40.0
  0
TEXT
  8
3
  40
60
  5
7EF9
  62
0
  72
0
  71
0
 10
1758.35
 20
2673.59
 30
0.000000
  1
463
  0
POINT
  5
7EA9
  8
DEFPOINTS
  6
CONTINUOUS
 62
     0
 10
1646.850021
 20
2667.708623999999
 30
0.0
  0
POINT
  5
7EAA
  8
DEFPOINTS
  6
CONTINUOUS
 62
     0
 10
2109.8500210000002
 20
2134.4976149999989
 30
0.0
  0
POINT
  5
7EAB
  8
DEFPOINTS
  6
CONTINUOUS
 62
     0
 10
2109.8500210000002
 20
2729.7878340000002
 30
0.0
  0
ENDBLK
  5
7D8C
  8
0
  0
BLOCK
  8
0
  2
*D9
 70
     1
 10
0.0
 20
0.0
 30
0.0
  3
*D9
  1

  0
LINE
  5
7EAC
  8
3
  6
CONTINUOUS
 62
     0
 10
1276.850021
 20
2581.4976149999989
 30
0.0
 11
692.91353500000025
 21
2581.4976150000002
 31
0.0
  0
LINE
  5
7EAD
  8
3
  6
CONTINUOUS
 62
     0
 10
1291.850021
 20
1501.497615
 30
0.0
 11
692.91353500000014
 21
1501.497615
 31
0.0
  0
LINE
  5
7EAE
  8
3
  6
CONTINUOUS
 62
     0
 10
712.91353500000025
 20
2541.4976150000002
 30
0.0
 11
712.91353500000014
 21
1541.497615
 31
0.0
  0
INSERT
  5
7EAF
  8
3
  6
CONTINUOUS
 62
     0
  2
_OPEN
 10
712.91353500000025
 20
2581.4976150000002
 30
0.0
 41
40.0
 42
40.0
 43
40.0
 50
90.0
  0
INSERT
  5
7EB0
  8
3
  6
CONTINUOUS
 62
     0
  2
_OPEN
 10
712.91353500000014
 20
1501.497615
 30
0.0
 41
40.0
 42
40.0
 43
40.0
 50
270.0
  0
TEXT
  8
3
  40
60
  5
7EFA
  62
0
  72
0
  71
0
 10
542.914
 20
2048.97
 30
0.000000
  1
1080
  0
POINT
  5
7EB2
  8
DEFPOINTS
  6
CONTINUOUS
 62
     0
 10
1286.850021
 20
2581.4976149999989
 30
0.0
  0
POINT
  5
7EB3
  8
DEFPOINTS
  6
CONTINUOUS
 62
     0
 10
1301.850021
 20
1501.497615
 30
0.0
  0
POINT
  5
7EB4
  8
DEFPOINTS
  6
CONTINUOUS
 62
     0
 10
712.91353500000014
 20
1501.497615
 30
0.0
  0
ENDBLK
  5
7BE9
  8
0
  0
BLOCK
  8
0
  2
*D10
 70
     1
 10
0.0
 20
0.0
 30
0.0
  3
*D10
  1

  0
LINE
  5
7EB5
  8
3
  6
CONTINUOUS
 62
     0
 10
3476.275846
 20
2466.4976149999989
 30
0.0
 11
3674.1206659999998
 21
2466.4976149999989
 31
0.0
  0
LINE
  5
7EB6
  8
3
  6
CONTINUOUS
 62
     0
 10
3476.275846
 20
1876.4976149999991
 30
0.0
 11
3674.1206659999998
 21
1876.4976149999991
 31
0.0
  0
LINE
  5
7EB7
  8
3
  6
CONTINUOUS
 62
     0
 10
3654.1206659999998
 20
2426.4976150000002
 30
0.0
 11
3654.1206659999998
 21
1916.4976149999991
 31
0.0
  0
INSERT
  5
7EB8
  8
3
  6
CONTINUOUS
 62
     0
  2
_OPEN
 10
3654.1206659999998
 20
2466.4976149999989
 30
0.0
 41
40.0
 42
40.0
 43
40.0
 50
90.0
  0
INSERT
  5
7EB9
  8
3
  6
CONTINUOUS
 62
     0
  2
_OPEN
 10
3654.1206659999998
 20
1876.4976149999991
 30
0.0
 41
40.0
 42
40.0
 43
40.0
 50
270.0
  0
TEXT
  8
3
  40
60
  5
7EFB
  62
0
  72
0
  71
0
 10
3484.12
 20
2053.43
 30
0.000000
  1
φ590
  0
POINT
  5
7EBB
  8
DEFPOINTS
  6
CONTINUOUS
 62
     0
 10
3466.275846
 20
2466.4976149999989
 30
0.0
  0
POINT
  5
7EBC
  8
DEFPOINTS
  6
CONTINUOUS
 62
     0
 10
3466.275846
 20
1876.4976149999991
 30
0.0
  0
POINT
  5
7EBD
  8
DEFPOINTS
  6
CONTINUOUS
 62
     0
 10
3654.1206659999998
 20
1876.4976149999991
 30
0.0
  0
ENDBLK
  5
7D29
  8
0
  0
BLOCK
  8
0
  2
*D11
 70
     1
 10
0.0
 20
0.0
 30
0.0
  3
*D11
  1

  0
LINE
  5
7D36
  8
0
  6
BYBLOCK
 62
     0
 10
3468.275846
 20
2501.4976149999989
 30
0.0
 11
3468.275846
 21
2829.7711410000002
 31
0.0
  0
LINE
  5
7D37
  8
0
  6
BYBLOCK
 62
     0
 10
3256.2758459999991
 20
2758.2910787771229
 30
0.0
 11
3256.2758459999991
 21
2829.7711410000002
 31
0.0
  0
LINE
  5
7D38
  8
0
  6
BYBLOCK
 62
     0
 10
3428.275846
 20
2809.7711410000002
 30
0.0
 11
3296.275846
 21
2809.7711410000002
 31
0.0
  0
TEXT
  5
7D39
  8
3
 62
     0
 10
3290.847274571428
 20
2830.2517808742768
 30
0.0
 40
60.0
  1
212
  0
INSERT
  5
7D3A
  8
0
  6
BYBLOCK
 62
     0
  2
_OPEN
 10
3468.275846
 20
2809.7711410000002
 30
0.0
 41
40.0
 42
40.0
 43
40.0
  0
INSERT
  5
7D3B
  8
0
  6
BYBLOCK
 62
     0
  2
_OPEN
 10
3256.2758459999991
 20
2809.7711410000002
 30
0.0
 41
40.0
 42
40.0
 43
40.0
 50
180.0
  0
POINT
  5
7D3C
  8
DEFPOINTS
  6
BYBLOCK
 62
     0
 10
3468.275846
 20
2491.4976150000002
 30
0.0
  0
POINT
  5
7D3D
  8
DEFPOINTS
  6
BYBLOCK
 62
     0
 10
3256.2758459999991
 20
2748.2910787771229
 30
0.0
  0
POINT
  5
7D3E
  8
DEFPOINTS
  6
BYBLOCK
 62
     0
 10
3256.2758459999991
 20
2809.7711410000002
 30
0.0
  0
ENDBLK
  5
7D3F
  8
0
  0
BLOCK
  8
0
  2
*D12
 70
     1
 10
0.0
 20
0.0
 30
0.0
  3
*D12
  1

  0
LINE
  5
7EBE
  8
3
  6
CONTINUOUS
 62
     0
 10
2846.275846
 20
2426.4976150000002
 30
0.0
 11
2846.275846
 21
2829.7711410000002
 31
0.0
  0
LINE
  5
7EBF
  8
3
  6
CONTINUOUS
 62
     0
 10
3216.275846
 20
2809.7711410000002
 30
0.0
 11
2886.275846
 21
2809.7711410000002
 31
0.0
  0
INSERT
  5
7EC0
  8
3
  6
CONTINUOUS
 62
     0
  2
_OPEN
 10
3256.2758459999991
 20
2809.7711410000002
 30
0.0
 41
40.0
 42
40.0
 43
40.0
  0
INSERT
  5
7EC1
  8
3
  6
CONTINUOUS
 62
     0
  2
_OPEN
 10
2846.275846
 20
2809.7711410000002
 30
0.0
 41
40.0
 42
40.0
 43
40.0
 50
180.0
  0
TEXT
  8
3
  40
60
  5
7EFC
  62
0
  72
0
  71
0
 10
2931.28
 20
2803.57
 30
0.000000
  1
MAX
  0
TEXT
  8
3
  40
60
  5
7EFD
  62
0
  72
0
  71
0
 10
2931.28
 20
2725.57
 30
0.000000
  1
470
  0
POINT
  5
7EC3
  8
DEFPOINTS
  6
CONTINUOUS
 62
     0
 10
3256.2758459999991
 20
2747.0024162719801
 30
0.0
  0
POINT
  5
7EC4
  8
DEFPOINTS
  6
CONTINUOUS
 62
     0
 10
2846.275846
 20
2416.4976149999989
 30
0.0
  0
POINT
  5
7EC5
  8
DEFPOINTS
  6
CONTINUOUS
 62
     0
 10
2846.275846
 20
2809.7711410000002
 30
0.0
  0
ENDBLK
  5
7D49
  8
0
  0
BLOCK
  8
0
  2
*D13
 70
     1
 10
0.0
 20
0.0
 30
0.0
  3
*D13
  1

  0
LINE
  5
7D56
  8
0
  6
BYBLOCK
 62
     0
 10
3001.275846
 20
1491.497615
 30
0.0
 11
3001.275846
 21
1342.289442
 31
0.0
  0
LINE
  5
7D57
  8
0
  6
BYBLOCK
 62
     0
 10
3256.2758459999991
 20
1397.9051710000001
 30
0.0
 11
3256.2758459999991
 21
1342.289442
 31
0.0
  0
LINE
  5
7D58
  8
0
  6
BYBLOCK
 62
     0
 10
3041.275846
 20
1362.289442
 30
0.0
 11
3216.275846
 21
1362.289442
 31
0.0
  0
TEXT
  5
7D59
  8
3
 62
     0
 10
3051.6329888571422
 20
1386.5819316900211
 30
0.0
 40
60.0
  1
255
  0
INSERT
  5
7D5A
  8
0
  6
BYBLOCK
 62
     0
  2
_OPEN
 10
3001.275846
 20
1362.289442
 30
0.0
 41
40.0
 42
40.0
 43
40.0
 50
180.0
  0
INSERT
  5
7D5B
  8
0
  6
BYBLOCK
 62
     0
  2
_OPEN
 10
3256.2758459999991
 20
1362.289442
 30
0.0
 41
40.0
 42
40.0
 43
40.0
  0
POINT
  5
7D5C
  8
DEFPOINTS
  6
BYBLOCK
 62
     0
 10
3001.275846
 20
1501.497615
 30
0.0
  0
POINT
  5
7D5D
  8
DEFPOINTS
  6
BYBLOCK
 62
     0
 10
3256.2758459999991
 20
1407.9051710000001
 30
0.0
  0
POINT
  5
7D5E
  8
DEFPOINTS
  6
BYBLOCK
 62
     0
 10
3256.2758459999991
 20
1362.289442
 30
0.0
  0
ENDBLK
  5
7D5F
  8
0
  0
BLOCK
  8
0
  2
*D14
 70
     1
 10
0.0
 20
0.0
 30
0.0
  3
*D14
  1

  0
LINE
  5
7EC6
  8
3
  6
CONTINUOUS
 62
     0
 10
3511.275846
 20
1491.497615
 30
0.0
 11
3511.275846
 21
1342.289442
 31
0.0
  0
LINE
  5
7EC7
  8
3
  6
CONTINUOUS
 62
     0
 10
3296.275846
 20
1362.289442
 30
0.0
 11
3471.275846
 21
1362.289442
 31
0.0
  0
TEXT
  8
3
  40
60
  5
7EFE
  62
0
  72
0
  71
0
 10
3273.42
 20
1305.98
 30
0.000000
  1
255
  0
INSERT
  5
7EC9
  8
3
  6
CONTINUOUS
 62
     0
  2
_OPEN
 10
3256.2758459999991
 20
1362.289442
 30
0.0
 41
40.0
 42
40.0
 43
40.0
 50
180.0
  0
INSERT
  5
7ECA
  8
3
  6
CONTINUOUS
 62
     0
  2
_OPEN
 10
3511.275846
 20
1362.289442
 30
0.0
 41
40.0
 42
40.0
 43
40.0
  0
POINT
  5
7ECB
  8
DEFPOINTS
  6
CONTINUOUS
 62
     0
 10
3256.2758459999991
 20
1407.9051710000001
 30
0.0
  0
POINT
  5
7ECC
  8
DEFPOINTS
  6
CONTINUOUS
 62
     0
 10
3511.275846
 20
1501.497615
 30
0.0
  0
POINT
  5
7ECD
  8
DEFPOINTS
  6
CONTINUOUS
 62
     0
 10
3511.275846
 20
1362.289442
 30
0.0
  0
ENDBLK
  5
7C95
  8
0
  0
BLOCK
  8
0
  2
*D15
 70
     1
 10
0.0
 20
0.0
 30
0.0
  3
*D15
  1

  0
LINE
  5
7ECE
  8
3
  6
CONTINUOUS
 62
     0
 10
1301.850021
 20
3921.4976149999989
 30
0.0
 11
1301.850021
 21
4099.4558569999999
 31
0.0
  0
LINE
  5
7ECF
  8
3
  6
CONTINUOUS
 62
     0
 10
2551.8500210000002
 20
3921.4976149999989
 30
0.0
 11
2551.8500210000002
 21
4099.4558569999999
 31
0.0
  0
LINE
  5
7ED0
  8
3
  6
CONTINUOUS
 62
     0
 10
1341.850021
 20
4079.4558569999999
 30
0.0
 11
2511.8500210000002
 21
4079.4558569999999
 31
0.0
  0
INSERT
  5
7ED1
  8
3
  6
CONTINUOUS
 62
     0
  2
_OPEN
 10
1301.850021
 20
4079.4558569999999
 30
0.0
 41
40.0
 42
40.0
 43
40.0
 50
180.0
  0
INSERT
  5
7ED2
  8
3
  6
CONTINUOUS
 62
     0
  2
_OPEN
 10
2551.8500210000002
 20
4079.4558569999999
 30
0.0
 41
40.0
 42
40.0
 43
40.0
  0
TEXT
  8
3
  40
60
  5
7EFF
  62
0
  72
0
  71
0
 10
1797.16
 20
4023.26
 30
0.000000
  1
1250
  0
POINT
  5
7ED4
  8
DEFPOINTS
  6
CONTINUOUS
 62
     0
 10
1301.850021
 20
3911.4976150000002
 30
0.0
  0
POINT
  5
7ED5
  8
DEFPOINTS
  6
CONTINUOUS
 62
     0
 10
2551.8500210000002
 20
3911.4976150000002
 30
0.0
  0
POINT
  5
7ED6
  8
DEFPOINTS
  6
CONTINUOUS
 62
     0
 10
2551.8500210000002
 20
4079.4558569999999
 30
0.0
  0
ENDBLK
  5
7C7F
  8
0
  0
BLOCK
  8
0
  2
*D16
 70
     1
 10
0.0
 20
0.0
 30
0.0
  3
*D16
  1

  0
LINE
  5
7ED7
  8
3
  6
CONTINUOUS
 62
     0
 10
2561.8500210000002
 20
3911.4976150000002
 30
0.0
 11
2770.9128930000011
 21
3911.4976150000002
 31
0.0
  0
LINE
  5
7ED8
  8
3
  6
CONTINUOUS
 62
     0
 10
2561.8500210000002
 20
3401.4976149999989
 30
0.0
 11
2770.9128930000011
 21
3401.4976149999989
 31
0.0
  0
LINE
  5
7ED9
  8
3
  6
CONTINUOUS
 62
     0
 10
2750.9128930000011
 20
3871.4976150000002
 30
0.0
 11
2750.9128930000011
 21
3441.4976150000002
 31
0.0
  0
INSERT
  5
7EDA
  8
3
  6
CONTINUOUS
 62
     0
  2
_OPEN
 10
2750.9128930000011
 20
3911.4976150000002
 30
0.0
 41
40.0
 42
40.0
 43
40.0
 50
90.0
  0
INSERT
  5
7EDB
  8
3
  6
CONTINUOUS
 62
     0
  2
_OPEN
 10
2750.9128930000011
 20
3401.4976149999989
 30
0.0
 41
40.0
 42
40.0
 43
40.0
 50
270.0
  0
TEXT
  8
3
  40
60
  5
7F00
  62
0
  72
0
  71
0
 10
2580.91
 20
3557.19
 30
0.000000
  1
510
  0
POINT
  5
7EDD
  8
DEFPOINTS
  6
CONTINUOUS
 62
     0
 10
2551.8500210000002
 20
3911.4976150000002
 30
0.0
  0
POINT
  5
7EDE
  8
DEFPOINTS
  6
CONTINUOUS
 62
     0
 10
2551.8500210000002
 20
3401.4976149999989
 30
0.0
  0
POINT
  5
7EDF
  8
DEFPOINTS
  6
CONTINUOUS
 62
     0
 10
2750.9128930000011
 20
3401.4976149999989
 30
0.0
  0
ENDBLK
  5
7C58
  8
0
  0
BLOCK
  8
0
  2
*D17
 70
     1
 10
0.0
 20
0.0
 30
0.0
  3
*D17
  1

  0
LINE
  5
7EE0
  8
3
  6
CONTINUOUS
 62
     0
 10
3046.275846
 20
2540.4976150000002
 30
0.0
 11
3046.275846
 21
2671.098414
 31
0.0
  0
LINE
  5
7EE1
  8
3
  6
CONTINUOUS
 62
     0
 10
3466.275846
 20
2540.4976150000002
 30
0.0
 11
3466.275846
 21
2671.098414
 31
0.0
  0
LINE
  5
7EE2
  8
3
  6
CONTINUOUS
 62
     0
 10
3086.275846
 20
2651.098414
 30
0.0
 11
3426.275846
 21
2651.098414
 31
0.0
  0
INSERT
  5
7EE3
  8
3
  6
CONTINUOUS
 62
     0
  2
_OPEN
 10
3046.275846
 20
2651.098414
 30
0.0
 41
40.0
 42
40.0
 43
40.0
 50
180.0
  0
INSERT
  5
7EE4
  8
3
  6
CONTINUOUS
 62
     0
  2
_OPEN
 10
3466.275846
 20
2651.098414
 30
0.0
 41
40.0
 42
40.0
 43
40.0
  0
TEXT
  8
3
  40
60
  5
7F01
  62
0
  72
0
  71
0
 10
3131.18
 20
2594.90
 30
0.000000
  1
420
  0
POINT
  5
7EE6
  8
DEFPOINTS
  6
CONTINUOUS
 62
     0
 10
3046.275846
 20
2530.4976149999989
 30
0.0
  0
POINT
  5
7EE7
  8
DEFPOINTS
  6
CONTINUOUS
 62
     0
 10
3466.275846
 20
2530.4976149999989
 30
0.0
  0
POINT
  5
7EE8
  8
DEFPOINTS
  6
CONTINUOUS
 62
     0
 10
3466.275846
 20
2651.098414
 30
0.0
  0
ENDBLK
  5
7CE6
  8
0
  0
BLOCK
  8
0
  2
*D18
 70
     1
 10
0.0
 20
0.0
 30
0.0
  3
*D18
  1

  0
LINE
  5
7EE9
  8
3
 62
     0
 10
1241.850021
 20
2229.4976149999989
 30
0.0
 11
1241.850021
 21
2879.1958766878961
 31
0.0
  0
LINE
  5
7EEA
  8
3
 62
     0
 10
2551.8500210000002
 20
1591.497615
 30
0.0
 11
2551.8500210000002
 21
2879.1958766878961
 31
0.0
  0
LINE
  5
7EEB
  8
3
 62
     0
 10
1281.850021
 20
2859.1958766878961
 30
0.0
 11
2511.8500210000002
 21
2859.1958766878961
 31
0.0
  0
INSERT
  5
7EEC
  8
3
 62
     0
  2
_OPEN
 10
1241.850021
 20
2859.1958766878961
 30
0.0
 41
40.0
 42
40.0
 43
40.0
 50
180.0
  0
INSERT
  5
7EED
  8
3
 62
     0
  2
_OPEN
 10
2551.8500210000002
 20
2859.1958766878961
 30
0.0
 41
40.0
 42
40.0
 43
40.0
  0
TEXT
  8
3
  40
60
  5
7F02
  62
0
  72
0
  71
0
 10
1782.34
 20
2803.00
 30
0.000000
  1
1310
  0
POINT
  5
7EEF
  8
DEFPOINTS
 62
     0
 10
1241.850021
 20
2219.4976149999989
 30
0.0
  0
POINT
  5
7EF0
  8
DEFPOINTS
 62
     0
 10
2551.8500210000002
 20
1581.4976149999991
 30
0.0
  0
POINT
  5
7EF1
  8
DEFPOINTS
 62
     0
 10
2551.8500210000002
 20
2859.1958766878961
 30
0.0
  0
ENDBLK
  5
7D6B
  8
0
  0
ENDSEC
  0
SECTION
  2
ENTITIES
  0
LINE
  5
7AAA
  8
1
  6
CONTINUOUS
 10
1301.850021
 20
1501.497615
 30
0.0
 11
2551.8500210000002
 21
1501.497615
 31
0.0
  0
LINE
  5
7AAB
  8
1
  6
CONTINUOUS
 10
1286.850021
 20
1581.4976149999991
 30
0.0
 11
2551.8500210000002
 21
1581.4976149999991
 31
0.0
  0
LINE
  5
7AAC
  8
1
  6
CONTINUOUS
 10
1301.850021
 20
3911.4976150000002
 30
0.0
 11
2551.8500210000002
 21
3911.4976150000002
 31
0.0
  0
LINE
  5
7AAD
  8
1
  6
CONTINUOUS
 10
2365.8500210000002
 20
3401.4976149999989
 30
0.0
 11
2551.8500210000002
 21
3401.4976149999989
 31
0.0
  0
ARC
  5
7AAE
  8
1
  6
CONTINUOUS
 10
1670.850021
 20
2195.4976149999989
 30
0.0
 40
377.65927299999993
 50
97.253195000000005
 51
180.45514299999991
  0
LINE
  5
7AAF
  8
1
  6
CONTINUOUS
 10
1241.850021
 20
1632.497615
 30
0.0
 11
1646.850021
 21
1634.497615
 31
0.0
  0
LINE
  5
7AB0
  8
1
  6
CONTINUOUS
 10
1286.850021
 20
2581.4976149999989
 30
0.0
 11
2006.850021
 21
2581.4976149999989
 31
0.0
  0
LINE
  5
7AB1
  8
1
  6
CONTINUOUS
 10
1286.850021
 20
1581.4976149999991
 30
0.0
 11
2006.850021
 21
1581.4976149999991
 31
0.0
  0
CIRCLE
  5
7AB2
  8
1
  6
CONTINUOUS
 10
1646.850021
 20
2171.4976149999989
 30
0.0
 40
320.0
  0
LINE
  5
7AB3
  8
1
  6
CONTINUOUS
 10
1241.850021
 20
2219.4976149999989
 30
0.0
 11
1241.850021
 21
1605.497615
 31
0.0
  0
LINE
  5
7AB4
  8
1
  6
CONTINUOUS
 10
1286.850021
 20
1581.4976149999991
 30
0.0
 11
1286.850021
 21
2581.4976149999989
 31
0.0
  0
LINE
  5
7AB5
  8
1
  6
CONTINUOUS
 10
1266.850021
 20
2192.4976150000002
 30
0.0
 11
1266.850021
 21
1632.6210719999999
 31
0.0
  0
LINE
  5
7AB6
  8
1
  6
CONTINUOUS
 10
1301.850021
 20
1581.4976149999991
 30
0.0
 11
1301.850021
 21
1501.497615
 31
0.0
  0
LINE
  5
7AB7
  8
1
  6
CONTINUOUS
 10
1293.2026639999999
 20
2192.4976150000002
 30
0.0
 11
1241.850021
 21
2192.4976150000002
 31
0.0
  0
ARC
  5
7AB8
  8
1
  6
CONTINUOUS
 10
1677.850021
 20
2140.4976150000002
 30
0.0
 40
433.10293799999999
 50
5.0424509999999989
 51
97.253195000000005
  0
ARC
  5
7AB9
  8
1
  6
CONTINUOUS
 10
1609.850021
 20
2134.4976149999989
 30
0.0
 40
501.36713099999992
 50
274.23217399999999
 51
5.0424509999999989
  0
LINE
  5
7ABA
  8
1
  6
CONTINUOUS
 10
1646.350021
 20
2416.4976149999989
 30
0.0
 11
2506.3500210000002
 21
1811.4976149999991
 31
0.0
  0
LINE
  5
7ABB
  8
1
  6
CONTINUOUS
 10
2384.314601999999
 20
1822.628023
 30
0.0
 11
1700.3708509999999
 21
2255.9696269999999
 31
0.0
  0
LINE
  5
7ABC
  8
1
  6
CONTINUOUS
 10
2313.8639800000001
 20
1701.7568579999991
 30
0.0
 11
1599.7271049999999
 21
2083.2965329999988
 31
0.0
  0
CIRCLE
  5
7ABD
  8
1
  6
CONTINUOUS
 10
1646.850021
 20
2171.4976149999989
 30
0.0
 40
100.0
  0
LINE
  5
7ABE
  8
2
  6
CENTER
 10
1646.850021
 20
3970.2172689999989
 30
0.0
 11
1646.850021
 21
3148.1421420000001
 31
0.0
  0
CIRCLE
  5
7ABF
  8
1
  6
CONTINUOUS
 10
1646.850021
 20
2171.4976149999989
 30
0.0
 40
295.0
  0
LINE
  5
7AC0
  8
1
  6
CONTINUOUS
 10
1376.350021
 20
1581.4976149999991
 30
0.0
 11
1376.350021
 21
2331.4976149999989
 31
0.0
  0
LINE
  5
7AC1
  8
2
  6
CENTER
 10
1140.7717059999991
 20
2171.4976149999989
 30
0.0
 11
2234.2215449999999
 21
2171.4976149999989
 31
0.0
  0
LINE
  5
7AC2
  8
1
  6
CONTINUOUS
 10
1376.350021
 20
2331.4976149999989
 30
0.0
 11
1646.350021
 21
2416.4976149999989
 31
0.0
  0
LINE
  5
7AC3
  8
1
  6
CONTINUOUS
 10
2006.850021
 20
1581.4976149999991
 30
0.0
 11
2006.850021
 21
2581.4976149999989
 31
0.0
  0
LINE
  5
7AC4
  8
1
  6
CONTINUOUS
 10
2476.8500210000002
 20
1581.4976149999991
 30
0.0
 11
2216.8500210000002
 21
1581.4976149999991
 31
0.0
  0
ARC
  5
7AC5
  8
1
  6
CONTINUOUS
 10
2346.8500210000002
 20
1763.4976149999991
 30
0.0
 40
142.0
 50
324.59875699999998
 51
215.40124299999999
  0
LINE
  5
7AC6
  8
1
  6
CONTINUOUS
 10
2216.8500210000002
 20
1646.497615
 30
0.0
 11
2231.1036579999991
 21
1681.2371779999989
 31
0.0
  0
LINE
  5
7AC7
  8
1
  6
CONTINUOUS
 10
2216.8500210000002
 20
1581.4976149999991
 30
0.0
 11
2216.8500210000002
 21
1646.497615
 31
0.0
  0
LINE
  5
7AC8
  8
1
  6
CONTINUOUS
 10
2506.3500210000002
 20
1581.4976149999991
 30
0.0
 11
2506.3500210000002
 21
1811.4976149999991
 31
0.0
  0
LINE
  5
7AC9
  8
1
  6
CONTINUOUS
 10
2476.8500210000002
 20
1646.497615
 30
0.0
 11
2462.5963839999999
 21
1681.2371779999989
 31
0.0
  0
LINE
  5
7ACA
  8
1
  6
CONTINUOUS
 10
2476.8500210000002
 20
1581.4976149999991
 30
0.0
 11
2476.8500210000002
 21
1646.497615
 31
0.0
  0
CIRCLE
  5
7ACB
  8
1
  6
CONTINUOUS
 10
2346.8500210000002
 20
1763.4976149999991
 30
0.0
 40
70.0
  0
LINE
  5
7ACC
  8
2
  6
CENTER
 10
2416.8500210000002
 20
1763.4976149999991
 30
0.0
 11
2276.8500210000002
 21
1763.4976149999991
 31
0.0
  0
LINE
  5
7ACD
  8
2
  6
CENTER
 10
2346.8500210000002
 20
1693.4976149999991
 30
0.0
 11
2346.8500210000002
 21
1833.4976149999991
 31
0.0
  0
LINE
  5
7ACE
  8
1
  6
CONTINUOUS
 10
2111.2171520000002
 20
3866.4976150000002
 30
0.0
 11
1241.850021
 21
3866.4976150000002
 31
0.0
  0
LINE
  5
7ACF
  8
1
  6
CONTINUOUS
 10
2111.2171520000002
 20
3446.4976150000002
 30
0.0
 11
1241.850021
 21
3446.4976150000002
 31
0.0
  0
LINE
  5
7AD0
  8
1
  6
CONTINUOUS
 10
1301.850021
 20
3401.4976149999989
 30
0.0
 11
1630.850021
 21
3401.4976149999989
 31
0.0
  0
LINE
  5
7AD1
  8
1
  6
CONTINUOUS
 10
1326.850021
 20
3868.4976149999989
 30
0.0
 11
1966.850021
 21
3868.4976149999989
 31
0.0
  0
LINE
  5
7AD2
  8
1
  6
CONTINUOUS
 10
1266.850021
 20
3866.4976150000002
 30
0.0
 11
1266.850021
 21
3446.4976150000002
 31
0.0
  0
LINE
  5
7AD3
  8
1
  6
CONTINUOUS
 10
1241.850021
 20
3893.4976149999989
 30
0.0
 11
1241.850021
 21
3419.4976149999989
 31
0.0
  0
LINE
  5
7AD4
  8
1
  6
CONTINUOUS
 10
1301.850021
 20
3446.4976150000002
 30
0.0
 11
1301.850021
 21
3401.4976149999989
 31
0.0
  0
LINE
  5
7AD5
  8
1
  6
CONTINUOUS
 10
1301.850021
 20
3911.4976150000002
 30
0.0
 11
1301.850021
 21
3866.4976150000002
 31
0.0
  0
LINE
  5
7AD6
  8
1
  6
CONTINUOUS
 10
1326.850021
 20
3866.4976150000002
 30
0.0
 11
1326.850021
 21
3868.4976149999989
 31
0.0
  0
LINE
  5
7AD7
  8
1
  6
CONTINUOUS
 10
1376.350021
 20
3366.4976150000002
 30
0.0
 11
2506.3500210000002
 21
3366.4976150000002
 31
0.0
  0
LINE
  5
7AD8
  8
1
  6
CONTINUOUS
 10
1376.350021
 20
3246.4976150000002
 30
0.0
 11
2506.3500210000002
 21
3246.4976150000002
 31
0.0
  0
LINE
  5
7AD9
  8
1
  6
CONTINUOUS
 10
1662.850021
 20
3401.4976149999989
 30
0.0
 11
2327.8500210000002
 21
3401.4976149999989
 31
0.0
  0
LINE
  5
7ADA
  8
1
  6
CONTINUOUS
 10
1746.850021
 20
3336.4976149999989
 30
0.0
 11
1546.850021
 21
3336.4976149999989
 31
0.0
  0
LINE
  5
7ADB
  8
1
  6
CONTINUOUS
 10
1746.850021
 20
3276.4976149999989
 30
0.0
 11
1546.850021
 21
3276.4976149999989
 31
0.0
  0
LINE
  5
7ADC
  8
1
  6
CONTINUOUS
 10
1376.350021
 20
3246.4976150000002
 30
0.0
 11
1376.350021
 21
3366.4976150000002
 31
0.0
  0
LINE
  5
7ADD
  8
1
  6
CONTINUOUS
 10
1546.850021
 20
3276.4976149999989
 30
0.0
 11
1546.850021
 21
3336.4976149999989
 31
0.0
  0
LINE
  5
7ADE
  8
1
  6
CONTINUOUS
 10
1630.850021
 20
3446.4976150000002
 30
0.0
 11
1630.850021
 21
3336.4976149999989
 31
0.0
  0
LINE
  5
7ADF
  8
1
  6
CONTINUOUS
 10
1662.850021
 20
3446.4976150000002
 30
0.0
 11
1662.850021
 21
3336.4976149999989
 31
0.0
  0
LINE
  5
7AE0
  8
1
  6
CONTINUOUS
 10
1746.850021
 20
3276.4976149999989
 30
0.0
 11
1746.850021
 21
3336.4976149999989
 31
0.0
  0
LINE
  5
7AE1
  8
1
  6
CONTINUOUS
 10
2488.8500210000002
 20
3820.2354479999999
 30
0.0
 11
2204.8500210000002
 21
3820.2354479999999
 31
0.0
  0
LINE
  5
7AE2
  8
1
  6
CONTINUOUS
 10
2488.8500210000002
 20
3420.235447999999
 30
0.0
 11
2204.8500210000002
 21
3420.235447999999
 31
0.0
  0
LINE
  5
7AE3
  8
1
  6
CONTINUOUS
 10
2111.2171520000002
 20
3446.4976150000002
 30
0.0
 11
2111.2171520000002
 21
3866.4976150000002
 31
0.0
  0
LINE
  5
7AE4
  8
1
  6
CONTINUOUS
 10
2204.8500210000002
 20
3820.2354479999999
 30
0.0
 11
2204.8500210000002
 21
3420.235447999999
 31
0.0
  0
LINE
  5
7AE5
  8
1
  6
CONTINUOUS
 10
1966.850021
 20
3866.4976150000002
 30
0.0
 11
1966.850021
 21
3868.4976149999989
 31
0.0
  0
LINE
  5
7AE6
  8
1
  6
CONTINUOUS
 10
2488.8500210000002
 20
3820.2354479999999
 30
0.0
 11
2488.8500210000002
 21
3420.235447999999
 31
0.0
  0
LINE
  5
7AE7
  8
1
  6
CONTINUOUS
 10
2416.8500210000002
 20
3276.4976149999989
 30
0.0
 11
2276.8500210000002
 21
3276.4976149999989
 31
0.0
  0
LINE
  5
7AE8
  8
1
  6
CONTINUOUS
 10
2416.8500210000002
 20
3336.4976149999989
 30
0.0
 11
2276.8500210000002
 21
3336.4976149999989
 31
0.0
  0
LINE
  5
7AE9
  8
1
  6
CONTINUOUS
 10
2276.8500210000002
 20
3276.4976149999989
 30
0.0
 11
2276.8500210000002
 21
3336.4976149999989
 31
0.0
  0
LINE
  5
7AEA
  8
1
  6
CONTINUOUS
 10
2327.8500210000002
 20
3336.4976149999989
 30
0.0
 11
2327.8500210000002
 21
3420.235447999999
 31
0.0
  0
LINE
  5
7AEB
  8
1
  6
CONTINUOUS
 10
2365.8500210000002
 20
3336.4976149999989
 30
0.0
 11
2365.8500210000002
 21
3420.235447999999
 31
0.0
  0
LINE
  5
7AEC
  8
1
  6
CONTINUOUS
 10
2416.8500210000002
 20
3276.4976149999989
 30
0.0
 11
2416.8500210000002
 21
3336.4976149999989
 31
0.0
  0
LINE
  5
7AED
  8
1
  6
CONTINUOUS
 10
2506.3500210000002
 20
3246.4976150000002
 30
0.0
 11
2506.3500210000002
 21
3366.4976150000002
 31
0.0
  0
LINE
  5
7AEE
  8
1
  6
CONTINUOUS
 10
3046.275846
 20
2192.4976150000002
 30
0.0
 11
3466.275846
 21
2192.4976150000002
 31
0.0
  0
LINE
  5
7AEF
  8
1
  6
CONTINUOUS
 10
3046.275846
 20
1632.497615
 30
0.0
 11
3466.275846
 21
1632.497615
 31
0.0
  0
LINE
  5
7AF0
  8
1
  6
CONTINUOUS
 10
3511.275846
 20
1501.497615
 30
0.0
 11
3001.275846
 21
1501.497615
 31
0.0
  0
LINE
  5
7AF1
  8
1
  6
CONTINUOUS
 10
3511.275846
 20
1581.4976149999991
 30
0.0
 11
2846.275846
 21
1581.4976149999991
 31
0.0
  0
LINE
  5
7AF2
  8
1
  6
CONTINUOUS
 10
3046.275846
 20
2530.4976149999989
 30
0.0
 11
3466.275846
 21
2530.4976149999989
 31
0.0
  0
LINE
  5
7B03
  8
1
  6
CONTINUOUS
 10
2551.8500210000002
 20
1581.4976149999991
 30
0.0
 11
2551.8500210000002
 21
1501.497615
 31
0.0
  0
LINE
  5
7B16
  8
1
  6
CONTINUOUS
 10
2846.275846
 20
1581.4976149999991
 30
0.0
 11
2846.275846
 21
2416.4976149999989
 31
0.0
  0
LINE
  5
7B17
  8
1
  6
CONTINUOUS
 10
2966.275846
 20
1581.4976149999991
 30
0.0
 11
2966.275846
 21
2416.4976149999989
 31
0.0
  0
LINE
  5
7B18
  8
1
  6
CONTINUOUS
 10
2876.275846
 20
2271.4976149999989
 30
0.0
 11
2876.275846
 21
2071.4976149999989
 31
0.0
  0
LINE
  5
7B19
  8
1
  6
CONTINUOUS
 10
2936.275846
 20
2271.4976149999989
 30
0.0
 11
2936.275846
 21
2071.4976149999989
 31
0.0
  0
LINE
  5
7B1A
  8
1
  6
CONTINUOUS
 10
3046.275846
 20
1581.4976149999991
 30
0.0
 11
3046.275846
 21
2530.4976149999989
 31
0.0
  0
LINE
  5
7B1B
  8
1
  6
CONTINUOUS
 10
2936.275846
 20
1779.4976149999991
 30
0.0
 11
3046.275846
 21
1779.4976149999991
 31
0.0
  0
LINE
  5
7B1C
  8
1
  6
CONTINUOUS
 10
2936.275846
 20
1747.497615
 30
0.0
 11
3046.275846
 21
1747.497615
 31
0.0
  0
LINE
  5
7B1D
  8
1
  6
CONTINUOUS
 10
2876.275846
 20
2071.4976149999989
 30
0.0
 11
2936.275846
 21
2071.4976149999989
 31
0.0
  0
LINE
  5
7B1E
  8
1
  6
CONTINUOUS
 10
2876.275846
 20
1833.4976149999991
 30
0.0
 11
2936.275846
 21
1833.4976149999991
 31
0.0
  0
LINE
  5
7B1F
  8
1
  6
CONTINUOUS
 10
2876.275846
 20
1693.4976149999991
 30
0.0
 11
2936.275846
 21
1693.4976149999991
 31
0.0
  0
LINE
  5
7B20
  8
1
  6
CONTINUOUS
 10
2876.275846
 20
1833.4976149999991
 30
0.0
 11
2876.275846
 21
1693.4976149999991
 31
0.0
  0
LINE
  5
7B21
  8
1
  6
CONTINUOUS
 10
2936.275846
 20
1833.4976149999991
 30
0.0
 11
2936.275846
 21
1693.4976149999991
 31
0.0
  0
LINE
  5
7B22
  8
1
  6
CONTINUOUS
 10
3001.275846
 20
1501.497615
 30
0.0
 11
3001.275846
 21
1581.4976149999991
 31
0.0
  0
LINE
  5
7B23
  8
1
  6
CONTINUOUS
 10
3046.275846
 20
2187.4976149999989
 30
0.0
 11
2936.275846
 21
2187.4976149999989
 31
0.0
  0
LINE
  5
7B24
  8
1
  6
CONTINUOUS
 10
3046.275846
 20
2155.4976149999989
 30
0.0
 11
2936.275846
 21
2155.4976149999989
 31
0.0
  0
LINE
  5
7B25
  8
1
  6
CONTINUOUS
 10
2846.275846
 20
2416.4976149999989
 30
0.0
 11
2966.275846
 21
2416.4976149999989
 31
0.0
  0
LINE
  5
7B26
  8
1
  6
CONTINUOUS
 10
2876.275846
 20
2271.4976149999989
 30
0.0
 11
2936.275846
 21
2271.4976149999989
 31
0.0
  0
LINE
  5
7B27
  8
1
  6
CONTINUOUS
 10
3468.275846
 20
1851.4976149999991
 30
0.0
 11
3468.275846
 21
2491.4976150000002
 31
0.0
  0
LINE
  5
7B28
  8
1
  6
CONTINUOUS
 10
3466.275846
 20
1581.4976149999991
 30
0.0
 11
3466.275846
 21
2530.4976149999989
 31
0.0
  0
LINE
  5
7B29
  8
1
  6
CONTINUOUS
 10
3466.275846
 20
1851.4976149999991
 30
0.0
 11
3468.275846
 21
1851.4976149999991
 31
0.0
  0
LINE
  5
7B2A
  8
1
  6
CONTINUOUS
 10
3466.275846
 20
2491.4976150000002
 30
0.0
 11
3468.275846
 21
2491.4976150000002
 31
0.0
  0
LINE
  5
7B38
  8
1
  6
CONTINUOUS
 10
2551.8500210000002
 20
3911.4976150000002
 30
0.0
 11
2551.8500210000002
 21
3401.4976149999989
 31
0.0
  0
LINE
  5
7B4F
  8
2
  6
CENTER
 10
2634.9905469999999
 20
3656.4976150000002
 30
0.0
 11
1154.908142
 21
3656.4976150000002
 31
0.0
  0
LINE
  5
7B50
  8
2
  6
CENTER
 10
3256.2758459999991
 20
2595.7822169999999
 30
0.0
 11
3256.2758459999991
 21
1407.9051710000001
 31
0.0
  0
LINE
  5
7B51
  8
2
  6
CENTER
 10
1646.850021
 20
2667.708623999999
 30
0.0
 11
1646.850021
 21
1420.243289
 31
0.0
  0
LINE
  5
7B52
  8
2
  6
CENTER
 10
2761.9987258879041
 20
2171.4976149999989
 30
0.0
 11
3529.2174100000002
 21
2171.4976149999989
 31
0.0
  0
LINE
  5
7B53
  8
4
  6
CONTINUOUS
 10
3700.0
 20
1000.0
 30
0.0
 11
3700.0
 21
600.0
 31
0.0
  0
LINE
  5
7B54
  8
4
  6
CONTINUOUS
 10
2300.0
 20
1000.0
 30
0.0
 11
2300.0
 21
600.0
 31
0.0
  0
LINE
  5
7B55
  8
4
  6
CONTINUOUS
 10
1300.0
 20
1000.0
 30
0.0
 11
1300.0
 21
600.0
 31
0.0
  0
LINE
  5
7B58
  8
4
  6
CONTINUOUS
 10
1300.0
 20
600.0
 30
0.0
 11
3700.0
 21
600.0
 31
0.0
  0
LINE
  5
7B59
  8
4
  6
CONTINUOUS
 10
1300.0
 20
800.0
 30
0.0
 11
3700.0
 21
800.0
 31
0.0
  0
TEXT
  5
7B5A
  8
4
  6
CONTINUOUS
 10
1377.004162
 20
863.086052
 30
0.0
 40
100.0
  1
機器名称
  0
TEXT
  5
7B5B
  8
4
  6
CONTINUOUS
 10
1372.516212
 20
643.29031299999986
 30
0.0
 40
100.0
  1
機器型番
  0
TEXT
  5
7B5C
  8
4
  6
CONTINUOUS
 10
2355.3574910000002
 20
845.14353800000015
 30
0.0
 40
100.0
  1
ミツヤ多翼送風機
  0
TEXT
  5
7B5D
  8
4
  6
CONTINUOUS
 10
2373.3089909999999
 20
634.31916899999999
 30
0.0
 40
100.0
  1
MFE#3 1/2-4
  0
TEXT
  5
7B5F
  8
4
  6
CONTINUOUS
 10
1809.5715309999989
 20
4766.8576830000002
 30
0.0
 40
108.0
  1
床置ベット
  0
TEXT
  5
7B60
  8
4
  6
CONTINUOUS
 10
632.33518700000002
 20
5067.7619520000007
 30
0.0
 40
144.0
  1
ベルト駆動式片吸込両持排煙ファン
  0
LINE
  5
7B61
  8
4
  6
CONTINUOUS
 10
500.0
 20
4938.8175090000004
 30
0.0
 11
3700.0
 21
4938.8175090000004
 31
0.0
  0
LINE
  5
7B62
  8
4
  6
CONTINUOUS
 10
500.0
 20
5338.8175090000004
 30
0.0
 11
3700.0
 21
5338.8175090000004
 31
0.0
  0
LINE
  5
7B63
  8
4
  6
CONTINUOUS
 10
1300.0
 20
1000.0
 30
0.0
 11
3700.0
 21
1000.0
 31
0.0
  0
LINE
  5
7B64
  8
4
  6
CONTINUOUS
 10
500.0
 20
5338.8175090000004
 30
0.0
 11
500.0
 21
4938.8175090000004
 31
0.0
  0
TEXT
  5
7B65
  8
4
  6
CONTINUOUS
 10
937.85386600000004
 20
4764.6389549999994
 30
0.0
 40
108.0
  1
右回転左横向
  0
TEXT
  5
7B66
  8
4
  6
CONTINUOUS
 10
2937.9391179999998
 20
5412.122163
 30
0.0
 40
112.0
  1
No.
  0
TEXT
  5
7B67
  8
4
  6
CONTINUOUS
 10
2622.5921250000001
 20
4766.8576830000002
 30
0.0
 40
108.0
  1
縮尺：1/20
  0
LINE
  5
7B68
  8
4
  6
CONTINUOUS
 10
3700.0
 20
5338.8175090000004
 30
0.0
 11
3700.0
 21
4938.8175090000004
 31
0.0
  0
LINE
  5
7B6A
  8
4
  6
CONTINUOUS
 10
2881.234845
 20
5362.5271659999999
 30
0.0
 11
2881.234845
 21
5573.3045229999998
 31
0.0
  0
LINE
  5
7B6B
  8
4
  6
CONTINUOUS
 10
2881.234845
 20
5573.3045229999998
 30
0.0
 11
3700.0
 21
5573.3045229999998
 31
0.0
  0
LINE
  5
7B6C
  8
4
  6
CONTINUOUS
 10
3700.0
 20
5573.3045229999998
 30
0.0
 11
3700.0
 21
5362.5271659999999
 31
0.0
  0
LINE
  5
7B6D
  8
4
  6
CONTINUOUS
 10
3700.0
 20
5362.5271659999999
 30
0.0
 11
2881.234845
 21
5362.5271659999999
 31
0.0
  0
DIMENSION
  5
7B85
  8
3
  6
CONTINUOUS
  2
*D1
 10
1149.85166
 20
1632.497615
 30
0.0
 11
1149.85166
 21
1892.362118
 31
0.0
 70
   128
 13
1241.850021
 23
2192.4976150000002
 33
0.0
 14
1241.850021
 24
1632.497615
 34
0.0
 50
90.0
1001
ACAD
1000
DSTYLE
1002
{
1070
   287
1070
     3
1070
   287
1070
     3
1070
    40
1040
20.0
1070
   143
1040
0.039
1070
   172
1070
     1
1070
   271
1070
     0
1070
   279
1070
     0
1070
   288
1070
     1
1002
}
  0
DIMENSION
  5
7B92
  8
3
  6
CONTINUOUS
  2
*D2
 10
1011.636542
 20
1632.497615
 30
0.0
 11
1011.6365419999991
 21
1892.362118
 31
0.0
 70
   128
 13
1140.7717059999991
 23
2171.4976149999989
 33
0.0
 14
1241.850021
 24
1632.497615
 34
0.0
 50
90.0
1001
ACAD
1000
DSTYLE
1002
{
1070
   287
1070
     3
1070
   287
1070
     3
1070
    40
1040
20.0
1070
   143
1040
0.039
1070
   172
1070
     1
1070
   271
1070
     0
1070
   279
1070
     0
1070
   288
1070
     1
1002
}
  0
DIMENSION
  5
7B9F
  8
3
  6
CONTINUOUS
  2
*D3
 10
864.50433000000044
 20
2171.4976150000002
 30
0.0
 11
864.5043300000001
 21
2368.98207
 31
0.0
 70
   128
 13
1286.850021
 23
2581.4976149999989
 33
0.0
 14
1140.7717059999991
 24
2171.4976149999989
 34
0.0
 50
90.0
1001
ACAD
1000
DSTYLE
1002
{
1070
   287
1070
     3
1070
   287
1070
     3
1070
    40
1040
20.0
1070
   143
1040
0.039
1070
   172
1070
     1
1070
   271
1070
     0
1070
   279
1070
     0
1070
   288
1070
     1
1002
}
  0
DIMENSION
  5
7BAB
  8
3
  6
CONTINUOUS
  2
*D4
 10
864.5043300000001
 20
1501.497615
 30
0.0
 11
814.50432999999987
 21
1836.497615
 31
0.0
 70
     0
 13
1140.7717059999991
 23
2171.4976149999989
 33
0.0
 14
1301.850021
 24
1501.497615
 34
0.0
 50
90.0
1001
ACAD
1000
DSTYLE
1002
{
1070
   287
1070
     4
1070
   287
1070
     4
1070
    40
1040
20.0
1070
    75
1070
     1
1070
   143
1040
0.039
1070
   172
1070
     1
1070
   271
1070
     0
1070
   279
1070
     1
1070
   288
1070
     1
1002
}
  0
DIMENSION
  5
7BB8
  8
3
  6
CONTINUOUS
  2
*D5
 10
1646.850021
 20
1346.0567898010991
 30
0.0
 11
1470.8674149999999
 21
1346.0567898010991
 31
0.0
 70
   128
 13
1301.850021
 23
1501.497615
 33
0.0
 14
1646.850021
 24
1420.243289
 34
0.0
1001
ACAD
1000
DSTYLE
1002
{
1070
   287
1070
     3
1070
   287
1070
     3
1070
    40
1040
20.0
1070
   143
1040
0.039
1070
   172
1070
     1
1070
   271
1070
     0
1070
   279
1070
     0
1070
   288
1070
     1
1002
}
  0
DIMENSION
  5
7BC4
  8
3
  6
CONTINUOUS
  2
*D6
 10
2551.8500210000002
 20
1346.0567898010991
 30
0.0
 11
2099.3500210000002
 21
1396.0567898010979
 31
0.0
 70
     0
 13
1646.850021
 23
1420.243289
 33
0.0
 14
2551.8500210000002
 24
1501.497615
 34
0.0
1001
ACAD
1000
DSTYLE
1002
{
1070
   287
1070
     4
1070
   287
1070
     4
1070
    40
1040
20.0
1070
    75
1070
     1
1070
   143
1040
0.039
1070
   172
1070
     1
1070
   271
1070
     0
1070
   279
1070
     1
1070
   288
1070
     1
1002
}
  0
DIMENSION
  5
7BD1
  8
3
  6
CONTINUOUS
  2
*D7
 10
1646.850021
 20
2729.7878340000002
 30
0.0
 11
1426.2818949999989
 21
2729.7878340000002
 31
0.0
 70
   128
 13
1241.850021
 23
2219.4976149999989
 33
0.0
 14
1646.850021
 24
2667.708623999999
 34
0.0
1001
ACAD
1000
DSTYLE
1002
{
1070
   287
1070
     3
1070
   287
1070
     3
1070
    40
1040
20.0
1070
   143
1040
0.039
1070
   172
1070
     1
1070
   271
1070
     0
1070
   279
1070
     0
1070
   288
1070
     1
1002
}
  0
DIMENSION
  5
7BDD
  8
3
  6
CONTINUOUS
  2
*D8
 10
2109.8500210000002
 20
2729.7878340000002
 30
0.0
 11
1878.350021
 21
2779.7878340000002
 31
0.0
 70
     0
 13
1646.850021
 23
2667.708623999999
 33
0.0
 14
2109.8500210000002
 24
2134.4976149999989
 34
0.0
1001
ACAD
1000
DSTYLE
1002
{
1070
   287
1070
     4
1070
   287
1070
     4
1070
    40
1040
20.0
1070
    75
1070
     1
1070
   143
1040
0.039
1070
   172
1070
     1
1070
   271
1070
     0
1070
   279
1070
     1
1070
   288
1070
     1
1002
}
  0
DIMENSION
  5
7BEA
  8
3
  6
CONTINUOUS
  2
*D9
 10
712.91353500000014
 20
1501.497615
 30
0.0
 11
712.91353499999991
 21
2155.1712459999999
 31
0.0
 70
   128
 13
1286.850021
 23
2581.4976149999989
 33
0.0
 14
1301.850021
 24
1501.497615
 34
0.0
 50
90.0
1001
ACAD
1000
DSTYLE
1002
{
1070
   287
1070
     3
1070
   287
1070
     3
1070
    40
1040
20.0
1070
   143
1040
0.039
1070
   172
1070
     1
1070
   271
1070
     0
1070
   279
1070
     0
1070
   288
1070
     1
1002
}
  0
DIMENSION
  5
7C06
  8
3
  6
CONTINUOUS
  2
*D10
 10
3654.1206659999998
 20
1876.4976149999991
 30
0.0
 11
3654.1206659999998
 21
2159.6256509999998
 31
0.0
 70
   128
 13
3466.275846
 23
2466.4976149999989
 33
0.0
 14
3466.275846
 24
1876.4976149999991
 34
0.0
 50
90.0
1001
ACAD
1000
DSTYLE
1002
{
1070
   287
1070
     3
1070
   287
1070
     3
1070
     3
1000
φ<>
1070
    40
1040
20.0
1070
   143
1040
0.039
1070
   172
1070
     1
1070
   271
1070
     0
1070
   279
1070
     0
1070
   288
1070
     1
1002
}
  0
DIMENSION
  5
7C15
  8
3
  6
CONTINUOUS
  2
*D11
 10
3256.2758459999991
 20
2809.7711410000002
 30
0.0
 11
3362.275846
 21
2860.2517808742782
 31
0.0
 70
   128
 13
3468.275846
 23
2491.4976150000002
 33
0.0
 14
3256.2758459999991
 24
2748.2910787771229
 34
0.0
1001
ACAD
1000
DSTYLE
1002
{
1070
   288
1070
     1
1070
   172
1070
     1
1070
    40
1040
20.0
1070
   271
1070
     0
1070
   143
1040
0.039
1002
}
  0
DIMENSION
  5
7C21
  8
3
  6
CONTINUOUS
  2
*D12
 10
2846.275846
 20
2809.7711410000002
 30
0.0
 11
3051.275846
 21
2909.7711410000002
 31
0.0
 70
     0
  1
MAX\P470
 13
3256.2758459999991
 23
2747.0024162719801
 33
0.0
 14
2846.275846
 24
2416.4976149999989
 34
0.0
1001
ACAD
1000
DSTYLE
1002
{
1070
   287
1070
     4
1070
   287
1070
     4
1070
    40
1040
20.0
1070
    75
1070
     1
1070
   143
1040
0.039
1070
   172
1070
     1
1070
   271
1070
     0
1070
   279
1070
     1
1070
   288
1070
     1
1002
}
  0
DIMENSION
  5
7C30
  8
3
  6
CONTINUOUS
  2
*D13
 10
3256.2758459999991
 20
1362.289442
 30
0.0
 11
3128.7758459999991
 21
1416.5819316900211
 31
0.0
 70
   128
 13
3001.275846
 23
1501.497615
 33
0.0
 14
3256.2758459999991
 24
1407.9051710000001
 34
0.0
1001
ACAD
1000
DSTYLE
1002
{
1070
   288
1070
     1
1070
   172
1070
     1
1070
    40
1040
20.0
1070
   271
1070
     0
1070
   143
1040
0.039
1002
}
  0
DIMENSION
  5
7C3E
  8
3
  6
CONTINUOUS
  2
*D14
 10
3511.275846
 20
1362.289442
 30
0.0
 11
3393.4233589999999
 21
1362.179668
 31
0.0
 70
   128
 13
3256.2758459999991
 23
1407.9051710000001
 33
0.0
 14
3511.275846
 24
1501.497615
 34
0.0
1001
ACAD
1000
DSTYLE
1002
{
1070
   287
1070
     4
1070
   287
1070
     4
1070
    40
1040
20.0
1070
    75
1070
     1
1070
   143
1040
0.039
1070
   172
1070
     1
1070
   271
1070
     0
1070
   279
1070
     1
1070
   288
1070
     1
1002
}
  0
LINE
  5
7C3F
  8
1
  6
CONTINUOUS
 10
3511.275846
 20
1581.4976149999991
 30
0.0
 11
3511.275846
 21
1491.497615
 31
0.0
  0
DIMENSION
  5
7C4C
  8
3
  6
CONTINUOUS
  2
*D15
 10
2551.8500210000002
 20
4079.4558569999999
 30
0.0
 11
1917.163628
 21
4079.4558569999999
 31
0.0
 70
   128
 13
1301.850021
 23
3911.4976150000002
 33
0.0
 14
2551.8500210000002
 24
3911.4976150000002
 34
0.0
1001
ACAD
1000
DSTYLE
1002
{
1070
   287
1070
     3
1070
   287
1070
     3
1070
    40
1040
20.0
1070
   143
1040
0.039
1070
   172
1070
     1
1070
   271
1070
     0
1070
   279
1070
     0
1070
   288
1070
     1
1002
}
  0
DIMENSION
  5
7C59
  8
3
  6
CONTINUOUS
  2
*D16
 10
2750.9128930000011
 20
3401.4976149999989
 30
0.0
 11
2750.9128930000002
 21
3663.3883729999998
 31
0.0
 70
   128
 13
2551.8500210000002
 23
3911.4976150000002
 33
0.0
 14
2551.8500210000002
 24
3401.4976149999989
 34
0.0
 50
90.0
1001
ACAD
1000
DSTYLE
1002
{
1070
   287
1070
     3
1070
   287
1070
     3
1070
    40
1040
20.0
1070
   143
1040
0.039
1070
   172
1070
     1
1070
   271
1070
     0
1070
   279
1070
     0
1070
   288
1070
     1
1002
}
  0
DIMENSION
  5
7CE7
  8
3
  6
CONTINUOUS
  2
*D17
 10
3466.275846
 20
2651.098414
 30
0.0
 11
3251.176485
 21
2651.098414
 31
0.0
 70
   128
 13
3046.275846
 23
2530.4976149999989
 33
0.0
 14
3466.275846
 24
2530.4976149999989
 34
0.0
1001
ACAD
1000
DSTYLE
1002
{
1070
   287
1070
     3
1070
   287
1070
     3
1070
    40
1040
20.0
1070
   143
1040
0.039
1070
   172
1070
     1
1070
   271
1070
     0
1070
   279
1070
     0
1070
   288
1070
     1
1002
}
  0
DIMENSION
  5
7D6C
  8
3
  2
*D18
 10
2551.8500210000002
 20
2859.1958766878961
 30
0.0
 11
1902.3423235397779
 21
2859.1958766878961
 31
0.0
 70
   128
 13
1241.850021
 23
2219.4976149999989
 33
0.0
 14
2551.8500210000002
 24
1581.4976149999991
 34
0.0
1001
ACAD
1000
DSTYLE
1002
{
1070
   287
1070
     3
1070
   287
1070
     3
1070
    40
1040
20.0
1070
   143
1040
0.039
1070
   172
1070
     1
1070
   271
1070
     0
1070
   279
1070
     0
1070
   288
1070
     1
1002
}
  0
ENDSEC
  0
EOF
