  0
SECTION
  2
HEADER
  9
$ACADVER
  1
AC1009
  9
$INSBASE
 10
0.0
 20
0.0
 30
0.0
  9
$EXTMIN
 10
466.11319400000002
 20
600.0
 30
0.0
  9
$EXTMAX
 10
3700.0
 20
5573.3045229999998
 30
0.0
  9
$LIMMIN
 10
0.0
 20
0.0
  9
$LIMMAX
 10
297.0
 20
210.0
  9
$ORTHOMODE
 70
     0
  9
$REGENMODE
 70
     1
  9
$FILLMODE
 70
     0
  9
$QTEXTMODE
 70
     0
  9
$MIRRTEXT
 70
     1
  9
$DRAGMODE
 70
     2
  9
$LTSCALE
 40
100.0
  9
$OSMODE
 70
    37
  9
$ATTMODE
 70
     1
  9
$TEXTSIZE
 40
180.0
  9
$TRACEWID
 40
0.05
  9
$TEXTSTYLE
  7
STANDARD
  9
$CLAYER
  8
3
  9
$CELTYPE
  6
BYLAYER
  9
$CECOLOR
 62
   256
  9
$DIMSCALE
 40
20.0
  9
$DIMASZ
 40
2.0
  9
$DIMEXO
 40
0.5
  9
$DIMDLI
 40
10.0
  9
$DIMRND
 40
0.0
  9
$DIMDLE
 40
0.0
  9
$DIMEXE
 40
1.0
  9
$DIMTP
 40
1.0
  9
$DIMTM
 40
1.0
  9
$DIMTXT
 40
3.0
  9
$DIMCEN
 40
0.0
  9
$DIMTSZ
 40
0.0
  9
$DIMTOL
 70
     0
  9
$DIMLIM
 70
     0
  9
$DIMTIH
 70
     0
  9
$DIMTOH
 70
     0
  9
$DIMSE1
 70
     0
  9
$DIMSE2
 70
     0
  9
$DIMTAD
 70
     1
  9
$DIMZIN
 70
     8
  9
$DIMBLK
  1

  9
$DIMASO
 70
     1
  9
$DIMSHO
 70
     1
  9
$DIMPOST
  1

  9
$DIMAPOST
  1

  9
$DIMALT
 70
     0
  9
$DIMALTD
 70
     2
  9
$DIMALTF
 40
0.039
  9
$DIMLFAC
 40
1.0
  9
$DIMTOFL
 70
     1
  9
$DIMTVP
 40
0.0
  9
$DIMTIX
 70
     0
  9
$DIMSOXD
 70
     0
  9
$DIMSAH
 70
     1
  9
$DIMBLK1
  1
OPEN
  9
$DIMBLK2
  1
OPEN
  9
$DIMSTYLE
  2
IGA
  9
$DIMCLRD
 70
     0
  9
$DIMCLRE
 70
     0
  9
$DIMCLRT
 70
     0
  9
$DIMTFAC
 40
10.0
  9
$DIMGAP
 40
1.0
  9
$LUNITS
 70
     2
  9
$LUPREC
 70
     3
  9
$SKETCHINC
 40
0.1
  9
$FILLETRAD
 40
50.0
  9
$AUNITS
 70
     0
  9
$AUPREC
 70
     0
  9
$MENU
  1
acad
  9
$ELEVATION
 40
0.0
  9
$PELEVATION
 40
0.0
  9
$THICKNESS
 40
0.0
  9
$LIMCHECK
 70
     0
  9
$BLIPMODE
 70
     0
  9
$CHAMFERA
 40
0.5
  9
$CHAMFERB
 40
0.5
  9
$SKPOLY
 70
     0
  9
$TDCREATE
 40
2450736.5861916658
  9
$TDUPDATE
 40
2454953.836868796
  9
$TDINDWG
 40
0.0044433912
  9
$TDUSRTIMER
 40
0.0044433912
  9
$USRTIMER
 70
     1
  9
$ANGBASE
 50
0.0
  9
$ANGDIR
 70
     0
  9
$PDMODE
 70
     0
  9
$PDSIZE
 40
0.0
  9
$PLINEWID
 40
0.0
  9
$COORDS
 70
     1
  9
$SPLFRAME
 70
     0
  9
$SPLINETYPE
 70
     6
  9
$SPLINESEGS
 70
     8
  9
$ATTDIA
 70
     0
  9
$ATTREQ
 70
     1
  9
$HANDLING
 70
 10241
  9
$HANDSEED
  5
7E75
  9
$SURFTAB1
 70
     6
  9
$SURFTAB2
 70
     6
  9
$SURFTYPE
 70
     6
  9
$SURFU
 70
     6
  9
$SURFV
 70
     6
  9
$UCSNAME
  2

  9
$UCSORG
 10
0.0
 20
0.0
 30
0.0
  9
$UCSXDIR
 10
1.0
 20
0.0
 30
0.0
  9
$UCSYDIR
 10
0.0
 20
1.0
 30
0.0
  9
$PUCSNAME
  2

  9
$PUCSORG
 10
0.0
 20
0.0
 30
0.0
  9
$PUCSXDIR
 10
1.0
 20
0.0
 30
0.0
  9
$PUCSYDIR
 10
0.0
 20
1.0
 30
0.0
  9
$USERI1
 70
     0
  9
$USERI2
 70
     0
  9
$USERI3
 70
     0
  9
$USERI4
 70
     0
  9
$USERI5
 70
     0
  9
$USERR1
 40
0.0
  9
$USERR2
 40
0.0
  9
$USERR3
 40
0.0
  9
$USERR4
 40
0.0
  9
$USERR5
 40
0.0
  9
$WORLDVIEW
 70
     1
  9
$SHADEDGE
 70
     3
  9
$SHADEDIF
 70
    70
  9
$TILEMODE
 70
     1
  9
$MAXACTVP
 70
    16
  9
$PLIMCHECK
 70
     0
  9
$PEXTMIN
 10
1.0000000000000000E+020
 20
1.0000000000000000E+020
 30
1.0000000000000000E+020
  9
$PEXTMAX
 10
-1.0000000000000000E+020
 20
-1.0000000000000000E+020
 30
-1.0000000000000000E+020
  9
$PLIMMIN
 10
0.0
 20
0.0
  9
$PLIMMAX
 10
12.0
 20
9.0
  9
$UNITMODE
 70
     0
  9
$VISRETAIN
 70
     0
  9
$PLINEGEN
 70
     0
  9
$PSLTSCALE
 70
     1
  0
ENDSEC
  0
SECTION
  2
TABLES
  0
TABLE
  2
VPORT
 70
     2
  0
VPORT
  2
*ACTIVE
 70
     0
 10
0.0
 20
0.0
 11
1.0
 21
1.0
 12
5834.5109781346382
 22
3910.5181788608038
 13
0.0
 23
0.0
 14
10.0
 24
10.0
 15
10.0
 25
10.0
 16
0.0
 26
0.0
 36
1.0
 17
0.0
 27
0.0
 37
0.0
 40
7720.8617819453802
 41
1.5051150895140659
 42
50.0
 43
0.0
 44
0.0
 50
0.0
 51
0.0
 71
     0
 72
   100
 73
     1
 74
     0
 75
     0
 76
     0
 77
     0
 78
     0
  0
ENDTAB
  0
TABLE
  2
LTYPE
 70
     2
  0
LTYPE
  2
CONTINUOUS
 70
     0
  3
Solid line
 72
    65
 73
     0
 40
0.0
  0
LTYPE
  2
CENTER
 70
     0
  3
____ _ ____ _ ____ _ ____ _ ____ _ ____ _ ____ 
 72
    65
 73
     4
 40
2.0
 49
1.25
 49
-0.25
 49
0.25
 49
-0.25
  0
ENDTAB
  0
TABLE
  2
LAYER
 70
     6
  0
LAYER
  2
0
 70
     0
 62
     7
  6
CONTINUOUS
  0
LAYER
  2
3
 70
     0
 62
     2
  6
CONTINUOUS
  0
LAYER
  2
2
 70
     0
 62
     3
  6
CENTER
  0
LAYER
  2
1
 70
     0
 62
     4
  6
CONTINUOUS
  0
LAYER
  2
4
 70
     0
 62
     7
  6
CONTINUOUS
  0
LAYER
  2
DEFPOINTS
 70
     0
 62
     7
  6
CONTINUOUS
  0
ENDTAB
  0
TABLE
  2
STYLE
 70
     1
  0
STYLE
  2
STANDARD
 70
     0
 40
0.0
 41
1.0
 50
0.0
 71
     0
 42
180.0
  3
simplex.shx
  4
extfont.shx
  0
ENDTAB
  0
TABLE
  2
VIEW
 70
     0
  0
ENDTAB
  0
TABLE
  2
UCS
 70
     0
  0
ENDTAB
  0
TABLE
  2
APPID
 70
     1
  0
APPID
  2
ACAD
 70
     0
  0
ENDTAB
  0
TABLE
  2
DIMSTYLE
 70
     1
  0
DIMSTYLE
  2
IGA
 70
     0
  3

  4

  5

  6
OPEN
  7
OPEN
 40
2.0
 41
2.0
 42
0.5
 43
10.0
 44
1.0
 45
0.0
 46
0.0
 47
1.0
 48
1.0
140
3.0
141
0.0
142
0.0
143
0.03937
144
1.0
145
0.0
146
10.0
147
1.0
 71
     0
 72
     0
 73
     0
 74
     0
 75
     0
 76
     0
 77
     1
 78
     8
170
     0
171
     2
172
     0
173
     1
174
     0
175
     0
176
     0
177
     0
178
     0
  0
ENDTAB
  0
ENDSEC
  0
SECTION
  2
BLOCKS
  0
BLOCK
  8
0
  2
$MODEL_SPACE
 70
     0
 10
0.0
 20
0.0
 30
0.0
  3
$MODEL_SPACE
  1

  0
ENDBLK
  5
1B
  8
0
  0
BLOCK
 67
     1
  8
0
  2
$PAPER_SPACE
 70
     0
 10
0.0
 20
0.0
 30
0.0
  3
$PAPER_SPACE
  1

  0
ENDBLK
  5
18
 67
     1
  8
0
  0
BLOCK
  8
0
  2
_OPEN
 70
     0
 10
0.0
 20
0.0
 30
0.0
  3
_OPEN
  1

  0
LINE
  5
7AC9
  8
0
  6
BYBLOCK
 62
     0
 10
-1.0
 20
0.166667
 30
0.0
 11
0.0
 21
0.0
 31
0.0
  0
LINE
  5
7ACA
  8
0
  6
BYBLOCK
 62
     0
 10
0.0
 20
0.0
 30
0.0
 11
-1.0
 21
-0.166667
 31
0.0
  0
LINE
  5
7ACB
  8
0
  6
BYBLOCK
 62
     0
 10
0.0
 20
0.0
 30
0.0
 11
-1.0
 21
0.0
 31
0.0
  0
ENDBLK
  5
7ACC
  8
0
  0
BLOCK
  8
0
  2
*D1
 70
     1
 10
0.0
 20
0.0
 30
0.0
  3
*D1
  1

  0
LINE
  5
7DD9
  8
3
  6
CONTINUOUS
 62
     0
 10
1882.5761639999989
 20
2416.2116719999999
 30
0.0
 11
2042.7119419999999
 21
2416.2116719999999
 31
0.0
  0
LINE
  5
7DDA
  8
3
  6
CONTINUOUS
 62
     0
 10
1882.5761639999989
 20
1856.211671999999
 30
0.0
 11
2042.7119419999999
 21
1856.211671999999
 31
0.0
  0
LINE
  5
7DDB
  8
3
  6
CONTINUOUS
 62
     0
 10
2022.7119419999999
 20
2376.211671999999
 30
0.0
 11
2022.7119419999999
 21
1896.2116719999999
 31
0.0
  0
INSERT
  5
7DDC
  8
3
  6
CONTINUOUS
 62
     0
  2
_OPEN
 10
2022.7119419999999
 20
2416.2116719999999
 30
0.0
 41
40.0
 42
40.0
 43
40.0
 50
90.0
  0
INSERT
  5
7DDD
  8
3
  6
CONTINUOUS
 62
     0
  2
_OPEN
 10
2022.7119419999999
 20
1856.211671999999
 30
0.0
 41
40.0
 42
40.0
 43
40.0
 50
270.0
  0
TEXT
  8
3
  40
60
  5
7E64
  62
0
  72
0
  71
0
 10
1852.71
 20
2072.84
 30
0.000000
  1
560
  0
POINT
  5
7DDF
  8
DEFPOINTS
  6
CONTINUOUS
 62
     0
 10
1872.5761640000001
 20
2416.2116719999999
 30
0.0
  0
POINT
  5
7DE0
  8
DEFPOINTS
  6
CONTINUOUS
 62
     0
 10
1872.5761640000001
 20
1856.211671999999
 30
0.0
  0
POINT
  5
7DE1
  8
DEFPOINTS
  6
CONTINUOUS
 62
     0
 10
2022.7119419999999
 20
1856.211671999999
 30
0.0
  0
ENDBLK
  5
7AD9
  8
0
  0
BLOCK
  8
0
  2
*D2
 70
     1
 10
0.0
 20
0.0
 30
0.0
  3
*D2
  1

  0
LINE
  5
7DE2
  8
3
  6
CONTINUOUS
 62
     0
 10
1979.194383999999
 20
2395.211671999999
 30
0.0
 11
2193.1646049999999
 21
2395.211671999999
 31
0.0
  0
LINE
  5
7DE3
  8
3
  6
CONTINUOUS
 62
     0
 10
1882.5761639999989
 20
1856.211671999999
 30
0.0
 11
2193.1646049999999
 21
1856.211671999999
 31
0.0
  0
LINE
  5
7DE4
  8
3
  6
CONTINUOUS
 62
     0
 10
2173.1646049999999
 20
2355.2116719999999
 30
0.0
 11
2173.1646049999999
 21
1896.2116719999999
 31
0.0
  0
INSERT
  5
7DE5
  8
3
  6
CONTINUOUS
 62
     0
  2
_OPEN
 10
2173.1646049999999
 20
2395.211671999999
 30
0.0
 41
40.0
 42
40.0
 43
40.0
 50
90.0
  0
INSERT
  5
7DE6
  8
3
  6
CONTINUOUS
 62
     0
  2
_OPEN
 10
2173.1646049999999
 20
1856.211671999999
 30
0.0
 41
40.0
 42
40.0
 43
40.0
 50
270.0
  0
TEXT
  8
3
  40
60
  5
7E65
  62
0
  72
0
  71
0
 10
2003.16
 20
2072.84
 30
0.000000
  1
539
  0
POINT
  5
7DE8
  8
DEFPOINTS
  6
CONTINUOUS
 62
     0
 10
1969.1943839999999
 20
2395.211671999999
 30
0.0
  0
POINT
  5
7DE9
  8
DEFPOINTS
  6
CONTINUOUS
 62
     0
 10
1872.5761640000001
 20
1856.211671999999
 30
0.0
  0
POINT
  5
7DEA
  8
DEFPOINTS
  6
CONTINUOUS
 62
     0
 10
2173.1646049999999
 20
1856.211671999999
 30
0.0
  0
ENDBLK
  5
7AE6
  8
0
  0
BLOCK
  8
0
  2
*D3
 70
     1
 10
0.0
 20
0.0
 30
0.0
  3
*D3
  1

  0
LINE
  5
7DEB
  8
3
  6
CONTINUOUS
 62
     0
 10
1837.5761640000001
 20
2805.2116719999999
 30
0.0
 11
2353.3239020000001
 21
2805.2116719999999
 31
0.0
  0
LINE
  5
7DEC
  8
3
  6
CONTINUOUS
 62
     0
 10
1979.194383999999
 20
2395.211671999999
 30
0.0
 11
2353.3239020000001
 21
2395.211671999999
 31
0.0
  0
LINE
  5
7DED
  8
3
  6
CONTINUOUS
 62
     0
 10
2333.3239020000001
 20
2765.211671999999
 30
0.0
 11
2333.3239020000001
 21
2435.211671999999
 31
0.0
  0
INSERT
  5
7DEE
  8
3
  6
CONTINUOUS
 62
     0
  2
_OPEN
 10
2333.3239020000001
 20
2805.2116719999999
 30
0.0
 41
40.0
 42
40.0
 43
40.0
 50
90.0
  0
INSERT
  5
7DEF
  8
3
  6
CONTINUOUS
 62
     0
  2
_OPEN
 10
2333.3239020000001
 20
2395.211671999999
 30
0.0
 41
40.0
 42
40.0
 43
40.0
 50
270.0
  0
TEXT
  8
3
  40
60
  5
7E66
  62
0
  72
0
  71
0
 10
2163.32
 20
2494.69
 30
0.000000
  1
410
  0
POINT
  5
7DF1
  8
DEFPOINTS
  6
CONTINUOUS
 62
     0
 10
1827.5761640000001
 20
2805.2116719999999
 30
0.0
  0
POINT
  5
7DF2
  8
DEFPOINTS
  6
CONTINUOUS
 62
     0
 10
1969.1943839999999
 20
2395.211671999999
 30
0.0
  0
POINT
  5
7DF3
  8
DEFPOINTS
  6
CONTINUOUS
 62
     0
 10
2333.3239020000001
 20
2395.211671999999
 30
0.0
  0
ENDBLK
  5
7AF3
  8
0
  0
BLOCK
  8
0
  2
*D4
 70
     1
 10
0.0
 20
0.0
 30
0.0
  3
*D4
  1

  0
LINE
  5
7DF4
  8
3
  6
CONTINUOUS
 62
     0
 10
1822.5761640000001
 20
1725.2116719999999
 30
0.0
 11
2353.3239020000001
 21
1725.2116719999999
 31
0.0
  0
LINE
  5
7DF5
  8
3
  6
CONTINUOUS
 62
     0
 10
2333.3239020000001
 20
2355.2116719999999
 30
0.0
 11
2333.3239020000001
 21
1765.211671999999
 31
0.0
  0
INSERT
  5
7DF6
  8
3
  6
CONTINUOUS
 62
     0
  2
_OPEN
 10
2333.3239020000001
 20
2395.211671999999
 30
0.0
 41
40.0
 42
40.0
 43
40.0
 50
90.0
  0
INSERT
  5
7DF7
  8
3
  6
CONTINUOUS
 62
     0
  2
_OPEN
 10
2333.3239020000001
 20
1725.2116719999999
 30
0.0
 41
40.0
 42
40.0
 43
40.0
 50
270.0
  0
TEXT
  8
3
  40
60
  5
7E67
  62
0
  72
0
  71
0
 10
2163.32
 20
1954.01
 30
0.000000
  1
670
  0
POINT
  5
7DF9
  8
DEFPOINTS
  6
CONTINUOUS
 62
     0
 10
1969.1943839999999
 20
2395.211671999999
 30
0.0
  0
POINT
  5
7DFA
  8
DEFPOINTS
  6
CONTINUOUS
 62
     0
 10
1812.5761640000001
 20
1725.2116719999999
 30
0.0
  0
POINT
  5
7DFB
  8
DEFPOINTS
  6
CONTINUOUS
 62
     0
 10
2333.3239020000001
 20
1725.2116719999999
 30
0.0
  0
ENDBLK
  5
7AFF
  8
0
  0
BLOCK
  8
0
  2
*D5
 70
     1
 10
0.0
 20
0.0
 30
0.0
  3
*D5
  1

  0
LINE
  5
7DFC
  8
3
  6
CONTINUOUS
 62
     0
 10
1837.5761640000001
 20
2805.2116719999999
 30
0.0
 11
2498.9232609999999
 21
2805.2116719999999
 31
0.0
  0
LINE
  5
7DFD
  8
3
  6
CONTINUOUS
 62
     0
 10
1822.5761640000001
 20
1725.2116719999999
 30
0.0
 11
2498.9232609999999
 21
1725.2116719999999
 31
0.0
  0
LINE
  5
7DFE
  8
3
  6
CONTINUOUS
 62
     0
 10
2478.9232609999999
 20
2765.211671999999
 30
0.0
 11
2478.9232609999999
 21
1765.211671999999
 31
0.0
  0
INSERT
  5
7DFF
  8
3
  6
CONTINUOUS
 62
     0
  2
_OPEN
 10
2478.9232609999999
 20
2805.2116719999999
 30
0.0
 41
40.0
 42
40.0
 43
40.0
 50
90.0
  0
INSERT
  5
7E00
  8
3
  6
CONTINUOUS
 62
     0
  2
_OPEN
 10
2478.9232609999999
 20
1725.2116719999999
 30
0.0
 41
40.0
 42
40.0
 43
40.0
 50
270.0
  0
TEXT
  8
3
  40
60
  5
7E68
  62
0
  72
0
  71
0
 10
2308.92
 20
2160.12
 30
0.000000
  1
1080
  0
POINT
  5
7E02
  8
DEFPOINTS
  6
CONTINUOUS
 62
     0
 10
1827.5761640000001
 20
2805.2116719999999
 30
0.0
  0
POINT
  5
7E03
  8
DEFPOINTS
  6
CONTINUOUS
 62
     0
 10
1812.5761640000001
 20
1725.2116719999999
 30
0.0
  0
POINT
  5
7E04
  8
DEFPOINTS
  6
CONTINUOUS
 62
     0
 10
2478.9232609999999
 20
1725.2116719999999
 30
0.0
  0
ENDBLK
  5
7B0C
  8
0
  0
BLOCK
  8
0
  2
*D6
 70
     1
 10
0.0
 20
0.0
 30
0.0
  3
*D6
  1

  0
LINE
  5
7E05
  8
3
  6
CONTINUOUS
 62
     0
 10
1872.5761640000001
 20
2453.2116719999999
 30
0.0
 11
1872.5761640000001
 21
3004.8967699999998
 31
0.0
  0
LINE
  5
7E06
  8
3
  6
CONTINUOUS
 62
     0
 10
1467.5761640000001
 20
2955.1210420000002
 30
0.0
 11
1467.5761640000001
 21
3004.8967699999998
 31
0.0
  0
LINE
  5
7E07
  8
3
  6
CONTINUOUS
 62
     0
 10
1832.5761639999989
 20
2984.8967699999998
 30
0.0
 11
1507.5761640000001
 21
2984.8967699999998
 31
0.0
  0
INSERT
  5
7E08
  8
3
  6
CONTINUOUS
 62
     0
  2
_OPEN
 10
1872.5761640000001
 20
2984.8967699999998
 30
0.0
 41
40.0
 42
40.0
 43
40.0
  0
INSERT
  5
7E09
  8
3
  6
CONTINUOUS
 62
     0
  2
_OPEN
 10
1467.5761640000001
 20
2984.8967699999998
 30
0.0
 41
40.0
 42
40.0
 43
40.0
 50
180.0
  0
TEXT
  8
3
  40
60
  5
7E69
  62
0
  72
0
  71
0
 10
1548.42
 20
2928.70
 30
0.000000
  1
405
  0
POINT
  5
7E0B
  8
DEFPOINTS
  6
CONTINUOUS
 62
     0
 10
1872.5761640000001
 20
2443.2116719999999
 30
0.0
  0
POINT
  5
7E0C
  8
DEFPOINTS
  6
CONTINUOUS
 62
     0
 10
1467.5761640000001
 20
2945.1210420000002
 30
0.0
  0
POINT
  5
7E0D
  8
DEFPOINTS
  6
CONTINUOUS
 62
     0
 10
1467.5761640000001
 20
2984.8967699999998
 30
0.0
  0
ENDBLK
  5
7BF3
  8
0
  0
BLOCK
  8
0
  2
*D7
 70
     1
 10
0.0
 20
0.0
 30
0.0
  3
*D7
  1

  0
LINE
  5
7E0E
  8
3
  6
CONTINUOUS
 62
     0
 10
1004.5761639999999
 20
2368.2116719999999
 30
0.0
 11
1004.5761639999999
 21
3004.8967699999998
 31
0.0
  0
LINE
  5
7E0F
  8
3
  6
CONTINUOUS
 62
     0
 10
1427.5761640000001
 20
2984.8967699999998
 30
0.0
 11
1044.5761640000001
 21
2984.8967699999998
 31
0.0
  0
INSERT
  5
7E10
  8
3
  6
CONTINUOUS
 62
     0
  2
_OPEN
 10
1467.5761640000001
 20
2984.8967699999998
 30
0.0
 41
40.0
 42
40.0
 43
40.0
  0
INSERT
  5
7E11
  8
3
  6
CONTINUOUS
 62
     0
  2
_OPEN
 10
1004.5761639999999
 20
2984.8967699999998
 30
0.0
 41
40.0
 42
40.0
 43
40.0
 50
180.0
  0
TEXT
  8
3
  40
60
  5
7E6A
  62
0
  72
0
  71
0
 10
1116.08
 20
2928.70
 30
0.000000
  1
463
  0
POINT
  5
7E13
  8
DEFPOINTS
  6
CONTINUOUS
 62
     0
 10
1467.5761640000001
 20
2945.1210420000002
 30
0.0
  0
POINT
  5
7E14
  8
DEFPOINTS
  6
CONTINUOUS
 62
     0
 10
1004.5761639999999
 20
2358.211671999999
 30
0.0
  0
POINT
  5
7E15
  8
DEFPOINTS
  6
CONTINUOUS
 62
     0
 10
1004.5761639999999
 20
2984.8967699999998
 30
0.0
  0
ENDBLK
  5
7CFE
  8
0
  0
BLOCK
  8
0
  2
*D8
 70
     1
 10
0.0
 20
0.0
 30
0.0
  3
*D8
  1

  0
LINE
  5
7E16
  8
3
  6
CONTINUOUS
 62
     0
 10
562.57616399999995
 20
1715.211671999999
 30
0.0
 11
562.57616399999995
 21
1510.1096660000001
 31
0.0
  0
LINE
  5
7E17
  8
3
  6
CONTINUOUS
 62
     0
 10
1467.5761640000001
 20
1602.004385906796
 30
0.0
 11
1467.5761640000001
 21
1510.1096660000001
 31
0.0
  0
LINE
  5
7E18
  8
3
  6
CONTINUOUS
 62
     0
 10
602.57616399999995
 20
1530.1096660000001
 30
0.0
 11
1427.5761640000001
 21
1530.1096660000001
 31
0.0
  0
INSERT
  5
7E19
  8
3
  6
CONTINUOUS
 62
     0
  2
_OPEN
 10
562.57616399999995
 20
1530.1096660000001
 30
0.0
 41
40.0
 42
40.0
 43
40.0
 50
180.0
  0
INSERT
  5
7E1A
  8
3
  6
CONTINUOUS
 62
     0
  2
_OPEN
 10
1467.5761640000001
 20
1530.1096660000001
 30
0.0
 41
40.0
 42
40.0
 43
40.0
  0
TEXT
  8
3
  40
60
  5
7E6B
  62
0
  72
0
  71
0
 10
878.663
 20
1473.91
 30
0.000000
  1
905
  0
POINT
  5
7E1C
  8
DEFPOINTS
  6
CONTINUOUS
 62
     0
 10
562.57616399999995
 20
1725.2116719999999
 30
0.0
  0
POINT
  5
7E1D
  8
DEFPOINTS
  6
CONTINUOUS
 62
     0
 10
1467.5761640000001
 20
1612.004385906796
 30
0.0
  0
POINT
  5
7E1E
  8
DEFPOINTS
  6
CONTINUOUS
 62
     0
 10
1467.5761640000001
 20
1530.1096660000001
 30
0.0
  0
ENDBLK
  5
7CD2
  8
0
  0
BLOCK
  8
0
  2
*D9
 70
     1
 10
0.0
 20
0.0
 30
0.0
  3
*D9
  1

  0
LINE
  5
7E1F
  8
3
  6
CONTINUOUS
 62
     0
 10
1812.5761640000001
 20
1715.211671999999
 30
0.0
 11
1812.5761640000001
 21
1510.1096660000001
 31
0.0
  0
LINE
  5
7E20
  8
3
  6
CONTINUOUS
 62
     0
 10
1507.5761640000001
 20
1530.1096660000001
 30
0.0
 11
1772.5761640000001
 21
1530.1096660000001
 31
0.0
  0
INSERT
  5
7E21
  8
3
  6
CONTINUOUS
 62
     0
  2
_OPEN
 10
1467.5761640000001
 20
1530.1096660000001
 30
0.0
 41
40.0
 42
40.0
 43
40.0
 50
180.0
  0
INSERT
  5
7E22
  8
3
  6
CONTINUOUS
 62
     0
  2
_OPEN
 10
1812.5761640000001
 20
1530.1096660000001
 30
0.0
 41
40.0
 42
40.0
 43
40.0
  0
TEXT
  8
3
  40
60
  5
7E6C
  62
0
  72
0
  71
0
 10
1520.08
 20
1473.91
 30
0.000000
  1
345
  0
POINT
  5
7E24
  8
DEFPOINTS
  6
CONTINUOUS
 62
     0
 10
1467.5761640000001
 20
1612.004385906796
 30
0.0
  0
POINT
  5
7E25
  8
DEFPOINTS
  6
CONTINUOUS
 62
     0
 10
1812.5761640000001
 20
1725.2116719999999
 30
0.0
  0
POINT
  5
7E26
  8
DEFPOINTS
  6
CONTINUOUS
 62
     0
 10
1812.5761640000001
 20
1530.1096660000001
 30
0.0
  0
ENDBLK
  5
7CDC
  8
0
  0
BLOCK
  8
0
  2
*D10
 70
     1
 10
0.0
 20
0.0
 30
0.0
  3
*D10
  1

  0
LINE
  5
7E27
  8
3
  6
CONTINUOUS
 62
     0
 10
3462.0670070000001
 20
2690.2116719999999
 30
0.0
 11
3663.8667479999999
 21
2690.2116719999999
 31
0.0
  0
LINE
  5
7E28
  8
3
  6
CONTINUOUS
 62
     0
 10
3460.0670070000001
 20
2100.211671999999
 30
0.0
 11
3663.8667479999999
 21
2100.211671999999
 31
0.0
  0
LINE
  5
7E29
  8
3
  6
CONTINUOUS
 62
     0
 10
3643.8667479999999
 20
2650.2116719999999
 30
0.0
 11
3643.8667479999999
 21
2140.211671999999
 31
0.0
  0
INSERT
  5
7E2A
  8
3
  6
CONTINUOUS
 62
     0
  2
_OPEN
 10
3643.8667479999999
 20
2690.2116719999999
 30
0.0
 41
40.0
 42
40.0
 43
40.0
 50
90.0
  0
INSERT
  5
7E2B
  8
3
  6
CONTINUOUS
 62
     0
  2
_OPEN
 10
3643.8667479999999
 20
2100.211671999999
 30
0.0
 41
40.0
 42
40.0
 43
40.0
 50
270.0
  0
TEXT
  8
3
  40
60
  5
7E6D
  62
0
  72
0
  71
0
 10
3473.87
 20
2281.34
 30
0.000000
  1
φ590
  0
POINT
  5
7E2D
  8
DEFPOINTS
  6
CONTINUOUS
 62
     0
 10
3452.0670070000001
 20
2690.2116719999999
 30
0.0
  0
POINT
  5
7E2E
  8
DEFPOINTS
  6
CONTINUOUS
 62
     0
 10
3450.0670070000001
 20
2100.211671999999
 30
0.0
  0
POINT
  5
7E2F
  8
DEFPOINTS
  6
CONTINUOUS
 62
     0
 10
3643.8667479999999
 20
2100.211671999999
 30
0.0
  0
ENDBLK
  5
7CB2
  8
0
  0
BLOCK
  8
0
  2
*D11
 70
     1
 10
0.0
 20
0.0
 30
0.0
  3
*D11
  1

  0
LINE
  5
7C9E
  8
0
  6
BYBLOCK
 62
     0
 10
3452.0670070000001
 20
2725.2116719999999
 30
0.0
 11
3452.0670070000001
 21
3026.9044520000002
 31
0.0
  0
LINE
  5
7C9F
  8
0
  6
BYBLOCK
 62
     0
 10
3240.0670070000001
 20
2985.8678359999999
 30
0.0
 11
3240.0670070000001
 21
3026.9044520000002
 31
0.0
  0
LINE
  5
7CA0
  8
0
  6
BYBLOCK
 62
     0
 10
3412.0670070000001
 20
3006.9044520000002
 30
0.0
 11
3280.0670070000001
 21
3006.9044520000002
 31
0.0
  0
TEXT
  5
7CA1
  8
3
 62
     0
 10
3274.6384355714281
 20
3035.5854747922072
 30
0.0
 40
60.0
  1
212
  0
INSERT
  5
7CA2
  8
0
  6
BYBLOCK
 62
     0
  2
_OPEN
 10
3452.0670070000001
 20
3006.9044520000002
 30
0.0
 41
40.0
 42
40.0
 43
40.0
  0
INSERT
  5
7CA3
  8
0
  6
BYBLOCK
 62
     0
  2
_OPEN
 10
3240.0670070000001
 20
3006.9044520000002
 30
0.0
 41
40.0
 42
40.0
 43
40.0
 50
180.0
  0
POINT
  5
7CA4
  8
DEFPOINTS
  6
BYBLOCK
 62
     0
 10
3452.0670070000001
 20
2715.2116719999999
 30
0.0
  0
POINT
  5
7CA5
  8
DEFPOINTS
  6
BYBLOCK
 62
     0
 10
3240.0670070000001
 20
2975.8678359999999
 30
0.0
  0
POINT
  5
7CA6
  8
DEFPOINTS
  6
BYBLOCK
 62
     0
 10
3240.0670070000001
 20
3006.9044520000002
 30
0.0
  0
ENDBLK
  5
7CA7
  8
0
  0
BLOCK
  8
0
  2
*D12
 70
     1
 10
0.0
 20
0.0
 30
0.0
  3
*D12
  1

  0
LINE
  5
7E30
  8
3
  6
CONTINUOUS
 62
     0
 10
2830.0670070000001
 20
2650.2116719999999
 30
0.0
 11
2830.0670070000001
 21
3026.9044520000002
 31
0.0
  0
LINE
  5
7E31
  8
3
  6
CONTINUOUS
 62
     0
 10
3200.0670069999992
 20
3006.9044520000002
 30
0.0
 11
2870.0670070000001
 21
3006.9044520000002
 31
0.0
  0
INSERT
  5
7E32
  8
3
  6
CONTINUOUS
 62
     0
  2
_OPEN
 10
3240.0670070000001
 20
3006.9044520000002
 30
0.0
 41
40.0
 42
40.0
 43
40.0
  0
INSERT
  5
7E33
  8
3
  6
CONTINUOUS
 62
     0
  2
_OPEN
 10
2830.0670070000001
 20
3006.9044520000002
 30
0.0
 41
40.0
 42
40.0
 43
40.0
 50
180.0
  0
TEXT
  8
3
  40
60
  5
7E6E
  62
0
  72
0
  71
0
 10
2915.07
 20
3000.70
 30
0.000000
  1
MAX
  0
TEXT
  8
3
  40
60
  5
7E6F
  62
0
  72
0
  71
0
 10
2915.07
 20
2922.70
 30
0.000000
  1
470
  0
POINT
  5
7E35
  8
DEFPOINTS
  6
CONTINUOUS
 62
     0
 10
3240.0670070000001
 20
2975.8678359999999
 30
0.0
  0
POINT
  5
7E36
  8
DEFPOINTS
  6
CONTINUOUS
 62
     0
 10
2830.0670070000001
 20
2640.211671999999
 30
0.0
  0
POINT
  5
7E37
  8
DEFPOINTS
  6
CONTINUOUS
 62
     0
 10
2830.0670070000001
 20
3006.9044520000002
 30
0.0
  0
ENDBLK
  5
7CE6
  8
0
  0
BLOCK
  8
0
  2
*D13
 70
     1
 10
0.0
 20
0.0
 30
0.0
  3
*D13
  1

  0
LINE
  5
7CBE
  8
0
  6
BYBLOCK
 62
     0
 10
2985.0670070000001
 20
1715.211671999999
 30
0.0
 11
2985.0670070000001
 21
1500.4120959999991
 31
0.0
  0
LINE
  5
7CBF
  8
0
  6
BYBLOCK
 62
     0
 10
3240.0670070000001
 20
1561.980498571585
 30
0.0
 11
3240.0670070000001
 21
1500.4120959999991
 31
0.0
  0
LINE
  5
7CC0
  8
0
  6
BYBLOCK
 62
     0
 10
3025.0670070000001
 20
1520.412096
 30
0.0
 11
3200.0670069999992
 21
1520.412096
 31
0.0
  0
TEXT
  5
7CC1
  8
3
 62
     0
 10
3035.4241498571432
 20
1548.936387699197
 30
0.0
 40
60.0
  1
255
  0
INSERT
  5
7CC2
  8
0
  6
BYBLOCK
 62
     0
  2
_OPEN
 10
2985.0670070000001
 20
1520.412096
 30
0.0
 41
40.0
 42
40.0
 43
40.0
 50
180.0
  0
INSERT
  5
7CC3
  8
0
  6
BYBLOCK
 62
     0
  2
_OPEN
 10
3240.0670070000001
 20
1520.412096
 30
0.0
 41
40.0
 42
40.0
 43
40.0
  0
POINT
  5
7CC4
  8
DEFPOINTS
  6
BYBLOCK
 62
     0
 10
2985.0670070000001
 20
1725.2116719999999
 30
0.0
  0
POINT
  5
7CC5
  8
DEFPOINTS
  6
BYBLOCK
 62
     0
 10
3240.0670070000001
 20
1571.980498571585
 30
0.0
  0
POINT
  5
7CC6
  8
DEFPOINTS
  6
BYBLOCK
 62
     0
 10
3240.0670070000001
 20
1520.412096
 30
0.0
  0
ENDBLK
  5
7CC7
  8
0
  0
BLOCK
  8
0
  2
*D14
 70
     1
 10
0.0
 20
0.0
 30
0.0
  3
*D14
  1

  0
LINE
  5
7E38
  8
3
  6
CONTINUOUS
 62
     0
 10
3495.0670070000001
 20
1715.211671999999
 30
0.0
 11
3495.0670070000001
 21
1500.4120959999991
 31
0.0
  0
LINE
  5
7E39
  8
3
  6
CONTINUOUS
 62
     0
 10
3280.0670070000001
 20
1520.412096
 30
0.0
 11
3455.0670070000001
 21
1520.412096
 31
0.0
  0
TEXT
  8
3
  40
60
  5
7E70
  62
0
  72
0
  71
0
 10
3251.04
 20
1465.65
 30
0.000000
  1
255
  0
INSERT
  5
7E3B
  8
3
  6
CONTINUOUS
 62
     0
  2
_OPEN
 10
3240.0670070000001
 20
1520.412096
 30
0.0
 41
40.0
 42
40.0
 43
40.0
 50
180.0
  0
INSERT
  5
7E3C
  8
3
  6
CONTINUOUS
 62
     0
  2
_OPEN
 10
3495.0670070000001
 20
1520.412096
 30
0.0
 41
40.0
 42
40.0
 43
40.0
  0
POINT
  5
7E3D
  8
DEFPOINTS
  6
CONTINUOUS
 62
     0
 10
3240.0670070000001
 20
1571.980498571585
 30
0.0
  0
POINT
  5
7E3E
  8
DEFPOINTS
  6
CONTINUOUS
 62
     0
 10
3495.0670070000001
 20
1725.2116719999999
 30
0.0
  0
POINT
  5
7E3F
  8
DEFPOINTS
  6
CONTINUOUS
 62
     0
 10
3495.0670070000001
 20
1520.412096
 30
0.0
  0
ENDBLK
  5
7CBC
  8
0
  0
BLOCK
  8
0
  2
*D15
 70
     1
 10
0.0
 20
0.0
 30
0.0
  3
*D15
  1

  0
LINE
  5
7E40
  8
3
  6
CONTINUOUS
 62
     0
 10
562.57616399999995
 20
4145.2116719999995
 30
0.0
 11
562.57616399999995
 21
4329.7217780000001
 31
0.0
  0
LINE
  5
7E41
  8
3
  6
CONTINUOUS
 62
     0
 10
1812.5761640000001
 20
4145.2116719999995
 30
0.0
 11
1812.5761640000001
 21
4329.7217780000001
 31
0.0
  0
LINE
  5
7E42
  8
3
  6
CONTINUOUS
 62
     0
 10
602.57616399999995
 20
4309.7217780000001
 30
0.0
 11
1772.5761640000001
 21
4309.7217780000001
 31
0.0
  0
INSERT
  5
7E43
  8
3
  6
CONTINUOUS
 62
     0
  2
_OPEN
 10
562.57616399999995
 20
4309.7217780000001
 30
0.0
 41
40.0
 42
40.0
 43
40.0
 50
180.0
  0
INSERT
  5
7E44
  8
3
  6
CONTINUOUS
 62
     0
  2
_OPEN
 10
1812.5761640000001
 20
4309.7217780000001
 30
0.0
 41
40.0
 42
40.0
 43
40.0
  0
TEXT
  8
3
  40
60
  5
7E71
  62
0
  72
0
  71
0
 10
1043.68
 20
4253.52
 30
0.000000
  1
1250
  0
POINT
  5
7E46
  8
DEFPOINTS
  6
CONTINUOUS
 62
     0
 10
562.57616399999995
 20
4135.2116719999995
 30
0.0
  0
POINT
  5
7E47
  8
DEFPOINTS
  6
CONTINUOUS
 62
     0
 10
1812.5761640000001
 20
4135.2116719999995
 30
0.0
  0
POINT
  5
7E48
  8
DEFPOINTS
  6
CONTINUOUS
 62
     0
 10
1812.5761640000001
 20
4309.7217780000001
 30
0.0
  0
ENDBLK
  5
7C08
  8
0
  0
BLOCK
  8
0
  2
*D16
 70
     1
 10
0.0
 20
0.0
 30
0.0
  3
*D16
  1

  0
LINE
  5
7E49
  8
3
  6
CONTINUOUS
 62
     0
 10
1822.5761640000001
 20
4135.2116719999995
 30
0.0
 11
2115.5116090000001
 21
4135.2116719999976
 31
0.0
  0
LINE
  5
7E4A
  8
3
  6
CONTINUOUS
 62
     0
 10
1822.5761640000001
 20
3625.211671999999
 30
0.0
 11
2115.5116090000001
 21
3625.211671999999
 31
0.0
  0
LINE
  5
7E4B
  8
3
  6
CONTINUOUS
 62
     0
 10
2095.5116090000001
 20
4095.211671999999
 30
0.0
 11
2095.5116090000001
 21
3665.2116719999999
 31
0.0
  0
INSERT
  5
7E4C
  8
3
  6
CONTINUOUS
 62
     0
  2
_OPEN
 10
2095.5116090000001
 20
4135.2116719999976
 30
0.0
 41
40.0
 42
40.0
 43
40.0
 50
90.0
  0
INSERT
  5
7E4D
  8
3
  6
CONTINUOUS
 62
     0
  2
_OPEN
 10
2095.5116090000001
 20
3625.211671999999
 30
0.0
 41
40.0
 42
40.0
 43
40.0
 50
270.0
  0
TEXT
  8
3
  40
60
  5
7E72
  62
0
  72
0
  71
0
 10
1925.51
 20
3767.93
 30
0.000000
  1
510
  0
POINT
  5
7E4F
  8
DEFPOINTS
  6
CONTINUOUS
 62
     0
 10
1812.5761640000001
 20
4135.2116719999995
 30
0.0
  0
POINT
  5
7E50
  8
DEFPOINTS
  6
CONTINUOUS
 62
     0
 10
1812.5761640000001
 20
3625.211671999999
 30
0.0
  0
POINT
  5
7E51
  8
DEFPOINTS
  6
CONTINUOUS
 62
     0
 10
2095.5116090000001
 20
3625.211671999999
 30
0.0
  0
ENDBLK
  5
7BAD
  8
0
  0
BLOCK
  8
0
  2
*D17
 70
     1
 10
0.0
 20
0.0
 30
0.0
  3
*D17
  1

  0
LINE
  5
7E52
  8
3
  6
CONTINUOUS
 62
     0
 10
3030.0670070000001
 20
2764.2116719999999
 30
0.0
 11
3030.0670070000001
 21
2883.3048020000001
 31
0.0
  0
LINE
  5
7E53
  8
3
  6
CONTINUOUS
 62
     0
 10
3450.0670070000001
 20
2764.2116719999999
 30
0.0
 11
3450.0670070000001
 21
2883.3048020000001
 31
0.0
  0
LINE
  5
7E54
  8
3
  6
CONTINUOUS
 62
     0
 10
3070.0670070000001
 20
2863.3048020000001
 30
0.0
 11
3410.0670070000001
 21
2863.3048020000001
 31
0.0
  0
INSERT
  5
7E55
  8
3
  6
CONTINUOUS
 62
     0
  2
_OPEN
 10
3030.0670070000001
 20
2863.3048020000001
 30
0.0
 41
40.0
 42
40.0
 43
40.0
 50
180.0
  0
INSERT
  5
7E56
  8
3
  6
CONTINUOUS
 62
     0
  2
_OPEN
 10
3450.0670070000001
 20
2863.3048020000001
 30
0.0
 41
40.0
 42
40.0
 43
40.0
  0
TEXT
  8
3
  40
60
  5
7E73
  62
0
  72
0
  71
0
 10
3099.51
 20
2807.10
 30
0.000000
  1
420
  0
POINT
  5
7E58
  8
DEFPOINTS
  6
CONTINUOUS
 62
     0
 10
3030.0670070000001
 20
2754.2116719999999
 30
0.0
  0
POINT
  5
7E59
  8
DEFPOINTS
  6
CONTINUOUS
 62
     0
 10
3450.0670070000001
 20
2754.2116719999999
 30
0.0
  0
POINT
  5
7E5A
  8
DEFPOINTS
  6
CONTINUOUS
 62
     0
 10
3450.0670070000001
 20
2863.3048020000001
 30
0.0
  0
ENDBLK
  5
7C2B
  8
0
  0
BLOCK
  8
0
  2
*D18
 70
     1
 10
0.0
 20
0.0
 30
0.0
  3
*D18
  1

  0
LINE
  5
7E5B
  8
3
 62
     0
 10
1872.5761640000001
 20
2453.2116719999999
 30
0.0
 11
1872.5761640000001
 21
3137.831924214584
 31
0.0
  0
LINE
  5
7E5C
  8
3
 62
     0
 10
562.57616399999995
 20
1815.2116719999999
 30
0.0
 11
562.57616400000018
 21
3137.831924214584
 31
0.0
  0
LINE
  5
7E5D
  8
3
 62
     0
 10
1832.5761639999989
 20
3117.831924214584
 30
0.0
 11
602.57616400000006
 21
3117.831924214584
 31
0.0
  0
INSERT
  5
7E5E
  8
3
 62
     0
  2
_OPEN
 10
1872.5761640000001
 20
3117.831924214584
 30
0.0
 41
40.0
 42
40.0
 43
40.0
  0
INSERT
  5
7E5F
  8
3
 62
     0
  2
_OPEN
 10
562.57616400000018
 20
3117.831924214584
 30
0.0
 41
40.0
 42
40.0
 43
40.0
 50
180.0
  0
TEXT
  8
3
  40
60
  5
7E74
  62
0
  72
0
  71
0
 10
1175.45
 20
3061.63
 30
0.000000
  1
1310
  0
POINT
  5
7E61
  8
DEFPOINTS
 62
     0
 10
1872.5761640000001
 20
2443.2116719999999
 30
0.0
  0
POINT
  5
7E62
  8
DEFPOINTS
 62
     0
 10
562.57616399999995
 20
1805.2116719999999
 30
0.0
  0
POINT
  5
7E63
  8
DEFPOINTS
 62
     0
 10
562.57616400000018
 20
3117.831924214584
 30
0.0
  0
ENDBLK
  5
7CF2
  8
0
  0
ENDSEC
  0
SECTION
  2
ENTITIES
  0
LINE
  5
7A64
  8
1
  6
CONTINUOUS
 10
3030.0670070000001
 20
2416.2116719999999
 30
0.0
 11
3450.0670070000001
 21
2416.2116719999999
 31
0.0
  0
LINE
  5
7A65
  8
1
  6
CONTINUOUS
 10
3030.0670070000001
 20
1856.211671999999
 30
0.0
 11
3450.0670070000001
 21
1856.211671999999
 31
0.0
  0
LINE
  5
7A66
  8
1
  6
CONTINUOUS
 10
3495.0670070000001
 20
1725.2116719999999
 30
0.0
 11
2985.0670070000001
 21
1725.2116719999999
 31
0.0
  0
LINE
  5
7A67
  8
1
  6
CONTINUOUS
 10
3495.0670070000001
 20
1805.2116719999999
 30
0.0
 11
2830.0670070000001
 21
1805.2116719999999
 31
0.0
  0
LINE
  5
7A68
  8
1
  6
CONTINUOUS
 10
3030.0670070000001
 20
2754.2116719999999
 30
0.0
 11
3450.0670070000001
 21
2754.2116719999999
 31
0.0
  0
CIRCLE
  5
7A69
  8
1
  6
CONTINUOUS
 10
1467.5761640000001
 20
2395.211671999999
 30
0.0
 40
320.0
  0
ARC
  5
7A6A
  8
1
  6
CONTINUOUS
 10
1436.5761640000001
 20
2364.2116719999999
 30
0.0
 40
433.10293799999999
 50
82.746804999999995
 51
174.95754899999989
  0
LINE
  5
7A6B
  8
1
  6
CONTINUOUS
 10
1827.5761640000001
 20
2805.2116719999999
 30
0.0
 11
1107.5761640000001
 21
2805.2116719999999
 31
0.0
  0
ARC
  5
7A6C
  8
1
  6
CONTINUOUS
 10
1504.5761640000001
 20
2358.211671999999
 30
0.0
 40
501.36713099999992
 50
174.95754899999989
 51
265.7678259999999
  0
LINE
  5
7A6D
  8
1
  6
CONTINUOUS
 10
800.56220499999995
 20
1925.4709150000001
 30
0.0
 11
1514.6990800000001
 21
2307.010589999999
 31
0.0
  0
LINE
  5
7A6E
  8
1
  6
CONTINUOUS
 10
730.111583
 20
2046.3420799999999
 30
0.0
 11
1414.055333999999
 21
2479.6836840000001
 31
0.0
  0
LINE
  5
7A6F
  8
1
  6
CONTINUOUS
 10
1827.5761640000001
 20
1805.2116719999999
 30
0.0
 11
562.57616399999995
 21
1805.2116719999999
 31
0.0
  0
LINE
  5
7A70
  8
1
  6
CONTINUOUS
 10
1468.0761640000001
 20
2640.211671999999
 30
0.0
 11
608.07616399999995
 21
2035.211671999999
 31
0.0
  0
LINE
  5
7A71
  8
1
  6
CONTINUOUS
 10
1812.5761640000001
 20
1725.2116719999999
 30
0.0
 11
562.57616399999995
 21
1725.2116719999999
 31
0.0
  0
CIRCLE
  5
7A72
  8
1
  6
CONTINUOUS
 10
1467.5761640000001
 20
2395.211671999999
 30
0.0
 40
295.0
  0
LINE
  5
7A73
  8
2
  6
CENTER
 10
3491.6086236488741
 20
2395.211671999999
 30
0.0
 11
2792.0720590000001
 21
2395.211671999999
 31
0.0
  0
CIRCLE
  5
7A74
  8
1
  6
CONTINUOUS
 10
1467.5761640000001
 20
2395.211671999999
 30
0.0
 40
100.0
  0
ARC
  5
7A75
  8
1
  6
CONTINUOUS
 10
767.57616399999995
 20
1987.2116719999999
 30
0.0
 40
142.0
 50
324.59875699999998
 51
215.40124299999999
  0
LINE
  5
7A76
  8
2
  6
CENTER
 10
697.57616399999995
 20
1987.2116719999999
 30
0.0
 11
837.57616399999995
 21
1987.2116719999999
 31
0.0
  0
LINE
  5
7A77
  8
1
  6
CONTINUOUS
 10
637.57616399999995
 20
1805.2116719999999
 30
0.0
 11
897.57616399999995
 21
1805.2116719999999
 31
0.0
  0
CIRCLE
  5
7A78
  8
1
  6
CONTINUOUS
 10
767.57616399999995
 20
1987.2116719999999
 30
0.0
 40
70.0
  0
LINE
  5
7A79
  8
1
  6
CONTINUOUS
 10
637.57616399999995
 20
1870.211671999999
 30
0.0
 11
651.82980099999986
 21
1904.951235
 31
0.0
  0
LINE
  5
7A7A
  8
1
  6
CONTINUOUS
 10
608.07616399999995
 20
1805.2116719999999
 30
0.0
 11
608.07616399999995
 21
2035.211671999999
 31
0.0
  0
LINE
  5
7A7B
  8
1
  6
CONTINUOUS
 10
562.57616399999995
 20
1805.2116719999999
 30
0.0
 11
562.57616399999995
 21
1725.2116719999999
 31
0.0
  0
LINE
  5
7A7C
  8
1
  6
CONTINUOUS
 10
637.57616399999995
 20
1805.2116719999999
 30
0.0
 11
637.57616399999995
 21
1870.211671999999
 31
0.0
  0
LINE
  5
7A7D
  8
1
  6
CONTINUOUS
 10
1107.5761640000001
 20
1805.2116719999999
 30
0.0
 11
1107.5761640000001
 21
2805.2116719999999
 31
0.0
  0
LINE
  5
7A7E
  8
1
  6
CONTINUOUS
 10
897.57616399999995
 20
1870.211671999999
 30
0.0
 11
883.32252699999992
 21
1904.951235
 31
0.0
  0
LINE
  5
7A7F
  8
1
  6
CONTINUOUS
 10
897.57616399999995
 20
1805.2116719999999
 30
0.0
 11
897.57616399999995
 21
1870.211671999999
 31
0.0
  0
LINE
  5
7A80
  8
2
  6
CENTER
 10
767.57616399999995
 20
1917.211671999999
 30
0.0
 11
767.57616399999995
 21
2057.2116719999999
 31
0.0
  0
LINE
  5
7A81
  8
1
  6
CONTINUOUS
 10
1827.5761640000001
 20
1805.2116719999999
 30
0.0
 11
1827.5761640000001
 21
2805.2116719999999
 31
0.0
  0
LINE
  5
7A82
  8
1
  6
CONTINUOUS
 10
1847.5761640000001
 20
2416.2116719999999
 30
0.0
 11
1847.5761640000001
 21
1856.3351289999989
 31
0.0
  0
LINE
  5
7A83
  8
1
  6
CONTINUOUS
 10
1872.5761640000001
 20
2443.2116719999999
 30
0.0
 11
1872.5761640000001
 21
1829.211671999999
 31
0.0
  0
LINE
  5
7A84
  8
1
  6
CONTINUOUS
 10
1738.0761639999989
 20
1805.2116719999999
 30
0.0
 11
1738.0761639999989
 21
2555.2116719999999
 31
0.0
  0
LINE
  5
7A85
  8
2
  6
CENTER
 10
1467.5761640000001
 20
4204.9689829999988
 30
0.0
 11
1467.5761640000001
 21
3378.6131519999999
 31
0.0
  0
LINE
  5
7A86
  8
1
  6
CONTINUOUS
 10
1872.5761640000001
 20
1856.211671999999
 30
0.0
 11
1467.5761640000001
 21
1858.211671999999
 31
0.0
  0
LINE
  5
7A87
  8
1
  6
CONTINUOUS
 10
1812.5761640000001
 20
1805.2116719999999
 30
0.0
 11
1812.5761640000001
 21
1725.2116719999999
 31
0.0
  0
ARC
  5
7A88
  8
1
  6
CONTINUOUS
 10
1443.5761640000001
 20
2419.2116719999999
 30
0.0
 40
377.65927299999993
 50
359.54485699999992
 51
82.746804999999995
  0
LINE
  5
7A89
  8
1
  6
CONTINUOUS
 10
1738.0761639999989
 20
2555.2116719999999
 30
0.0
 11
1468.0761640000001
 21
2640.211671999999
 31
0.0
  0
LINE
  5
7A8A
  8
1
  6
CONTINUOUS
 10
1821.2235209999999
 20
2416.2116719999999
 30
0.0
 11
1872.5761640000001
 21
2416.2116719999999
 31
0.0
  0
LINE
  5
7A8B
  8
1
  6
CONTINUOUS
 10
2830.0670070000001
 20
1805.2116719999999
 30
0.0
 11
2830.0670070000001
 21
2640.211671999999
 31
0.0
  0
LINE
  5
7A8C
  8
1
  6
CONTINUOUS
 10
2950.0670070000001
 20
1805.2116719999999
 30
0.0
 11
2950.0670070000001
 21
2640.211671999999
 31
0.0
  0
LINE
  5
7A8D
  8
1
  6
CONTINUOUS
 10
2860.0670070000001
 20
2495.211671999999
 30
0.0
 11
2860.0670070000001
 21
2295.2116719999999
 31
0.0
  0
LINE
  5
7A8E
  8
1
  6
CONTINUOUS
 10
2920.0670070000001
 20
2495.211671999999
 30
0.0
 11
2920.0670070000001
 21
2295.2116719999999
 31
0.0
  0
LINE
  5
7A8F
  8
1
  6
CONTINUOUS
 10
3030.0670070000001
 20
1805.2116719999999
 30
0.0
 11
3030.0670070000001
 21
2754.2116719999999
 31
0.0
  0
LINE
  5
7A90
  8
1
  6
CONTINUOUS
 10
2920.0670070000001
 20
2003.2116719999999
 30
0.0
 11
3030.0670070000001
 21
2003.2116719999999
 31
0.0
  0
LINE
  5
7A91
  8
1
  6
CONTINUOUS
 10
2920.0670070000001
 20
1971.2116719999999
 30
0.0
 11
3030.0670070000001
 21
1971.2116719999999
 31
0.0
  0
LINE
  5
7A92
  8
1
  6
CONTINUOUS
 10
2860.0670070000001
 20
2295.2116719999999
 30
0.0
 11
2920.0670070000001
 21
2295.2116719999999
 31
0.0
  0
LINE
  5
7A93
  8
1
  6
CONTINUOUS
 10
2860.0670070000001
 20
2057.2116719999999
 30
0.0
 11
2920.0670070000001
 21
2057.2116719999999
 31
0.0
  0
LINE
  5
7A94
  8
1
  6
CONTINUOUS
 10
2860.0670070000001
 20
1917.211671999999
 30
0.0
 11
2920.0670070000001
 21
1917.211671999999
 31
0.0
  0
LINE
  5
7A95
  8
1
  6
CONTINUOUS
 10
2860.0670070000001
 20
2057.2116719999999
 30
0.0
 11
2860.0670070000001
 21
1917.211671999999
 31
0.0
  0
LINE
  5
7A96
  8
1
  6
CONTINUOUS
 10
2920.0670070000001
 20
2057.2116719999999
 30
0.0
 11
2920.0670070000001
 21
1917.211671999999
 31
0.0
  0
LINE
  5
7A97
  8
1
  6
CONTINUOUS
 10
2985.0670070000001
 20
1725.2116719999999
 30
0.0
 11
2985.0670070000001
 21
1805.2116719999999
 31
0.0
  0
LINE
  5
7A98
  8
1
  6
CONTINUOUS
 10
3030.0670070000001
 20
2411.2116719999999
 30
0.0
 11
2920.0670070000001
 21
2411.2116719999999
 31
0.0
  0
LINE
  5
7A99
  8
1
  6
CONTINUOUS
 10
3030.0670070000001
 20
2379.211671999999
 30
0.0
 11
2920.0670070000001
 21
2379.211671999999
 31
0.0
  0
LINE
  5
7A9A
  8
1
  6
CONTINUOUS
 10
2830.0670070000001
 20
2640.211671999999
 30
0.0
 11
2950.0670070000001
 21
2640.211671999999
 31
0.0
  0
LINE
  5
7A9B
  8
1
  6
CONTINUOUS
 10
2860.0670070000001
 20
2495.211671999999
 30
0.0
 11
2920.0670070000001
 21
2495.211671999999
 31
0.0
  0
LINE
  5
7A9C
  8
1
  6
CONTINUOUS
 10
3452.0670070000001
 20
2075.2116719999999
 30
0.0
 11
3452.0670070000001
 21
2715.2116719999999
 31
0.0
  0
LINE
  5
7A9D
  8
1
  6
CONTINUOUS
 10
3450.0670070000001
 20
1805.2116719999999
 30
0.0
 11
3450.0670070000001
 21
2754.2116719999999
 31
0.0
  0
LINE
  5
7A9E
  8
1
  6
CONTINUOUS
 10
3450.0670070000001
 20
2075.2116719999999
 30
0.0
 11
3452.0670070000001
 21
2075.2116719999999
 31
0.0
  0
LINE
  5
7A9F
  8
1
  6
CONTINUOUS
 10
3450.0670070000001
 20
2715.2116719999999
 30
0.0
 11
3452.0670070000001
 21
2715.2116719999999
 31
0.0
  0
LINE
  5
7AA0
  8
1
  6
CONTINUOUS
 10
1787.5761640000001
 20
4092.2116719999999
 30
0.0
 11
1147.5761639999989
 21
4092.2116719999999
 31
0.0
  0
LINE
  5
7AA1
  8
1
  6
CONTINUOUS
 10
1451.5761640000001
 20
3625.211671999999
 30
0.0
 11
786.57616399999995
 21
3625.211671999999
 31
0.0
  0
LINE
  5
7AA2
  8
1
  6
CONTINUOUS
 10
1367.5761640000001
 20
3500.211671999999
 30
0.0
 11
1567.5761640000001
 21
3500.211671999999
 31
0.0
  0
LINE
  5
7AA3
  8
1
  6
CONTINUOUS
 10
1367.5761640000001
 20
3560.211671999999
 30
0.0
 11
1567.5761640000001
 21
3560.211671999999
 31
0.0
  0
LINE
  5
7AA4
  8
1
  6
CONTINUOUS
 10
1812.5761640000001
 20
4135.2116719999995
 30
0.0
 11
562.57616399999995
 21
4135.2116719999995
 31
0.0
  0
LINE
  5
7AA5
  8
1
  6
CONTINUOUS
 10
1738.0761639999989
 20
3470.2116719999999
 30
0.0
 11
608.07616399999995
 21
3470.2116719999999
 31
0.0
  0
LINE
  5
7AA6
  8
1
  6
CONTINUOUS
 10
1738.0761639999989
 20
3590.2116719999999
 30
0.0
 11
608.07616399999995
 21
3590.2116719999999
 31
0.0
  0
LINE
  5
7AA7
  8
1
  6
CONTINUOUS
 10
1003.209033
 20
3670.2116719999999
 30
0.0
 11
1872.5761640000001
 21
3670.2116719999999
 31
0.0
  0
LINE
  5
7AA8
  8
1
  6
CONTINUOUS
 10
1003.209033
 20
4090.2116719999999
 30
0.0
 11
1872.5761640000001
 21
4090.2116719999999
 31
0.0
  0
LINE
  5
7AA9
  8
1
  6
CONTINUOUS
 10
625.57616399999995
 20
3643.949505
 30
0.0
 11
909.57616399999995
 21
3643.949505
 31
0.0
  0
LINE
  5
7AAA
  8
1
  6
CONTINUOUS
 10
625.57616399999995
 20
4043.9495049999991
 30
0.0
 11
909.57616399999995
 21
4043.9495049999991
 31
0.0
  0
LINE
  5
7AAB
  8
1
  6
CONTINUOUS
 10
697.57616399999995
 20
3560.211671999999
 30
0.0
 11
837.57616399999995
 21
3560.211671999999
 31
0.0
  0
LINE
  5
7AAC
  8
1
  6
CONTINUOUS
 10
697.57616399999995
 20
3500.211671999999
 30
0.0
 11
837.57616399999995
 21
3500.211671999999
 31
0.0
  0
LINE
  5
7AAD
  8
1
  6
CONTINUOUS
 10
625.57616399999995
 20
4043.9495049999991
 30
0.0
 11
625.57616399999995
 21
3643.949505
 31
0.0
  0
LINE
  5
7AAE
  8
1
  6
CONTINUOUS
 10
562.57616399999995
 20
4135.2116719999995
 30
0.0
 11
562.57616399999995
 21
3625.211671999999
 31
0.0
  0
LINE
  5
7AAF
  8
1
  6
CONTINUOUS
 10
748.57616399999995
 20
3625.211671999999
 30
0.0
 11
562.57616399999995
 21
3625.211671999999
 31
0.0
  0
LINE
  5
7AB0
  8
1
  6
CONTINUOUS
 10
608.07616399999995
 20
3470.2116719999999
 30
0.0
 11
608.07616399999995
 21
3590.2116719999999
 31
0.0
  0
LINE
  5
7AB1
  8
1
  6
CONTINUOUS
 10
748.57616399999995
 20
3560.211671999999
 30
0.0
 11
748.57616399999995
 21
3643.949505
 31
0.0
  0
LINE
  5
7AB2
  8
1
  6
CONTINUOUS
 10
697.57616399999995
 20
3500.211671999999
 30
0.0
 11
697.57616399999995
 21
3560.211671999999
 31
0.0
  0
LINE
  5
7AB3
  8
1
  6
CONTINUOUS
 10
909.57616399999995
 20
4043.9495049999991
 30
0.0
 11
909.57616399999995
 21
3643.949505
 31
0.0
  0
LINE
  5
7AB4
  8
1
  6
CONTINUOUS
 10
1003.209033
 20
3670.2116719999999
 30
0.0
 11
1003.209033
 21
4090.2116719999999
 31
0.0
  0
LINE
  5
7AB5
  8
1
  6
CONTINUOUS
 10
786.57616399999995
 20
3560.211671999999
 30
0.0
 11
786.57616399999995
 21
3643.949505
 31
0.0
  0
LINE
  5
7AB6
  8
1
  6
CONTINUOUS
 10
837.57616399999995
 20
3500.211671999999
 30
0.0
 11
837.57616399999995
 21
3560.211671999999
 31
0.0
  0
LINE
  5
7AB7
  8
1
  6
CONTINUOUS
 10
1367.5761640000001
 20
3500.211671999999
 30
0.0
 11
1367.5761640000001
 21
3560.211671999999
 31
0.0
  0
LINE
  5
7AB8
  8
1
  6
CONTINUOUS
 10
1147.5761639999989
 20
4090.2116719999999
 30
0.0
 11
1147.5761639999989
 21
4092.2116719999999
 31
0.0
  0
LINE
  5
7AB9
  8
1
  6
CONTINUOUS
 10
1812.5761640000001
 20
3625.211671999999
 30
0.0
 11
1483.5761640000001
 21
3625.211671999999
 31
0.0
  0
LINE
  5
7ABA
  8
1
  6
CONTINUOUS
 10
1451.5761640000001
 20
3670.2116719999999
 30
0.0
 11
1451.5761640000001
 21
3560.211671999999
 31
0.0
  0
LINE
  5
7ABB
  8
1
  6
CONTINUOUS
 10
1483.5761640000001
 20
3670.2116719999999
 30
0.0
 11
1483.5761640000001
 21
3560.211671999999
 31
0.0
  0
LINE
  5
7ABC
  8
1
  6
CONTINUOUS
 10
1567.5761640000001
 20
3500.211671999999
 30
0.0
 11
1567.5761640000001
 21
3560.211671999999
 31
0.0
  0
LINE
  5
7ABD
  8
1
  6
CONTINUOUS
 10
1872.5761640000001
 20
4117.2116719999995
 30
0.0
 11
1872.5761640000001
 21
3643.2116719999999
 31
0.0
  0
LINE
  5
7ABE
  8
1
  6
CONTINUOUS
 10
1847.5761640000001
 20
4090.2116719999999
 30
0.0
 11
1847.5761640000001
 21
3670.2116719999999
 31
0.0
  0
LINE
  5
7ABF
  8
1
  6
CONTINUOUS
 10
1812.5761640000001
 20
3670.2116719999999
 30
0.0
 11
1812.5761640000001
 21
3625.211671999999
 31
0.0
  0
LINE
  5
7AC0
  8
1
  6
CONTINUOUS
 10
1738.0761639999989
 20
3470.2116719999999
 30
0.0
 11
1738.0761639999989
 21
3590.2116719999999
 31
0.0
  0
LINE
  5
7AC1
  8
1
  6
CONTINUOUS
 10
1787.5761640000001
 20
4090.2116719999999
 30
0.0
 11
1787.5761640000001
 21
4092.2116719999999
 31
0.0
  0
LINE
  5
7AC2
  8
1
  6
CONTINUOUS
 10
1812.5761640000001
 20
4135.2116719999995
 30
0.0
 11
1812.5761640000001
 21
4090.2116719999999
 31
0.0
  0
LINE
  5
7AC3
  8
2
  6
CENTER
 10
466.11319400000002
 20
3880.2116719999999
 30
0.0
 11
1990.67822
 21
3880.2116719999999
 31
0.0
  0
LINE
  5
7AC4
  8
2
  6
CENTER
 10
3240.0670070000001
 20
2835.4930479999998
 30
0.0
 11
3240.0670070000001
 21
1570.6783094885079
 31
0.0
  0
LINE
  5
7AC5
  8
2
  6
CENTER
 10
1467.5761640000001
 20
2945.1210420000002
 30
0.0
 11
1467.5761640000001
 21
1612.004385906796
 31
0.0
  0
LINE
  5
7AC6
  8
2
  6
CENTER
 10
1969.1943839999999
 20
2395.211671999999
 30
0.0
 11
915.15719570666624
 21
2395.211671999999
 31
0.0
  0
DIMENSION
  5
7ADA
  8
3
  6
CONTINUOUS
  2
*D1
 10
2022.7119419999999
 20
1856.211671999999
 30
0.0
 11
2022.7119419999999
 21
2179.0433899999989
 31
0.0
 70
   128
 13
1872.5761640000001
 23
2416.2116719999999
 33
0.0
 14
1872.5761640000001
 24
1856.211671999999
 34
0.0
 50
90.0
1001
ACAD
1000
DSTYLE
1002
{
1070
   287
1070
     3
1070
   287
1070
     3
1070
    40
1040
20.0
1070
   143
1040
0.039
1070
   172
1070
     1
1070
   271
1070
     0
1070
   279
1070
     0
1070
   288
1070
     1
1002
}
  0
DIMENSION
  5
7AE7
  8
3
  6
CONTINUOUS
  2
*D2
 10
2173.1646049999999
 20
1856.211671999999
 30
0.0
 11
2173.164604999999
 21
2179.0433899999989
 31
0.0
 70
   128
 13
1969.1943839999999
 23
2395.211671999999
 33
0.0
 14
1872.5761640000001
 24
1856.211671999999
 34
0.0
 50
90.0
1001
ACAD
1000
DSTYLE
1002
{
1070
   287
1070
     3
1070
   287
1070
     3
1070
    40
1040
20.0
1070
   143
1040
0.039
1070
   172
1070
     1
1070
   271
1070
     0
1070
   279
1070
     0
1070
   288
1070
     1
1002
}
  0
DIMENSION
  5
7AF4
  8
3
  6
CONTINUOUS
  2
*D3
 10
2333.3239020000001
 20
2395.211671999999
 30
0.0
 11
2333.3239020000001
 21
2600.8875739999999
 31
0.0
 70
   128
 13
1827.5761640000001
 23
2805.2116719999999
 33
0.0
 14
1969.1943839999999
 24
2395.211671999999
 34
0.0
 50
90.0
1001
ACAD
1000
DSTYLE
1002
{
1070
   287
1070
     3
1070
   287
1070
     3
1070
    40
1040
20.0
1070
   143
1040
0.039
1070
   172
1070
     1
1070
   271
1070
     0
1070
   279
1070
     0
1070
   288
1070
     1
1002
}
  0
DIMENSION
  5
7B00
  8
3
  6
CONTINUOUS
  2
*D4
 10
2333.3239020000001
 20
1725.2116719999999
 30
0.0
 11
2283.3239019999992
 21
2060.2116719999999
 31
0.0
 70
     0
 13
1969.1943839999999
 23
2395.211671999999
 33
0.0
 14
1812.5761640000001
 24
1725.2116719999999
 34
0.0
 50
90.0
1001
ACAD
1000
DSTYLE
1002
{
1070
   287
1070
     4
1070
   287
1070
     4
1070
    40
1040
20.0
1070
    75
1070
     1
1070
   143
1040
0.039
1070
   172
1070
     1
1070
   271
1070
     0
1070
   279
1070
     1
1070
   288
1070
     1
1002
}
  0
DIMENSION
  5
7B0D
  8
3
  6
CONTINUOUS
  2
*D5
 10
2478.9232609999999
 20
1725.2116719999999
 30
0.0
 11
2478.9232609999999
 21
2266.321496999999
 31
0.0
 70
   128
 13
1827.5761640000001
 23
2805.2116719999999
 33
0.0
 14
1812.5761640000001
 24
1725.2116719999999
 34
0.0
 50
90.0
1001
ACAD
1000
DSTYLE
1002
{
1070
   287
1070
     3
1070
   287
1070
     3
1070
    40
1040
20.0
1070
   143
1040
0.039
1070
   172
1070
     1
1070
   271
1070
     0
1070
   279
1070
     0
1070
   288
1070
     1
1002
}
  0
DIMENSION
  5
7B1A
  8
3
  6
CONTINUOUS
  2
*D6
 10
1467.5761640000001
 20
2984.8967699999998
 30
0.0
 11
1668.4201410000001
 21
2984.8967699999998
 31
0.0
 70
   128
 13
1872.5761640000001
 23
2443.2116719999999
 33
0.0
 14
1467.5761640000001
 24
2945.1210420000002
 34
0.0
1001
ACAD
1000
DSTYLE
1002
{
1070
   287
1070
     3
1070
   287
1070
     3
1070
    40
1040
20.0
1070
   143
1040
0.039
1070
   172
1070
     1
1070
   271
1070
     0
1070
   279
1070
     0
1070
   288
1070
     1
1002
}
  0
DIMENSION
  5
7B26
  8
3
  6
CONTINUOUS
  2
*D7
 10
1004.5761639999999
 20
2984.8967699999998
 30
0.0
 11
1236.0761640000001
 21
3034.8967699999998
 31
0.0
 70
     0
 13
1467.5761640000001
 23
2945.1210420000002
 33
0.0
 14
1004.5761639999999
 24
2358.211671999999
 34
0.0
1001
ACAD
1000
DSTYLE
1002
{
1070
   287
1070
     4
1070
   287
1070
     4
1070
    40
1040
20.0
1070
    75
1070
     1
1070
   143
1040
0.039
1070
   172
1070
     1
1070
   271
1070
     0
1070
   279
1070
     1
1070
   288
1070
     1
1002
}
  0
DIMENSION
  5
7B33
  8
3
  6
CONTINUOUS
  2
*D8
 10
1467.5761640000001
 20
1530.1096660000001
 30
0.0
 11
998.66307500000005
 21
1530.1096660000001
 31
0.0
 70
   128
 13
562.57616399999995
 23
1725.2116719999999
 33
0.0
 14
1467.5761640000001
 24
1612.004385906796
 34
0.0
1001
ACAD
1000
DSTYLE
1002
{
1070
   287
1070
     3
1070
   287
1070
     3
1070
    40
1040
20.0
1070
   143
1040
0.039
1070
   172
1070
     1
1070
   271
1070
     0
1070
   279
1070
     0
1070
   288
1070
     1
1002
}
  0
DIMENSION
  5
7B3F
  8
3
  6
CONTINUOUS
  2
*D9
 10
1812.5761640000001
 20
1530.1096660000001
 30
0.0
 11
1640.0761640000001
 21
1580.1096660000001
 31
0.0
 70
     0
 13
1467.5761640000001
 23
1612.004385906796
 33
0.0
 14
1812.5761640000001
 24
1725.2116719999999
 34
0.0
1001
ACAD
1000
DSTYLE
1002
{
1070
   287
1070
     4
1070
   287
1070
     4
1070
    40
1040
20.0
1070
    75
1070
     1
1070
   143
1040
0.039
1070
   172
1070
     1
1070
   271
1070
     0
1070
   279
1070
     1
1070
   288
1070
     1
1002
}
  0
DIMENSION
  5
7B5B
  8
3
  6
CONTINUOUS
  2
*D10
 10
3643.8667479999999
 20
2100.211671999999
 30
0.0
 11
3643.866747999999
 21
2387.5410929999989
 31
0.0
 70
   128
 13
3452.0670070000001
 23
2690.2116719999999
 33
0.0
 14
3450.0670070000001
 24
2100.211671999999
 34
0.0
 50
90.0
1001
ACAD
1000
DSTYLE
1002
{
1070
   287
1070
     3
1070
   287
1070
     3
1070
     3
1000
φ<>
1070
    40
1040
20.0
1070
   143
1040
0.039
1070
   172
1070
     1
1070
   271
1070
     0
1070
   279
1070
     0
1070
   288
1070
     1
1002
}
  0
DIMENSION
  5
7B6A
  8
3
  6
CONTINUOUS
  2
*D11
 10
3240.0670070000001
 20
3006.9044520000002
 30
0.0
 11
3346.0670070000001
 21
3065.5854747922072
 31
0.0
 70
   128
 13
3452.0670070000001
 23
2715.2116719999999
 33
0.0
 14
3240.0670070000001
 24
2975.8678359999999
 34
0.0
1001
ACAD
1000
DSTYLE
1002
{
1070
   288
1070
     1
1070
   172
1070
     1
1070
    40
1040
20.0
1070
   271
1070
     0
1070
   143
1040
0.039
1002
}
  0
DIMENSION
  5
7B76
  8
3
  6
CONTINUOUS
  2
*D12
 10
2830.0670070000001
 20
3006.9044520000002
 30
0.0
 11
3035.0670070000001
 21
3106.9044520000002
 31
0.0
 70
     0
  1
MAX\P470
 13
3240.0670070000001
 23
2975.8678359999999
 33
0.0
 14
2830.0670070000001
 24
2640.211671999999
 34
0.0
1001
ACAD
1000
DSTYLE
1002
{
1070
   287
1070
     4
1070
   287
1070
     4
1070
    40
1040
20.0
1070
    75
1070
     1
1070
   143
1040
0.039
1070
   172
1070
     1
1070
   271
1070
     0
1070
   279
1070
     1
1070
   288
1070
     1
1002
}
  0
DIMENSION
  5
7B85
  8
3
  6
CONTINUOUS
  2
*D13
 10
3240.0670070000001
 20
1520.412096
 30
0.0
 11
3112.5670070000001
 21
1578.936387699197
 31
0.0
 70
   128
 13
2985.0670070000001
 23
1725.2116719999999
 33
0.0
 14
3240.0670070000001
 24
1571.980498571585
 34
0.0
1001
ACAD
1000
DSTYLE
1002
{
1070
   288
1070
     1
1070
   172
1070
     1
1070
    40
1040
20.0
1070
   271
1070
     0
1070
   143
1040
0.039
1002
}
  0
DIMENSION
  5
7B93
  8
3
  6
CONTINUOUS
  2
*D14
 10
3495.0670070000001
 20
1520.412096
 30
0.0
 11
3371.0359950000002
 21
1521.8527549999999
 31
0.0
 70
   128
 13
3240.0670070000001
 23
1571.980498571585
 33
0.0
 14
3495.0670070000001
 24
1725.2116719999999
 34
0.0
1001
ACAD
1000
DSTYLE
1002
{
1070
   287
1070
     4
1070
   287
1070
     4
1070
    40
1040
20.0
1070
    75
1070
     1
1070
   143
1040
0.039
1070
   172
1070
     1
1070
   271
1070
     0
1070
   279
1070
     1
1070
   288
1070
     1
1002
}
  0
LINE
  5
7B94
  8
1
  6
CONTINUOUS
 10
3495.0670070000001
 20
1805.2116719999999
 30
0.0
 11
3495.0670070000001
 21
1725.2116719999999
 31
0.0
  0
DIMENSION
  5
7BA1
  8
3
  6
CONTINUOUS
  2
*D15
 10
1812.5761640000001
 20
4309.7217780000001
 30
0.0
 11
1163.675677
 21
4309.7217780000001
 31
0.0
 70
   128
 13
562.57616399999995
 23
4135.2116719999995
 33
0.0
 14
1812.5761640000001
 24
4135.2116719999995
 34
0.0
1001
ACAD
1000
DSTYLE
1002
{
1070
   287
1070
     3
1070
   287
1070
     3
1070
    40
1040
20.0
1070
   143
1040
0.039
1070
   172
1070
     1
1070
   271
1070
     0
1070
   279
1070
     0
1070
   288
1070
     1
1002
}
  0
DIMENSION
  5
7BAE
  8
3
  6
CONTINUOUS
  2
*D16
 10
2095.5116090000001
 20
3625.211671999999
 30
0.0
 11
2095.5116090000001
 21
3874.1345500000002
 31
0.0
 70
   128
 13
1812.5761640000001
 23
4135.2116719999995
 33
0.0
 14
1812.5761640000001
 24
3625.211671999999
 34
0.0
 50
90.0
1001
ACAD
1000
DSTYLE
1002
{
1070
   287
1070
     3
1070
   287
1070
     3
1070
    40
1040
20.0
1070
   143
1040
0.039
1070
   172
1070
     1
1070
   271
1070
     0
1070
   279
1070
     0
1070
   288
1070
     1
1002
}
  0
LINE
  5
7BAF
  8
4
  6
CONTINUOUS
 10
3700.0
 20
1000.0
 30
0.0
 11
3700.0
 21
600.0
 31
0.0
  0
LINE
  5
7BB0
  8
4
  6
CONTINUOUS
 10
2300.0
 20
1000.0
 30
0.0
 11
2300.0
 21
600.0
 31
0.0
  0
LINE
  5
7BB1
  8
4
  6
CONTINUOUS
 10
1300.0
 20
1000.0
 30
0.0
 11
1300.0
 21
600.0
 31
0.0
  0
LINE
  5
7BB4
  8
4
  6
CONTINUOUS
 10
1300.0
 20
600.0
 30
0.0
 11
3700.0
 21
600.0
 31
0.0
  0
LINE
  5
7BB5
  8
4
  6
CONTINUOUS
 10
1300.0
 20
800.0
 30
0.0
 11
3700.0
 21
800.0
 31
0.0
  0
TEXT
  5
7BB6
  8
4
  6
CONTINUOUS
 10
1377.004162
 20
863.086052
 30
0.0
 40
100.0
  1
機器名称
  0
TEXT
  5
7BB7
  8
4
  6
CONTINUOUS
 10
1372.516212
 20
643.29031299999986
 30
0.0
 40
100.0
  1
機器型番
  0
TEXT
  5
7BB8
  8
4
  6
CONTINUOUS
 10
2355.3574910000002
 20
845.14353800000015
 30
0.0
 40
100.0
  1
ミツヤ多翼送風機
  0
TEXT
  5
7BB9
  8
4
  6
CONTINUOUS
 10
2373.3089909999999
 20
634.31916899999999
 30
0.0
 40
100.0
  1
MFE#3 1/2-4
  0
TEXT
  5
7BBB
  8
4
  6
CONTINUOUS
 10
1809.5715309999989
 20
4766.8576830000002
 30
0.0
 40
108.0
  1
床置ベット
  0
TEXT
  5
7BBC
  8
4
  6
CONTINUOUS
 10
632.33518700000002
 20
5067.7619520000007
 30
0.0
 40
144.0
  1
ベルト駆動式片吸込両持排煙ファン
  0
LINE
  5
7BBD
  8
4
  6
CONTINUOUS
 10
500.0
 20
4938.8175090000004
 30
0.0
 11
3700.0
 21
4938.8175090000004
 31
0.0
  0
LINE
  5
7BBE
  8
4
  6
CONTINUOUS
 10
500.0
 20
5338.8175090000004
 30
0.0
 11
3700.0
 21
5338.8175090000004
 31
0.0
  0
LINE
  5
7BBF
  8
4
  6
CONTINUOUS
 10
1300.0
 20
1000.0
 30
0.0
 11
3700.0
 21
1000.0
 31
0.0
  0
LINE
  5
7BC0
  8
4
  6
CONTINUOUS
 10
500.0
 20
5338.8175090000004
 30
0.0
 11
500.0
 21
4938.8175090000004
 31
0.0
  0
TEXT
  5
7BC1
  8
4
  6
CONTINUOUS
 10
937.85386600000004
 20
4764.6389549999994
 30
0.0
 40
108.0
  1
左回転右横向
  0
TEXT
  5
7BC2
  8
4
  6
CONTINUOUS
 10
2937.9391179999998
 20
5412.122163
 30
0.0
 40
112.0
  1
No.
  0
TEXT
  5
7BC3
  8
4
  6
CONTINUOUS
 10
2622.5921250000001
 20
4766.8576830000002
 30
0.0
 40
108.0
  1
縮尺：1/20
  0
LINE
  5
7BC4
  8
4
  6
CONTINUOUS
 10
3700.0
 20
5338.8175090000004
 30
0.0
 11
3700.0
 21
4938.8175090000004
 31
0.0
  0
LINE
  5
7BC6
  8
4
  6
CONTINUOUS
 10
2881.234845
 20
5362.5271659999999
 30
0.0
 11
2881.234845
 21
5573.3045229999998
 31
0.0
  0
LINE
  5
7BC7
  8
4
  6
CONTINUOUS
 10
2881.234845
 20
5573.3045229999998
 30
0.0
 11
3700.0
 21
5573.3045229999998
 31
0.0
  0
LINE
  5
7BC8
  8
4
  6
CONTINUOUS
 10
3700.0
 20
5573.3045229999998
 30
0.0
 11
3700.0
 21
5362.5271659999999
 31
0.0
  0
LINE
  5
7BC9
  8
4
  6
CONTINUOUS
 10
3700.0
 20
5362.5271659999999
 30
0.0
 11
2881.234845
 21
5362.5271659999999
 31
0.0
  0
DIMENSION
  5
7C2C
  8
3
  6
CONTINUOUS
  2
*D17
 10
3450.0670070000001
 20
2863.3048020000001
 30
0.0
 11
3219.5121349999999
 21
2863.3048020000001
 31
0.0
 70
   128
 13
3030.0670070000001
 23
2754.2116719999999
 33
0.0
 14
3450.0670070000001
 24
2754.2116719999999
 34
0.0
1001
ACAD
1000
DSTYLE
1002
{
1070
   287
1070
     3
1070
   287
1070
     3
1070
    40
1040
20.0
1070
   143
1040
0.039
1070
   172
1070
     1
1070
   271
1070
     0
1070
   279
1070
     0
1070
   288
1070
     1
1002
}
  0
DIMENSION
  5
7CF3
  8
3
  2
*D18
 10
562.57616400000018
 20
3117.831924214584
 30
0.0
 11
1295.445244406033
 21
3117.831924214584
 31
0.0
 70
   128
 13
1872.5761640000001
 23
2443.2116719999999
 33
0.0
 14
562.57616399999995
 24
1805.2116719999999
 34
0.0
1001
ACAD
1000
DSTYLE
1002
{
1070
   287
1070
     3
1070
   287
1070
     3
1070
    40
1040
20.0
1070
   143
1040
0.039
1070
   172
1070
     1
1070
   271
1070
     0
1070
   279
1070
     0
1070
   288
1070
     1
1002
}
  0
ENDSEC
  0
EOF
