  0
SECTION
  2
HEADER
  9
$ACADVER
  1
AC1009
  9
$INSBASE
 10
0.0
 20
0.0
 30
0.0
  9
$EXTMIN
 10
500.0
 20
600.0
 30
0.0
  9
$EXTMAX
 10
3700.0
 20
5573.3045229999998
 30
0.0
  9
$LIMMIN
 10
0.0
 20
0.0
  9
$LIMMAX
 10
297.0
 20
210.0
  9
$ORTHOMODE
 70
     0
  9
$REGENMODE
 70
     1
  9
$FILLMODE
 70
     0
  9
$QTEXTMODE
 70
     0
  9
$MIRRTEXT
 70
     1
  9
$DRAGMODE
 70
     2
  9
$LTSCALE
 40
100.0
  9
$OSMODE
 70
    37
  9
$ATTMODE
 70
     1
  9
$TEXTSIZE
 40
180.0
  9
$TRACEWID
 40
0.05
  9
$TEXTSTYLE
  7
STANDARD
  9
$CLAYER
  8
3
  9
$CELTYPE
  6
BYLAYER
  9
$CECOLOR
 62
   256
  9
$DIMSCALE
 40
20.0
  9
$DIMASZ
 40
2.0
  9
$DIMEXO
 40
0.5
  9
$DIMDLI
 40
10.0
  9
$DIMRND
 40
0.0
  9
$DIMDLE
 40
0.0
  9
$DIMEXE
 40
1.0
  9
$DIMTP
 40
1.0
  9
$DIMTM
 40
1.0
  9
$DIMTXT
 40
3.0
  9
$DIMCEN
 40
0.0
  9
$DIMTSZ
 40
0.0
  9
$DIMTOL
 70
     0
  9
$DIMLIM
 70
     0
  9
$DIMTIH
 70
     0
  9
$DIMTOH
 70
     0
  9
$DIMSE1
 70
     0
  9
$DIMSE2
 70
     0
  9
$DIMTAD
 70
     1
  9
$DIMZIN
 70
     8
  9
$DIMBLK
  1

  9
$DIMASO
 70
     1
  9
$DIMSHO
 70
     1
  9
$DIMPOST
  1

  9
$DIMAPOST
  1

  9
$DIMALT
 70
     0
  9
$DIMALTD
 70
     2
  9
$DIMALTF
 40
0.039
  9
$DIMLFAC
 40
1.0
  9
$DIMTOFL
 70
     1
  9
$DIMTVP
 40
0.0
  9
$DIMTIX
 70
     0
  9
$DIMSOXD
 70
     0
  9
$DIMSAH
 70
     1
  9
$DIMBLK1
  1
OPEN
  9
$DIMBLK2
  1
OPEN
  9
$DIMSTYLE
  2
IGA
  9
$DIMCLRD
 70
     0
  9
$DIMCLRE
 70
     0
  9
$DIMCLRT
 70
     0
  9
$DIMTFAC
 40
10.0
  9
$DIMGAP
 40
1.0
  9
$LUNITS
 70
     2
  9
$LUPREC
 70
     3
  9
$SKETCHINC
 40
0.1
  9
$FILLETRAD
 40
50.0
  9
$AUNITS
 70
     0
  9
$AUPREC
 70
     0
  9
$MENU
  1
acad
  9
$ELEVATION
 40
0.0
  9
$PELEVATION
 40
0.0
  9
$THICKNESS
 40
0.0
  9
$LIMCHECK
 70
     0
  9
$BLIPMODE
 70
     0
  9
$CHAMFERA
 40
0.5
  9
$CHAMFERB
 40
0.5
  9
$SKPOLY
 70
     0
  9
$TDCREATE
 40
2450736.5412207171
  9
$TDUPDATE
 40
2454953.8367794682
  9
$TDINDWG
 40
0.0038687384
  9
$TDUSRTIMER
 40
0.0038687384
  9
$USRTIMER
 70
     1
  9
$ANGBASE
 50
0.0
  9
$ANGDIR
 70
     0
  9
$PDMODE
 70
     0
  9
$PDSIZE
 40
0.0
  9
$PLINEWID
 40
0.0
  9
$COORDS
 70
     1
  9
$SPLFRAME
 70
     0
  9
$SPLINETYPE
 70
     6
  9
$SPLINESEGS
 70
     8
  9
$ATTDIA
 70
     0
  9
$ATTREQ
 70
     1
  9
$HANDLING
 70
 10241
  9
$HANDSEED
  5
7F07
  9
$SURFTAB1
 70
     6
  9
$SURFTAB2
 70
     6
  9
$SURFTYPE
 70
     6
  9
$SURFU
 70
     6
  9
$SURFV
 70
     6
  9
$UCSNAME
  2

  9
$UCSORG
 10
0.0
 20
0.0
 30
0.0
  9
$UCSXDIR
 10
1.0
 20
0.0
 30
0.0
  9
$UCSYDIR
 10
0.0
 20
1.0
 30
0.0
  9
$PUCSNAME
  2

  9
$PUCSORG
 10
0.0
 20
0.0
 30
0.0
  9
$PUCSXDIR
 10
1.0
 20
0.0
 30
0.0
  9
$PUCSYDIR
 10
0.0
 20
1.0
 30
0.0
  9
$USERI1
 70
     0
  9
$USERI2
 70
     0
  9
$USERI3
 70
     0
  9
$USERI4
 70
     0
  9
$USERI5
 70
     0
  9
$USERR1
 40
0.0
  9
$USERR2
 40
0.0
  9
$USERR3
 40
0.0
  9
$USERR4
 40
0.0
  9
$USERR5
 40
0.0
  9
$WORLDVIEW
 70
     1
  9
$SHADEDGE
 70
     3
  9
$SHADEDIF
 70
    70
  9
$TILEMODE
 70
     1
  9
$MAXACTVP
 70
    16
  9
$PLIMCHECK
 70
     0
  9
$PEXTMIN
 10
1.0000000000000000E+020
 20
1.0000000000000000E+020
 30
1.0000000000000000E+020
  9
$PEXTMAX
 10
-1.0000000000000000E+020
 20
-1.0000000000000000E+020
 30
-1.0000000000000000E+020
  9
$PLIMMIN
 10
0.0
 20
0.0
  9
$PLIMMAX
 10
12.0
 20
9.0
  9
$UNITMODE
 70
     0
  9
$VISRETAIN
 70
     0
  9
$PLINEGEN
 70
     0
  9
$PSLTSCALE
 70
     1
  0
ENDSEC
  0
SECTION
  2
TABLES
  0
TABLE
  2
VPORT
 70
     2
  0
VPORT
  2
*ACTIVE
 70
     0
 10
0.0
 20
0.0
 11
1.0
 21
1.0
 12
5785.5237100498898
 22
3661.8959811763189
 13
0.0
 23
0.0
 14
10.0
 24
10.0
 15
10.0
 25
10.0
 16
0.0
 26
0.0
 36
1.0
 17
0.0
 27
0.0
 37
0.0
 40
7720.8617819453802
 41
1.5051150895140659
 42
50.0
 43
0.0
 44
0.0
 50
0.0
 51
0.0
 71
     0
 72
   100
 73
     1
 74
     0
 75
     0
 76
     0
 77
     0
 78
     0
  0
ENDTAB
  0
TABLE
  2
LTYPE
 70
     2
  0
LTYPE
  2
CONTINUOUS
 70
     0
  3
Solid line
 72
    65
 73
     0
 40
0.0
  0
LTYPE
  2
CENTER
 70
     0
  3
____ _ ____ _ ____ _ ____ _ ____ _ ____ _ ____ 
 72
    65
 73
     4
 40
2.0
 49
1.25
 49
-0.25
 49
0.25
 49
-0.25
  0
ENDTAB
  0
TABLE
  2
LAYER
 70
     6
  0
LAYER
  2
0
 70
     0
 62
     7
  6
CONTINUOUS
  0
LAYER
  2
3
 70
     0
 62
     2
  6
CONTINUOUS
  0
LAYER
  2
2
 70
     0
 62
     3
  6
CENTER
  0
LAYER
  2
1
 70
     0
 62
     4
  6
CONTINUOUS
  0
LAYER
  2
4
 70
     0
 62
     7
  6
CONTINUOUS
  0
LAYER
  2
DEFPOINTS
 70
     0
 62
     7
  6
CONTINUOUS
  0
ENDTAB
  0
TABLE
  2
STYLE
 70
     1
  0
STYLE
  2
STANDARD
 70
     0
 40
0.0
 41
1.0
 50
0.0
 71
     0
 42
180.0
  3
simplex.shx
  4
extfont.shx
  0
ENDTAB
  0
TABLE
  2
VIEW
 70
     0
  0
ENDTAB
  0
TABLE
  2
UCS
 70
     0
  0
ENDTAB
  0
TABLE
  2
APPID
 70
     1
  0
APPID
  2
ACAD
 70
     0
  0
ENDTAB
  0
TABLE
  2
DIMSTYLE
 70
     1
  0
DIMSTYLE
  2
IGA
 70
     0
  3

  4

  5

  6
OPEN
  7
OPEN
 40
2.0
 41
2.0
 42
0.5
 43
10.0
 44
1.0
 45
0.0
 46
0.0
 47
1.0
 48
1.0
140
3.0
141
0.0
142
0.0
143
0.03937
144
1.0
145
0.0
146
10.0
147
1.0
 71
     0
 72
     0
 73
     0
 74
     0
 75
     0
 76
     0
 77
     1
 78
     8
170
     0
171
     2
172
     0
173
     1
174
     0
175
     0
176
     0
177
     0
178
     0
  0
ENDTAB
  0
ENDSEC
  0
SECTION
  2
BLOCKS
  0
BLOCK
  8
0
  2
$MODEL_SPACE
 70
     0
 10
0.0
 20
0.0
 30
0.0
  3
$MODEL_SPACE
  1

  0
ENDBLK
  5
1B
  8
0
  0
BLOCK
 67
     1
  8
0
  2
$PAPER_SPACE
 70
     0
 10
0.0
 20
0.0
 30
0.0
  3
$PAPER_SPACE
  1

  0
ENDBLK
  5
18
 67
     1
  8
0
  0
BLOCK
  8
0
  2
_OPEN
 70
     0
 10
0.0
 20
0.0
 30
0.0
  3
_OPEN
  1

  0
LINE
  5
7B66
  8
0
  6
BYBLOCK
 62
     0
 10
-1.0
 20
0.166667
 30
0.0
 11
0.0
 21
0.0
 31
0.0
  0
LINE
  5
7B67
  8
0
  6
BYBLOCK
 62
     0
 10
0.0
 20
0.0
 30
0.0
 11
-1.0
 21
-0.166667
 31
0.0
  0
LINE
  5
7B68
  8
0
  6
BYBLOCK
 62
     0
 10
0.0
 20
0.0
 30
0.0
 11
-1.0
 21
0.0
 31
0.0
  0
ENDBLK
  5
7B69
  8
0
  0
BLOCK
  8
0
  2
*D1
 70
     1
 10
0.0
 20
0.0
 30
0.0
  3
*D1
  1

  0
LINE
  5
7E75
  8
3
  6
CONTINUOUS
 62
     0
 10
1893.7932879999989
 20
2623.1008400000001
 30
0.0
 11
1893.7932879999989
 21
2797.7224079999992
 31
0.0
  0
LINE
  5
7E76
  8
3
  6
CONTINUOUS
 62
     0
 10
1333.7932880000001
 20
2623.1008400000001
 30
0.0
 11
1333.7932880000001
 21
2797.7224079999992
 31
0.0
  0
LINE
  5
7E77
  8
3
  6
CONTINUOUS
 62
     0
 10
1853.7932880000001
 20
2777.7224079999992
 30
0.0
 11
1373.7932880000001
 21
2777.7224079999992
 31
0.0
  0
INSERT
  5
7E78
  8
3
  6
CONTINUOUS
 62
     0
  2
_OPEN
 10
1893.7932879999989
 20
2777.7224079999992
 30
0.0
 41
40.0
 42
40.0
 43
40.0
  0
INSERT
  5
7E79
  8
3
  6
CONTINUOUS
 62
     0
  2
_OPEN
 10
1333.7932880000001
 20
2777.7224079999992
 30
0.0
 41
40.0
 42
40.0
 43
40.0
 50
180.0
  0
TEXT
  8
3
  40
60
  5
7EF7
  62
0
  72
0
  71
0
 10
1487.21
 20
2721.52
 30
0.000000
  1
560
  0
POINT
  5
7E7B
  8
DEFPOINTS
  6
CONTINUOUS
 62
     0
 10
1893.7932879999989
 20
2613.1008400000001
 30
0.0
  0
POINT
  5
7E7C
  8
DEFPOINTS
  6
CONTINUOUS
 62
     0
 10
1333.7932880000001
 20
2613.1008400000001
 30
0.0
  0
POINT
  5
7E7D
  8
DEFPOINTS
  6
CONTINUOUS
 62
     0
 10
1333.7932880000001
 20
2777.7224079999992
 30
0.0
  0
ENDBLK
  5
7CA3
  8
0
  0
BLOCK
  8
0
  2
*D2
 70
     1
 10
0.0
 20
0.0
 30
0.0
  3
*D2
  1

  0
LINE
  5
7E7E
  8
3
  6
CONTINUOUS
 62
     0
 10
1893.7932879999989
 20
2623.1008400000001
 30
0.0
 11
1893.7932879999989
 21
2920.5559870000002
 31
0.0
  0
LINE
  5
7E7F
  8
3
  6
CONTINUOUS
 62
     0
 10
1354.7932880000001
 20
2770.6445939999999
 30
0.0
 11
1354.7932880000001
 21
2920.5559870000002
 31
0.0
  0
LINE
  5
7E80
  8
3
  6
CONTINUOUS
 62
     0
 10
1853.7932880000001
 20
2900.5559870000002
 30
0.0
 11
1394.7932880000001
 21
2900.5559870000002
 31
0.0
  0
INSERT
  5
7E81
  8
3
  6
CONTINUOUS
 62
     0
  2
_OPEN
 10
1893.7932879999989
 20
2900.5559870000002
 30
0.0
 41
40.0
 42
40.0
 43
40.0
  0
INSERT
  5
7E82
  8
3
  6
CONTINUOUS
 62
     0
  2
_OPEN
 10
1354.7932880000001
 20
2900.5559870000002
 30
0.0
 41
40.0
 42
40.0
 43
40.0
 50
180.0
  0
TEXT
  8
3
  40
60
  5
7EF8
  62
0
  72
0
  71
0
 10
1483.11
 20
2844.36
 30
0.000000
  1
539
  0
POINT
  5
7E84
  8
DEFPOINTS
  6
CONTINUOUS
 62
     0
 10
1893.7932879999989
 20
2613.1008400000001
 30
0.0
  0
POINT
  5
7E85
  8
DEFPOINTS
  6
CONTINUOUS
 62
     0
 10
1354.7932880000001
 20
2760.6445939999999
 30
0.0
  0
POINT
  5
7E86
  8
DEFPOINTS
  6
CONTINUOUS
 62
     0
 10
1354.7932880000001
 20
2900.5559870000002
 30
0.0
  0
ENDBLK
  5
7C98
  8
0
  0
BLOCK
  8
0
  2
*D3
 70
     1
 10
0.0
 20
0.0
 30
0.0
  3
*D3
  1

  0
LINE
  5
7E87
  8
3
  6
CONTINUOUS
 62
     0
 10
944.79328800000008
 20
2578.1008400000001
 30
0.0
 11
944.79328800000008
 21
2920.5559870000002
 31
0.0
  0
LINE
  5
7E88
  8
3
  6
CONTINUOUS
 62
     0
 10
1314.7932880000001
 20
2900.5559870000002
 30
0.0
 11
984.79328799999996
 21
2900.5559870000002
 31
0.0
  0
INSERT
  5
7E89
  8
3
  6
CONTINUOUS
 62
     0
  2
_OPEN
 10
1354.7932880000001
 20
2900.5559870000002
 30
0.0
 41
40.0
 42
40.0
 43
40.0
  0
INSERT
  5
7E8A
  8
3
  6
CONTINUOUS
 62
     0
  2
_OPEN
 10
944.79328800000008
 20
2900.5559870000002
 30
0.0
 41
40.0
 42
40.0
 43
40.0
 50
180.0
  0
TEXT
  8
3
  40
60
  5
7EF9
  62
0
  72
0
  71
0
 10
1029.79
 20
2844.36
 30
0.000000
  1
410
  0
POINT
  5
7E8C
  8
DEFPOINTS
  6
CONTINUOUS
 62
     0
 10
1354.7932880000001
 20
2760.6445939999999
 30
0.0
  0
POINT
  5
7E8D
  8
DEFPOINTS
  6
CONTINUOUS
 62
     0
 10
944.79328800000008
 20
2568.1008400000001
 30
0.0
  0
POINT
  5
7E8E
  8
DEFPOINTS
  6
CONTINUOUS
 62
     0
 10
944.79328800000008
 20
2900.5559870000002
 30
0.0
  0
ENDBLK
  5
7CAD
  8
0
  0
BLOCK
  8
0
  2
*D4
 70
     1
 10
0.0
 20
0.0
 30
0.0
  3
*D4
  1

  0
LINE
  5
7E8F
  8
3
  6
CONTINUOUS
 62
     0
 10
1296.7932880000001
 20
2613.1008400000001
 30
0.0
 11
755.25868700000046
 21
2613.1008400000001
 31
0.0
  0
LINE
  5
7E90
  8
3
  6
CONTINUOUS
 62
     0
 10
839.56430299999977
 20
2208.1008400000001
 30
0.0
 11
755.25868700000035
 21
2208.1008400000001
 31
0.0
  0
LINE
  5
7E91
  8
3
  6
CONTINUOUS
 62
     0
 10
775.25868700000035
 20
2573.1008400000001
 30
0.0
 11
775.25868700000035
 21
2248.1008400000001
 31
0.0
  0
INSERT
  5
7E92
  8
3
  6
CONTINUOUS
 62
     0
  2
_OPEN
 10
775.25868700000035
 20
2613.1008400000001
 30
0.0
 41
40.0
 42
40.0
 43
40.0
 50
90.0
  0
INSERT
  5
7E93
  8
3
  6
CONTINUOUS
 62
     0
  2
_OPEN
 10
775.25868700000035
 20
2208.1008400000001
 30
0.0
 41
40.0
 42
40.0
 43
40.0
 50
270.0
  0
TEXT
  8
3
  40
60
  5
7EFA
  62
0
  72
0
  71
0
 10
605.259
 20
2307.68
 30
0.000000
  1
405
  0
POINT
  5
7E95
  8
DEFPOINTS
  6
CONTINUOUS
 62
     0
 10
1306.7932880000001
 20
2613.1008400000001
 30
0.0
  0
POINT
  5
7E96
  8
DEFPOINTS
  6
CONTINUOUS
 62
     0
 10
849.56430299999977
 20
2208.1008400000001
 30
0.0
  0
POINT
  5
7E97
  8
DEFPOINTS
  6
CONTINUOUS
 62
     0
 10
775.25868700000035
 20
2208.1008400000001
 30
0.0
  0
ENDBLK
  5
7B9C
  8
0
  0
BLOCK
  8
0
  2
*D5
 70
     1
 10
0.0
 20
0.0
 30
0.0
  3
*D5
  1

  0
LINE
  5
7E98
  8
3
  6
CONTINUOUS
 62
     0
 10
999.79328799999996
 20
1653.1008400000001
 30
0.0
 11
755.2586869999999
 21
1653.1008400000001
 31
0.0
  0
LINE
  5
7E99
  8
3
  6
CONTINUOUS
 62
     0
 10
775.25868700000012
 20
2168.1008400000001
 30
0.0
 11
775.25868700000001
 21
1693.1008400000001
 31
0.0
  0
INSERT
  5
7E9A
  8
3
  6
CONTINUOUS
 62
     0
  2
_OPEN
 10
775.25868700000012
 20
2208.1008400000001
 30
0.0
 41
40.0
 42
40.0
 43
40.0
 50
90.0
  0
INSERT
  5
7E9B
  8
3
  6
CONTINUOUS
 62
     0
  2
_OPEN
 10
775.25868700000001
 20
1653.1008400000001
 30
0.0
 41
40.0
 42
40.0
 43
40.0
 50
270.0
  0
TEXT
  8
3
  40
60
  5
7EFB
  62
0
  72
0
  71
0
 10
605.259
 20
1824.40
 30
0.000000
  1
555
  0
POINT
  5
7E9D
  8
DEFPOINTS
  6
CONTINUOUS
 62
     0
 10
849.56430299999977
 20
2208.1008400000001
 30
0.0
  0
POINT
  5
7E9E
  8
DEFPOINTS
  6
CONTINUOUS
 62
     0
 10
1009.793288
 20
1653.1008400000001
 30
0.0
  0
POINT
  5
7E9F
  8
DEFPOINTS
  6
CONTINUOUS
 62
     0
 10
775.25868700000001
 20
1653.1008400000001
 30
0.0
  0
ENDBLK
  5
7BA8
  8
0
  0
BLOCK
  8
0
  2
*D6
 70
     1
 10
0.0
 20
0.0
 30
0.0
  3
*D6
  1

  0
LINE
  5
7EA0
  8
3
  6
CONTINUOUS
 62
     0
 10
1009.793288
 20
1643.1008399999989
 30
0.0
 11
1009.793288
 21
1477.0840965470561
 31
0.0
  0
LINE
  5
7EA1
  8
3
  6
CONTINUOUS
 62
     0
 10
1354.7932880000001
 20
1565.395088
 30
0.0
 11
1354.7932880000001
 21
1477.0840965470561
 31
0.0
  0
LINE
  5
7EA2
  8
3
  6
CONTINUOUS
 62
     0
 10
1049.7932880000001
 20
1497.0840965470561
 30
0.0
 11
1314.7932880000001
 21
1497.0840965470561
 31
0.0
  0
INSERT
  5
7EA3
  8
3
  6
CONTINUOUS
 62
     0
  2
_OPEN
 10
1009.793288
 20
1497.0840965470561
 30
0.0
 41
40.0
 42
40.0
 43
40.0
 50
180.0
  0
INSERT
  5
7EA4
  8
3
  6
CONTINUOUS
 62
     0
  2
_OPEN
 10
1354.7932880000001
 20
1497.0840965470561
 30
0.0
 41
40.0
 42
40.0
 43
40.0
  0
TEXT
  8
3
  40
60
  5
7EFC
  62
0
  72
0
  71
0
 10
1065.09
 20
1440.88
 30
0.000000
  1
345
  0
POINT
  5
7EA6
  8
DEFPOINTS
  6
CONTINUOUS
 62
     0
 10
1009.793288
 20
1653.1008400000001
 30
0.0
  0
POINT
  5
7EA7
  8
DEFPOINTS
  6
CONTINUOUS
 62
     0
 10
1354.7932880000001
 20
1575.395088
 30
0.0
  0
POINT
  5
7EA8
  8
DEFPOINTS
  6
CONTINUOUS
 62
     0
 10
1354.7932880000001
 20
1497.0840965470561
 30
0.0
  0
ENDBLK
  5
7D81
  8
0
  0
BLOCK
  8
0
  2
*D7
 70
     1
 10
0.0
 20
0.0
 30
0.0
  3
*D7
  1

  0
LINE
  5
7EA9
  8
3
  6
CONTINUOUS
 62
     0
 10
2259.7932879999998
 20
1643.1008399999989
 30
0.0
 11
2259.7932879999998
 21
1477.0840965470561
 31
0.0
  0
LINE
  5
7EAA
  8
3
  6
CONTINUOUS
 62
     0
 10
1394.7932880000001
 20
1497.0840965470561
 30
0.0
 11
2219.7932879999989
 21
1497.0840965470561
 31
0.0
  0
INSERT
  5
7EAB
  8
3
  6
CONTINUOUS
 62
     0
  2
_OPEN
 10
1354.7932880000001
 20
1497.0840965470561
 30
0.0
 41
40.0
 42
40.0
 43
40.0
 50
180.0
  0
INSERT
  5
7EAC
  8
3
  6
CONTINUOUS
 62
     0
  2
_OPEN
 10
2259.7932879999998
 20
1497.0840965470561
 30
0.0
 41
40.0
 42
40.0
 43
40.0
  0
TEXT
  8
3
  40
60
  5
7EFD
  62
0
  72
0
  71
0
 10
1687.29
 20
1440.88
 30
0.000000
  1
905
  0
POINT
  5
7EAE
  8
DEFPOINTS
  6
CONTINUOUS
 62
     0
 10
1354.7932880000001
 20
1575.395088
 30
0.0
  0
POINT
  5
7EAF
  8
DEFPOINTS
  6
CONTINUOUS
 62
     0
 10
2259.7932879999998
 20
1653.1008400000001
 30
0.0
  0
POINT
  5
7EB0
  8
DEFPOINTS
  6
CONTINUOUS
 62
     0
 10
2259.7932879999998
 20
1497.0840965470561
 30
0.0
  0
ENDBLK
  5
7D76
  8
0
  0
BLOCK
  8
0
  2
*D8
 70
     1
 10
0.0
 20
0.0
 30
0.0
  3
*D8
  1

  0
LINE
  5
7EB1
  8
3
  6
CONTINUOUS
 62
     0
 10
1286.7932880000001
 20
2613.1008400000001
 30
0.0
 11
611.81922100000043
 21
2613.1008400000001
 31
0.0
  0
LINE
  5
7EB2
  8
3
  6
CONTINUOUS
 62
     0
 10
999.79328799999996
 20
1653.1008400000001
 30
0.0
 11
611.81922100000008
 21
1653.1008400000001
 31
0.0
  0
LINE
  5
7EB3
  8
3
  6
CONTINUOUS
 62
     0
 10
631.81922100000043
 20
2573.1008400000001
 30
0.0
 11
631.8192210000002
 21
1693.1008400000001
 31
0.0
  0
INSERT
  5
7EB4
  8
3
  6
CONTINUOUS
 62
     0
  2
_OPEN
 10
631.81922100000043
 20
2613.1008400000001
 30
0.0
 41
40.0
 42
40.0
 43
40.0
 50
90.0
  0
INSERT
  5
7EB5
  8
3
  6
CONTINUOUS
 62
     0
  2
_OPEN
 10
631.8192210000002
 20
1653.1008400000001
 30
0.0
 41
40.0
 42
40.0
 43
40.0
 50
270.0
  0
TEXT
  8
3
  40
60
  5
7EFE
  62
0
  72
0
  71
0
 10
461.819
 20
2016.97
 30
0.000000
  1
960
  0
POINT
  5
7EB7
  8
DEFPOINTS
  6
CONTINUOUS
 62
     0
 10
1296.7932880000001
 20
2613.1008400000001
 30
0.0
  0
POINT
  5
7EB8
  8
DEFPOINTS
  6
CONTINUOUS
 62
     0
 10
1009.793288
 20
1653.1008400000001
 30
0.0
  0
POINT
  5
7EB9
  8
DEFPOINTS
  6
CONTINUOUS
 62
     0
 10
631.8192210000002
 20
1653.1008400000001
 30
0.0
  0
ENDBLK
  5
7BCE
  8
0
  0
BLOCK
  8
0
  2
*D9
 70
     1
 10
0.0
 20
0.0
 30
0.0
  3
*D9
  1

  0
LINE
  5
7EBA
  8
3
  6
CONTINUOUS
 62
     0
 10
3438.8733830000001
 20
2503.1008400000001
 30
0.0
 11
3619.9944770000002
 21
2503.1008400000001
 31
0.0
  0
LINE
  5
7EBB
  8
3
  6
CONTINUOUS
 62
     0
 10
3440.8733829999992
 20
1913.1008400000001
 30
0.0
 11
3619.9944770000002
 21
1913.1008399999989
 31
0.0
  0
LINE
  5
7EBC
  8
3
  6
CONTINUOUS
 62
     0
 10
3599.9944770000002
 20
2463.1008400000001
 30
0.0
 11
3599.9944770000002
 21
1953.1008399999989
 31
0.0
  0
INSERT
  5
7EBD
  8
3
  6
CONTINUOUS
 62
     0
  2
_OPEN
 10
3599.9944770000002
 20
2503.1008400000001
 30
0.0
 41
40.0
 42
40.0
 43
40.0
 50
90.0
  0
INSERT
  5
7EBE
  8
3
  6
CONTINUOUS
 62
     0
  2
_OPEN
 10
3599.9944770000002
 20
1913.1008399999989
 30
0.0
 41
40.0
 42
40.0
 43
40.0
 50
270.0
  0
TEXT
  8
3
  40
60
  5
7EFF
  62
0
  72
0
  71
0
 10
3429.99
 20
2090.67
 30
0.000000
  1
φ590
  0
POINT
  5
7EC0
  8
DEFPOINTS
  6
CONTINUOUS
 62
     0
 10
3428.8733829999992
 20
2503.1008400000001
 30
0.0
  0
POINT
  5
7EC1
  8
DEFPOINTS
  6
CONTINUOUS
 62
     0
 10
3430.8733829999992
 20
1913.1008400000001
 30
0.0
  0
POINT
  5
7EC2
  8
DEFPOINTS
  6
CONTINUOUS
 62
     0
 10
3599.9944770000002
 20
1913.1008399999989
 30
0.0
  0
ENDBLK
  5
7D62
  8
0
  0
BLOCK
  8
0
  2
*D10
 70
     1
 10
0.0
 20
0.0
 30
0.0
  3
*D10
  1

  0
LINE
  5
7D90
  8
0
  6
BYBLOCK
 62
     0
 10
2963.8733829999992
 20
1643.1008399999989
 30
0.0
 11
2963.8733829999992
 21
1469.732657999999
 31
0.0
  0
LINE
  5
7D91
  8
0
  6
BYBLOCK
 62
     0
 10
3218.8733830000001
 20
1580.8601392166961
 30
0.0
 11
3218.8733830000001
 21
1469.732657999999
 31
0.0
  0
LINE
  5
7D92
  8
0
  6
BYBLOCK
 62
     0
 10
3003.8733830000001
 20
1489.7326579999999
 30
0.0
 11
3178.8733829999992
 21
1489.7326579999999
 31
0.0
  0
TEXT
  5
7D93
  8
3
 62
     0
 10
3014.2305258571419
 20
1521.7867390326951
 30
0.0
 40
60.0
  1
255
  0
INSERT
  5
7D94
  8
0
  6
BYBLOCK
 62
     0
  2
_OPEN
 10
2963.8733829999992
 20
1489.7326579999999
 30
0.0
 41
40.0
 42
40.0
 43
40.0
 50
180.0
  0
INSERT
  5
7D95
  8
0
  6
BYBLOCK
 62
     0
  2
_OPEN
 10
3218.8733830000001
 20
1489.7326579999999
 30
0.0
 41
40.0
 42
40.0
 43
40.0
  0
POINT
  5
7D96
  8
DEFPOINTS
  6
BYBLOCK
 62
     0
 10
2963.8733829999992
 20
1653.1008400000001
 30
0.0
  0
POINT
  5
7D97
  8
DEFPOINTS
  6
BYBLOCK
 62
     0
 10
3218.8733830000001
 20
1590.8601392166961
 30
0.0
  0
POINT
  5
7D98
  8
DEFPOINTS
  6
BYBLOCK
 62
     0
 10
3218.8733830000001
 20
1489.7326579999999
 30
0.0
  0
ENDBLK
  5
7D99
  8
0
  0
BLOCK
  8
0
  2
*D11
 70
     1
 10
0.0
 20
0.0
 30
0.0
  3
*D11
  1

  0
LINE
  5
7EC3
  8
3
  6
CONTINUOUS
 62
     0
 10
3473.8733829999992
 20
1643.1008399999989
 30
0.0
 11
3473.8733829999992
 21
1469.732657999999
 31
0.0
  0
LINE
  5
7EC4
  8
3
  6
CONTINUOUS
 62
     0
 10
3258.8733829999992
 20
1489.7326579999999
 30
0.0
 11
3433.8733829999992
 21
1489.7326579999999
 31
0.0
  0
TEXT
  8
3
  40
60
  5
7F00
  62
0
  72
0
  71
0
 10
3245.14
 20
1432.54
 30
0.000000
  1
255
  0
INSERT
  5
7EC6
  8
3
  6
CONTINUOUS
 62
     0
  2
_OPEN
 10
3218.8733830000001
 20
1489.7326579999999
 30
0.0
 41
40.0
 42
40.0
 43
40.0
 50
180.0
  0
INSERT
  5
7EC7
  8
3
  6
CONTINUOUS
 62
     0
  2
_OPEN
 10
3473.8733829999992
 20
1489.7326579999999
 30
0.0
 41
40.0
 42
40.0
 43
40.0
  0
POINT
  5
7EC8
  8
DEFPOINTS
  6
CONTINUOUS
 62
     0
 10
3218.8733830000001
 20
1590.8601392166961
 30
0.0
  0
POINT
  5
7EC9
  8
DEFPOINTS
  6
CONTINUOUS
 62
     0
 10
3473.8733829999992
 20
1653.1008400000001
 30
0.0
  0
POINT
  5
7ECA
  8
DEFPOINTS
  6
CONTINUOUS
 62
     0
 10
3473.8733829999992
 20
1489.7326579999999
 30
0.0
  0
ENDBLK
  5
7DA3
  8
0
  0
BLOCK
  8
0
  2
*D12
 70
     1
 10
0.0
 20
0.0
 30
0.0
  3
*D12
  1

  0
LINE
  5
7D38
  8
0
  6
BYBLOCK
 62
     0
 10
3430.8733829999992
 20
2538.1008400000001
 30
0.0
 11
3430.8733829999992
 21
2885.767679
 31
0.0
  0
LINE
  5
7D39
  8
0
  6
BYBLOCK
 62
     0
 10
3218.8733830000001
 20
2831.1471079999992
 30
0.0
 11
3218.8733830000001
 21
2885.767679
 31
0.0
  0
LINE
  5
7D3A
  8
0
  6
BYBLOCK
 62
     0
 10
3390.8733829999992
 20
2865.767679
 30
0.0
 11
3258.8733829999992
 21
2865.767679
 31
0.0
  0
TEXT
  5
7D3B
  8
3
 62
     0
 10
3253.4448115714281
 20
2903.86241824542
 30
0.0
 40
60.0
  1
212
  0
INSERT
  5
7D3C
  8
0
  6
BYBLOCK
 62
     0
  2
_OPEN
 10
3430.8733829999992
 20
2865.767679
 30
0.0
 41
40.0
 42
40.0
 43
40.0
  0
INSERT
  5
7D3D
  8
0
  6
BYBLOCK
 62
     0
  2
_OPEN
 10
3218.8733830000001
 20
2865.767679
 30
0.0
 41
40.0
 42
40.0
 43
40.0
 50
180.0
  0
POINT
  5
7D3E
  8
DEFPOINTS
  6
BYBLOCK
 62
     0
 10
3430.8733829999992
 20
2528.1008400000001
 30
0.0
  0
POINT
  5
7D3F
  8
DEFPOINTS
  6
BYBLOCK
 62
     0
 10
3218.8733830000001
 20
2821.1471079999992
 30
0.0
  0
POINT
  5
7D40
  8
DEFPOINTS
  6
BYBLOCK
 62
     0
 10
3218.8733830000001
 20
2865.767679
 30
0.0
  0
ENDBLK
  5
7D41
  8
0
  0
BLOCK
  8
0
  2
*D13
 70
     1
 10
0.0
 20
0.0
 30
0.0
  3
*D13
  1

  0
LINE
  5
7ECB
  8
3
  6
CONTINUOUS
 62
     0
 10
2808.8733829999992
 20
2578.1008400000001
 30
0.0
 11
2808.8733829999992
 21
2885.767679
 31
0.0
  0
LINE
  5
7ECC
  8
3
  6
CONTINUOUS
 62
     0
 10
3178.8733829999992
 20
2865.767679
 30
0.0
 11
2848.8733829999992
 21
2865.767679
 31
0.0
  0
INSERT
  5
7ECD
  8
3
  6
CONTINUOUS
 62
     0
  2
_OPEN
 10
3218.8733830000001
 20
2865.767679
 30
0.0
 41
40.0
 42
40.0
 43
40.0
  0
INSERT
  5
7ECE
  8
3
  6
CONTINUOUS
 62
     0
  2
_OPEN
 10
2808.8733829999992
 20
2865.767679
 30
0.0
 41
40.0
 42
40.0
 43
40.0
 50
180.0
  0
TEXT
  8
3
  40
60
  5
7F01
  62
0
  72
0
  71
0
 10
2893.87
 20
2859.57
 30
0.000000
  1
MAX
  0
TEXT
  8
3
  40
60
  5
7F02
  62
0
  72
0
  71
0
 10
2893.87
 20
2781.57
 30
0.000000
  1
470
  0
POINT
  5
7ED0
  8
DEFPOINTS
  6
CONTINUOUS
 62
     0
 10
3218.8733830000001
 20
2821.1471079999992
 30
0.0
  0
POINT
  5
7ED1
  8
DEFPOINTS
  6
CONTINUOUS
 62
     0
 10
2808.8733829999992
 20
2568.1008400000001
 30
0.0
  0
POINT
  5
7ED2
  8
DEFPOINTS
  6
CONTINUOUS
 62
     0
 10
2808.8733829999992
 20
2865.767679
 30
0.0
  0
ENDBLK
  5
7D6C
  8
0
  0
BLOCK
  8
0
  2
*D14
 70
     1
 10
0.0
 20
0.0
 30
0.0
  3
*D14
  1

  0
LINE
  5
7ED3
  8
3
  6
CONTINUOUS
 62
     0
 10
1009.793288
 20
4073.1008400000001
 30
0.0
 11
1009.793288
 21
4231.4840920000006
 31
0.0
  0
LINE
  5
7ED4
  8
3
  6
CONTINUOUS
 62
     0
 10
2259.7932879999998
 20
4073.1008400000001
 30
0.0
 11
2259.7932879999998
 21
4231.4840920000006
 31
0.0
  0
LINE
  5
7ED5
  8
3
  6
CONTINUOUS
 62
     0
 10
1049.7932880000001
 20
4211.4840919999997
 30
0.0
 11
2219.7932879999989
 21
4211.4840919999997
 31
0.0
  0
INSERT
  5
7ED6
  8
3
  6
CONTINUOUS
 62
     0
  2
_OPEN
 10
1009.793288
 20
4211.4840919999997
 30
0.0
 41
40.0
 42
40.0
 43
40.0
 50
180.0
  0
INSERT
  5
7ED7
  8
3
  6
CONTINUOUS
 62
     0
  2
_OPEN
 10
2259.7932879999998
 20
4211.4840919999997
 30
0.0
 41
40.0
 42
40.0
 43
40.0
  0
TEXT
  8
3
  40
60
  5
7F03
  62
0
  72
0
  71
0
 10
1509.65
 20
4155.28
 30
0.000000
  1
1250
  0
POINT
  5
7ED9
  8
DEFPOINTS
  6
CONTINUOUS
 62
     0
 10
1009.793288
 20
4063.1008399999992
 30
0.0
  0
POINT
  5
7EDA
  8
DEFPOINTS
  6
CONTINUOUS
 62
     0
 10
2259.7932879999998
 20
4063.1008399999992
 30
0.0
  0
POINT
  5
7EDB
  8
DEFPOINTS
  6
CONTINUOUS
 62
     0
 10
2259.7932879999998
 20
4211.4840919999997
 30
0.0
  0
ENDBLK
  5
7CB8
  8
0
  0
BLOCK
  8
0
  2
*D15
 70
     1
 10
0.0
 20
0.0
 30
0.0
  3
*D15
  1

  0
LINE
  5
7EDC
  8
3
  6
CONTINUOUS
 62
     0
 10
2269.7932879999998
 20
4063.1008399999992
 30
0.0
 11
2526.8898960000001
 21
4063.1008399999992
 31
0.0
  0
LINE
  5
7EDD
  8
3
  6
CONTINUOUS
 62
     0
 10
2269.7932879999998
 20
3553.1008400000001
 30
0.0
 11
2526.8898960000001
 21
3553.1008400000001
 31
0.0
  0
LINE
  5
7EDE
  8
3
  6
CONTINUOUS
 62
     0
 10
2506.8898960000001
 20
4023.1008400000001
 30
0.0
 11
2506.8898960000001
 21
3593.1008400000001
 31
0.0
  0
INSERT
  5
7EDF
  8
3
  6
CONTINUOUS
 62
     0
  2
_OPEN
 10
2506.8898960000001
 20
4063.1008399999992
 30
0.0
 41
40.0
 42
40.0
 43
40.0
 50
90.0
  0
INSERT
  5
7EE0
  8
3
  6
CONTINUOUS
 62
     0
  2
_OPEN
 10
2506.8898960000001
 20
3553.1008400000001
 30
0.0
 41
40.0
 42
40.0
 43
40.0
 50
270.0
  0
TEXT
  8
3
  40
60
  5
7F04
  62
0
  72
0
  71
0
 10
2336.89
 20
3702.17
 30
0.000000
  1
510
  0
POINT
  5
7EE2
  8
DEFPOINTS
  6
CONTINUOUS
 62
     0
 10
2259.7932879999998
 20
4063.1008399999992
 30
0.0
  0
POINT
  5
7EE3
  8
DEFPOINTS
  6
CONTINUOUS
 62
     0
 10
2259.7932879999998
 20
3553.1008400000001
 30
0.0
  0
POINT
  5
7EE4
  8
DEFPOINTS
  6
CONTINUOUS
 62
     0
 10
2506.8898960000001
 20
3553.1008400000001
 30
0.0
  0
ENDBLK
  5
7C72
  8
0
  0
BLOCK
  8
0
  2
*D16
 70
     1
 10
0.0
 20
0.0
 30
0.0
  3
*D16
  1

  0
LINE
  5
7EE5
  8
3
  6
CONTINUOUS
 62
     0
 10
3008.8733829999992
 20
2623.1008400000001
 30
0.0
 11
3008.8733829999992
 21
2741.8285679999999
 31
0.0
  0
LINE
  5
7EE6
  8
3
  6
CONTINUOUS
 62
     0
 10
3428.8733829999992
 20
2598.1008400000001
 30
0.0
 11
3428.8733829999992
 21
2741.8285679999999
 31
0.0
  0
LINE
  5
7EE7
  8
3
  6
CONTINUOUS
 62
     0
 10
3048.8733830000001
 20
2721.8285679999999
 30
0.0
 11
3388.8733829999992
 21
2721.8285679999999
 31
0.0
  0
INSERT
  5
7EE8
  8
3
  6
CONTINUOUS
 62
     0
  2
_OPEN
 10
3008.8733829999992
 20
2721.8285679999999
 30
0.0
 41
40.0
 42
40.0
 43
40.0
 50
180.0
  0
INSERT
  5
7EE9
  8
3
  6
CONTINUOUS
 62
     0
  2
_OPEN
 10
3428.8733829999992
 20
2721.8285679999999
 30
0.0
 41
40.0
 42
40.0
 43
40.0
  0
TEXT
  8
3
  40
60
  5
7F05
  62
0
  72
0
  71
0
 10
3093.54
 20
2665.63
 30
0.000000
  1
420
  0
POINT
  5
7EEB
  8
DEFPOINTS
  6
CONTINUOUS
 62
     0
 10
3008.8733829999992
 20
2613.1008400000001
 30
0.0
  0
POINT
  5
7EEC
  8
DEFPOINTS
  6
CONTINUOUS
 62
     0
 10
3428.8733829999992
 20
2588.1008400000001
 30
0.0
  0
POINT
  5
7EED
  8
DEFPOINTS
  6
CONTINUOUS
 62
     0
 10
3428.8733829999992
 20
2721.8285679999999
 30
0.0
  0
ENDBLK
  5
7CDB
  8
0
  0
BLOCK
  8
0
  2
*D17
 70
     1
 10
0.0
 20
0.0
 30
0.0
  3
*D17
  1

  0
LINE
  5
7EEE
  8
3
 62
     0
 10
944.79328800000008
 20
2578.1008400000001
 30
0.0
 11
944.79328800000008
 21
3047.2459133395332
 31
0.0
  0
LINE
  5
7EEF
  8
3
 62
     0
 10
2259.7932879999998
 20
1743.1008400000001
 30
0.0
 11
2259.7932879999998
 21
3047.2459133395332
 31
0.0
  0
LINE
  5
7EF0
  8
3
 62
     0
 10
984.79328799999996
 20
3027.2459133395332
 30
0.0
 11
2219.7932879999989
 21
3027.2459133395332
 31
0.0
  0
INSERT
  5
7EF1
  8
3
 62
     0
  2
_OPEN
 10
944.79328800000008
 20
3027.2459133395332
 30
0.0
 41
40.0
 42
40.0
 43
40.0
 50
180.0
  0
INSERT
  5
7EF2
  8
3
 62
     0
  2
_OPEN
 10
2259.7932879999998
 20
3027.2459133395332
 30
0.0
 41
40.0
 42
40.0
 43
40.0
  0
TEXT
  8
3
  40
60
  5
7F06
  62
0
  72
0
  71
0
 10
1483.53
 20
2971.05
 30
0.000000
  1
1315
  0
POINT
  5
7EF4
  8
DEFPOINTS
 62
     0
 10
944.79328800000008
 20
2568.1008400000001
 30
0.0
  0
POINT
  5
7EF5
  8
DEFPOINTS
 62
     0
 10
2259.7932879999998
 20
1733.1008399999989
 30
0.0
  0
POINT
  5
7EF6
  8
DEFPOINTS
 62
     0
 10
2259.7932879999998
 20
3027.2459133395332
 30
0.0
  0
ENDBLK
  5
7D8D
  8
0
  0
ENDSEC
  0
SECTION
  2
ENTITIES
  0
LINE
  5
7AA3
  8
1
  6
CONTINUOUS
 10
1306.7932880000001
 20
2613.1008400000001
 30
0.0
 11
1920.7932879999989
 21
2613.1008400000001
 31
0.0
  0
ARC
  5
7AA4
  8
1
  6
CONTINUOUS
 10
1391.7932880000001
 20
2245.1008400000001
 30
0.0
 40
501.36713099999992
 50
264.95754899999997
 51
355.7678259999999
  0
LINE
  5
7AA5
  8
1
  6
CONTINUOUS
 10
1009.793288
 20
1653.1008400000001
 30
0.0
 11
2259.7932879999998
 21
1653.1008400000001
 31
0.0
  0
LINE
  5
7AA6
  8
1
  6
CONTINUOUS
 10
1354.2932880000001
 20
2568.1008400000001
 30
0.0
 11
2214.2932879999989
 21
1963.1008400000001
 31
0.0
  0
ARC
  5
7AA7
  8
1
  6
CONTINUOUS
 10
2054.7932879999989
 20
1915.1008400000001
 30
0.0
 40
142.0
 50
324.59875699999998
 51
215.40124299999999
  0
LINE
  5
7AA8
  8
1
  6
CONTINUOUS
 10
994.79328800000008
 20
1733.1008399999989
 30
0.0
 11
2259.7932879999998
 21
1733.1008399999989
 31
0.0
  0
LINE
  5
7AA9
  8
1
  6
CONTINUOUS
 10
1084.2932880000001
 20
3518.1008400000001
 30
0.0
 11
2214.2932879999989
 21
3518.1008400000001
 31
0.0
  0
LINE
  5
7AAA
  8
1
  6
CONTINUOUS
 10
1084.2932880000001
 20
3398.1008400000001
 30
0.0
 11
2214.2932879999989
 21
3398.1008400000001
 31
0.0
  0
LINE
  5
7AAB
  8
1
  6
CONTINUOUS
 10
1009.793288
 20
4063.1008399999992
 30
0.0
 11
2259.7932879999998
 21
4063.1008399999992
 31
0.0
  0
LINE
  5
7AAC
  8
1
  6
CONTINUOUS
 10
2196.7932879999989
 20
3971.8386730000002
 30
0.0
 11
1912.7932879999989
 21
3971.8386730000002
 31
0.0
  0
LINE
  5
7AAD
  8
1
  6
CONTINUOUS
 10
2196.7932879999989
 20
3571.8386730000002
 30
0.0
 11
1912.7932879999989
 21
3571.8386730000002
 31
0.0
  0
LINE
  5
7AAE
  8
1
  6
CONTINUOUS
 10
1370.7932880000001
 20
3553.1008400000001
 30
0.0
 11
2035.7932880000001
 21
3553.1008400000001
 31
0.0
  0
LINE
  5
7AAF
  8
1
  6
CONTINUOUS
 10
2084.3527519999998
 20
1978.553484
 30
0.0
 11
1397.0210939999999
 21
2298.7474750000001
 31
0.0
  0
LINE
  5
7AB0
  8
1
  6
CONTINUOUS
 10
2030.339328999999
 20
1849.511176999999
 30
0.0
 11
1319.859060999999
 21
2114.4013209999998
 31
0.0
  0
ARC
  5
7AB1
  8
1
  6
CONTINUOUS
 10
1385.7932880000001
 20
2177.1008400000001
 30
0.0
 40
433.10293799999999
 50
172.74680499999991
 51
264.95754899999997
  0
ARC
  5
7AB2
  8
1
  6
CONTINUOUS
 10
1330.7932880000001
 20
2184.1008400000001
 30
0.0
 40
377.65927299999993
 50
89.544856999999993
 51
172.74680499999991
  0
LINE
  5
7AB3
  8
1
  6
CONTINUOUS
 10
1764.7932879999989
 20
2568.1008400000001
 30
0.0
 11
944.79328800000008
 21
2568.1008400000001
 31
0.0
  0
LINE
  5
7AB4
  8
1
  6
CONTINUOUS
 10
1764.7932879999989
 20
1733.1008399999989
 30
0.0
 11
944.79328800000008
 21
1733.1008399999989
 31
0.0
  0
CIRCLE
  5
7AB5
  8
1
  6
CONTINUOUS
 10
1354.7932880000001
 20
2208.1008400000001
 30
0.0
 40
320.0
  0
CIRCLE
  5
7AB6
  8
1
  6
CONTINUOUS
 10
1354.7932880000001
 20
2208.1008400000001
 30
0.0
 40
100.0
  0
LINE
  5
7AB7
  8
2
  6
CENTER
 10
849.56430299999977
 20
2208.1008400000001
 30
0.0
 11
1982.0456866975981
 21
2208.1008400000001
 31
0.0
  0
CIRCLE
  5
7AB8
  8
1
  6
CONTINUOUS
 10
1354.7932880000001
 20
2208.1008400000001
 30
0.0
 40
295.0
  0
LINE
  5
7AB9
  8
1
  6
CONTINUOUS
 10
1084.2932880000001
 20
2483.1008400000001
 30
0.0
 11
1354.2932880000001
 21
2568.1008400000001
 31
0.0
  0
LINE
  5
7ABA
  8
1
  6
CONTINUOUS
 10
944.79328800000008
 20
2568.1008400000001
 30
0.0
 11
944.79328800000008
 21
1733.1008399999989
 31
0.0
  0
LINE
  5
7ABB
  8
1
  6
CONTINUOUS
 10
1084.2932880000001
 20
1733.1008399999989
 30
0.0
 11
1084.2932880000001
 21
2483.1008400000001
 31
0.0
  0
LINE
  5
7ABC
  8
1
  6
CONTINUOUS
 10
1009.793288
 20
1733.1008399999989
 30
0.0
 11
1009.793288
 21
1653.1008400000001
 31
0.0
  0
LINE
  5
7ABD
  8
1
  6
CONTINUOUS
 10
1893.7932879999989
 20
2613.1008400000001
 30
0.0
 11
1891.7932879999989
 21
2208.1008400000001
 31
0.0
  0
LINE
  5
7ABE
  8
1
  6
CONTINUOUS
 10
1764.7932879999989
 20
2568.1008400000001
 30
0.0
 11
1764.7932879999989
 21
1733.1008399999989
 31
0.0
  0
LINE
  5
7ABF
  8
2
  6
CENTER
 10
1354.7932880000001
 20
4121.697764999999
 30
0.0
 11
1354.7932880000001
 21
3323.376225625972
 31
0.0
  0
LINE
  5
7AC0
  8
1
  6
CONTINUOUS
 10
1333.7932880000001
 20
2588.1008400000001
 30
0.0
 11
1893.6698309999999
 21
2588.1008400000001
 31
0.0
  0
LINE
  5
7AC1
  8
1
  6
CONTINUOUS
 10
1333.7932880000001
 20
2561.7481969999999
 30
0.0
 11
1333.7932880000001
 21
2613.1008400000001
 31
0.0
  0
LINE
  5
7AC2
  8
1
  6
CONTINUOUS
 10
944.79328800000008
 20
3598.1008400000001
 30
0.0
 11
1893.7932879999989
 21
3598.1008400000001
 31
0.0
  0
LINE
  5
7AC3
  8
1
  6
CONTINUOUS
 10
944.79328800000008
 20
4018.1008400000001
 30
0.0
 11
1893.7932879999989
 21
4018.1008400000001
 31
0.0
  0
LINE
  5
7AC4
  8
1
  6
CONTINUOUS
 10
1009.793288
 20
3553.1008400000001
 30
0.0
 11
1338.7932880000001
 21
3553.1008400000001
 31
0.0
  0
LINE
  5
7AC5
  8
1
  6
CONTINUOUS
 10
1454.7932880000001
 20
3488.1008399999992
 30
0.0
 11
1254.7932880000001
 21
3488.1008399999992
 31
0.0
  0
LINE
  5
7AC6
  8
1
  6
CONTINUOUS
 10
1454.7932880000001
 20
3428.1008400000001
 30
0.0
 11
1254.7932880000001
 21
3428.1008400000001
 31
0.0
  0
LINE
  5
7AC7
  8
1
  6
CONTINUOUS
 10
1034.7932880000001
 20
4020.1008400000001
 30
0.0
 11
1674.7932880000001
 21
4020.1008400000001
 31
0.0
  0
LINE
  5
7AC8
  8
1
  6
CONTINUOUS
 10
944.79328800000008
 20
3598.1008400000001
 30
0.0
 11
944.79328800000008
 21
4018.1008400000001
 31
0.0
  0
LINE
  5
7AC9
  8
1
  6
CONTINUOUS
 10
1084.2932880000001
 20
3398.1008400000001
 30
0.0
 11
1084.2932880000001
 21
3518.1008400000001
 31
0.0
  0
LINE
  5
7ACA
  8
1
  6
CONTINUOUS
 10
1009.793288
 20
3598.1008400000001
 30
0.0
 11
1009.793288
 21
3553.1008400000001
 31
0.0
  0
LINE
  5
7ACB
  8
1
  6
CONTINUOUS
 10
1254.7932880000001
 20
3428.1008400000001
 30
0.0
 11
1254.7932880000001
 21
3488.1008399999992
 31
0.0
  0
LINE
  5
7ACC
  8
1
  6
CONTINUOUS
 10
1009.793288
 20
4063.1008399999992
 30
0.0
 11
1009.793288
 21
4018.1008400000001
 31
0.0
  0
LINE
  5
7ACD
  8
1
  6
CONTINUOUS
 10
1034.7932880000001
 20
4018.1008400000001
 30
0.0
 11
1034.7932880000001
 21
4020.1008400000001
 31
0.0
  0
LINE
  5
7ACE
  8
1
  6
CONTINUOUS
 10
1333.7932880000001
 20
4018.1008400000001
 30
0.0
 11
1893.7932879999989
 21
3598.1008400000001
 31
0.0
  0
LINE
  5
7ACF
  8
1
  6
CONTINUOUS
 10
1893.7932879999989
 20
4018.1008400000001
 30
0.0
 11
1333.7932880000001
 21
3598.1008400000001
 31
0.0
  0
LINE
  5
7AD0
  8
1
  6
CONTINUOUS
 10
1333.7932880000001
 20
4018.1008400000001
 30
0.0
 11
1333.7932880000001
 21
3598.1008400000001
 31
0.0
  0
LINE
  5
7AD1
  8
1
  6
CONTINUOUS
 10
1338.7932880000001
 20
3598.1008400000001
 30
0.0
 11
1338.7932880000001
 21
3488.1008399999992
 31
0.0
  0
LINE
  5
7AD2
  8
1
  6
CONTINUOUS
 10
1370.7932880000001
 20
3598.1008400000001
 30
0.0
 11
1370.7932880000001
 21
3488.1008399999992
 31
0.0
  0
LINE
  5
7AD3
  8
1
  6
CONTINUOUS
 10
1454.7932880000001
 20
3428.1008400000001
 30
0.0
 11
1454.7932880000001
 21
3488.1008399999992
 31
0.0
  0
LINE
  5
7AD4
  8
1
  6
CONTINUOUS
 10
1893.7932879999989
 20
4018.1008400000001
 30
0.0
 11
1893.7932879999989
 21
3598.1008400000001
 31
0.0
  0
LINE
  5
7AD5
  8
1
  6
CONTINUOUS
 10
1912.7932879999989
 20
3971.8386730000002
 30
0.0
 11
1912.7932879999989
 21
3571.8386730000002
 31
0.0
  0
LINE
  5
7AD6
  8
1
  6
CONTINUOUS
 10
1674.7932880000001
 20
4018.1008400000001
 30
0.0
 11
1674.7932880000001
 21
4020.1008400000001
 31
0.0
  0
LINE
  5
7AD7
  8
1
  6
CONTINUOUS
 10
2808.8733829999992
 20
2568.1008400000001
 30
0.0
 11
2928.8733829999992
 21
2568.1008400000001
 31
0.0
  0
LINE
  5
7AD8
  8
1
  6
CONTINUOUS
 10
2838.8733829999992
 20
2308.1008400000001
 30
0.0
 11
2898.8733829999992
 21
2308.1008400000001
 31
0.0
  0
LINE
  5
7AD9
  8
1
  6
CONTINUOUS
 10
2838.8733829999992
 20
2108.1008400000001
 30
0.0
 11
2898.8733829999992
 21
2108.1008400000001
 31
0.0
  0
LINE
  5
7ADA
  8
1
  6
CONTINUOUS
 10
2838.8733829999992
 20
1985.1008399999989
 30
0.0
 11
2898.8733829999992
 21
1985.1008399999989
 31
0.0
  0
LINE
  5
7ADB
  8
1
  6
CONTINUOUS
 10
2838.8733829999992
 20
1845.1008399999989
 30
0.0
 11
2898.8733829999992
 21
1845.1008399999989
 31
0.0
  0
LINE
  5
7ADC
  8
1
  6
CONTINUOUS
 10
3473.8733829999992
 20
1733.1008399999989
 30
0.0
 11
2808.8733829999992
 21
1733.1008399999989
 31
0.0
  0
LINE
  5
7AE2
  8
1
  6
CONTINUOUS
 10
2214.2932879999989
 20
1733.1008399999989
 30
0.0
 11
2214.2932879999989
 21
1963.1008400000001
 31
0.0
  0
LINE
  5
7AE3
  8
1
  6
CONTINUOUS
 10
2184.7932879999989
 20
1798.1008400000001
 30
0.0
 11
2170.5396509999991
 21
1832.8404029999999
 31
0.0
  0
LINE
  5
7AE4
  8
1
  6
CONTINUOUS
 10
1924.7932880000001
 20
1798.1008400000001
 30
0.0
 11
1939.0469250000001
 21
1832.8404029999999
 31
0.0
  0
LINE
  5
7AE5
  8
1
  6
CONTINUOUS
 10
2184.7932879999989
 20
1733.1008399999989
 30
0.0
 11
1924.7932880000001
 21
1733.1008399999989
 31
0.0
  0
LINE
  5
7AE6
  8
1
  6
CONTINUOUS
 10
1924.7932880000001
 20
1733.1008399999989
 30
0.0
 11
1924.7932880000001
 21
1798.1008400000001
 31
0.0
  0
LINE
  5
7AE7
  8
1
  6
CONTINUOUS
 10
2184.7932879999989
 20
1733.1008399999989
 30
0.0
 11
2184.7932879999989
 21
1798.1008400000001
 31
0.0
  0
CIRCLE
  5
7AE8
  8
1
  6
CONTINUOUS
 10
2054.7932879999989
 20
1915.1008400000001
 30
0.0
 40
70.0
  0
LINE
  5
7AE9
  8
2
  6
CENTER
 10
2124.7932879999998
 20
1915.1008400000001
 30
0.0
 11
1984.7932879999989
 21
1915.1008400000001
 31
0.0
  0
LINE
  5
7AEA
  8
2
  6
CENTER
 10
2054.7932879999989
 20
1845.1008399999989
 30
0.0
 11
2054.7932879999989
 21
1985.1008399999989
 31
0.0
  0
LINE
  5
7AEB
  8
1
  6
CONTINUOUS
 10
2259.7932879999998
 20
1733.1008399999989
 30
0.0
 11
2259.7932879999998
 21
1653.1008400000001
 31
0.0
  0
LINE
  5
7AFC
  8
1
  6
CONTINUOUS
 10
2808.8733829999992
 20
1733.1008399999989
 30
0.0
 11
2808.8733829999992
 21
2568.1008400000001
 31
0.0
  0
LINE
  5
7AFD
  8
1
  6
CONTINUOUS
 10
2838.8733829999992
 20
2308.1008400000001
 30
0.0
 11
2838.8733829999992
 21
2108.1008400000001
 31
0.0
  0
LINE
  5
7B00
  8
1
  6
CONTINUOUS
 10
2838.8733829999992
 20
1985.1008399999989
 30
0.0
 11
2838.8733829999992
 21
1845.1008399999989
 31
0.0
  0
LINE
  5
7B01
  8
1
  6
CONTINUOUS
 10
3430.8733829999992
 20
1888.1008399999989
 30
0.0
 11
3430.8733829999992
 21
2528.1008400000001
 31
0.0
  0
LINE
  5
7B02
  8
1
  6
CONTINUOUS
 10
2928.8733829999992
 20
1733.1008399999989
 30
0.0
 11
2928.8733829999992
 21
2568.1008400000001
 31
0.0
  0
LINE
  5
7B03
  8
1
  6
CONTINUOUS
 10
2898.8733829999992
 20
2308.1008400000001
 30
0.0
 11
2898.8733829999992
 21
2108.1008400000001
 31
0.0
  0
LINE
  5
7B04
  8
1
  6
CONTINUOUS
 10
3008.8733829999992
 20
1733.1008399999989
 30
0.0
 11
3008.8733829999992
 21
2613.1008400000001
 31
0.0
  0
LINE
  5
7B05
  8
1
  6
CONTINUOUS
 10
3428.8733829999992
 20
1733.1008399999989
 30
0.0
 11
3428.8733829999992
 21
2613.1008400000001
 31
0.0
  0
LINE
  5
7B06
  8
1
  6
CONTINUOUS
 10
3473.8733829999992
 20
1653.1008400000001
 30
0.0
 11
2963.8733829999992
 21
1653.1008400000001
 31
0.0
  0
LINE
  5
7B07
  8
1
  6
CONTINUOUS
 10
2963.8733829999992
 20
1653.1008400000001
 30
0.0
 11
2963.8733829999992
 21
1733.1008399999989
 31
0.0
  0
LINE
  5
7B08
  8
1
  6
CONTINUOUS
 10
2898.8733829999992
 20
1931.1008400000001
 30
0.0
 11
3008.8733829999992
 21
1931.1008400000001
 31
0.0
  0
LINE
  5
7B09
  8
1
  6
CONTINUOUS
 10
2898.8733829999992
 20
1899.1008400000001
 30
0.0
 11
3008.8733829999992
 21
1899.1008400000001
 31
0.0
  0
LINE
  5
7B0A
  8
1
  6
CONTINUOUS
 10
3008.8733829999992
 20
2224.1008400000001
 30
0.0
 11
2898.8733829999992
 21
2224.1008400000001
 31
0.0
  0
LINE
  5
7B0B
  8
1
  6
CONTINUOUS
 10
3008.8733829999992
 20
2192.1008400000001
 30
0.0
 11
2898.8733829999992
 21
2192.1008400000001
 31
0.0
  0
LINE
  5
7B0C
  8
1
  6
CONTINUOUS
 10
2898.8733829999992
 20
1985.1008399999989
 30
0.0
 11
2898.8733829999992
 21
1845.1008399999989
 31
0.0
  0
LINE
  5
7B0D
  8
1
  6
CONTINUOUS
 10
3473.8733829999992
 20
1653.1008400000001
 30
0.0
 11
3473.8733829999992
 21
1733.1008399999989
 31
0.0
  0
LINE
  5
7B0E
  8
1
  6
CONTINUOUS
 10
3428.8733829999992
 20
1888.1008399999989
 30
0.0
 11
3430.8733829999992
 21
1888.1008399999989
 31
0.0
  0
LINE
  5
7B0F
  8
1
  6
CONTINUOUS
 10
3008.8733829999992
 20
2588.1008400000001
 30
0.0
 11
3428.8733829999992
 21
2588.1008400000001
 31
0.0
  0
LINE
  5
7B10
  8
1
  6
CONTINUOUS
 10
2981.8733829999992
 20
2613.1008400000001
 30
0.0
 11
3455.8733829999992
 21
2613.1008400000001
 31
0.0
  0
LINE
  5
7B11
  8
1
  6
CONTINUOUS
 10
3428.8733829999992
 20
2528.1008400000001
 30
0.0
 11
3430.8733829999992
 21
2528.1008400000001
 31
0.0
  0
LINE
  5
7B1A
  8
1
  6
CONTINUOUS
 10
2073.7932879999998
 20
3553.1008400000001
 30
0.0
 11
2259.7932879999998
 21
3553.1008400000001
 31
0.0
  0
LINE
  5
7B1B
  8
1
  6
CONTINUOUS
 10
2196.7932879999989
 20
3971.8386730000002
 30
0.0
 11
2196.7932879999989
 21
3571.8386730000002
 31
0.0
  0
LINE
  5
7B1C
  8
1
  6
CONTINUOUS
 10
2124.7932879999998
 20
3428.1008400000001
 30
0.0
 11
1984.7932879999989
 21
3428.1008400000001
 31
0.0
  0
LINE
  5
7B1D
  8
1
  6
CONTINUOUS
 10
2124.7932879999998
 20
3488.1008399999992
 30
0.0
 11
1984.7932879999989
 21
3488.1008399999992
 31
0.0
  0
LINE
  5
7B1E
  8
1
  6
CONTINUOUS
 10
1984.7932879999989
 20
3428.1008400000001
 30
0.0
 11
1984.7932879999989
 21
3488.1008399999992
 31
0.0
  0
LINE
  5
7B1F
  8
1
  6
CONTINUOUS
 10
2035.7932880000001
 20
3488.1008399999992
 30
0.0
 11
2035.7932880000001
 21
3571.8386730000002
 31
0.0
  0
LINE
  5
7B20
  8
1
  6
CONTINUOUS
 10
2124.7932879999998
 20
3428.1008400000001
 30
0.0
 11
2124.7932879999998
 21
3488.1008399999992
 31
0.0
  0
LINE
  5
7B21
  8
1
  6
CONTINUOUS
 10
2214.2932879999989
 20
3398.1008400000001
 30
0.0
 11
2214.2932879999989
 21
3518.1008400000001
 31
0.0
  0
LINE
  5
7B22
  8
1
  6
CONTINUOUS
 10
2073.7932879999998
 20
3488.1008399999992
 30
0.0
 11
2073.7932879999998
 21
3571.8386730000002
 31
0.0
  0
LINE
  5
7B23
  8
1
  6
CONTINUOUS
 10
2259.7932879999998
 20
4063.1008399999992
 30
0.0
 11
2259.7932879999998
 21
3553.1008400000001
 31
0.0
  0
LINE
  5
7B41
  8
2
  6
CENTER
 10
3218.8733830000001
 20
2698.0639699999988
 30
0.0
 11
3218.8733830000001
 21
1590.8601392166961
 31
0.0
  0
LINE
  5
7B42
  8
2
  6
CENTER
 10
891.47367899999995
 20
3808.1008400000001
 30
0.0
 11
2312.6626345512118
 21
3808.1008400000001
 31
0.0
  0
LINE
  5
7B43
  8
2
  6
CENTER
 10
1354.7932880000001
 20
2760.6445939999999
 30
0.0
 11
1354.7932880000001
 21
1575.395088
 31
0.0
  0
LINE
  5
7B44
  8
2
  6
CENTER
 10
2781.13396303949
 20
2208.1008400000001
 30
0.0
 11
3472.7425376912502
 21
2208.1008400000001
 31
0.0
  0
LINE
  5
7B45
  8
4
  6
CONTINUOUS
 10
3700.0
 20
1000.0
 30
0.0
 11
3700.0
 21
600.0
 31
0.0
  0
LINE
  5
7B46
  8
4
  6
CONTINUOUS
 10
2300.0
 20
1000.0
 30
0.0
 11
2300.0
 21
600.0
 31
0.0
  0
LINE
  5
7B47
  8
4
  6
CONTINUOUS
 10
1300.0
 20
1000.0
 30
0.0
 11
1300.0
 21
600.0
 31
0.0
  0
LINE
  5
7B4A
  8
4
  6
CONTINUOUS
 10
1300.0
 20
600.0
 30
0.0
 11
3700.0
 21
600.0
 31
0.0
  0
LINE
  5
7B4B
  8
4
  6
CONTINUOUS
 10
1300.0
 20
800.0
 30
0.0
 11
3700.0
 21
800.0
 31
0.0
  0
TEXT
  5
7B4C
  8
4
  6
CONTINUOUS
 10
1377.004162
 20
863.086052
 30
0.0
 40
100.0
  1
機器名称
  0
TEXT
  5
7B4D
  8
4
  6
CONTINUOUS
 10
1372.516212
 20
643.29031299999986
 30
0.0
 40
100.0
  1
機器型番
  0
TEXT
  5
7B4E
  8
4
  6
CONTINUOUS
 10
2355.3574910000002
 20
845.14353800000015
 30
0.0
 40
100.0
  1
ミツヤ多翼送風機
  0
TEXT
  5
7B4F
  8
4
  6
CONTINUOUS
 10
2373.3089909999999
 20
634.31916899999999
 30
0.0
 40
100.0
  1
MFE#3 1/2-4
  0
TEXT
  5
7B51
  8
4
  6
CONTINUOUS
 10
1809.5715309999989
 20
4766.8576830000002
 30
0.0
 40
108.0
  1
床置ベット
  0
TEXT
  5
7B52
  8
4
  6
CONTINUOUS
 10
632.33518700000002
 20
5067.7619520000007
 30
0.0
 40
144.0
  1
ベルト駆動式片吸込両持排煙ファン
  0
LINE
  5
7B53
  8
4
  6
CONTINUOUS
 10
500.0
 20
4938.8175090000004
 30
0.0
 11
3700.0
 21
4938.8175090000004
 31
0.0
  0
LINE
  5
7B54
  8
4
  6
CONTINUOUS
 10
500.0
 20
5338.8175090000004
 30
0.0
 11
3700.0
 21
5338.8175090000004
 31
0.0
  0
LINE
  5
7B55
  8
4
  6
CONTINUOUS
 10
1300.0
 20
1000.0
 30
0.0
 11
3700.0
 21
1000.0
 31
0.0
  0
LINE
  5
7B56
  8
4
  6
CONTINUOUS
 10
500.0
 20
5338.8175090000004
 30
0.0
 11
500.0
 21
4938.8175090000004
 31
0.0
  0
TEXT
  5
7B57
  8
4
  6
CONTINUOUS
 10
937.85386600000004
 20
4764.6389549999994
 30
0.0
 40
108.0
  1
左回転上向
  0
TEXT
  5
7B58
  8
4
  6
CONTINUOUS
 10
2937.9391179999998
 20
5412.122163
 30
0.0
 40
112.0
  1
No.
  0
TEXT
  5
7B59
  8
4
  6
CONTINUOUS
 10
2622.5921250000001
 20
4766.8576830000002
 30
0.0
 40
108.0
  1
縮尺：1/20
  0
LINE
  5
7B5A
  8
4
  6
CONTINUOUS
 10
3700.0
 20
5338.8175090000004
 30
0.0
 11
3700.0
 21
4938.8175090000004
 31
0.0
  0
LINE
  5
7B5C
  8
4
  6
CONTINUOUS
 10
2881.234845
 20
5362.5271659999999
 30
0.0
 11
2881.234845
 21
5573.3045229999998
 31
0.0
  0
LINE
  5
7B5D
  8
4
  6
CONTINUOUS
 10
2881.234845
 20
5573.3045229999998
 30
0.0
 11
3700.0
 21
5573.3045229999998
 31
0.0
  0
LINE
  5
7B5E
  8
4
  6
CONTINUOUS
 10
3700.0
 20
5573.3045229999998
 30
0.0
 11
3700.0
 21
5362.5271659999999
 31
0.0
  0
LINE
  5
7B5F
  8
4
  6
CONTINUOUS
 10
3700.0
 20
5362.5271659999999
 30
0.0
 11
2881.234845
 21
5362.5271659999999
 31
0.0
  0
DIMENSION
  5
7B77
  8
3
  6
CONTINUOUS
  2
*D1
 10
1333.7932880000001
 20
2777.7224079999992
 30
0.0
 11
1607.2076349999991
 21
2777.7224079999992
 31
0.0
 70
   128
 13
1893.7932879999989
 23
2613.1008400000001
 33
0.0
 14
1333.7932880000001
 24
2613.1008400000001
 34
0.0
1001
ACAD
1000
DSTYLE
1002
{
1070
   287
1070
     3
1070
   287
1070
     3
1070
    40
1040
20.0
1070
   143
1040
0.039
1070
   172
1070
     1
1070
   271
1070
     0
1070
   279
1070
     0
1070
   288
1070
     1
1002
}
  0
DIMENSION
  5
7B84
  8
3
  6
CONTINUOUS
  2
*D2
 10
1354.7932880000001
 20
2900.5559870000002
 30
0.0
 11
1603.109357
 21
2900.5559870000002
 31
0.0
 70
   128
 13
1893.7932879999989
 23
2613.1008400000001
 33
0.0
 14
1354.7932880000001
 24
2760.6445939999999
 34
0.0
1001
ACAD
1000
DSTYLE
1002
{
1070
   287
1070
     3
1070
   287
1070
     3
1070
    40
1040
20.0
1070
   143
1040
0.039
1070
   172
1070
     1
1070
   271
1070
     0
1070
   279
1070
     0
1070
   288
1070
     1
1002
}
  0
DIMENSION
  5
7B90
  8
3
  6
CONTINUOUS
  2
*D3
 10
944.79328800000008
 20
2900.5559870000002
 30
0.0
 11
1149.7932880000001
 21
2950.5559870000002
 31
0.0
 70
     0
 13
1354.7932880000001
 23
2760.6445939999999
 33
0.0
 14
944.79328800000008
 24
2568.1008400000001
 34
0.0
1001
ACAD
1000
DSTYLE
1002
{
1070
   287
1070
     4
1070
   287
1070
     4
1070
    40
1040
20.0
1070
    75
1070
     1
1070
   143
1040
0.039
1070
   172
1070
     1
1070
   271
1070
     0
1070
   279
1070
     1
1070
   288
1070
     1
1002
}
  0
DIMENSION
  5
7B9D
  8
3
  6
CONTINUOUS
  2
*D4
 10
775.25868700000035
 20
2208.1008400000001
 30
0.0
 11
775.25868700000001
 21
2413.8757730000002
 31
0.0
 70
   128
 13
1306.7932880000001
 23
2613.1008400000001
 33
0.0
 14
849.56430299999977
 24
2208.1008400000001
 34
0.0
 50
90.0
1001
ACAD
1000
DSTYLE
1002
{
1070
   287
1070
     3
1070
   287
1070
     3
1070
    40
1040
20.0
1070
   143
1040
0.039
1070
   172
1070
     1
1070
   271
1070
     0
1070
   279
1070
     0
1070
   288
1070
     1
1002
}
  0
DIMENSION
  5
7BA9
  8
3
  6
CONTINUOUS
  2
*D5
 10
775.25868700000001
 20
1653.1008400000001
 30
0.0
 11
725.25868699999978
 21
1930.6008400000001
 31
0.0
 70
     0
 13
849.56430299999977
 23
2208.1008400000001
 33
0.0
 14
1009.793288
 24
1653.1008400000001
 34
0.0
 50
90.0
1001
ACAD
1000
DSTYLE
1002
{
1070
   287
1070
     4
1070
   287
1070
     4
1070
    40
1040
20.0
1070
    75
1070
     1
1070
   143
1040
0.039
1070
   172
1070
     1
1070
   271
1070
     0
1070
   279
1070
     1
1070
   288
1070
     1
1002
}
  0
DIMENSION
  5
7BB6
  8
3
  6
CONTINUOUS
  2
*D6
 10
1354.7932880000001
 20
1497.0840965470561
 30
0.0
 11
1185.085744
 21
1497.0840965470561
 31
0.0
 70
   128
 13
1009.793288
 23
1653.1008400000001
 33
0.0
 14
1354.7932880000001
 24
1575.395088
 34
0.0
1001
ACAD
1000
DSTYLE
1002
{
1070
   287
1070
     3
1070
   287
1070
     3
1070
    40
1040
20.0
1070
   143
1040
0.039
1070
   172
1070
     1
1070
   271
1070
     0
1070
   279
1070
     0
1070
   288
1070
     1
1002
}
  0
DIMENSION
  5
7BC2
  8
3
  6
CONTINUOUS
  2
*D7
 10
2259.7932879999998
 20
1497.0840965470561
 30
0.0
 11
1807.2932880000001
 21
1547.0840965470561
 31
0.0
 70
     0
 13
1354.7932880000001
 23
1575.395088
 33
0.0
 14
2259.7932879999998
 24
1653.1008400000001
 34
0.0
1001
ACAD
1000
DSTYLE
1002
{
1070
   287
1070
     4
1070
   287
1070
     4
1070
    40
1040
20.0
1070
    75
1070
     1
1070
   143
1040
0.039
1070
   172
1070
     1
1070
   271
1070
     0
1070
   279
1070
     1
1070
   288
1070
     1
1002
}
  0
DIMENSION
  5
7BCF
  8
3
  6
CONTINUOUS
  2
*D8
 10
631.8192210000002
 20
1653.1008400000001
 30
0.0
 11
631.81922099999986
 21
2123.1696280000001
 31
0.0
 70
   128
 13
1296.7932880000001
 23
2613.1008400000001
 33
0.0
 14
1009.793288
 24
1653.1008400000001
 34
0.0
 50
90.0
1001
ACAD
1000
DSTYLE
1002
{
1070
   287
1070
     3
1070
   287
1070
     3
1070
    40
1040
20.0
1070
   143
1040
0.039
1070
   172
1070
     1
1070
   271
1070
     0
1070
   279
1070
     0
1070
   288
1070
     1
1002
}
  0
DIMENSION
  5
7C14
  8
3
  6
CONTINUOUS
  2
*D9
 10
3599.9944770000002
 20
1913.1008399999989
 30
0.0
 11
3599.9944770000002
 21
2196.8697839999991
 31
0.0
 70
   128
 13
3428.8733829999992
 23
2503.1008400000001
 33
0.0
 14
3430.8733829999992
 24
1913.1008400000001
 34
0.0
 50
90.0
1001
ACAD
1000
DSTYLE
1002
{
1070
   287
1070
     3
1070
   287
1070
     3
1070
     3
1000
φ<>
1070
    40
1040
20.0
1070
   143
1040
0.039
1070
   172
1070
     1
1070
   271
1070
     0
1070
   279
1070
     0
1070
   288
1070
     1
1002
}
  0
DIMENSION
  5
7C23
  8
3
  6
CONTINUOUS
  2
*D10
 10
3218.8733830000001
 20
1489.7326579999999
 30
0.0
 11
3091.3733830000001
 21
1551.7867390326951
 31
0.0
 70
   128
 13
2963.8733829999992
 23
1653.1008400000001
 33
0.0
 14
3218.8733830000001
 24
1590.8601392166961
 34
0.0
1001
ACAD
1000
DSTYLE
1002
{
1070
   288
1070
     1
1070
   172
1070
     1
1070
    40
1040
20.0
1070
   271
1070
     0
1070
   143
1040
0.039
1002
}
  0
DIMENSION
  5
7C31
  8
3
  6
CONTINUOUS
  2
*D11
 10
3473.8733829999992
 20
1489.7326579999999
 30
0.0
 11
3365.1447039999998
 21
1488.7446600000001
 31
0.0
 70
   128
 13
3218.8733830000001
 23
1590.8601392166961
 33
0.0
 14
3473.8733829999992
 24
1653.1008400000001
 34
0.0
1001
ACAD
1000
DSTYLE
1002
{
1070
   287
1070
     4
1070
   287
1070
     4
1070
    40
1040
20.0
1070
    75
1070
     1
1070
   143
1040
0.039
1070
   172
1070
     1
1070
   271
1070
     0
1070
   279
1070
     1
1070
   288
1070
     1
1002
}
  0
DIMENSION
  5
7C4D
  8
3
  6
CONTINUOUS
  2
*D12
 10
3218.8733830000001
 20
2865.767679
 30
0.0
 11
3324.8733829999992
 21
2933.86241824542
 31
0.0
 70
   128
 13
3430.8733829999992
 23
2528.1008400000001
 33
0.0
 14
3218.8733830000001
 24
2821.1471079999992
 34
0.0
1001
ACAD
1000
DSTYLE
1002
{
1070
   288
1070
     1
1070
   172
1070
     1
1070
    40
1040
20.0
1070
   271
1070
     0
1070
   143
1040
0.039
1002
}
  0
DIMENSION
  5
7C59
  8
3
  6
CONTINUOUS
  2
*D13
 10
2808.8733829999992
 20
2865.767679
 30
0.0
 11
3013.8733829999992
 21
2965.767679
 31
0.0
 70
     0
  1
MAX\P470
 13
3218.8733830000001
 23
2821.1471079999992
 33
0.0
 14
2808.8733829999992
 24
2568.1008400000001
 34
0.0
1001
ACAD
1000
DSTYLE
1002
{
1070
   287
1070
     4
1070
   287
1070
     4
1070
    40
1040
20.0
1070
    75
1070
     1
1070
   143
1040
0.039
1070
   172
1070
     1
1070
   271
1070
     0
1070
   279
1070
     1
1070
   288
1070
     1
1002
}
  0
DIMENSION
  5
7C66
  8
3
  6
CONTINUOUS
  2
*D14
 10
2259.7932879999998
 20
4211.4840919999997
 30
0.0
 11
1629.6526759999999
 21
4211.4840919999997
 31
0.0
 70
   128
 13
1009.793288
 23
4063.1008399999992
 33
0.0
 14
2259.7932879999998
 24
4063.1008399999992
 34
0.0
1001
ACAD
1000
DSTYLE
1002
{
1070
   287
1070
     3
1070
   287
1070
     3
1070
    40
1040
20.0
1070
   143
1040
0.039
1070
   172
1070
     1
1070
   271
1070
     0
1070
   279
1070
     0
1070
   288
1070
     1
1002
}
  0
DIMENSION
  5
7C73
  8
3
  6
CONTINUOUS
  2
*D15
 10
2506.8898960000001
 20
3553.1008400000001
 30
0.0
 11
2506.8898960000001
 21
3808.374722999999
 31
0.0
 70
   128
 13
2259.7932879999998
 23
4063.1008399999992
 33
0.0
 14
2259.7932879999998
 24
3553.1008400000001
 34
0.0
 50
90.0
1001
ACAD
1000
DSTYLE
1002
{
1070
   287
1070
     3
1070
   287
1070
     3
1070
    40
1040
20.0
1070
   143
1040
0.039
1070
   172
1070
     1
1070
   271
1070
     0
1070
   279
1070
     0
1070
   288
1070
     1
1002
}
  0
DIMENSION
  5
7CDC
  8
3
  6
CONTINUOUS
  2
*D16
 10
3428.8733829999992
 20
2721.8285679999999
 30
0.0
 11
3213.5410440000001
 21
2721.8285679999999
 31
0.0
 70
   128
 13
3008.8733829999992
 23
2613.1008400000001
 33
0.0
 14
3428.8733829999992
 24
2588.1008400000001
 34
0.0
1001
ACAD
1000
DSTYLE
1002
{
1070
   287
1070
     3
1070
   287
1070
     3
1070
    40
1040
20.0
1070
   143
1040
0.039
1070
   172
1070
     1
1070
   271
1070
     0
1070
   279
1070
     0
1070
   288
1070
     1
1002
}
  0
DIMENSION
  5
7D8E
  8
3
  2
*D17
 10
2259.7932879999998
 20
3027.2459133395332
 30
0.0
 11
1603.5301939177041
 21
3027.2459133395332
 31
0.0
 70
   128
 13
944.79328800000008
 23
2568.1008400000001
 33
0.0
 14
2259.7932879999998
 24
1733.1008399999989
 34
0.0
1001
ACAD
1000
DSTYLE
1002
{
1070
   287
1070
     3
1070
   287
1070
     3
1070
    40
1040
20.0
1070
   143
1040
0.039
1070
   172
1070
     1
1070
   271
1070
     0
1070
   279
1070
     0
1070
   288
1070
     1
1002
}
  0
ENDSEC
  0
EOF
