  0
SECTION
  2
HEADER
  9
$ACADVER
  1
AC1009
  9
$INSBASE
 10
0.0
 20
0.0
 30
0.0
  9
$EXTMIN
 10
500.0
 20
600.0
 30
0.0
  9
$EXTMAX
 10
3700.0
 20
5573.3045229999998
 30
0.0
  9
$LIMMIN
 10
0.0
 20
0.0
  9
$LIMMAX
 10
297.0
 20
210.0
  9
$ORTHOMODE
 70
     0
  9
$REGENMODE
 70
     1
  9
$FILLMODE
 70
     0
  9
$QTEXTMODE
 70
     0
  9
$MIRRTEXT
 70
     1
  9
$DRAGMODE
 70
     2
  9
$LTSCALE
 40
100.0
  9
$OSMODE
 70
    37
  9
$ATTMODE
 70
     1
  9
$TEXTSIZE
 40
180.0
  9
$TRACEWID
 40
0.05
  9
$TEXTSTYLE
  7
STANDARD
  9
$CLAYER
  8
3
  9
$CELTYPE
  6
BYLAYER
  9
$CECOLOR
 62
   256
  9
$DIMSCALE
 40
20.0
  9
$DIMASZ
 40
2.0
  9
$DIMEXO
 40
0.5
  9
$DIMDLI
 40
10.0
  9
$DIMRND
 40
0.0
  9
$DIMDLE
 40
0.0
  9
$DIMEXE
 40
1.0
  9
$DIMTP
 40
1.0
  9
$DIMTM
 40
1.0
  9
$DIMTXT
 40
3.0
  9
$DIMCEN
 40
0.0
  9
$DIMTSZ
 40
0.0
  9
$DIMTOL
 70
     0
  9
$DIMLIM
 70
     0
  9
$DIMTIH
 70
     0
  9
$DIMTOH
 70
     0
  9
$DIMSE1
 70
     0
  9
$DIMSE2
 70
     0
  9
$DIMTAD
 70
     1
  9
$DIMZIN
 70
     8
  9
$DIMBLK
  1

  9
$DIMASO
 70
     1
  9
$DIMSHO
 70
     1
  9
$DIMPOST
  1
(<>)
  9
$DIMAPOST
  1

  9
$DIMALT
 70
     0
  9
$DIMALTD
 70
     2
  9
$DIMALTF
 40
0.039
  9
$DIMLFAC
 40
1.0
  9
$DIMTOFL
 70
     1
  9
$DIMTVP
 40
0.0
  9
$DIMTIX
 70
     0
  9
$DIMSOXD
 70
     0
  9
$DIMSAH
 70
     1
  9
$DIMBLK1
  1
DOT
  9
$DIMBLK2
  1
OPEN
  9
$DIMSTYLE
  2
IGA
  9
$DIMCLRD
 70
     0
  9
$DIMCLRE
 70
     0
  9
$DIMCLRT
 70
     0
  9
$DIMTFAC
 40
10.0
  9
$DIMGAP
 40
1.0
  9
$LUNITS
 70
     2
  9
$LUPREC
 70
     3
  9
$SKETCHINC
 40
0.1
  9
$FILLETRAD
 40
50.0
  9
$AUNITS
 70
     0
  9
$AUPREC
 70
     0
  9
$MENU
  1
acad
  9
$ELEVATION
 40
0.0
  9
$PELEVATION
 40
0.0
  9
$THICKNESS
 40
0.0
  9
$LIMCHECK
 70
     0
  9
$BLIPMODE
 70
     0
  9
$CHAMFERA
 40
0.5
  9
$CHAMFERB
 40
0.5
  9
$SKPOLY
 70
     0
  9
$TDCREATE
 40
2450731.4930483792
  9
$TDUPDATE
 40
2454953.8366015162
  9
$TDINDWG
 40
0.0080414815
  9
$TDUSRTIMER
 40
0.0080414815
  9
$USRTIMER
 70
     1
  9
$ANGBASE
 50
0.0
  9
$ANGDIR
 70
     0
  9
$PDMODE
 70
     0
  9
$PDSIZE
 40
0.0
  9
$PLINEWID
 40
0.0
  9
$COORDS
 70
     1
  9
$SPLFRAME
 70
     0
  9
$SPLINETYPE
 70
     6
  9
$SPLINESEGS
 70
     8
  9
$ATTDIA
 70
     0
  9
$ATTREQ
 70
     1
  9
$HANDLING
 70
 10241
  9
$HANDSEED
  5
807B
  9
$SURFTAB1
 70
     6
  9
$SURFTAB2
 70
     6
  9
$SURFTYPE
 70
     6
  9
$SURFU
 70
     6
  9
$SURFV
 70
     6
  9
$UCSNAME
  2

  9
$UCSORG
 10
0.0
 20
0.0
 30
0.0
  9
$UCSXDIR
 10
1.0
 20
0.0
 30
0.0
  9
$UCSYDIR
 10
0.0
 20
1.0
 30
0.0
  9
$PUCSNAME
  2

  9
$PUCSORG
 10
0.0
 20
0.0
 30
0.0
  9
$PUCSXDIR
 10
1.0
 20
0.0
 30
0.0
  9
$PUCSYDIR
 10
0.0
 20
1.0
 30
0.0
  9
$USERI1
 70
     0
  9
$USERI2
 70
     0
  9
$USERI3
 70
     0
  9
$USERI4
 70
     0
  9
$USERI5
 70
     0
  9
$USERR1
 40
0.0
  9
$USERR2
 40
0.0
  9
$USERR3
 40
0.0
  9
$USERR4
 40
0.0
  9
$USERR5
 40
0.0
  9
$WORLDVIEW
 70
     1
  9
$SHADEDGE
 70
     3
  9
$SHADEDIF
 70
    70
  9
$TILEMODE
 70
     1
  9
$MAXACTVP
 70
    16
  9
$PLIMCHECK
 70
     0
  9
$PEXTMIN
 10
1.0000000000000000E+020
 20
1.0000000000000000E+020
 30
1.0000000000000000E+020
  9
$PEXTMAX
 10
-1.0000000000000000E+020
 20
-1.0000000000000000E+020
 30
-1.0000000000000000E+020
  9
$PLIMMIN
 10
0.0
 20
0.0
  9
$PLIMMAX
 10
12.0
 20
9.0
  9
$UNITMODE
 70
     0
  9
$VISRETAIN
 70
     0
  9
$PLINEGEN
 70
     0
  9
$PSLTSCALE
 70
     1
  0
ENDSEC
  0
SECTION
  2
TABLES
  0
TABLE
  2
VPORT
 70
     2
  0
VPORT
  2
*ACTIVE
 70
     0
 10
0.0
 20
0.0
 11
1.0
 21
1.0
 12
5776.3154823307677
 22
3671.1042142982169
 13
0.0
 23
0.0
 14
10.0
 24
10.0
 15
10.0
 25
10.0
 16
0.0
 26
0.0
 36
1.0
 17
0.0
 27
0.0
 37
0.0
 40
7720.8617819453802
 41
1.5051150895140659
 42
50.0
 43
0.0
 44
0.0
 50
0.0
 51
0.0
 71
     0
 72
   100
 73
     1
 74
     0
 75
     0
 76
     0
 77
     0
 78
     0
  0
ENDTAB
  0
TABLE
  2
LTYPE
 70
     2
  0
LTYPE
  2
CONTINUOUS
 70
     0
  3
Solid line
 72
    65
 73
     0
 40
0.0
  0
LTYPE
  2
CENTER
 70
     0
  3
____ _ ____ _ ____ _ ____ _ ____ _ ____ _ ____ 
 72
    65
 73
     4
 40
2.0
 49
1.25
 49
-0.25
 49
0.25
 49
-0.25
  0
ENDTAB
  0
TABLE
  2
LAYER
 70
     6
  0
LAYER
  2
0
 70
     0
 62
     7
  6
CONTINUOUS
  0
LAYER
  2
3
 70
     0
 62
     2
  6
CONTINUOUS
  0
LAYER
  2
2
 70
     0
 62
     3
  6
CENTER
  0
LAYER
  2
1
 70
     0
 62
     4
  6
CONTINUOUS
  0
LAYER
  2
4
 70
     0
 62
     7
  6
CONTINUOUS
  0
LAYER
  2
DEFPOINTS
 70
     0
 62
     7
  6
CONTINUOUS
  0
ENDTAB
  0
TABLE
  2
STYLE
 70
     1
  0
STYLE
  2
STANDARD
 70
     0
 40
0.0
 41
1.0
 50
0.0
 71
     0
 42
180.0
  3
simplex.shx
  4
extfont.shx
  0
ENDTAB
  0
TABLE
  2
VIEW
 70
     0
  0
ENDTAB
  0
TABLE
  2
UCS
 70
     0
  0
ENDTAB
  0
TABLE
  2
APPID
 70
     1
  0
APPID
  2
ACAD
 70
     0
  0
ENDTAB
  0
TABLE
  2
DIMSTYLE
 70
     1
  0
DIMSTYLE
  2
IGA
 70
     0
  3

  4

  5

  6
OPEN
  7
OPEN
 40
2.0
 41
2.0
 42
0.5
 43
10.0
 44
1.0
 45
0.0
 46
0.0
 47
1.0
 48
1.0
140
3.0
141
0.0
142
0.0
143
0.03937
144
1.0
145
0.0
146
10.0
147
1.0
 71
     0
 72
     0
 73
     0
 74
     0
 75
     0
 76
     0
 77
     1
 78
     8
170
     0
171
     2
172
     0
173
     1
174
     0
175
     0
176
     0
177
     0
178
     0
  0
ENDTAB
  0
ENDSEC
  0
SECTION
  2
BLOCKS
  0
BLOCK
  8
0
  2
$MODEL_SPACE
 70
     0
 10
0.0
 20
0.0
 30
0.0
  3
$MODEL_SPACE
  1

  0
ENDBLK
  5
1B
  8
0
  0
BLOCK
 67
     1
  8
0
  2
$PAPER_SPACE
 70
     0
 10
0.0
 20
0.0
 30
0.0
  3
$PAPER_SPACE
  1

  0
ENDBLK
  5
18
 67
     1
  8
0
  0
BLOCK
  8
0
  2
_OPEN
 70
     0
 10
0.0
 20
0.0
 30
0.0
  3
_OPEN
  1

  0
LINE
  5
7BA1
  8
0
  6
BYBLOCK
 62
     0
 10
-1.0
 20
0.166667
 30
0.0
 11
0.0
 21
0.0
 31
0.0
  0
LINE
  5
7BA2
  8
0
  6
BYBLOCK
 62
     0
 10
0.0
 20
0.0
 30
0.0
 11
-1.0
 21
-0.166667
 31
0.0
  0
LINE
  5
7BA3
  8
0
  6
BYBLOCK
 62
     0
 10
0.0
 20
0.0
 30
0.0
 11
-1.0
 21
0.0
 31
0.0
  0
ENDBLK
  5
7BA4
  8
0
  0
BLOCK
  8
0
  2
*D1
 70
     1
 10
0.0
 20
0.0
 30
0.0
  3
*D1
  1

  0
LINE
  5
7FD8
  8
3
  6
CONTINUOUS
 62
     0
 10
1249.8588
 20
2536.8851129999998
 30
0.0
 11
1154.8771529999999
 21
2536.8851129999998
 31
0.0
  0
LINE
  5
7FD9
  8
3
  6
CONTINUOUS
 62
     0
 10
1249.8588
 20
2056.8851129999989
 30
0.0
 11
1154.8771529999999
 21
2056.8851129999989
 31
0.0
  0
LINE
  5
7FDA
  8
3
  6
CONTINUOUS
 62
     0
 10
1174.8771529999999
 20
2496.8851129999989
 30
0.0
 11
1174.8771529999999
 21
2096.8851129999989
 31
0.0
  0
INSERT
  5
7FDB
  8
3
  6
CONTINUOUS
 62
     0
  2
_OPEN
 10
1174.8771529999999
 20
2536.8851129999998
 30
0.0
 41
40.0
 42
40.0
 43
40.0
 50
90.0
  0
INSERT
  5
7FDC
  8
3
  6
CONTINUOUS
 62
     0
  2
_OPEN
 10
1174.8771529999999
 20
2056.8851129999989
 30
0.0
 41
40.0
 42
40.0
 43
40.0
 50
270.0
  0
TEXT
  8
3
  40
60
  5
806A
  62
0
  72
0
  71
0
 10
1004.88
 20
2240.56
 30
0.000000
  1
480
  0
POINT
  5
7FDE
  8
DEFPOINTS
  6
CONTINUOUS
 62
     0
 10
1259.8587999999991
 20
2536.8851129999998
 30
0.0
  0
POINT
  5
7FDF
  8
DEFPOINTS
  6
CONTINUOUS
 62
     0
 10
1259.8587999999991
 20
2056.8851129999989
 30
0.0
  0
POINT
  5
7FE0
  8
DEFPOINTS
  6
CONTINUOUS
 62
     0
 10
1174.8771529999999
 20
2056.8851129999989
 30
0.0
  0
ENDBLK
  5
7C7A
  8
0
  0
BLOCK
  8
0
  2
*D2
 70
     1
 10
0.0
 20
0.0
 30
0.0
  3
*D2
  1

  0
LINE
  5
7FE1
  8
3
  6
CONTINUOUS
 62
     0
 10
1249.8588
 20
2056.8851129999989
 30
0.0
 11
1038.930351
 21
2056.8851129999989
 31
0.0
  0
LINE
  5
7FE2
  8
3
  6
CONTINUOUS
 62
     0
 10
1146.7243352201619
 20
2518.8851129999998
 30
0.0
 11
1038.930351
 21
2518.8851129999998
 31
0.0
  0
LINE
  5
7FE3
  8
3
  6
CONTINUOUS
 62
     0
 10
1058.930351
 20
2096.8851129999989
 30
0.0
 11
1058.930351
 21
2478.8851129999998
 31
0.0
  0
INSERT
  5
7FE4
  8
3
  6
CONTINUOUS
 62
     0
  2
_OPEN
 10
1058.930351
 20
2056.8851129999989
 30
0.0
 41
40.0
 42
40.0
 43
40.0
 50
270.0
  0
INSERT
  5
7FE5
  8
3
  6
CONTINUOUS
 62
     0
  2
_OPEN
 10
1058.930351
 20
2518.8851129999998
 30
0.0
 41
40.0
 42
40.0
 43
40.0
 50
90.0
  0
TEXT
  8
3
  40
60
  5
806B
  62
0
  72
0
  71
0
 10
888.930
 20
2235.92
 30
0.000000
  1
462
  0
POINT
  5
7FE7
  8
DEFPOINTS
  6
CONTINUOUS
 62
     0
 10
1259.8587999999991
 20
2056.8851129999989
 30
0.0
  0
POINT
  5
7FE8
  8
DEFPOINTS
  6
CONTINUOUS
 62
     0
 10
1156.7243352201619
 20
2518.8851129999998
 30
0.0
  0
POINT
  5
7FE9
  8
DEFPOINTS
  6
CONTINUOUS
 62
     0
 10
1058.930351
 20
2518.8851129999998
 30
0.0
  0
ENDBLK
  5
7E81
  8
0
  0
BLOCK
  8
0
  2
*D3
 70
     1
 10
0.0
 20
0.0
 30
0.0
  3
*D3
  1

  0
LINE
  5
7FEA
  8
3
  6
CONTINUOUS
 62
     0
 10
1294.8588
 20
2873.8851129999998
 30
0.0
 11
917.41810400000043
 21
2873.8851129999998
 31
0.0
  0
LINE
  5
7FEB
  8
3
  6
CONTINUOUS
 62
     0
 10
1146.7243352201619
 20
2518.8851129999998
 30
0.0
 11
917.41810400000043
 21
2518.8851129999998
 31
0.0
  0
LINE
  5
7FEC
  8
3
  6
CONTINUOUS
 62
     0
 10
937.41810400000054
 20
2833.8851129999998
 30
0.0
 11
937.41810400000031
 21
2558.8851129999998
 31
0.0
  0
INSERT
  5
7FED
  8
3
  6
CONTINUOUS
 62
     0
  2
_OPEN
 10
937.41810400000054
 20
2873.8851129999998
 30
0.0
 41
40.0
 42
40.0
 43
40.0
 50
90.0
  0
INSERT
  5
7FEE
  8
3
  6
CONTINUOUS
 62
     0
  2
_OPEN
 10
937.41810400000031
 20
2518.8851129999998
 30
0.0
 41
40.0
 42
40.0
 43
40.0
 50
270.0
  0
TEXT
  8
3
  40
60
  5
806C
  62
0
  72
0
  71
0
 10
767.418
 20
2597.32
 30
0.000000
  1
355
  0
POINT
  5
7FF0
  8
DEFPOINTS
  6
CONTINUOUS
 62
     0
 10
1304.8588
 20
2873.8851129999998
 30
0.0
  0
POINT
  5
7FF1
  8
DEFPOINTS
  6
CONTINUOUS
 62
     0
 10
1156.7243352201619
 20
2518.8851129999998
 30
0.0
  0
POINT
  5
7FF2
  8
DEFPOINTS
  6
CONTINUOUS
 62
     0
 10
937.41810400000031
 20
2518.8851129999998
 30
0.0
  0
ENDBLK
  5
7E6C
  8
0
  0
BLOCK
  8
0
  2
*D4
 70
     1
 10
0.0
 20
0.0
 30
0.0
  3
*D4
  1

  0
LINE
  5
7FF3
  8
3
  6
CONTINUOUS
 62
     0
 10
1304.8588
 20
1918.8851129999989
 30
0.0
 11
917.41810399999974
 21
1918.8851129999989
 31
0.0
  0
LINE
  5
7FF4
  8
3
  6
CONTINUOUS
 62
     0
 10
937.41810399999986
 20
2478.8851129999998
 30
0.0
 11
937.41810399999974
 21
1958.885113
 31
0.0
  0
INSERT
  5
7FF5
  8
3
  6
CONTINUOUS
 62
     0
  2
_OPEN
 10
937.41810399999986
 20
2518.8851129999998
 30
0.0
 41
40.0
 42
40.0
 43
40.0
 50
90.0
  0
INSERT
  5
7FF6
  8
3
  6
CONTINUOUS
 62
     0
  2
_OPEN
 10
937.41810399999974
 20
1918.8851129999989
 30
0.0
 41
40.0
 42
40.0
 43
40.0
 50
270.0
  0
TEXT
  8
3
  40
60
  5
806D
  62
0
  72
0
  71
0
 10
767.418
 20
2112.69
 30
0.000000
  1
600
  0
POINT
  5
7FF8
  8
DEFPOINTS
  6
CONTINUOUS
 62
     0
 10
1156.7243352201619
 20
2518.8851129999998
 30
0.0
  0
POINT
  5
7FF9
  8
DEFPOINTS
  6
CONTINUOUS
 62
     0
 10
1314.8588
 20
1918.8851129999989
 30
0.0
  0
POINT
  5
7FFA
  8
DEFPOINTS
  6
CONTINUOUS
 62
     0
 10
937.41810399999974
 20
1918.8851129999989
 30
0.0
  0
ENDBLK
  5
7E76
  8
0
  0
BLOCK
  8
0
  2
*D5
 70
     1
 10
0.0
 20
0.0
 30
0.0
  3
*D5
  1

  0
LINE
  5
7FFB
  8
3
  6
CONTINUOUS
 62
     0
 10
1259.8587999999991
 20
2563.8851129999989
 30
0.0
 11
1259.8587999999991
 21
3006.1494429999989
 31
0.0
  0
LINE
  5
7FFC
  8
3
  6
CONTINUOUS
 62
     0
 10
1614.8588
 20
2952.3314291655988
 30
0.0
 11
1614.8588
 21
3006.1494429999989
 31
0.0
  0
LINE
  5
7FFD
  8
3
  6
CONTINUOUS
 62
     0
 10
1299.8587999999991
 20
2986.1494429999998
 30
0.0
 11
1574.8588
 21
2986.1494429999998
 31
0.0
  0
INSERT
  5
7FFE
  8
3
  6
CONTINUOUS
 62
     0
  2
_OPEN
 10
1259.8587999999991
 20
2986.1494429999998
 30
0.0
 41
40.0
 42
40.0
 43
40.0
 50
180.0
  0
INSERT
  5
7FFF
  8
3
  6
CONTINUOUS
 62
     0
  2
_OPEN
 10
1614.8588
 20
2986.1494429999998
 30
0.0
 41
40.0
 42
40.0
 43
40.0
  0
TEXT
  8
3
  40
60
  5
806E
  62
0
  72
0
  71
0
 10
1313.67
 20
2929.95
 30
0.000000
  1
355
  0
POINT
  5
8001
  8
DEFPOINTS
  6
CONTINUOUS
 62
     0
 10
1259.8587999999991
 20
2553.8851129999989
 30
0.0
  0
POINT
  5
8002
  8
DEFPOINTS
  6
CONTINUOUS
 62
     0
 10
1614.8588
 20
2942.3314291655979
 30
0.0
  0
POINT
  5
8003
  8
DEFPOINTS
  6
CONTINUOUS
 62
     0
 10
1614.8588
 20
2986.1494429999998
 30
0.0
  0
ENDBLK
  5
7E35
  8
0
  0
BLOCK
  8
0
  2
*D6
 70
     1
 10
0.0
 20
0.0
 30
0.0
  3
*D6
  1

  0
LINE
  5
8004
  8
3
  6
CONTINUOUS
 62
     0
 10
2011.8588
 20
2528.8851129999989
 30
0.0
 11
2011.8588
 21
3006.1494429999989
 31
0.0
  0
LINE
  5
8005
  8
3
  6
CONTINUOUS
 62
     0
 10
1654.8587999999991
 20
2986.1494429999998
 30
0.0
 11
1971.8588
 21
2986.1494429999998
 31
0.0
  0
INSERT
  5
8006
  8
3
  6
CONTINUOUS
 62
     0
  2
_OPEN
 10
1614.8588
 20
2986.1494429999998
 30
0.0
 41
40.0
 42
40.0
 43
40.0
 50
180.0
  0
INSERT
  5
8007
  8
3
  6
CONTINUOUS
 62
     0
  2
_OPEN
 10
2011.8588
 20
2986.1494429999998
 30
0.0
 41
40.0
 42
40.0
 43
40.0
  0
TEXT
  8
3
  40
60
  5
806F
  62
0
  72
0
  71
0
 10
1693.36
 20
2929.95
 30
0.000000
  1
397
  0
POINT
  5
8009
  8
DEFPOINTS
  6
CONTINUOUS
 62
     0
 10
1614.8588
 20
2943.6544922999292
 30
0.0
  0
POINT
  5
800A
  8
DEFPOINTS
  6
CONTINUOUS
 62
     0
 10
2011.8588
 20
2518.8851129999998
 30
0.0
  0
POINT
  5
800B
  8
DEFPOINTS
  6
CONTINUOUS
 62
     0
 10
2011.8588
 20
2986.1494429999998
 30
0.0
  0
ENDBLK
  5
7E92
  8
0
  0
BLOCK
  8
0
  2
*D7
 70
     1
 10
0.0
 20
0.0
 30
0.0
  3
*D7
  1

  0
LINE
  5
800C
  8
3
  6
CONTINUOUS
 62
     0
 10
3372.425639
 20
2882.8651129999989
 30
0.0
 11
3372.425639
 21
2971.7963169980371
 31
0.0
  0
LINE
  5
800D
  8
3
  6
CONTINUOUS
 62
     0
 10
3012.4256389999991
 20
2882.8651129999989
 30
0.0
 11
3012.4256389999991
 21
2971.7963169980371
 31
0.0
  0
LINE
  5
800E
  8
3
  6
CONTINUOUS
 62
     0
 10
3332.425639
 20
2951.7963169980371
 30
0.0
 11
3052.425639
 21
2951.7963169980371
 31
0.0
  0
INSERT
  5
800F
  8
3
  6
CONTINUOUS
 62
     0
  2
_OPEN
 10
3372.425639
 20
2951.7963169980371
 30
0.0
 41
40.0
 42
40.0
 43
40.0
  0
INSERT
  5
8010
  8
3
  6
CONTINUOUS
 62
     0
  2
_OPEN
 10
3012.4256389999991
 20
2951.7963169980371
 30
0.0
 41
40.0
 42
40.0
 43
40.0
 50
180.0
  0
TEXT
  8
3
  40
60
  5
8070
  62
0
  72
0
  71
0
 10
3077.80
 20
2895.60
 30
0.000000
  1
360
  0
POINT
  5
8012
  8
DEFPOINTS
  6
CONTINUOUS
 62
     0
 10
3372.425639
 20
2872.8651129999989
 30
0.0
  0
POINT
  5
8013
  8
DEFPOINTS
  6
CONTINUOUS
 62
     0
 10
3012.4256389999991
 20
2872.8651129999989
 30
0.0
  0
POINT
  5
8014
  8
DEFPOINTS
  6
CONTINUOUS
 62
     0
 10
3012.4256389999991
 20
2951.7963169980371
 30
0.0
  0
ENDBLK
  5
7E20
  8
0
  0
BLOCK
  8
0
  2
*D8
 70
     1
 10
0.0
 20
0.0
 30
0.0
  3
*D8
  1

  0
LINE
  5
8015
  8
3
  6
CONTINUOUS
 62
     0
 10
3383.425639
 20
2768.8851129999998
 30
0.0
 11
3556.3671899999999
 21
2768.8851129999998
 31
0.0
  0
LINE
  5
8016
  8
3
  6
CONTINUOUS
 62
     0
 10
3383.425639
 20
2268.8851129999998
 30
0.0
 11
3556.3671899999999
 21
2268.8851129999998
 31
0.0
  0
LINE
  5
8017
  8
3
  6
CONTINUOUS
 62
     0
 10
3536.3671899999999
 20
2728.8851129999998
 30
0.0
 11
3536.3671899999999
 21
2308.8851129999998
 31
0.0
  0
INSERT
  5
8018
  8
3
  6
CONTINUOUS
 62
     0
  2
_OPEN
 10
3536.3671899999999
 20
2768.8851129999998
 30
0.0
 41
40.0
 42
40.0
 43
40.0
 50
90.0
  0
INSERT
  5
8019
  8
3
  6
CONTINUOUS
 62
     0
  2
_OPEN
 10
3536.3671899999999
 20
2268.8851129999998
 30
0.0
 41
40.0
 42
40.0
 43
40.0
 50
270.0
  0
TEXT
  8
3
  40
60
  5
8071
  62
0
  72
0
  71
0
 10
3366.37
 20
2407.35
 30
0.000000
  1
φ500
  0
POINT
  5
801B
  8
DEFPOINTS
  6
CONTINUOUS
 62
     0
 10
3373.425639
 20
2768.8851129999998
 30
0.0
  0
POINT
  5
801C
  8
DEFPOINTS
  6
CONTINUOUS
 62
     0
 10
3373.425639
 20
2268.8851129999998
 30
0.0
  0
POINT
  5
801D
  8
DEFPOINTS
  6
CONTINUOUS
 62
     0
 10
3536.3671899999999
 20
2268.8851129999998
 30
0.0
  0
ENDBLK
  5
7E15
  8
0
  0
BLOCK
  8
0
  2
*D9
 70
     1
 10
0.0
 20
0.0
 30
0.0
  3
*D9
  1

  0
LINE
  5
7E01
  8
0
  6
BYBLOCK
 62
     0
 10
3373.425639
 20
2748.55422
 30
0.0
 11
3373.425639
 21
3100.9453159999998
 31
0.0
  0
LINE
  5
7E02
  8
0
  6
BYBLOCK
 62
     0
 10
3192.425639
 20
3023.645908
 30
0.0
 11
3192.425639
 21
3100.9453159999998
 31
0.0
  0
LINE
  5
7E03
  8
0
  6
BYBLOCK
 62
     0
 10
3333.425639
 20
3080.9453159999998
 30
0.0
 11
3232.425639
 21
3080.9453159999998
 31
0.0
  0
TEXT
  5
7E04
  8
3
 62
     0
 10
3224.3542104285712
 20
3103.399184569219
 30
0.0
 40
60.0
  1
181
  0
INSERT
  5
7E05
  8
0
  6
BYBLOCK
 62
     0
  2
_OPEN
 10
3373.425639
 20
3080.9453159999998
 30
0.0
 41
40.0
 42
40.0
 43
40.0
  0
INSERT
  5
7E06
  8
0
  6
BYBLOCK
 62
     0
  2
_OPEN
 10
3192.425639
 20
3080.9453159999998
 30
0.0
 41
40.0
 42
40.0
 43
40.0
 50
180.0
  0
POINT
  5
7E07
  8
DEFPOINTS
  6
BYBLOCK
 62
     0
 10
3373.425639
 20
2738.55422
 30
0.0
  0
POINT
  5
7E08
  8
DEFPOINTS
  6
BYBLOCK
 62
     0
 10
3192.425639
 20
3013.645908
 30
0.0
  0
POINT
  5
7E09
  8
DEFPOINTS
  6
BYBLOCK
 62
     0
 10
3192.425639
 20
3080.9453159999998
 30
0.0
  0
ENDBLK
  5
7E0A
  8
0
  0
BLOCK
  8
0
  2
*D10
 70
     1
 10
0.0
 20
0.0
 30
0.0
  3
*D10
  1

  0
LINE
  5
801E
  8
3
  6
CONTINUOUS
 62
     0
 10
2822.425639
 20
2753.8851129999989
 30
0.0
 11
2822.425639
 21
3131.2762089999992
 31
0.0
  0
LINE
  5
801F
  8
3
  6
CONTINUOUS
 62
     0
 10
3152.425639
 20
3111.2762089999992
 30
0.0
 11
2862.4256389999991
 21
3111.2762089999992
 31
0.0
  0
INSERT
  5
8020
  8
3
  6
CONTINUOUS
 62
     0
  2
_OPEN
 10
3192.425639
 20
3111.2762089999992
 30
0.0
 41
40.0
 42
40.0
 43
40.0
  0
INSERT
  5
8021
  8
3
  6
CONTINUOUS
 62
     0
  2
_OPEN
 10
2822.425639
 20
3111.2762089999992
 30
0.0
 41
40.0
 42
40.0
 43
40.0
 50
180.0
  0
TEXT
  8
3
  40
60
  5
8072
  62
0
  72
0
  71
0
 10
2887.43
 20
3105.08
 30
0.000000
  1
MAX
  0
TEXT
  8
3
  40
60
  5
8073
  62
0
  72
0
  71
0
 10
2887.43
 20
3027.08
 30
0.000000
  1
430
  0
POINT
  5
8023
  8
DEFPOINTS
  6
CONTINUOUS
 62
     0
 10
3192.425639
 20
3043.9768009999989
 30
0.0
  0
POINT
  5
8024
  8
DEFPOINTS
  6
CONTINUOUS
 62
     0
 10
2822.425639
 20
2743.8851129999998
 30
0.0
  0
POINT
  5
8025
  8
DEFPOINTS
  6
CONTINUOUS
 62
     0
 10
2822.425639
 20
3111.2762089999992
 30
0.0
  0
ENDBLK
  5
7E4C
  8
0
  0
BLOCK
  8
0
  2
*D11
 70
     1
 10
0.0
 20
0.0
 30
0.0
  3
*D11
  1

  0
LINE
  5
8026
  8
3
  6
CONTINUOUS
 62
     0
 10
1314.8588
 20
4188.0151130000004
 30
0.0
 11
1314.8588
 21
4363.3894739999996
 31
0.0
  0
LINE
  5
8027
  8
3
  6
CONTINUOUS
 62
     0
 10
2434.8588
 20
4188.0151130000004
 30
0.0
 11
2434.8588
 21
4363.3894739999996
 31
0.0
  0
LINE
  5
8028
  8
3
  6
CONTINUOUS
 62
     0
 10
1354.8588
 20
4343.3894740000014
 30
0.0
 11
2394.8588
 21
4343.3894740000014
 31
0.0
  0
INSERT
  5
8029
  8
3
  6
CONTINUOUS
 62
     0
  2
_OPEN
 10
1314.8588
 20
4343.3894740000014
 30
0.0
 41
40.0
 42
40.0
 43
40.0
 50
180.0
  0
INSERT
  5
802A
  8
3
  6
CONTINUOUS
 62
     0
  2
_OPEN
 10
2434.8588
 20
4343.3894740000014
 30
0.0
 41
40.0
 42
40.0
 43
40.0
  0
TEXT
  8
3
  40
60
  5
8074
  62
0
  72
0
  71
0
 10
1684.70
 20
4287.19
 30
0.000000
  1
1120
  0
POINT
  5
802C
  8
DEFPOINTS
  6
CONTINUOUS
 62
     0
 10
1314.8588
 20
4178.0151130000004
 30
0.0
  0
POINT
  5
802D
  8
DEFPOINTS
  6
CONTINUOUS
 62
     0
 10
2434.8588
 20
4178.0151130000004
 30
0.0
  0
POINT
  5
802E
  8
DEFPOINTS
  6
CONTINUOUS
 62
     0
 10
2434.8588
 20
4343.3894740000014
 30
0.0
  0
ENDBLK
  5
7D6C
  8
0
  0
BLOCK
  8
0
  2
*D12
 70
     1
 10
0.0
 20
0.0
 30
0.0
  3
*D12
  1

  0
LINE
  5
802F
  8
3
  6
CONTINUOUS
 62
     0
 10
2444.8588
 20
4178.0151130000004
 30
0.0
 11
2617.7790199999999
 21
4178.0151130000004
 31
0.0
  0
LINE
  5
8030
  8
3
  6
CONTINUOUS
 62
     0
 10
2444.8588
 20
3730.0151129999999
 30
0.0
 11
2617.7790199999999
 21
3730.0151129999999
 31
0.0
  0
LINE
  5
8031
  8
3
  6
CONTINUOUS
 62
     0
 10
2597.7790199999999
 20
4138.0151130000004
 30
0.0
 11
2597.7790199999999
 21
3770.0151129999999
 31
0.0
  0
INSERT
  5
8032
  8
3
  6
CONTINUOUS
 62
     0
  2
_OPEN
 10
2597.7790199999999
 20
4178.0151130000004
 30
0.0
 41
40.0
 42
40.0
 43
40.0
 50
90.0
  0
INSERT
  5
8033
  8
3
  6
CONTINUOUS
 62
     0
  2
_OPEN
 10
2597.7790199999999
 20
3730.0151129999999
 30
0.0
 41
40.0
 42
40.0
 43
40.0
 50
270.0
  0
TEXT
  8
3
  40
60
  5
8075
  62
0
  72
0
  71
0
 10
2427.78
 20
3846.41
 30
0.000000
  1
448
  0
POINT
  5
8035
  8
DEFPOINTS
  6
CONTINUOUS
 62
     0
 10
2434.8588
 20
4178.0151130000004
 30
0.0
  0
POINT
  5
8036
  8
DEFPOINTS
  6
CONTINUOUS
 62
     0
 10
2434.8588
 20
3730.0151129999999
 30
0.0
  0
POINT
  5
8037
  8
DEFPOINTS
  6
CONTINUOUS
 62
     0
 10
2597.7790199999999
 20
3730.0151129999999
 30
0.0
  0
ENDBLK
  5
7D77
  8
0
  0
BLOCK
  8
0
  2
*D13
 70
     1
 10
0.0
 20
0.0
 30
0.0
  3
*D13
  1

  0
LINE
  5
8038
  8
3
 62
     0
 10
1314.8588
 20
1748.8851129999989
 30
0.0
 11
1314.8588
 21
1598.4230704127731
 31
0.0
  0
LINE
  5
8039
  8
3
 62
     0
 10
1614.8588
 20
1748.8851129999989
 30
0.0
 11
1614.8588
 21
1598.4230704127731
 31
0.0
  0
LINE
  5
803A
  8
3
 62
     0
 10
1354.8588
 20
1618.4230704127731
 30
0.0
 11
1574.8588
 21
1618.4230704127731
 31
0.0
  0
INSERT
  5
803B
  8
3
 62
     0
  2
_OPEN
 10
1314.8588
 20
1618.4230704127731
 30
0.0
 41
40.0
 42
40.0
 43
40.0
 50
180.0
  0
INSERT
  5
803C
  8
3
 62
     0
  2
_OPEN
 10
1614.8588
 20
1618.4230704127731
 30
0.0
 41
40.0
 42
40.0
 43
40.0
  0
TEXT
  8
3
  40
60
  5
8076
  62
0
  72
0
  71
0
 10
1344.86
 20
1562.22
 30
0.000000
  1
300
  0
POINT
  5
803E
  8
DEFPOINTS
 62
     0
 10
1314.8588
 20
1758.8851129999989
 30
0.0
  0
POINT
  5
803F
  8
DEFPOINTS
 62
     0
 10
1614.8588
 20
1758.8851129999989
 30
0.0
  0
POINT
  5
8040
  8
DEFPOINTS
 62
     0
 10
1614.8588
 20
1618.4230704127731
 30
0.0
  0
ENDBLK
  5
7EA7
  8
0
  0
BLOCK
  8
0
  2
*D14
 70
     1
 10
0.0
 20
0.0
 30
0.0
  3
*D14
  1

  0
LINE
  5
8041
  8
3
 62
     0
 10
1614.8588
 20
1748.8851129999989
 30
0.0
 11
1614.8588
 21
1598.4230704127731
 31
0.0
  0
LINE
  5
8042
  8
3
 62
     0
 10
2434.8588
 20
1748.8851129999989
 30
0.0
 11
2434.8588
 21
1598.4230704127731
 31
0.0
  0
LINE
  5
8043
  8
3
 62
     0
 10
1654.8587999999991
 20
1618.4230704127731
 30
0.0
 11
2394.8588
 21
1618.4230704127731
 31
0.0
  0
INSERT
  5
8044
  8
3
 62
     0
  2
_OPEN
 10
1614.8588
 20
1618.4230704127731
 30
0.0
 41
40.0
 42
40.0
 43
40.0
 50
180.0
  0
INSERT
  5
8045
  8
3
 62
     0
  2
_OPEN
 10
2434.8588
 20
1618.4230704127731
 30
0.0
 41
40.0
 42
40.0
 43
40.0
  0
TEXT
  8
3
  40
60
  5
8077
  62
0
  72
0
  71
0
 10
1904.86
 20
1562.22
 30
0.000000
  1
820
  0
POINT
  5
8047
  8
DEFPOINTS
 62
     0
 10
1614.8588
 20
1758.8851129999989
 30
0.0
  0
POINT
  5
8048
  8
DEFPOINTS
 62
     0
 10
2434.8588
 20
1758.8851129999989
 30
0.0
  0
POINT
  5
8049
  8
DEFPOINTS
 62
     0
 10
2434.8588
 20
1618.4230704127731
 30
0.0
  0
ENDBLK
  5
7EB4
  8
0
  0
BLOCK
  8
0
  2
*D15
 70
     1
 10
0.0
 20
0.0
 30
0.0
  3
*D15
  1

  0
LINE
  5
804A
  8
3
 62
     0
 10
2968.425639
 20
1748.8851129999989
 30
0.0
 11
2968.425639
 21
1598.4230704127731
 31
0.0
  0
LINE
  5
804B
  8
3
 62
     0
 10
3192.4256389999991
 20
1748.8851129999989
 30
0.0
 11
3192.4256389999991
 21
1598.4230704127731
 31
0.0
  0
LINE
  5
804C
  8
3
 62
     0
 10
3008.425639
 20
1618.4230704127731
 30
0.0
 11
3152.425639
 21
1618.4230704127731
 31
0.0
  0
INSERT
  5
804D
  8
3
 62
     0
  2
_OPEN
 10
2968.425639
 20
1618.4230704127731
 30
0.0
 41
40.0
 42
40.0
 43
40.0
 50
180.0
  0
INSERT
  5
804E
  8
3
 62
     0
  2
_OPEN
 10
3192.4256389999991
 20
1618.4230704127731
 30
0.0
 41
40.0
 42
40.0
 43
40.0
  0
TEXT
  8
3
  40
60
  5
8078
  62
0
  72
0
  71
0
 10
2960.43
 20
1562.22
 30
0.000000
  1
224
  0
POINT
  5
8050
  8
DEFPOINTS
 62
     0
 10
2968.425639
 20
1758.8851129999989
 30
0.0
  0
POINT
  5
8051
  8
DEFPOINTS
 62
     0
 10
3192.4256389999991
 20
1758.8851129999989
 30
0.0
  0
POINT
  5
8052
  8
DEFPOINTS
 62
     0
 10
3192.4256389999991
 20
1618.4230704127731
 30
0.0
  0
ENDBLK
  5
7EC3
  8
0
  0
BLOCK
  8
0
  2
*D16
 70
     1
 10
0.0
 20
0.0
 30
0.0
  3
*D16
  1

  0
LINE
  5
8053
  8
3
 62
     0
 10
3192.4256389999991
 20
1748.8851129999989
 30
0.0
 11
3192.4256389999991
 21
1598.4230704127731
 31
0.0
  0
LINE
  5
8054
  8
3
 62
     0
 10
3416.4256389999991
 20
1748.8851129999989
 30
0.0
 11
3416.4256389999991
 21
1598.4230704127731
 31
0.0
  0
LINE
  5
8055
  8
3
 62
     0
 10
3232.4256389999991
 20
1618.4230704127731
 30
0.0
 11
3376.425639
 21
1618.4230704127731
 31
0.0
  0
INSERT
  5
8056
  8
3
 62
     0
  2
_OPEN
 10
3192.4256389999991
 20
1618.4230704127731
 30
0.0
 41
40.0
 42
40.0
 43
40.0
 50
180.0
  0
INSERT
  5
8057
  8
3
 62
     0
  2
_OPEN
 10
3416.4256389999991
 20
1618.4230704127731
 30
0.0
 41
40.0
 42
40.0
 43
40.0
  0
TEXT
  8
3
  40
60
  5
8079
  62
0
  72
0
  71
0
 10
3184.43
 20
1562.22
 30
0.000000
  1
224
  0
POINT
  5
8059
  8
DEFPOINTS
 62
     0
 10
3192.4256389999991
 20
1758.8851129999989
 30
0.0
  0
POINT
  5
805A
  8
DEFPOINTS
 62
     0
 10
3416.4256389999991
 20
1758.8851129999989
 30
0.0
  0
POINT
  5
805B
  8
DEFPOINTS
 62
     0
 10
3416.4256389999991
 20
1618.4230704127731
 30
0.0
  0
ENDBLK
  5
7ED2
  8
0
  0
BLOCK
  8
0
  2
_DOT
 70
     0
 10
0.0
 20
0.0
 30
0.0
  3
_DOT
  1

  0
POLYLINE
  5
7ED6
  8
0
  6
BYBLOCK
 62
     0
 66
     1
 10
0.0
 20
0.0
 30
0.0
 70
     1
 40
0.5
 41
0.5
  0
VERTEX
  5
805C
  8
0
  6
BYBLOCK
 62
     0
 10
-0.25
 20
0.0
 30
0.0
 42
1.0
  0
VERTEX
  5
805D
  8
0
  6
BYBLOCK
 62
     0
 10
0.25
 20
0.0
 30
0.0
 42
1.0
  0
SEQEND
  5
805E
  8
0
  6
BYBLOCK
 62
     0
  0
LINE
  5
7EDA
  8
0
  6
BYBLOCK
 62
     0
 10
-0.5
 20
0.0
 30
0.0
 11
-1.0
 21
0.0
 31
0.0
  0
ENDBLK
  5
7EDB
  8
0
  0
BLOCK
  8
0
  2
*D18
 70
     1
 10
0.0
 20
0.0
 30
0.0
  3
*D18
  1

  0
LINE
  5
805F
  8
3
 62
     0
 10
1304.8588
 20
1823.8851129999989
 30
0.0
 11
916.22496955821418
 21
1823.8851129999989
 31
0.0
  0
LINE
  5
8060
  8
3
 62
     0
 10
1304.8588
 20
1758.8851129999989
 30
0.0
 11
916.22496955821396
 21
1758.8851129999989
 31
0.0
  0
LINE
  5
8061
  8
3
 62
     0
 10
936.22496955821407
 20
1863.885113
 30
0.0
 11
936.22496955821407
 21
1903.8851129999989
 31
0.0
  0
LINE
  5
8062
  8
3
 62
     0
 10
936.22496955821407
 20
1718.8851129999989
 30
0.0
 11
936.22496955821407
 21
1541.742255857142
 31
0.0
  0
LINE
  5
8063
  8
3
 62
     0
 10
936.22496955821407
 20
1823.8851129999989
 30
0.0
 11
936.22496955821407
 21
1758.8851129999989
 31
0.0
  0
INSERT
  5
8064
  8
3
 62
     0
  2
_DOT
 10
936.22496955821407
 20
1823.8851129999989
 30
0.0
 41
40.0
 42
40.0
 43
40.0
 50
270.0
  0
INSERT
  5
8065
  8
3
 62
     0
  2
_OPEN
 10
936.22496955821407
 20
1758.8851129999989
 30
0.0
 41
40.0
 42
40.0
 43
40.0
 50
90.0
  0
TEXT
  8
3
  40
60
  5
807A
  62
0
  72
0
  71
0
 10
766.225
 20
1504.11
 30
0.000000
  1
65
  0
POINT
  5
8067
  8
DEFPOINTS
 62
     0
 10
1314.8588
 20
1823.8851129999989
 30
0.0
  0
POINT
  5
8068
  8
DEFPOINTS
 62
     0
 10
1314.8588
 20
1758.8851129999989
 30
0.0
  0
POINT
  5
8069
  8
DEFPOINTS
 62
     0
 10
936.22496955821407
 20
1758.8851129999989
 30
0.0
  0
ENDBLK
  5
7EE9
  8
0
  0
BLOCK
  8
0
  2
*D19
 70
     1
 10
0.0
 20
0.0
 30
0.0
  3
*D19
  1

  0
LINE
  5
7EED
  8
0
  6
BYBLOCK
 62
     0
 10
1304.8588
 20
1823.8851129999989
 30
0.0
 11
916.22496955821396
 21
1823.8851129999989
 31
0.0
  0
LINE
  5
7EEE
  8
0
  6
BYBLOCK
 62
     0
 10
1304.8588
 20
1918.8851129999989
 30
0.0
 11
916.22496955821396
 21
1918.8851129999989
 31
0.0
  0
LINE
  5
7EEF
  8
0
  6
BYBLOCK
 62
     0
 10
936.22496955821407
 20
1783.885113
 30
0.0
 11
936.22496955821407
 21
1743.885113
 31
0.0
  0
LINE
  5
7EF0
  8
0
  6
BYBLOCK
 62
     0
 10
936.22496955821407
 20
1958.885113
 30
0.0
 11
936.22496955821407
 21
1998.8851129999989
 31
0.0
  0
TEXT
  5
7EF1
  8
3
 62
     0
 10
860.51068384392829
 20
1784.242255857142
 30
0.0
 40
60.0
  1
(95)
 50
90.0
  0
LINE
  5
7EF2
  8
0
  6
BYBLOCK
 62
     0
 10
936.22496955821407
 20
1823.8851129999989
 30
0.0
 11
936.22496955821407
 21
1918.8851129999989
 31
0.0
  0
INSERT
  5
7EF3
  8
0
  6
BYBLOCK
 62
     0
  2
_DOT
 10
936.22496955821407
 20
1823.8851129999989
 30
0.0
 41
40.0
 42
40.0
 43
40.0
 50
90.0
  0
INSERT
  5
7EF4
  8
0
  6
BYBLOCK
 62
     0
  2
_OPEN
 10
936.22496955821407
 20
1918.8851129999989
 30
0.0
 41
40.0
 42
40.0
 43
40.0
 50
270.0
  0
POINT
  5
7EF5
  8
DEFPOINTS
  6
BYBLOCK
 62
     0
 10
1314.8588
 20
1823.8851129999989
 30
0.0
  0
POINT
  5
7EF6
  8
DEFPOINTS
  6
BYBLOCK
 62
     0
 10
1314.8588
 20
1918.8851129999989
 30
0.0
  0
POINT
  5
7EF7
  8
DEFPOINTS
  6
BYBLOCK
 62
     0
 10
936.22496955821407
 20
1918.8851129999989
 30
0.0
  0
ENDBLK
  5
7EF8
  8
0
  0
ENDSEC
  0
SECTION
  2
ENTITIES
  0
LINE
  5
7ABE
  8
1
  6
CONTINUOUS
 10
2434.8588
 20
1918.8851129999989
 30
0.0
 11
1314.8588
 21
1918.8851129999989
 31
0.0
  0
LINE
  5
7ABF
  8
1
  6
CONTINUOUS
 10
2434.8588
 20
1998.8851129999989
 30
0.0
 11
1304.8588
 21
1998.8851129999989
 31
0.0
  0
LINE
  5
7AC0
  8
1
  6
CONTINUOUS
 10
1924.8588
 20
2873.8851129999998
 30
0.0
 11
1304.8588
 21
2873.8851129999998
 31
0.0
  0
CIRCLE
  5
7AC1
  8
1
  6
CONTINUOUS
 10
1614.8588
 20
2518.8851129999998
 30
0.0
 40
275.0
  0
LINE
  5
7AC2
  8
1
  6
CONTINUOUS
 10
2434.8588
 20
1758.8851129999989
 30
0.0
 11
1314.8588
 21
1758.8851129999989
 31
0.0
  0
LINE
  5
7AC3
  8
1
  6
CONTINUOUS
 10
2434.8588
 20
1823.8851129999989
 30
0.0
 11
1314.8588
 21
1823.8851129999989
 31
0.0
  0
LINE
  5
7AC4
  8
1
  6
CONTINUOUS
 10
1259.8587999999991
 20
2056.8851129999989
 30
0.0
 11
1615.2388000000001
 21
2057.8851129999998
 31
0.0
  0
ARC
  5
7AC5
  8
1
  6
CONTINUOUS
 10
1645.3199439999989
 20
2530.014122
 30
0.0
 40
343.89392400000003
 50
99.976388000000014
 51
178.85972100000001
  0
LINE
  5
7AC6
  8
1
  6
CONTINUOUS
 10
1259.8587999999991
 20
2039.8851129999989
 30
0.0
 11
1259.8587999999991
 21
2553.8851129999989
 31
0.0
  0
LINE
  5
7AC7
  8
1
  6
CONTINUOUS
 10
1284.8588
 20
2536.8851129999998
 30
0.0
 11
1284.8588
 21
2056.955113
 31
0.0
  0
LINE
  5
7AC8
  8
1
  6
CONTINUOUS
 10
1304.8588
 20
1998.8851129999989
 30
0.0
 11
1304.8588
 21
2873.8851129999998
 31
0.0
  0
LINE
  5
7AC9
  8
1
  6
CONTINUOUS
 10
1314.8588
 20
1998.8851129999989
 30
0.0
 11
1314.8588
 21
1918.8851129999989
 31
0.0
  0
LINE
  5
7ACA
  8
1
  6
CONTINUOUS
 10
1314.8588
 20
1823.8851129999989
 30
0.0
 11
1314.8588
 21
1758.8851129999989
 31
0.0
  0
LINE
  5
7ACB
  8
1
  6
CONTINUOUS
 10
1301.4888000000001
 20
2536.8851129999998
 30
0.0
 11
1259.8587999999991
 21
2536.8851129999998
 31
0.0
  0
LINE
  5
7AD3
  8
1
  6
CONTINUOUS
 10
1565.2988
 20
2409.5951129999989
 30
0.0
 11
2190.0787999999989
 21
2126.2351129999988
 31
0.0
  0
LINE
  5
7AD4
  8
1
  6
CONTINUOUS
 10
2248.7487999999989
 20
2230.395113
 30
0.0
 11
1682.6387999999999
 21
2617.9051129999989
 31
0.0
  0
ARC
  5
7AD5
  8
1
  6
CONTINUOUS
 10
1599.103611393984
 20
2473.4206764992041
 30
0.0
 40
415.84575538233668
 50
272.22533583350162
 51
6.9897219507777306
  0
ARC
  5
7AD6
  8
1
  6
CONTINUOUS
 10
1646.0236085934621
 20
2507.4964878706178
 30
0.0
 40
366.20859549172962
 50
2.5876158645989711
 51
99.474316639468654
  0
LINE
  5
7AD7
  8
1
  6
CONTINUOUS
 10
1924.8588
 20
1998.8851129999989
 30
0.0
 11
1924.8588
 21
2873.8851129999998
 31
0.0
  0
CIRCLE
  5
7AD8
  8
1
  6
CONTINUOUS
 10
1614.8588
 20
2518.8851129999998
 30
0.0
 40
250.0
  0
LINE
  5
7AD9
  8
2
  6
CENTER
 10
3425.0582460000001
 20
2518.8851129999998
 30
0.0
 11
2777.0148570439342
 21
2518.8851129999998
 31
0.0
  0
CIRCLE
  5
7ADA
  8
1
  6
CONTINUOUS
 10
1614.8588
 20
2518.8851129999998
 30
0.0
 40
120.0
  0
LINE
  5
7ADB
  8
2
  6
CENTER
 10
1614.8588
 20
1758.8851129999989
 30
0.0
 11
1614.8588
 21
2943.2134752701641
 31
0.0
  0
LINE
  5
7ADC
  8
1
  6
CONTINUOUS
 10
2344.8588
 20
2048.8851129999989
 30
0.0
 11
2084.8588
 21
2048.8851129999989
 31
0.0
  0
ARC
  5
7ADD
  8
1
  6
CONTINUOUS
 10
2214.8588
 20
2180.8851129999989
 30
0.0
 40
122.0
 50
324.60000000000002
 51
215.39999999999989
  0
CIRCLE
  5
7ADE
  8
1
  6
CONTINUOUS
 10
2214.8588
 20
2180.8851129999989
 30
0.0
 40
60.0
  0
LINE
  5
7ADF
  8
2
  6
CENTER
 10
2274.8588
 20
2180.8851129999989
 30
0.0
 11
2154.8587999999991
 21
2180.8851129999989
 31
0.0
  0
LINE
  5
7AE0
  8
1
  6
CONTINUOUS
 10
2084.8588
 20
2048.8851129999989
 30
0.0
 11
2134.8587999999991
 21
2048.8851129999989
 31
0.0
  0
LINE
  5
7AE1
  8
1
  6
CONTINUOUS
 10
2084.8588
 20
2048.8851129999989
 30
0.0
 11
2115.4187999999999
 21
2110.205113
 31
0.0
  0
LINE
  5
7AE2
  8
1
  6
CONTINUOUS
 10
2084.8588
 20
1998.8851129999989
 30
0.0
 11
2084.8588
 21
2048.8851129999989
 31
0.0
  0
LINE
  5
7AE3
  8
2
  6
CENTER
 10
2214.8588
 20
2120.8851129999989
 30
0.0
 11
2214.8588
 21
2240.8851129999998
 31
0.0
  0
LINE
  5
7AE4
  8
1
  6
CONTINUOUS
 10
2434.8588
 20
1998.8851129999989
 30
0.0
 11
2434.8588
 21
1918.8851129999989
 31
0.0
  0
LINE
  5
7AE5
  8
1
  6
CONTINUOUS
 10
2434.8588
 20
1823.8851129999989
 30
0.0
 11
2434.8588
 21
1758.8851129999989
 31
0.0
  0
LINE
  5
7AE6
  8
1
  6
CONTINUOUS
 10
2344.8588
 20
2048.8851129999989
 30
0.0
 11
2314.2987999999991
 21
2110.205113
 31
0.0
  0
LINE
  5
7AE7
  8
1
  6
CONTINUOUS
 10
2344.8588
 20
1998.8851129999989
 30
0.0
 11
2344.8588
 21
2048.8851129999989
 31
0.0
  0
LINE
  5
7AE8
  8
1
  6
CONTINUOUS
 10
2344.8588
 20
2048.8851129999989
 30
0.0
 11
2294.8588
 21
2048.8851129999989
 31
0.0
  0
LINE
  5
7AE9
  8
1
  6
CONTINUOUS
 10
2434.8588
 20
4178.0151130000004
 30
0.0
 11
1314.8588
 21
4178.0151130000004
 31
0.0
  0
LINE
  5
7AEA
  8
1
  6
CONTINUOUS
 10
1595.8588
 20
3730.0151129999999
 30
0.0
 11
1314.8588
 21
3730.0151129999999
 31
0.0
  0
LINE
  5
7AEB
  8
1
  6
CONTINUOUS
 10
2023.0488
 20
4136.0151130000004
 30
0.0
 11
1259.8587999999991
 21
4136.0151130000004
 31
0.0
  0
LINE
  5
7AEC
  8
1
  6
CONTINUOUS
 10
2023.0488
 20
3772.0151129999999
 30
0.0
 11
1259.8587999999991
 21
3772.0151129999999
 31
0.0
  0
LINE
  5
7AED
  8
1
  6
CONTINUOUS
 10
1314.8588
 20
4178.0151130000004
 30
0.0
 11
1314.8588
 21
4136.0151130000004
 31
0.0
  0
LINE
  5
7AEE
  8
1
  6
CONTINUOUS
 10
1284.8588
 20
3773.0151129999999
 30
0.0
 11
1284.8588
 21
4135.0151130000004
 31
0.0
  0
LINE
  5
7AEF
  8
1
  6
CONTINUOUS
 10
1259.8587999999991
 20
3747.0151129999999
 30
0.0
 11
1259.8587999999991
 21
4161.0151130000004
 31
0.0
  0
LINE
  5
7AF0
  8
1
  6
CONTINUOUS
 10
1314.8588
 20
3772.0151129999999
 30
0.0
 11
1314.8588
 21
3730.0151129999999
 31
0.0
  0
LINE
  5
7AF1
  8
1
  6
CONTINUOUS
 10
2195.8587999999991
 20
3730.0151129999999
 30
0.0
 11
1633.8588
 21
3730.0151129999999
 31
0.0
  0
LINE
  5
7AF2
  8
1
  6
CONTINUOUS
 10
1389.3588
 20
3584.0151129999999
 30
0.0
 11
2389.3588
 21
3584.0151129999999
 31
0.0
  0
LINE
  5
7AF3
  8
1
  6
CONTINUOUS
 10
2389.3588
 20
3704.0151129999999
 30
0.0
 11
1389.3588
 21
3704.0151129999999
 31
0.0
  0
LINE
  5
7AF4
  8
1
  6
CONTINUOUS
 10
1734.8588
 20
3614.0151129999999
 30
0.0
 11
1494.8588
 21
3614.0151129999999
 31
0.0
  0
LINE
  5
7AF5
  8
1
  6
CONTINUOUS
 10
1494.8588
 20
3674.0151130000008
 30
0.0
 11
1734.8588
 21
3674.0151130000008
 31
0.0
  0
LINE
  5
7AF6
  8
1
  6
CONTINUOUS
 10
1595.8588
 20
3674.0151130000008
 30
0.0
 11
1595.8588
 21
3773.0151129999999
 31
0.0
  0
LINE
  5
7AF7
  8
1
  6
CONTINUOUS
 10
1633.8588
 20
3674.0151130000008
 30
0.0
 11
1633.8588
 21
3773.0151129999999
 31
0.0
  0
LINE
  5
7AF8
  8
1
  6
CONTINUOUS
 10
1389.3588
 20
3704.0151129999999
 30
0.0
 11
1389.3588
 21
3584.0151129999999
 31
0.0
  0
LINE
  5
7AF9
  8
1
  6
CONTINUOUS
 10
1494.8588
 20
3614.0151129999999
 30
0.0
 11
1494.8588
 21
3674.0151130000008
 31
0.0
  0
LINE
  5
7AFA
  8
1
  6
CONTINUOUS
 10
1734.8588
 20
3614.0151129999999
 30
0.0
 11
1734.8588
 21
3674.0151130000008
 31
0.0
  0
LINE
  5
7AFB
  8
1
  6
CONTINUOUS
 10
2434.8588
 20
4178.0151130000004
 30
0.0
 11
2434.8588
 21
3730.0151129999999
 31
0.0
  0
LINE
  5
7AFC
  8
1
  6
CONTINUOUS
 10
2264.8588
 20
3614.0151129999999
 30
0.0
 11
2164.8588
 21
3614.0151129999999
 31
0.0
  0
LINE
  5
7AFD
  8
1
  6
CONTINUOUS
 10
2434.8588
 20
3730.0151129999999
 30
0.0
 11
2233.8588
 21
3730.0151129999999
 31
0.0
  0
LINE
  5
7AFE
  8
1
  6
CONTINUOUS
 10
2336.8587999999991
 20
3754.2551130000002
 30
0.0
 11
2092.8588
 21
3754.2551130000002
 31
0.0
  0
LINE
  5
7AFF
  8
1
  6
CONTINUOUS
 10
2336.8587999999991
 20
4104.2551129999993
 30
0.0
 11
2092.8588
 21
4104.2551129999993
 31
0.0
  0
LINE
  5
7B00
  8
1
  6
CONTINUOUS
 10
2164.8588
 20
3674.0151130000008
 30
0.0
 11
2264.8588
 21
3674.0151130000008
 31
0.0
  0
LINE
  5
7B01
  8
1
  6
CONTINUOUS
 10
2233.8588
 20
3674.0151130000008
 30
0.0
 11
2233.8588
 21
3754.2551130000002
 31
0.0
  0
LINE
  5
7B02
  8
1
  6
CONTINUOUS
 10
2195.8587999999991
 20
3674.0151130000008
 30
0.0
 11
2195.8587999999991
 21
3754.2551130000002
 31
0.0
  0
LINE
  5
7B03
  8
1
  6
CONTINUOUS
 10
2164.8588
 20
3614.0151129999999
 30
0.0
 11
2164.8588
 21
3674.0151130000008
 31
0.0
  0
LINE
  5
7B04
  8
1
  6
CONTINUOUS
 10
2023.0488
 20
3772.0151129999999
 30
0.0
 11
2023.0488
 21
4136.0151130000004
 31
0.0
  0
LINE
  5
7B05
  8
1
  6
CONTINUOUS
 10
2092.8588
 20
3754.2551130000002
 30
0.0
 11
2092.8588
 21
4104.2551129999993
 31
0.0
  0
LINE
  5
7B06
  8
1
  6
CONTINUOUS
 10
2264.8588
 20
3674.0151130000008
 30
0.0
 11
2264.8588
 21
3614.0151129999999
 31
0.0
  0
LINE
  5
7B07
  8
1
  6
CONTINUOUS
 10
2389.3588
 20
3584.0151129999999
 30
0.0
 11
2389.3588
 21
3704.0151129999999
 31
0.0
  0
LINE
  5
7B08
  8
1
  6
CONTINUOUS
 10
2336.8587999999991
 20
3754.2551130000002
 30
0.0
 11
2336.8587999999991
 21
4104.2551129999993
 31
0.0
  0
LINE
  5
7B09
  8
1
  6
CONTINUOUS
 10
3372.425639
 20
2563.8851129999989
 30
0.0
 11
3012.4256389999991
 21
2029.885113
 31
0.0
  0
LINE
  5
7B0A
  8
1
  6
CONTINUOUS
 10
3012.4256389999991
 20
2563.8851129999989
 30
0.0
 11
3372.425639
 21
2029.885113
 31
0.0
  0
LINE
  5
7B0B
  8
1
  6
CONTINUOUS
 10
3372.425639
 20
2872.8651129999989
 30
0.0
 11
3012.4256389999991
 21
2872.8651129999989
 31
0.0
  0
LINE
  5
7B0C
  8
1
  6
CONTINUOUS
 10
2968.425639
 20
1918.8851129999989
 30
0.0
 11
3416.4256389999991
 21
1918.8851129999989
 31
0.0
  0
LINE
  5
7B0D
  8
1
  6
CONTINUOUS
 10
3012.4256389999991
 20
2029.885113
 30
0.0
 11
3372.425639
 21
2029.885113
 31
0.0
  0
LINE
  5
7B0E
  8
1
  6
CONTINUOUS
 10
3372.425639
 20
2563.8851129999989
 30
0.0
 11
3012.4256389999991
 21
2563.8851129999989
 31
0.0
  0
LINE
  5
7B0F
  8
1
  6
CONTINUOUS
 10
2968.425639
 20
1758.8851129999989
 30
0.0
 11
3416.4256389999991
 21
1758.8851129999989
 31
0.0
  0
LINE
  5
7B10
  8
1
  6
CONTINUOUS
 10
2968.425639
 20
1823.8851129999989
 30
0.0
 11
3416.4256389999991
 21
1823.8851129999989
 31
0.0
  0
LINE
  5
7B11
  8
1
  6
CONTINUOUS
 10
2968.425639
 20
1998.8851129999989
 30
0.0
 11
3416.4256389999991
 21
1998.8851129999989
 31
0.0
  0
LINE
  5
7B3D
  8
1
  6
CONTINUOUS
 10
3012.4256389999991
 20
2872.8651129999989
 30
0.0
 11
3012.4256389999991
 21
2029.885113
 31
0.0
  0
LINE
  5
7B3E
  8
1
  6
CONTINUOUS
 10
2822.425639
 20
1998.8851129999989
 30
0.0
 11
2822.425639
 21
2743.8851129999998
 31
0.0
  0
LINE
  5
7B3F
  8
1
  6
CONTINUOUS
 10
2942.425639
 20
2743.8851129999998
 30
0.0
 11
2942.425639
 21
1998.8851129999989
 31
0.0
  0
LINE
  5
7B40
  8
1
  6
CONTINUOUS
 10
2852.425639
 20
2130.8851129999989
 30
0.0
 11
2912.425639
 21
2130.8851129999989
 31
0.0
  0
LINE
  5
7B41
  8
1
  6
CONTINUOUS
 10
2912.425639
 20
2230.8851129999989
 30
0.0
 11
2852.425639
 21
2230.8851129999989
 31
0.0
  0
LINE
  5
7B42
  8
1
  6
CONTINUOUS
 10
2942.425639
 20
1998.8851129999989
 30
0.0
 11
2822.425639
 21
1998.8851129999989
 31
0.0
  0
LINE
  5
7B45
  8
1
  6
CONTINUOUS
 10
2852.425639
 20
2230.8851129999989
 30
0.0
 11
2852.425639
 21
2130.8851129999989
 31
0.0
  0
LINE
  5
7B46
  8
1
  6
CONTINUOUS
 10
2968.425639
 20
1998.8851129999989
 30
0.0
 11
2968.425639
 21
1918.8851129999989
 31
0.0
  0
LINE
  5
7B47
  8
1
  6
CONTINUOUS
 10
2968.425639
 20
1823.8851129999989
 30
0.0
 11
2968.425639
 21
1758.8851129999989
 31
0.0
  0
LINE
  5
7B48
  8
1
  6
CONTINUOUS
 10
3012.4256389999991
 20
2029.885113
 30
0.0
 11
3012.4256389999991
 21
1998.8851129999989
 31
0.0
  0
LINE
  5
7B49
  8
1
  6
CONTINUOUS
 10
2912.425639
 20
2130.8851129999989
 30
0.0
 11
2912.425639
 21
2230.8851129999989
 31
0.0
  0
LINE
  5
7B4A
  8
1
  6
CONTINUOUS
 10
2912.425639
 20
2161.8851129999989
 30
0.0
 11
3012.4256389999991
 21
2161.8851129999989
 31
0.0
  0
LINE
  5
7B4B
  8
1
  6
CONTINUOUS
 10
2912.425639
 20
2199.8851129999998
 30
0.0
 11
3012.4256389999991
 21
2199.8851129999998
 31
0.0
  0
LINE
  5
7B4C
  8
1
  6
CONTINUOUS
 10
2912.425639
 20
2638.8851129999998
 30
0.0
 11
2852.425639
 21
2638.8851129999998
 31
0.0
  0
LINE
  5
7B4D
  8
1
  6
CONTINUOUS
 10
2912.425639
 20
2398.8851129999989
 30
0.0
 11
2852.425639
 21
2398.8851129999989
 31
0.0
  0
LINE
  5
7B4E
  8
1
  6
CONTINUOUS
 10
2822.425639
 20
2743.8851129999998
 30
0.0
 11
2942.425639
 21
2743.8851129999998
 31
0.0
  0
LINE
  5
7B4F
  8
1
  6
CONTINUOUS
 10
2852.425639
 20
2638.8851129999998
 30
0.0
 11
2852.425639
 21
2398.8851129999989
 31
0.0
  0
LINE
  5
7B50
  8
1
  6
CONTINUOUS
 10
2912.425639
 20
2537.8851129999989
 30
0.0
 11
3012.4256389999991
 21
2537.8851129999989
 31
0.0
  0
LINE
  5
7B51
  8
1
  6
CONTINUOUS
 10
2912.425639
 20
2499.8851129999989
 30
0.0
 11
3012.4256389999991
 21
2499.8851129999989
 31
0.0
  0
LINE
  5
7B52
  8
1
  6
CONTINUOUS
 10
2912.425639
 20
2398.8851129999989
 30
0.0
 11
2912.425639
 21
2638.8851129999998
 31
0.0
  0
LINE
  5
7B73
  8
1
  6
CONTINUOUS
 10
3372.425639
 20
2872.8651129999989
 30
0.0
 11
3372.425639
 21
2029.885113
 31
0.0
  0
LINE
  5
7B74
  8
1
  6
CONTINUOUS
 10
3416.4256389999991
 20
1998.8851129999989
 30
0.0
 11
3416.4256389999991
 21
1918.8851129999989
 31
0.0
  0
LINE
  5
7B75
  8
1
  6
CONTINUOUS
 10
3416.4256389999991
 20
1823.8851129999989
 30
0.0
 11
3416.4256389999991
 21
1758.8851129999989
 31
0.0
  0
LINE
  5
7B76
  8
1
  6
CONTINUOUS
 10
3372.425639
 20
2029.885113
 30
0.0
 11
3372.425639
 21
1998.8851129999989
 31
0.0
  0
LINE
  5
7B78
  8
2
  6
CENTER
 10
3192.425639
 20
2941.6037739999988
 30
0.0
 11
3192.4256389999991
 21
1758.8851129999989
 31
0.0
  0
LINE
  5
7B79
  8
2
  6
CENTER
 10
1227.4920546160131
 20
3954.0151129999999
 30
0.0
 11
2465.1243339356661
 21
3954.0151129999999
 31
0.0
  0
LINE
  5
7B7A
  8
2
  6
CENTER
 10
1614.8588
 20
3506.836311
 30
0.0
 11
1614.8588
 21
4224.1242515210124
 31
0.0
  0
LINE
  5
7B7B
  8
2
  6
CENTER
 10
2261.6212869999999
 20
2518.8851129999998
 30
0.0
 11
1156.7243352201619
 21
2518.8851129999998
 31
0.0
  0
LINE
  5
7B7C
  8
4
  6
CONTINUOUS
 10
3700.0
 20
1000.0
 30
0.0
 11
3700.0
 21
600.0
 31
0.0
  0
LINE
  5
7B7D
  8
4
  6
CONTINUOUS
 10
2300.0
 20
1000.0
 30
0.0
 11
2300.0
 21
600.0
 31
0.0
  0
LINE
  5
7B7E
  8
4
  6
CONTINUOUS
 10
1300.0
 20
1000.0
 30
0.0
 11
1300.0
 21
600.0
 31
0.0
  0
LINE
  5
7B81
  8
4
  6
CONTINUOUS
 10
1300.0
 20
600.0
 30
0.0
 11
3700.0
 21
600.0
 31
0.0
  0
LINE
  5
7B82
  8
4
  6
CONTINUOUS
 10
1300.0
 20
800.0
 30
0.0
 11
3700.0
 21
800.0
 31
0.0
  0
TEXT
  5
7B83
  8
4
  6
CONTINUOUS
 10
1377.004162
 20
863.086052
 30
0.0
 40
100.0
  1
機器名称
  0
TEXT
  5
7B84
  8
4
  6
CONTINUOUS
 10
1372.516212
 20
643.29031299999986
 30
0.0
 40
100.0
  1
機器型番
  0
TEXT
  5
7B85
  8
4
  6
CONTINUOUS
 10
2355.3574910000002
 20
845.14353800000015
 30
0.0
 40
100.0
  1
ミツヤ多翼送風機
  0
TEXT
  5
7B86
  8
4
  6
CONTINUOUS
 10
2373.3089909999999
 20
634.31916899999999
 30
0.0
 40
100.0
  1
MFE#3-4
  0
TEXT
  5
7B88
  8
4
  6
CONTINUOUS
 10
1633.1148209999999
 20
4766.8576830000002
 30
0.0
 40
108.0
  1
床置防振ベット
  0
TEXT
  5
7B89
  8
4
  6
CONTINUOUS
 10
632.33518700000002
 20
5067.7619520000007
 30
0.0
 40
144.0
  1
ベルト駆動式片吸込両持排煙ファン
  0
LINE
  5
7B8A
  8
4
  6
CONTINUOUS
 10
500.0
 20
4938.8175090000004
 30
0.0
 11
3700.0
 21
4938.8175090000004
 31
0.0
  0
LINE
  5
7B8B
  8
4
  6
CONTINUOUS
 10
500.0
 20
5338.8175090000004
 30
0.0
 11
3700.0
 21
5338.8175090000004
 31
0.0
  0
LINE
  5
7B8C
  8
4
  6
CONTINUOUS
 10
1300.0
 20
1000.0
 30
0.0
 11
3700.0
 21
1000.0
 31
0.0
  0
LINE
  5
7B8D
  8
4
  6
CONTINUOUS
 10
500.0
 20
5338.8175090000004
 30
0.0
 11
500.0
 21
4938.8175090000004
 31
0.0
  0
TEXT
  5
7B8E
  8
4
  6
CONTINUOUS
 10
596.70423700000003
 20
4764.6389549999994
 30
0.0
 40
108.0
  1
右回転左横向
  0
TEXT
  5
7B8F
  8
4
  6
CONTINUOUS
 10
2937.9391179999998
 20
5412.122163
 30
0.0
 40
112.0
  1
No.
  0
TEXT
  5
7B90
  8
4
  6
CONTINUOUS
 10
2683.2956709999999
 20
4766.8576830000002
 30
0.0
 40
108.0
  1
縮尺：1/20
  0
LINE
  5
7B91
  8
4
  6
CONTINUOUS
 10
3700.0
 20
5338.8175090000004
 30
0.0
 11
3700.0
 21
4938.8175090000004
 31
0.0
  0
LINE
  5
7B93
  8
4
  6
CONTINUOUS
 10
2881.234845
 20
5362.5271659999999
 30
0.0
 11
2881.234845
 21
5573.3045229999998
 31
0.0
  0
LINE
  5
7B94
  8
4
  6
CONTINUOUS
 10
2881.234845
 20
5573.3045229999998
 30
0.0
 11
3700.0
 21
5573.3045229999998
 31
0.0
  0
LINE
  5
7B95
  8
4
  6
CONTINUOUS
 10
3700.0
 20
5573.3045229999998
 30
0.0
 11
3700.0
 21
5362.5271659999999
 31
0.0
  0
LINE
  5
7B96
  8
4
  6
CONTINUOUS
 10
3700.0
 20
5362.5271659999999
 30
0.0
 11
2881.234845
 21
5362.5271659999999
 31
0.0
  0
LINE
  5
7B9B
  8
1
  6
CONTINUOUS
 10
1389.3588
 20
1998.8851129999989
 30
0.0
 11
1389.3588
 21
2668.8851129999989
 31
0.0
  0
LINE
  5
7B9C
  8
1
  6
CONTINUOUS
 10
1389.3588
 20
2668.8851129999989
 30
0.0
 11
1629.3588
 21
2743.8851129999998
 31
0.0
  0
LINE
  5
7B9D
  8
1
  6
CONTINUOUS
 10
1629.3588
 20
2743.8851129999998
 30
0.0
 11
2389.3588
 21
2233.8851129999989
 31
0.0
  0
LINE
  5
7B9E
  8
1
  6
CONTINUOUS
 10
2389.3588
 20
2233.8851129999989
 30
0.0
 11
2389.3588
 21
1998.8851129999989
 31
0.0
  0
DIMENSION
  5
7BB2
  8
3
  6
CONTINUOUS
  2
*D1
 10
1174.8771529999999
 20
2056.8851129999989
 30
0.0
 11
1174.877152999999
 21
2346.7564910000001
 31
0.0
 70
   128
 13
1259.8587999999991
 23
2536.8851129999998
 33
0.0
 14
1259.8587999999991
 24
2056.8851129999989
 34
0.0
 50
90.0
1001
ACAD
1000
DSTYLE
1002
{
1070
   287
1070
     3
1070
   287
1070
     3
1070
    40
1040
20.0
1070
   143
1040
0.039
1070
   172
1070
     1
1070
   271
1070
     0
1070
   279
1070
     0
1070
   288
1070
     1
1002
}
  0
DIMENSION
  5
7BBF
  8
3
  6
CONTINUOUS
  2
*D2
 10
1058.930351
 20
2518.8851129999998
 30
0.0
 11
1058.930351
 21
2342.1232049999999
 31
0.0
 70
   128
 13
1259.8587999999991
 23
2056.8851129999989
 33
0.0
 14
1156.7243352201619
 24
2518.8851129999998
 34
0.0
 50
90.0
1001
ACAD
1000
DSTYLE
1002
{
1070
   287
1070
     3
1070
   287
1070
     3
1070
    40
1040
20.0
1070
   143
1040
0.039
1070
   172
1070
     1
1070
   271
1070
     0
1070
   279
1070
     0
1070
   288
1070
     1
1002
}
  0
DIMENSION
  5
7BE5
  8
3
  6
CONTINUOUS
  2
*D3
 10
937.41810400000031
 20
2518.8851129999998
 30
0.0
 11
937.41810399999974
 21
2703.5192269999998
 31
0.0
 70
   128
 13
1304.8588
 23
2873.8851129999998
 33
0.0
 14
1156.7243352201619
 24
2518.8851129999998
 34
0.0
 50
90.0
1001
ACAD
1000
DSTYLE
1002
{
1070
   287
1070
     3
1070
   287
1070
     3
1070
    40
1040
20.0
1070
   143
1040
0.039
1070
   172
1070
     1
1070
   271
1070
     0
1070
   279
1070
     0
1070
   288
1070
     1
1002
}
  0
DIMENSION
  5
7BF1
  8
3
  6
CONTINUOUS
  2
*D4
 10
937.41810399999974
 20
1918.8851129999989
 30
0.0
 11
887.4181039999994
 21
2218.8851129999998
 31
0.0
 70
     0
 13
1156.7243352201619
 23
2518.8851129999998
 33
0.0
 14
1314.8588
 24
1918.8851129999989
 34
0.0
 50
90.0
1001
ACAD
1000
DSTYLE
1002
{
1070
   287
1070
     4
1070
   287
1070
     4
1070
    40
1040
20.0
1070
    75
1070
     1
1070
   143
1040
0.039
1070
   172
1070
     1
1070
   271
1070
     0
1070
   279
1070
     1
1070
   288
1070
     1
1002
}
  0
DIMENSION
  5
7C34
  8
3
  6
CONTINUOUS
  2
*D5
 10
1614.8588
 20
2986.1494429999998
 30
0.0
 11
1433.670496
 21
2986.1494429999998
 31
0.0
 70
   128
 13
1259.8587999999991
 23
2553.8851129999989
 33
0.0
 14
1614.8588
 24
2942.3314291655979
 34
0.0
1001
ACAD
1000
DSTYLE
1002
{
1070
   287
1070
     3
1070
   287
1070
     3
1070
    40
1040
20.0
1070
   143
1040
0.039
1070
   172
1070
     1
1070
   271
1070
     0
1070
   279
1070
     0
1070
   288
1070
     1
1002
}
  0
DIMENSION
  5
7C40
  8
3
  6
CONTINUOUS
  2
*D6
 10
2011.8588
 20
2986.1494429999998
 30
0.0
 11
1813.3587999999991
 21
3036.1494429999989
 31
0.0
 70
     0
 13
1614.8588
 23
2943.6544922999292
 33
0.0
 14
2011.8588
 24
2518.8851129999998
 34
0.0
1001
ACAD
1000
DSTYLE
1002
{
1070
   287
1070
     4
1070
   287
1070
     4
1070
    40
1040
20.0
1070
    75
1070
     1
1070
   143
1040
0.039
1070
   172
1070
     1
1070
   271
1070
     0
1070
   279
1070
     1
1070
   288
1070
     1
1002
}
  0
DIMENSION
  5
7CAF
  8
3
  6
CONTINUOUS
  2
*D7
 10
3012.4256389999991
 20
2951.7963169980371
 30
0.0
 11
3197.8024739999992
 21
2951.7963169980371
 31
0.0
 70
   128
 13
3372.425639
 23
2872.8651129999989
 33
0.0
 14
3012.4256389999991
 24
2872.8651129999989
 34
0.0
1001
ACAD
1000
DSTYLE
1002
{
1070
   287
1070
     3
1070
   287
1070
     3
1070
    40
1040
20.0
1070
   143
1040
0.039
1070
   172
1070
     1
1070
   271
1070
     0
1070
   279
1070
     0
1070
   288
1070
     1
1002
}
  0
LINE
  5
7CC7
  8
1
  6
CONTINUOUS
 10
3373.425639
 20
2768.8851129999998
 30
0.0
 11
3373.425639
 21
2268.8851129999998
 31
0.0
  0
DIMENSION
  5
7CD6
  8
3
  6
CONTINUOUS
  2
*D8
 10
3536.3671899999999
 20
2268.8851129999998
 30
0.0
 11
3536.367189999999
 21
2513.5546489999988
 31
0.0
 70
   128
 13
3373.425639
 23
2768.8851129999998
 33
0.0
 14
3373.425639
 24
2268.8851129999998
 34
0.0
 50
90.0
1001
ACAD
1000
DSTYLE
1002
{
1070
   287
1070
     3
1070
   287
1070
     3
1070
     3
1000
φ<>
1070
    40
1040
20.0
1070
   143
1040
0.039
1070
   172
1070
     1
1070
   271
1070
     0
1070
   279
1070
     0
1070
   288
1070
     1
1002
}
  0
DIMENSION
  5
7CE5
  8
3
  6
CONTINUOUS
  2
*D9
 10
3192.425639
 20
3111.2762089999992
 30
0.0
 11
3282.925639
 21
3163.7300775692188
 31
0.0
 12
0.0
 22
30.330892999999829
 32
0.0
 70
   128
 13
3373.425639
 23
2768.8851129999998
 33
0.0
 14
3192.425639
 24
3043.9768009999989
 34
0.0
1001
ACAD
1000
DSTYLE
1002
{
1070
   288
1070
     1
1070
   172
1070
     1
1070
    40
1040
20.0
1070
   271
1070
     0
1070
   143
1040
0.039
1002
}
  0
DIMENSION
  5
7CF1
  8
3
  6
CONTINUOUS
  2
*D10
 10
2822.425639
 20
3111.2762089999992
 30
0.0
 11
3007.425639
 21
3211.2762089999992
 31
0.0
 70
     0
  1
MAX\P430
 13
3192.425639
 23
3043.9768009999989
 33
0.0
 14
2822.425639
 24
2743.8851129999998
 34
0.0
1001
ACAD
1000
DSTYLE
1002
{
1070
   287
1070
     4
1070
   287
1070
     4
1070
    40
1040
20.0
1070
    75
1070
     1
1070
   143
1040
0.039
1070
   172
1070
     1
1070
   271
1070
     0
1070
   279
1070
     1
1070
   288
1070
     1
1002
}
  0
DIMENSION
  5
7CFE
  8
3
  6
CONTINUOUS
  2
*D11
 10
2434.8588
 20
4343.3894740000014
 30
0.0
 11
1804.7003179999999
 21
4343.3894740000014
 31
0.0
 70
   128
 13
1314.8588
 23
4178.0151130000004
 33
0.0
 14
2434.8588
 24
4178.0151130000004
 34
0.0
1001
ACAD
1000
DSTYLE
1002
{
1070
   287
1070
     3
1070
   287
1070
     3
1070
    40
1040
20.0
1070
   143
1040
0.039
1070
   172
1070
     1
1070
   271
1070
     0
1070
   279
1070
     0
1070
   288
1070
     1
1002
}
  0
DIMENSION
  5
7D0B
  8
3
  6
CONTINUOUS
  2
*D12
 10
2597.7790199999999
 20
3730.0151129999999
 30
0.0
 11
2597.7790199999999
 21
3952.6104579999992
 31
0.0
 70
   128
 13
2434.8588
 23
4178.0151130000004
 33
0.0
 14
2434.8588
 24
3730.0151129999999
 34
0.0
 50
90.0
1001
ACAD
1000
DSTYLE
1002
{
1070
   287
1070
     3
1070
   287
1070
     3
1070
    40
1040
20.0
1070
   143
1040
0.039
1070
   172
1070
     1
1070
   271
1070
     0
1070
   279
1070
     0
1070
   288
1070
     1
1002
}
  0
DIMENSION
  5
7EA8
  8
3
  2
*D13
 10
1614.8588
 20
1618.4230704127731
 30
0.0
 11
1464.8588
 21
1668.4230704127731
 31
0.0
 70
     0
 13
1314.8588
 23
1758.8851129999989
 33
0.0
 14
1614.8588
 24
1758.8851129999989
 34
0.0
1001
ACAD
1000
DSTYLE
1002
{
1070
   287
1070
     3
1070
   287
1070
     3
1070
    40
1040
20.0
1070
   143
1040
0.039
1070
   172
1070
     1
1070
   271
1070
     0
1070
   279
1070
     0
1002
}
  0
DIMENSION
  5
7EB5
  8
3
  2
*D14
 10
2434.8588
 20
1618.4230704127731
 30
0.0
 11
2024.8588
 21
1668.4230704127731
 31
0.0
 70
     0
 13
1614.8588
 23
1758.8851129999989
 33
0.0
 14
2434.8588
 24
1758.8851129999989
 34
0.0
1001
ACAD
1000
DSTYLE
1002
{
1070
   287
1070
     3
1070
   287
1070
     3
1070
    40
1040
20.0
1070
   143
1040
0.039
1070
   172
1070
     1
1070
   271
1070
     0
1070
   279
1070
     0
1002
}
  0
DIMENSION
  5
7EC4
  8
3
  2
*D15
 10
3192.4256389999991
 20
1618.4230704127731
 30
0.0
 11
3080.425639
 21
1668.4230704127731
 31
0.0
 70
     0
 13
2968.425639
 23
1758.8851129999989
 33
0.0
 14
3192.4256389999991
 24
1758.8851129999989
 34
0.0
1001
ACAD
1000
DSTYLE
1002
{
1070
   287
1070
     3
1070
   287
1070
     3
1070
    40
1040
20.0
1070
   143
1040
0.039
1070
   172
1070
     1
1070
   271
1070
     0
1070
   279
1070
     0
1002
}
  0
DIMENSION
  5
7ED3
  8
3
  2
*D16
 10
3416.4256389999991
 20
1618.4230704127731
 30
0.0
 11
3304.425639
 21
1668.4230704127731
 31
0.0
 70
     0
 13
3192.4256389999991
 23
1758.8851129999989
 33
0.0
 14
3416.4256389999991
 24
1758.8851129999989
 34
0.0
1001
ACAD
1000
DSTYLE
1002
{
1070
   287
1070
     3
1070
   287
1070
     3
1070
    40
1040
20.0
1070
   143
1040
0.039
1070
   172
1070
     1
1070
   271
1070
     0
1070
   279
1070
     0
1002
}
  0
DIMENSION
  5
7EEA
  8
3
  2
*D18
 10
936.22496955821407
 20
1758.8851129999989
 30
0.0
 11
886.22496955821373
 21
1610.3136844285709
 31
0.0
 70
     0
 13
1314.8588
 23
1823.8851129999989
 33
0.0
 14
1314.8588
 24
1758.8851129999989
 34
0.0
 50
90.0
1001
ACAD
1000
DSTYLE
1002
{
1070
   287
1070
     3
1070
   287
1070
     3
1070
    40
1040
20.0
1070
   143
1040
0.039
1070
   172
1070
     1
1070
   271
1070
     0
1070
   279
1070
     0
1070
     6
1000
DOT
1002
}
  0
DIMENSION
  5
7EF9
  8
3
  2
*D19
 10
936.22496955821407
 20
1918.8851129999989
 30
0.0
 11
840.5106838439284
 21
1871.3851129999989
 31
0.0
 70
     0
 13
1314.8588
 23
1823.8851129999989
 33
0.0
 14
1314.8588
 24
1918.8851129999989
 34
0.0
 50
90.0
1001
ACAD
1000
DSTYLE
1002
{
1070
   172
1070
     1
1070
    40
1040
20.0
1070
     3
1000
(<>)
1070
   271
1070
     0
1070
     6
1000
_DOT
1070
   143
1040
0.039
1002
}
  0
ENDSEC
  0
EOF
