  0
SECTION
  2
HEADER
  9
$ACADVER
  1
AC1009
  9
$INSBASE
 10
0.0
 20
0.0
 30
0.0
  9
$EXTMIN
 10
500.0
 20
600.0
 30
0.0
  9
$EXTMAX
 10
3700.0
 20
5573.3045229999998
 30
0.0
  9
$LIMMIN
 10
0.0
 20
0.0
  9
$LIMMAX
 10
297.0
 20
210.0
  9
$ORTHOMODE
 70
     0
  9
$REGENMODE
 70
     1
  9
$FILLMODE
 70
     0
  9
$QTEXTMODE
 70
     0
  9
$MIRRTEXT
 70
     1
  9
$DRAGMODE
 70
     2
  9
$LTSCALE
 40
100.0
  9
$OSMODE
 70
    37
  9
$ATTMODE
 70
     1
  9
$TEXTSIZE
 40
180.0
  9
$TRACEWID
 40
0.05
  9
$TEXTSTYLE
  7
STANDARD
  9
$CLAYER
  8
3
  9
$CELTYPE
  6
BYLAYER
  9
$CECOLOR
 62
   256
  9
$DIMSCALE
 40
20.0
  9
$DIMASZ
 40
2.0
  9
$DIMEXO
 40
0.5
  9
$DIMDLI
 40
10.0
  9
$DIMRND
 40
0.0
  9
$DIMDLE
 40
0.0
  9
$DIMEXE
 40
1.0
  9
$DIMTP
 40
1.0
  9
$DIMTM
 40
1.0
  9
$DIMTXT
 40
3.0
  9
$DIMCEN
 40
0.0
  9
$DIMTSZ
 40
0.0
  9
$DIMTOL
 70
     0
  9
$DIMLIM
 70
     0
  9
$DIMTIH
 70
     0
  9
$DIMTOH
 70
     0
  9
$DIMSE1
 70
     0
  9
$DIMSE2
 70
     0
  9
$DIMTAD
 70
     1
  9
$DIMZIN
 70
     8
  9
$DIMBLK
  1

  9
$DIMASO
 70
     1
  9
$DIMSHO
 70
     1
  9
$DIMPOST
  1
(<>)
  9
$DIMAPOST
  1

  9
$DIMALT
 70
     0
  9
$DIMALTD
 70
     2
  9
$DIMALTF
 40
0.039
  9
$DIMLFAC
 40
1.0
  9
$DIMTOFL
 70
     1
  9
$DIMTVP
 40
0.0
  9
$DIMTIX
 70
     0
  9
$DIMSOXD
 70
     0
  9
$DIMSAH
 70
     1
  9
$DIMBLK1
  1
DOT
  9
$DIMBLK2
  1
OPEN
  9
$DIMSTYLE
  2
IGA
  9
$DIMCLRD
 70
     0
  9
$DIMCLRE
 70
     0
  9
$DIMCLRT
 70
     0
  9
$DIMTFAC
 40
10.0
  9
$DIMGAP
 40
1.0
  9
$LUNITS
 70
     2
  9
$LUPREC
 70
     3
  9
$SKETCHINC
 40
0.1
  9
$FILLETRAD
 40
50.0
  9
$AUNITS
 70
     0
  9
$AUPREC
 70
     0
  9
$MENU
  1
acad
  9
$ELEVATION
 40
0.0
  9
$PELEVATION
 40
0.0
  9
$THICKNESS
 40
0.0
  9
$LIMCHECK
 70
     0
  9
$BLIPMODE
 70
     0
  9
$CHAMFERA
 40
0.5
  9
$CHAMFERB
 40
0.5
  9
$SKPOLY
 70
     0
  9
$TDCREATE
 40
2450731.4343767362
  9
$TDUPDATE
 40
2454953.8364403928
  9
$TDINDWG
 40
0.1773912731
  9
$TDUSRTIMER
 40
0.1773912731
  9
$USRTIMER
 70
     1
  9
$ANGBASE
 50
0.0
  9
$ANGDIR
 70
     0
  9
$PDMODE
 70
     0
  9
$PDSIZE
 40
0.0
  9
$PLINEWID
 40
0.0
  9
$COORDS
 70
     1
  9
$SPLFRAME
 70
     0
  9
$SPLINETYPE
 70
     6
  9
$SPLINESEGS
 70
     8
  9
$ATTDIA
 70
     0
  9
$ATTREQ
 70
     1
  9
$HANDLING
 70
 10241
  9
$HANDSEED
  5
8040
  9
$SURFTAB1
 70
     6
  9
$SURFTAB2
 70
     6
  9
$SURFTYPE
 70
     6
  9
$SURFU
 70
     6
  9
$SURFV
 70
     6
  9
$UCSNAME
  2

  9
$UCSORG
 10
0.0
 20
0.0
 30
0.0
  9
$UCSXDIR
 10
1.0
 20
0.0
 30
0.0
  9
$UCSYDIR
 10
0.0
 20
1.0
 30
0.0
  9
$PUCSNAME
  2

  9
$PUCSORG
 10
0.0
 20
0.0
 30
0.0
  9
$PUCSXDIR
 10
1.0
 20
0.0
 30
0.0
  9
$PUCSYDIR
 10
0.0
 20
1.0
 30
0.0
  9
$USERI1
 70
     0
  9
$USERI2
 70
     0
  9
$USERI3
 70
     0
  9
$USERI4
 70
     0
  9
$USERI5
 70
     0
  9
$USERR1
 40
0.0
  9
$USERR2
 40
0.0
  9
$USERR3
 40
0.0
  9
$USERR4
 40
0.0
  9
$USERR5
 40
0.0
  9
$WORLDVIEW
 70
     1
  9
$SHADEDGE
 70
     3
  9
$SHADEDIF
 70
    70
  9
$TILEMODE
 70
     1
  9
$MAXACTVP
 70
    16
  9
$PLIMCHECK
 70
     0
  9
$PEXTMIN
 10
1.0000000000000000E+020
 20
1.0000000000000000E+020
 30
1.0000000000000000E+020
  9
$PEXTMAX
 10
-1.0000000000000000E+020
 20
-1.0000000000000000E+020
 30
-1.0000000000000000E+020
  9
$PLIMMIN
 10
0.0
 20
0.0
  9
$PLIMMAX
 10
12.0
 20
9.0
  9
$UNITMODE
 70
     0
  9
$VISRETAIN
 70
     0
  9
$PLINEGEN
 70
     0
  9
$PSLTSCALE
 70
     1
  0
ENDSEC
  0
SECTION
  2
TABLES
  0
TABLE
  2
VPORT
 70
     2
  0
VPORT
  2
*ACTIVE
 70
     0
 10
0.0
 20
0.0
 11
1.0
 21
1.0
 12
5896.0224672920094
 22
3910.5181788608038
 13
0.0
 23
0.0
 14
10.0
 24
10.0
 15
10.0
 25
10.0
 16
0.0
 26
0.0
 36
1.0
 17
0.0
 27
0.0
 37
0.0
 40
7720.8617819453802
 41
1.5051150895140659
 42
50.0
 43
0.0
 44
0.0
 50
0.0
 51
0.0
 71
     0
 72
   100
 73
     1
 74
     0
 75
     0
 76
     0
 77
     0
 78
     0
  0
ENDTAB
  0
TABLE
  2
LTYPE
 70
     2
  0
LTYPE
  2
CONTINUOUS
 70
     0
  3
Solid line
 72
    65
 73
     0
 40
0.0
  0
LTYPE
  2
CENTER
 70
     0
  3
____ _ ____ _ ____ _ ____ _ ____ _ ____ _ ____ 
 72
    65
 73
     4
 40
2.0
 49
1.25
 49
-0.25
 49
0.25
 49
-0.25
  0
ENDTAB
  0
TABLE
  2
LAYER
 70
     6
  0
LAYER
  2
0
 70
     0
 62
     7
  6
CONTINUOUS
  0
LAYER
  2
3
 70
     0
 62
     2
  6
CONTINUOUS
  0
LAYER
  2
2
 70
     0
 62
     3
  6
CENTER
  0
LAYER
  2
1
 70
     0
 62
     4
  6
CONTINUOUS
  0
LAYER
  2
4
 70
     0
 62
     7
  6
CONTINUOUS
  0
LAYER
  2
DEFPOINTS
 70
     0
 62
     7
  6
CONTINUOUS
  0
ENDTAB
  0
TABLE
  2
STYLE
 70
     1
  0
STYLE
  2
STANDARD
 70
     0
 40
0.0
 41
1.0
 50
0.0
 71
     0
 42
180.0
  3
simplex.shx
  4
extfont.shx
  0
ENDTAB
  0
TABLE
  2
VIEW
 70
     0
  0
ENDTAB
  0
TABLE
  2
UCS
 70
     0
  0
ENDTAB
  0
TABLE
  2
APPID
 70
     1
  0
APPID
  2
ACAD
 70
     0
  0
ENDTAB
  0
TABLE
  2
DIMSTYLE
 70
     1
  0
DIMSTYLE
  2
IGA
 70
     0
  3

  4

  5

  6
OPEN
  7
OPEN
 40
2.0
 41
2.0
 42
0.5
 43
10.0
 44
1.0
 45
0.0
 46
0.0
 47
1.0
 48
1.0
140
3.0
141
0.0
142
0.0
143
0.03937
144
1.0
145
0.0
146
10.0
147
1.0
 71
     0
 72
     0
 73
     0
 74
     0
 75
     0
 76
     0
 77
     1
 78
     8
170
     0
171
     2
172
     0
173
     1
174
     0
175
     0
176
     0
177
     0
178
     0
  0
ENDTAB
  0
ENDSEC
  0
SECTION
  2
BLOCKS
  0
BLOCK
  8
0
  2
$MODEL_SPACE
 70
     0
 10
0.0
 20
0.0
 30
0.0
  3
$MODEL_SPACE
  1

  0
ENDBLK
  5
1B
  8
0
  0
BLOCK
 67
     1
  8
0
  2
$PAPER_SPACE
 70
     0
 10
0.0
 20
0.0
 30
0.0
  3
$PAPER_SPACE
  1

  0
ENDBLK
  5
18
 67
     1
  8
0
  0
BLOCK
  8
0
  2
_OPEN
 70
     0
 10
0.0
 20
0.0
 30
0.0
  3
_OPEN
  1

  0
LINE
  5
7AE3
  8
0
  6
BYBLOCK
 62
     0
 10
-1.0
 20
0.166667
 30
0.0
 11
0.0
 21
0.0
 31
0.0
  0
LINE
  5
7AE4
  8
0
  6
BYBLOCK
 62
     0
 10
0.0
 20
0.0
 30
0.0
 11
-1.0
 21
-0.166667
 31
0.0
  0
LINE
  5
7AE5
  8
0
  6
BYBLOCK
 62
     0
 10
0.0
 20
0.0
 30
0.0
 11
-1.0
 21
0.0
 31
0.0
  0
ENDBLK
  5
7AE6
  8
0
  0
BLOCK
  8
0
  2
*D1
 70
     1
 10
0.0
 20
0.0
 30
0.0
  3
*D1
  1

  0
LINE
  5
7FA7
  8
3
  6
CONTINUOUS
 62
     0
 10
2171.7078069999998
 20
2638.7266340000001
 30
0.0
 11
2309.7997289999998
 21
2638.7266340000001
 31
0.0
  0
LINE
  5
7FA8
  8
3
  6
CONTINUOUS
 62
     0
 10
2171.7078069999998
 20
2158.7266340000001
 30
0.0
 11
2309.7997289999998
 21
2158.7266340000001
 31
0.0
  0
LINE
  5
7FA9
  8
3
  6
CONTINUOUS
 62
     0
 10
2289.7997289999998
 20
2598.7266340000001
 30
0.0
 11
2289.7997289999998
 21
2198.7266340000001
 31
0.0
  0
INSERT
  5
7FAA
  8
3
  6
CONTINUOUS
 62
     0
  2
_OPEN
 10
2289.7997289999998
 20
2638.7266340000001
 30
0.0
 41
40.0
 42
40.0
 43
40.0
 50
90.0
  0
INSERT
  5
7FAB
  8
3
  6
CONTINUOUS
 62
     0
  2
_OPEN
 10
2289.7997289999998
 20
2158.7266340000001
 30
0.0
 41
40.0
 42
40.0
 43
40.0
 50
270.0
  0
TEXT
  8
3
  40
60
  5
8030
  62
0
  72
0
  71
0
 10
2119.80
 20
2286.86
 30
0.000000
  1
480
  0
POINT
  5
7FAD
  8
DEFPOINTS
  6
CONTINUOUS
 62
     0
 10
2161.7078069999998
 20
2638.7266340000001
 30
0.0
  0
POINT
  5
7FAE
  8
DEFPOINTS
  6
CONTINUOUS
 62
     0
 10
2161.7078069999998
 20
2158.7266340000001
 30
0.0
  0
POINT
  5
7FAF
  8
DEFPOINTS
  6
CONTINUOUS
 62
     0
 10
2289.7997289999998
 20
2158.7266340000001
 30
0.0
  0
ENDBLK
  5
7BA0
  8
0
  0
BLOCK
  8
0
  2
*D2
 70
     1
 10
0.0
 20
0.0
 30
0.0
  3
*D2
  1

  0
LINE
  5
7FB0
  8
3
  6
CONTINUOUS
 62
     0
 10
2171.7078069999998
 20
2638.7266340000001
 30
0.0
 11
2418.3869460000001
 21
2638.7266340000001
 31
0.0
  0
LINE
  5
7FB1
  8
3
  6
CONTINUOUS
 62
     0
 10
2275.175326
 20
2176.7266340000001
 30
0.0
 11
2418.3869460000001
 21
2176.7266340000001
 31
0.0
  0
LINE
  5
7FB2
  8
3
  6
CONTINUOUS
 62
     0
 10
2398.3869460000001
 20
2598.7266340000001
 30
0.0
 11
2398.3869460000001
 21
2216.7266340000001
 31
0.0
  0
INSERT
  5
7FB3
  8
3
  6
CONTINUOUS
 62
     0
  2
_OPEN
 10
2398.3869460000001
 20
2638.7266340000001
 30
0.0
 41
40.0
 42
40.0
 43
40.0
 50
90.0
  0
INSERT
  5
7FB4
  8
3
  6
CONTINUOUS
 62
     0
  2
_OPEN
 10
2398.3869460000001
 20
2176.7266340000001
 30
0.0
 41
40.0
 42
40.0
 43
40.0
 50
270.0
  0
TEXT
  8
3
  40
60
  5
8031
  62
0
  72
0
  71
0
 10
2228.39
 20
2277.82
 30
0.000000
  1
462
  0
POINT
  5
7FB6
  8
DEFPOINTS
  6
CONTINUOUS
 62
     0
 10
2161.7078069999998
 20
2638.7266340000001
 30
0.0
  0
POINT
  5
7FB7
  8
DEFPOINTS
  6
CONTINUOUS
 62
     0
 10
2265.175326
 20
2176.7266340000001
 30
0.0
  0
POINT
  5
7FB8
  8
DEFPOINTS
  6
CONTINUOUS
 62
     0
 10
2398.3869460000001
 20
2176.7266340000001
 30
0.0
  0
ENDBLK
  5
7B8B
  8
0
  0
BLOCK
  8
0
  2
*D3
 70
     1
 10
0.0
 20
0.0
 30
0.0
  3
*D3
  1

  0
LINE
  5
7FB9
  8
3
  6
CONTINUOUS
 62
     0
 10
2116.7078069999998
 20
1741.726633999999
 30
0.0
 11
2418.3869460000001
 21
1741.726633999999
 31
0.0
  0
LINE
  5
7FBA
  8
3
  6
CONTINUOUS
 62
     0
 10
2398.3869460000001
 20
2136.7266339999992
 30
0.0
 11
2398.3869460000001
 21
1781.726633999999
 31
0.0
  0
INSERT
  5
7FBB
  8
3
  6
CONTINUOUS
 62
     0
  2
_OPEN
 10
2398.3869460000001
 20
2176.7266340000001
 30
0.0
 41
40.0
 42
40.0
 43
40.0
 50
90.0
  0
INSERT
  5
7FBC
  8
3
  6
CONTINUOUS
 62
     0
  2
_OPEN
 10
2398.3869460000001
 20
1741.726633999999
 30
0.0
 41
40.0
 42
40.0
 43
40.0
 50
270.0
  0
TEXT
  8
3
  40
60
  5
8032
  62
0
  72
0
  71
0
 10
2228.39
 20
1853.03
 30
0.000000
  1
435
  0
POINT
  5
7FBE
  8
DEFPOINTS
  6
CONTINUOUS
 62
     0
 10
2265.175326
 20
2176.7266340000001
 30
0.0
  0
POINT
  5
7FBF
  8
DEFPOINTS
  6
CONTINUOUS
 62
     0
 10
2106.7078069999998
 20
1741.726633999999
 30
0.0
  0
POINT
  5
7FC0
  8
DEFPOINTS
  6
CONTINUOUS
 62
     0
 10
2398.3869460000001
 20
1741.726633999999
 30
0.0
  0
ENDBLK
  5
7B1A
  8
0
  0
BLOCK
  8
0
  2
*D4
 70
     1
 10
0.0
 20
0.0
 30
0.0
  3
*D4
  1

  0
LINE
  5
7FC1
  8
3
  6
CONTINUOUS
 62
     0
 10
2161.7078069999998
 20
2665.7266340000001
 30
0.0
 11
2161.7078069999998
 21
2764.658997999999
 31
0.0
  0
LINE
  5
7FC2
  8
3
  6
CONTINUOUS
 62
     0
 10
1806.707807
 20
2729.3803480000001
 30
0.0
 11
1806.707807
 21
2764.658997999999
 31
0.0
  0
LINE
  5
7FC3
  8
3
  6
CONTINUOUS
 62
     0
 10
2121.7078069999998
 20
2744.6589979999999
 30
0.0
 11
1846.7078069999991
 21
2744.6589979999999
 31
0.0
  0
INSERT
  5
7FC4
  8
3
  6
CONTINUOUS
 62
     0
  2
_OPEN
 10
2161.7078069999998
 20
2744.6589979999999
 30
0.0
 41
40.0
 42
40.0
 43
40.0
  0
INSERT
  5
7FC5
  8
3
  6
CONTINUOUS
 62
     0
  2
_OPEN
 10
1806.707807
 20
2744.6589979999999
 30
0.0
 41
40.0
 42
40.0
 43
40.0
 50
180.0
  0
TEXT
  8
3
  40
60
  5
8033
  62
0
  72
0
  71
0
 10
1862.14
 20
2688.46
 30
0.000000
  1
355
  0
POINT
  5
7FC7
  8
DEFPOINTS
  6
CONTINUOUS
 62
     0
 10
2161.7078069999998
 20
2655.7266340000001
 30
0.0
  0
POINT
  5
7FC8
  8
DEFPOINTS
  6
CONTINUOUS
 62
     0
 10
1806.707807
 20
2719.3803480000001
 30
0.0
  0
POINT
  5
7FC9
  8
DEFPOINTS
  6
CONTINUOUS
 62
     0
 10
1806.707807
 20
2744.6589979999999
 30
0.0
  0
ENDBLK
  5
7B44
  8
0
  0
BLOCK
  8
0
  2
*D5
 70
     1
 10
0.0
 20
0.0
 30
0.0
  3
*D5
  1

  0
LINE
  5
7FCA
  8
3
  6
CONTINUOUS
 62
     0
 10
1396.707807
 20
2541.7266340000001
 30
0.0
 11
1396.707807
 21
2764.658997999999
 31
0.0
  0
LINE
  5
7FCB
  8
3
  6
CONTINUOUS
 62
     0
 10
1766.7078069999991
 20
2744.6589979999999
 30
0.0
 11
1436.707807
 21
2744.6589979999999
 31
0.0
  0
INSERT
  5
7FCC
  8
3
  6
CONTINUOUS
 62
     0
  2
_OPEN
 10
1806.707807
 20
2744.6589979999999
 30
0.0
 41
40.0
 42
40.0
 43
40.0
  0
INSERT
  5
7FCD
  8
3
  6
CONTINUOUS
 62
     0
  2
_OPEN
 10
1396.707807
 20
2744.6589979999999
 30
0.0
 41
40.0
 42
40.0
 43
40.0
 50
180.0
  0
TEXT
  8
3
  40
60
  5
8034
  62
0
  72
0
  71
0
 10
1481.71
 20
2688.46
 30
0.000000
  1
410
  0
POINT
  5
7FCF
  8
DEFPOINTS
  6
CONTINUOUS
 62
     0
 10
1806.707807
 20
2719.3803480000001
 30
0.0
  0
POINT
  5
7FD0
  8
DEFPOINTS
  6
CONTINUOUS
 62
     0
 10
1396.707807
 20
2531.7266340000001
 30
0.0
  0
POINT
  5
7FD1
  8
DEFPOINTS
  6
CONTINUOUS
 62
     0
 10
1396.707807
 20
2744.6589979999999
 30
0.0
  0
ENDBLK
  5
7B95
  8
0
  0
BLOCK
  8
0
  2
*D6
 70
     1
 10
0.0
 20
0.0
 30
0.0
  3
*D6
  1

  0
LINE
  5
7FD2
  8
3
  6
CONTINUOUS
 62
     0
 10
3495.7586609999989
 20
2675.7266340000001
 30
0.0
 11
3495.7586609999989
 21
2796.2615959999998
 31
0.0
  0
LINE
  5
7FD3
  8
3
  6
CONTINUOUS
 62
     0
 10
3135.7586609999998
 20
2675.7266340000001
 30
0.0
 11
3135.7586609999998
 21
2796.2615959999998
 31
0.0
  0
LINE
  5
7FD4
  8
3
  6
CONTINUOUS
 62
     0
 10
3455.7586609999998
 20
2776.2615959999998
 30
0.0
 11
3175.7586609999998
 21
2776.2615959999998
 31
0.0
  0
INSERT
  5
7FD5
  8
3
  6
CONTINUOUS
 62
     0
  2
_OPEN
 10
3495.7586609999989
 20
2776.2615959999998
 30
0.0
 41
40.0
 42
40.0
 43
40.0
  0
INSERT
  5
7FD6
  8
3
  6
CONTINUOUS
 62
     0
  2
_OPEN
 10
3135.7586609999998
 20
2776.2615959999998
 30
0.0
 41
40.0
 42
40.0
 43
40.0
 50
180.0
  0
TEXT
  8
3
  40
60
  5
8035
  62
0
  72
0
  71
0
 10
3196.85
 20
2720.06
 30
0.000000
  1
360
  0
POINT
  5
7FD8
  8
DEFPOINTS
  6
CONTINUOUS
 62
     0
 10
3495.7586609999989
 20
2665.7266340000001
 30
0.0
  0
POINT
  5
7FD9
  8
DEFPOINTS
  6
CONTINUOUS
 62
     0
 10
3135.7586609999998
 20
2665.7266340000001
 30
0.0
  0
POINT
  5
7FDA
  8
DEFPOINTS
  6
CONTINUOUS
 62
     0
 10
3135.7586609999998
 20
2776.2615959999998
 30
0.0
  0
ENDBLK
  5
7DCF
  8
0
  0
BLOCK
  8
0
  2
*D7
 70
     1
 10
0.0
 20
0.0
 30
0.0
  3
*D7
  1

  0
LINE
  5
7FDB
  8
3
  6
CONTINUOUS
 62
     0
 10
3506.7586609999998
 20
2426.7266340000001
 30
0.0
 11
3680.7133480000002
 21
2426.7266340000001
 31
0.0
  0
LINE
  5
7FDC
  8
3
  6
CONTINUOUS
 62
     0
 10
3506.7586609999998
 20
1926.726633999999
 30
0.0
 11
3680.7133480000002
 21
1926.726633999999
 31
0.0
  0
LINE
  5
7FDD
  8
3
  6
CONTINUOUS
 62
     0
 10
3660.7133480000002
 20
2386.7266339999992
 30
0.0
 11
3660.7133480000002
 21
1966.726633999999
 31
0.0
  0
INSERT
  5
7FDE
  8
3
  6
CONTINUOUS
 62
     0
  2
_OPEN
 10
3660.7133480000002
 20
2426.7266340000001
 30
0.0
 41
40.0
 42
40.0
 43
40.0
 50
90.0
  0
INSERT
  5
7FDF
  8
3
  6
CONTINUOUS
 62
     0
  2
_OPEN
 10
3660.7133480000002
 20
1926.726633999999
 30
0.0
 41
40.0
 42
40.0
 43
40.0
 50
270.0
  0
TEXT
  8
3
  40
60
  5
8036
  62
0
  72
0
  71
0
 10
3490.71
 20
2078.94
 30
0.000000
  1
φ500
  0
POINT
  5
7FE1
  8
DEFPOINTS
  6
CONTINUOUS
 62
     0
 10
3496.7586609999989
 20
2426.7266340000001
 30
0.0
  0
POINT
  5
7FE2
  8
DEFPOINTS
  6
CONTINUOUS
 62
     0
 10
3496.7586609999989
 20
1926.726633999999
 30
0.0
  0
POINT
  5
7FE3
  8
DEFPOINTS
  6
CONTINUOUS
 62
     0
 10
3660.7133480000002
 20
1926.726633999999
 30
0.0
  0
ENDBLK
  5
7E26
  8
0
  0
BLOCK
  8
0
  2
*D8
 70
     1
 10
0.0
 20
0.0
 30
0.0
  3
*D8
  1

  0
LINE
  5
7E56
  8
0
  6
BYBLOCK
 62
     0
 10
3496.7586609999989
 20
2436.7266340000001
 30
0.0
 11
3496.7586609999989
 21
2922.8209529999999
 31
0.0
  0
LINE
  5
7E57
  8
0
  6
BYBLOCK
 62
     0
 10
3315.7586609999989
 20
2889.2910750000001
 30
0.0
 11
3315.7586609999989
 21
2922.8209529999999
 31
0.0
  0
LINE
  5
7E58
  8
0
  6
BYBLOCK
 62
     0
 10
3456.7586609999998
 20
2902.820952999999
 30
0.0
 11
3355.7586609999998
 21
2902.820952999999
 31
0.0
  0
TEXT
  5
7E59
  8
3
 62
     0
 10
3347.687232428571
 20
2921.5831387150188
 30
0.0
 40
60.0
  1
181
  0
INSERT
  5
7E5A
  8
0
  6
BYBLOCK
 62
     0
  2
_OPEN
 10
3496.7586609999989
 20
2902.820952999999
 30
0.0
 41
40.0
 42
40.0
 43
40.0
  0
INSERT
  5
7E5B
  8
0
  6
BYBLOCK
 62
     0
  2
_OPEN
 10
3315.7586609999989
 20
2902.820952999999
 30
0.0
 41
40.0
 42
40.0
 43
40.0
 50
180.0
  0
POINT
  5
7E5C
  8
DEFPOINTS
  6
BYBLOCK
 62
     0
 10
3496.7586609999989
 20
2426.7266340000001
 30
0.0
  0
POINT
  5
7E5D
  8
DEFPOINTS
  6
BYBLOCK
 62
     0
 10
3315.7586609999989
 20
2879.2910750000001
 30
0.0
  0
POINT
  5
7E5E
  8
DEFPOINTS
  6
BYBLOCK
 62
     0
 10
3315.7586609999989
 20
2902.820952999999
 30
0.0
  0
ENDBLK
  5
7E5F
  8
0
  0
BLOCK
  8
0
  2
*D9
 70
     1
 10
0.0
 20
0.0
 30
0.0
  3
*D9
  1

  0
LINE
  5
7FE4
  8
3
  6
CONTINUOUS
 62
     0
 10
2945.7586609999998
 20
2576.7266340000001
 30
0.0
 11
2945.7586609999998
 21
2922.8209529999999
 31
0.0
  0
LINE
  5
7FE5
  8
3
  6
CONTINUOUS
 62
     0
 10
3275.7586609999989
 20
2902.820952999999
 30
0.0
 11
2985.7586609999998
 21
2902.820952999999
 31
0.0
  0
INSERT
  5
7FE6
  8
3
  6
CONTINUOUS
 62
     0
  2
_OPEN
 10
3315.7586609999989
 20
2902.820952999999
 30
0.0
 41
40.0
 42
40.0
 43
40.0
  0
INSERT
  5
7FE7
  8
3
  6
CONTINUOUS
 62
     0
  2
_OPEN
 10
2945.7586609999998
 20
2902.820952999999
 30
0.0
 41
40.0
 42
40.0
 43
40.0
 50
180.0
  0
TEXT
  8
3
  40
60
  5
8037
  62
0
  72
0
  71
0
 10
3010.76
 20
2896.62
 30
0.000000
  1
MAX
  0
TEXT
  8
3
  40
60
  5
8038
  62
0
  72
0
  71
0
 10
3010.76
 20
2818.62
 30
0.000000
  1
430
  0
POINT
  5
7FE9
  8
DEFPOINTS
  6
CONTINUOUS
 62
     0
 10
3315.7586609999989
 20
2879.2910750000001
 30
0.0
  0
POINT
  5
7FEA
  8
DEFPOINTS
  6
CONTINUOUS
 62
     0
 10
2945.7586609999998
 20
2566.7266340000001
 30
0.0
  0
POINT
  5
7FEB
  8
DEFPOINTS
  6
CONTINUOUS
 62
     0
 10
2945.7586609999998
 20
2902.820952999999
 30
0.0
  0
ENDBLK
  5
7E1B
  8
0
  0
BLOCK
  8
0
  2
*D10
 70
     1
 10
0.0
 20
0.0
 30
0.0
  3
*D10
  1

  0
LINE
  5
7FEC
  8
3
  6
CONTINUOUS
 62
     0
 10
986.70780699999989
 20
4013.8566340000002
 30
0.0
 11
986.70780699999989
 21
4194.6137589999998
 31
0.0
  0
LINE
  5
7FED
  8
3
  6
CONTINUOUS
 62
     0
 10
2106.7078069999998
 20
4013.8566340000002
 30
0.0
 11
2106.7078069999998
 21
4194.6137589999998
 31
0.0
  0
LINE
  5
7FEE
  8
3
  6
CONTINUOUS
 62
     0
 10
1026.7078069999991
 20
4174.6137590000008
 30
0.0
 11
2066.7078069999998
 21
4174.6137590000008
 31
0.0
  0
INSERT
  5
7FEF
  8
3
  6
CONTINUOUS
 62
     0
  2
_OPEN
 10
986.70780699999989
 20
4174.6137590000008
 30
0.0
 41
40.0
 42
40.0
 43
40.0
 50
180.0
  0
INSERT
  5
7FF0
  8
3
  6
CONTINUOUS
 62
     0
  2
_OPEN
 10
2106.7078069999998
 20
4174.6137590000008
 30
0.0
 41
40.0
 42
40.0
 43
40.0
  0
TEXT
  8
3
  40
60
  5
8039
  62
0
  72
0
  71
0
 10
1414.21
 20
4118.41
 30
0.000000
  1
1120
  0
POINT
  5
7FF2
  8
DEFPOINTS
  6
CONTINUOUS
 62
     0
 10
986.70780699999989
 20
4003.8566340000002
 30
0.0
  0
POINT
  5
7FF3
  8
DEFPOINTS
  6
CONTINUOUS
 62
     0
 10
2106.7078069999998
 20
4003.8566340000002
 30
0.0
  0
POINT
  5
7FF4
  8
DEFPOINTS
  6
CONTINUOUS
 62
     0
 10
2106.7078069999998
 20
4174.6137590000008
 30
0.0
  0
ENDBLK
  5
7DB7
  8
0
  0
BLOCK
  8
0
  2
*D11
 70
     1
 10
0.0
 20
0.0
 30
0.0
  3
*D11
  1

  0
LINE
  5
7FF5
  8
3
  6
CONTINUOUS
 62
     0
 10
976.707807
 20
4003.8566340000002
 30
0.0
 11
821.33728100000076
 21
4003.8566340000002
 31
0.0
  0
LINE
  5
7FF6
  8
3
  6
CONTINUOUS
 62
     0
 10
976.707807
 20
3555.8566340000002
 30
0.0
 11
821.33728100000064
 21
3555.8566340000002
 31
0.0
  0
LINE
  5
7FF7
  8
3
  6
CONTINUOUS
 62
     0
 10
841.33728100000064
 20
3963.8566340000002
 30
0.0
 11
841.33728100000064
 21
3595.8566340000002
 31
0.0
  0
INSERT
  5
7FF8
  8
3
  6
CONTINUOUS
 62
     0
  2
_OPEN
 10
841.33728100000064
 20
4003.8566340000002
 30
0.0
 41
40.0
 42
40.0
 43
40.0
 50
90.0
  0
INSERT
  5
7FF9
  8
3
  6
CONTINUOUS
 62
     0
  2
_OPEN
 10
841.33728100000064
 20
3555.8566340000002
 30
0.0
 41
40.0
 42
40.0
 43
40.0
 50
270.0
  0
TEXT
  8
3
  40
60
  5
803A
  62
0
  72
0
  71
0
 10
671.337
 20
3654.12
 30
0.000000
  1
448
  0
POINT
  5
7FFB
  8
DEFPOINTS
  6
CONTINUOUS
 62
     0
 10
986.70780699999989
 20
4003.8566340000002
 30
0.0
  0
POINT
  5
7FFC
  8
DEFPOINTS
  6
CONTINUOUS
 62
     0
 10
986.70780699999989
 20
3555.8566340000002
 30
0.0
  0
POINT
  5
7FFD
  8
DEFPOINTS
  6
CONTINUOUS
 62
     0
 10
841.33728100000064
 20
3555.8566340000002
 30
0.0
  0
ENDBLK
  5
7DAC
  8
0
  0
BLOCK
  8
0
  2
*D12
 70
     1
 10
0.0
 20
0.0
 30
0.0
  3
*D12
  1

  0
LINE
  5
7FFE
  8
3
 62
     0
 10
986.70780699999989
 20
1571.7266340000001
 30
0.0
 11
986.70780699999989
 21
1421.624854989891
 31
0.0
  0
LINE
  5
7FFF
  8
3
 62
     0
 10
1806.7078069999991
 20
1571.7266340000001
 30
0.0
 11
1806.7078069999991
 21
1421.624854989891
 31
0.0
  0
LINE
  5
8000
  8
3
 62
     0
 10
1026.7078069999991
 20
1441.6248549898919
 30
0.0
 11
1766.7078069999991
 21
1441.6248549898919
 31
0.0
  0
INSERT
  5
8001
  8
3
 62
     0
  2
_OPEN
 10
986.70780699999989
 20
1441.6248549898919
 30
0.0
 41
40.0
 42
40.0
 43
40.0
 50
180.0
  0
INSERT
  5
8002
  8
3
 62
     0
  2
_OPEN
 10
1806.7078069999991
 20
1441.6248549898919
 30
0.0
 41
40.0
 42
40.0
 43
40.0
  0
TEXT
  8
3
  40
60
  5
803B
  62
0
  72
0
  71
0
 10
1276.71
 20
1385.42
 30
0.000000
  1
820
  0
POINT
  5
8004
  8
DEFPOINTS
 62
     0
 10
986.70780699999989
 20
1581.726633999999
 30
0.0
  0
POINT
  5
8005
  8
DEFPOINTS
 62
     0
 10
1806.7078069999991
 20
1581.7266340000001
 30
0.0
  0
POINT
  5
8006
  8
DEFPOINTS
 62
     0
 10
1806.7078069999991
 20
1441.6248549898919
 30
0.0
  0
ENDBLK
  5
7E73
  8
0
  0
BLOCK
  8
0
  2
*D13
 70
     1
 10
0.0
 20
0.0
 30
0.0
  3
*D13
  1

  0
LINE
  5
8007
  8
3
 62
     0
 10
1806.7078069999991
 20
1571.7266340000001
 30
0.0
 11
1806.7078069999991
 21
1421.624854989891
 31
0.0
  0
LINE
  5
8008
  8
3
 62
     0
 10
2106.7078069999998
 20
1571.7266340000001
 30
0.0
 11
2106.7078069999998
 21
1421.624854989891
 31
0.0
  0
LINE
  5
8009
  8
3
 62
     0
 10
1846.7078069999991
 20
1441.6248549898919
 30
0.0
 11
2066.7078069999998
 21
1441.6248549898919
 31
0.0
  0
INSERT
  5
800A
  8
3
 62
     0
  2
_OPEN
 10
1806.7078069999991
 20
1441.6248549898919
 30
0.0
 41
40.0
 42
40.0
 43
40.0
 50
180.0
  0
INSERT
  5
800B
  8
3
 62
     0
  2
_OPEN
 10
2106.7078069999998
 20
1441.6248549898919
 30
0.0
 41
40.0
 42
40.0
 43
40.0
  0
TEXT
  8
3
  40
60
  5
803C
  62
0
  72
0
  71
0
 10
1836.71
 20
1385.42
 30
0.000000
  1
300
  0
POINT
  5
800D
  8
DEFPOINTS
 62
     0
 10
1806.7078069999991
 20
1581.7266340000001
 30
0.0
  0
POINT
  5
800E
  8
DEFPOINTS
 62
     0
 10
2106.7078069999998
 20
1581.726633999999
 30
0.0
  0
POINT
  5
800F
  8
DEFPOINTS
 62
     0
 10
2106.7078069999998
 20
1441.6248549898919
 30
0.0
  0
ENDBLK
  5
7E80
  8
0
  0
BLOCK
  8
0
  2
*D14
 70
     1
 10
0.0
 20
0.0
 30
0.0
  3
*D14
  1

  0
LINE
  5
8010
  8
3
 62
     0
 10
3091.7586609999998
 20
1571.7266340000001
 30
0.0
 11
3091.7586609999998
 21
1421.624854989891
 31
0.0
  0
LINE
  5
8011
  8
3
 62
     0
 10
3315.7586609999989
 20
1571.7266340000001
 30
0.0
 11
3315.7586609999989
 21
1421.624854989891
 31
0.0
  0
LINE
  5
8012
  8
3
 62
     0
 10
3131.7586609999998
 20
1441.6248549898919
 30
0.0
 11
3275.7586609999989
 21
1441.6248549898919
 31
0.0
  0
INSERT
  5
8013
  8
3
 62
     0
  2
_OPEN
 10
3091.7586609999998
 20
1441.6248549898919
 30
0.0
 41
40.0
 42
40.0
 43
40.0
 50
180.0
  0
INSERT
  5
8014
  8
3
 62
     0
  2
_OPEN
 10
3315.7586609999989
 20
1441.6248549898919
 30
0.0
 41
40.0
 42
40.0
 43
40.0
  0
TEXT
  8
3
  40
60
  5
803D
  62
0
  72
0
  71
0
 10
3083.76
 20
1385.42
 30
0.000000
  1
224
  0
POINT
  5
8016
  8
DEFPOINTS
 62
     0
 10
3091.7586609999998
 20
1581.726633999999
 30
0.0
  0
POINT
  5
8017
  8
DEFPOINTS
 62
     0
 10
3315.7586609999989
 20
1581.726633999999
 30
0.0
  0
POINT
  5
8018
  8
DEFPOINTS
 62
     0
 10
3315.7586609999989
 20
1441.6248549898919
 30
0.0
  0
ENDBLK
  5
7E8F
  8
0
  0
BLOCK
  8
0
  2
*D15
 70
     1
 10
0.0
 20
0.0
 30
0.0
  3
*D15
  1

  0
LINE
  5
8019
  8
3
 62
     0
 10
3315.7586609999989
 20
1571.7266340000001
 30
0.0
 11
3315.7586609999989
 21
1421.624854989891
 31
0.0
  0
LINE
  5
801A
  8
3
 62
     0
 10
3539.7586609999998
 20
1571.7266340000001
 30
0.0
 11
3539.7586609999998
 21
1421.624854989891
 31
0.0
  0
LINE
  5
801B
  8
3
 62
     0
 10
3355.7586609999998
 20
1441.6248549898919
 30
0.0
 11
3499.7586609999989
 21
1441.6248549898919
 31
0.0
  0
INSERT
  5
801C
  8
3
 62
     0
  2
_OPEN
 10
3315.7586609999989
 20
1441.6248549898919
 30
0.0
 41
40.0
 42
40.0
 43
40.0
 50
180.0
  0
INSERT
  5
801D
  8
3
 62
     0
  2
_OPEN
 10
3539.7586609999998
 20
1441.6248549898919
 30
0.0
 41
40.0
 42
40.0
 43
40.0
  0
TEXT
  8
3
  40
60
  5
803E
  62
0
  72
0
  71
0
 10
3307.76
 20
1385.42
 30
0.000000
  1
224
  0
POINT
  5
801F
  8
DEFPOINTS
 62
     0
 10
3315.7586609999989
 20
1581.726633999999
 30
0.0
  0
POINT
  5
8020
  8
DEFPOINTS
 62
     0
 10
3539.7586609999998
 20
1581.726633999999
 30
0.0
  0
POINT
  5
8021
  8
DEFPOINTS
 62
     0
 10
3539.7586609999998
 20
1441.6248549898919
 30
0.0
  0
ENDBLK
  5
7E9E
  8
0
  0
BLOCK
  8
0
  2
_DOT
 70
     0
 10
0.0
 20
0.0
 30
0.0
  3
_DOT
  1

  0
POLYLINE
  5
7EA2
  8
0
  6
BYBLOCK
 62
     0
 66
     1
 10
0.0
 20
0.0
 30
0.0
 70
     1
 40
0.5
 41
0.5
  0
VERTEX
  5
8022
  8
0
  6
BYBLOCK
 62
     0
 10
-0.25
 20
0.0
 30
0.0
 42
1.0
  0
VERTEX
  5
8023
  8
0
  6
BYBLOCK
 62
     0
 10
0.25
 20
0.0
 30
0.0
 42
1.0
  0
SEQEND
  5
8024
  8
0
  6
BYBLOCK
 62
     0
  0
LINE
  5
7EA6
  8
0
  6
BYBLOCK
 62
     0
 10
-0.5
 20
0.0
 30
0.0
 11
-1.0
 21
0.0
 31
0.0
  0
ENDBLK
  5
7EA7
  8
0
  0
BLOCK
  8
0
  2
*D17
 70
     1
 10
0.0
 20
0.0
 30
0.0
  3
*D17
  1

  0
LINE
  5
8025
  8
3
 62
     0
 10
2116.7078069999998
 20
1646.7266340000001
 30
0.0
 11
2419.8275776329569
 21
1646.7266340000001
 31
0.0
  0
LINE
  5
8026
  8
3
 62
     0
 10
2116.7078069999998
 20
1581.726633999999
 30
0.0
 11
2419.8275776329569
 21
1581.726633999999
 31
0.0
  0
LINE
  5
8027
  8
3
 62
     0
 10
2399.8275776329569
 20
1686.7266340000001
 30
0.0
 11
2399.8275776329569
 21
1726.7266340000001
 31
0.0
  0
LINE
  5
8028
  8
3
 62
     0
 10
2399.8275776329569
 20
1541.726633999999
 30
0.0
 11
2399.8275776329569
 21
1364.5837768571421
 31
0.0
  0
LINE
  5
8029
  8
3
 62
     0
 10
2399.8275776329569
 20
1646.7266340000001
 30
0.0
 11
2399.8275776329569
 21
1581.726633999999
 31
0.0
  0
INSERT
  5
802A
  8
3
 62
     0
  2
_DOT
 10
2399.8275776329569
 20
1646.7266340000001
 30
0.0
 41
40.0
 42
40.0
 43
40.0
 50
270.0
  0
INSERT
  5
802B
  8
3
 62
     0
  2
_OPEN
 10
2399.8275776329569
 20
1581.726633999999
 30
0.0
 41
40.0
 42
40.0
 43
40.0
 50
90.0
  0
TEXT
  8
3
  40
60
  5
803F
  62
0
  72
0
  71
0
 10
2229.83
 20
1326.96
 30
0.000000
  1
65
  0
POINT
  5
802D
  8
DEFPOINTS
 62
     0
 10
2106.7078069999998
 20
1646.7266340000001
 30
0.0
  0
POINT
  5
802E
  8
DEFPOINTS
 62
     0
 10
2106.7078069999998
 20
1581.726633999999
 30
0.0
  0
POINT
  5
802F
  8
DEFPOINTS
 62
     0
 10
2399.8275776329569
 20
1581.726633999999
 30
0.0
  0
ENDBLK
  5
7EB5
  8
0
  0
BLOCK
  8
0
  2
*D18
 70
     1
 10
0.0
 20
0.0
 30
0.0
  3
*D18
  1

  0
LINE
  5
7EB9
  8
0
  6
BYBLOCK
 62
     0
 10
2116.7078069999998
 20
1646.7266340000001
 30
0.0
 11
2419.8275776329569
 21
1646.7266340000001
 31
0.0
  0
LINE
  5
7EBA
  8
0
  6
BYBLOCK
 62
     0
 10
2116.7078069999998
 20
1741.726633999999
 30
0.0
 11
2419.8275776329569
 21
1741.726633999999
 31
0.0
  0
LINE
  5
7EBB
  8
0
  6
BYBLOCK
 62
     0
 10
2399.8275776329569
 20
1606.7266340000001
 30
0.0
 11
2399.8275776329569
 21
1566.7266340000001
 31
0.0
  0
LINE
  5
7EBC
  8
0
  6
BYBLOCK
 62
     0
 10
2399.8275776329569
 20
1781.726633999999
 30
0.0
 11
2399.8275776329569
 21
1821.7266340000001
 31
0.0
  0
TEXT
  5
7EBD
  8
3
 62
     0
 10
2515.5418633472432
 20
1607.083776857143
 30
0.0
 40
60.0
  1
(95)
 50
90.0
  0
LINE
  5
7EBE
  8
0
  6
BYBLOCK
 62
     0
 10
2399.8275776329569
 20
1646.7266340000001
 30
0.0
 11
2399.8275776329569
 21
1741.726633999999
 31
0.0
  0
INSERT
  5
7EBF
  8
0
  6
BYBLOCK
 62
     0
  2
_DOT
 10
2399.8275776329569
 20
1646.7266340000001
 30
0.0
 41
40.0
 42
40.0
 43
40.0
 50
90.0
  0
INSERT
  5
7EC0
  8
0
  6
BYBLOCK
 62
     0
  2
_OPEN
 10
2399.8275776329569
 20
1741.726633999999
 30
0.0
 41
40.0
 42
40.0
 43
40.0
 50
270.0
  0
POINT
  5
7EC1
  8
DEFPOINTS
  6
BYBLOCK
 62
     0
 10
2106.7078069999998
 20
1646.7266340000001
 30
0.0
  0
POINT
  5
7EC2
  8
DEFPOINTS
  6
BYBLOCK
 62
     0
 10
2106.7078069999998
 20
1741.726633999999
 30
0.0
  0
POINT
  5
7EC3
  8
DEFPOINTS
  6
BYBLOCK
 62
     0
 10
2399.8275776329569
 20
1741.726633999999
 30
0.0
  0
ENDBLK
  5
7EC4
  8
0
  0
ENDSEC
  0
SECTION
  2
ENTITIES
  0
LINE
  5
7A71
  8
1
  6
CONTINUOUS
 10
986.70780699999989
 20
1741.726633999999
 30
0.0
 11
2106.7078069999998
 21
1741.726633999999
 31
0.0
  0
LINE
  5
7A72
  8
1
  6
CONTINUOUS
 10
986.70780699999989
 20
1821.7266340000001
 30
0.0
 11
2116.7078069999998
 21
1821.7266340000001
 31
0.0
  0
LINE
  5
7A73
  8
1
  6
CONTINUOUS
 10
986.70780699999989
 20
1581.726633999999
 30
0.0
 11
2106.7078069999998
 21
1581.726633999999
 31
0.0
  0
LINE
  5
7A74
  8
1
  6
CONTINUOUS
 10
986.70780699999989
 20
1646.7266340000001
 30
0.0
 11
2106.7078069999998
 21
1646.7266340000001
 31
0.0
  0
ARC
  5
7A75
  8
1
  6
CONTINUOUS
 10
1203.427807
 20
2003.726633999999
 30
0.0
 40
122.0
 50
324.60000000000002
 51
215.39999999999989
  0
LINE
  5
7A76
  8
1
  6
CONTINUOUS
 10
1073.427807
 20
1871.726633999999
 30
0.0
 11
1333.427807
 21
1871.726633999999
 31
0.0
  0
LINE
  5
7A77
  8
1
  6
CONTINUOUS
 10
1073.427807
 20
1871.726633999999
 30
0.0
 11
1123.427807
 21
1871.726633999999
 31
0.0
  0
LINE
  5
7A78
  8
1
  6
CONTINUOUS
 10
1073.427807
 20
1871.726633999999
 30
0.0
 11
1103.977807
 21
1933.046634
 31
0.0
  0
POLYLINE
  5
7A79
  8
1
  6
CONTINUOUS
 66
     1
 10
0.0
 20
0.0
 30
0.0
  0
VERTEX
  5
7FA1
  8
1
  6
CONTINUOUS
 10
2032.207807
 20
1821.7266340000001
 30
0.0
  0
VERTEX
  5
7FA2
  8
1
  6
CONTINUOUS
 10
2032.207807
 20
2491.7266340000001
 30
0.0
  0
VERTEX
  5
7FA3
  8
1
  6
CONTINUOUS
 10
1792.207807
 20
2566.7266340000001
 30
0.0
  0
VERTEX
  5
7FA4
  8
1
  6
CONTINUOUS
 10
1032.207807
 20
2056.7266339999992
 30
0.0
  0
VERTEX
  5
7FA5
  8
1
  6
CONTINUOUS
 10
1032.207807
 20
1821.7266340000001
 30
0.0
  0
SEQEND
  5
7FA6
  8
1
  6
CONTINUOUS
  0
LINE
  5
7A80
  8
1
  6
CONTINUOUS
 10
986.70780699999989
 20
1821.7266340000001
 30
0.0
 11
986.70780699999989
 21
1741.726633999999
 31
0.0
  0
LINE
  5
7A81
  8
1
  6
CONTINUOUS
 10
986.70780699999989
 20
1646.7266340000001
 30
0.0
 11
986.70780699999989
 21
1581.726633999999
 31
0.0
  0
LINE
  5
7A82
  8
1
  6
CONTINUOUS
 10
1073.427807
 20
1821.7266340000001
 30
0.0
 11
1073.427807
 21
1871.726633999999
 31
0.0
  0
CIRCLE
  5
7A83
  8
1
  6
CONTINUOUS
 10
1806.707807
 20
2176.7266340000001
 30
0.0
 40
275.0
  0
LINE
  5
7A84
  8
1
  6
CONTINUOUS
 10
1396.707807
 20
2531.7266340000001
 30
0.0
 11
2116.7078069999998
 21
2531.7266340000001
 31
0.0
  0
ARC
  5
7A85
  8
1
  6
CONTINUOUS
 10
1779.707807
 20
2203.7266340000001
 30
0.0
 40
380.98000000000002
 50
184.83999999999989
 51
278.47000000000003
  0
ARC
  5
7A86
  8
1
  6
CONTINUOUS
 10
1829.7874359999989
 20
2207.1900519999999
 30
0.0
 40
431.17249299999992
 50
93.120533999999992
 51
184.73655500000001
  0
ARC
  5
7A87
  8
1
  6
CONTINUOUS
 10
1779.707807
 20
2203.7266340000001
 30
0.0
 40
380.98000000000002
 50
184.83999999999989
 51
278.47000000000003
  0
CIRCLE
  5
7A88
  8
1
  6
CONTINUOUS
 10
1806.707807
 20
2176.7266340000001
 30
0.0
 40
120.0
  0
LINE
  5
7A89
  8
2
  6
CENTER
 10
954.78484800000001
 20
2176.7266340000001
 30
0.0
 11
2265.175326
 21
2176.7266340000001
 31
0.0
  0
LINE
  5
7A8A
  8
1
  6
CONTINUOUS
 10
1184.6178070000001
 20
2059.5166340000001
 30
0.0
 11
1762.5378069999999
 21
2288.2966339999989
 31
0.0
  0
LINE
  5
7A8B
  8
1
  6
CONTINUOUS
 10
1217.717807
 20
1944.7466340000001
 30
0.0
 11
1828.717807
 21
2058.7666340000001
 31
0.0
  0
CIRCLE
  5
7A8C
  8
1
  6
CONTINUOUS
 10
1806.707807
 20
2176.7266340000001
 30
0.0
 40
250.0
  0
LINE
  5
7A8D
  8
1
  6
CONTINUOUS
 10
1396.707807
 20
2531.7266340000001
 30
0.0
 11
1396.707807
 21
1821.7266340000001
 31
0.0
  0
LINE
  5
7A8E
  8
2
  6
CENTER
 10
1146.707807
 20
2003.726633999999
 30
0.0
 11
1266.707807
 21
2003.726633999999
 31
0.0
  0
CIRCLE
  5
7A8F
  8
1
  6
CONTINUOUS
 10
1206.707807
 20
2003.726633999999
 30
0.0
 40
60.0
  0
LINE
  5
7A90
  8
2
  6
CENTER
 10
1206.707807
 20
1943.7266340000001
 30
0.0
 11
1206.707807
 21
2063.7266340000001
 31
0.0
  0
LINE
  5
7A91
  8
1
  6
CONTINUOUS
 10
1333.427807
 20
1871.726633999999
 30
0.0
 11
1302.8678070000001
 21
1933.046634
 31
0.0
  0
LINE
  5
7A92
  8
1
  6
CONTINUOUS
 10
1333.427807
 20
1821.7266340000001
 30
0.0
 11
1333.427807
 21
1871.726633999999
 31
0.0
  0
LINE
  5
7A93
  8
1
  6
CONTINUOUS
 10
1333.427807
 20
1871.726633999999
 30
0.0
 11
1283.427807
 21
1871.726633999999
 31
0.0
  0
LINE
  5
7A94
  8
1
  6
CONTINUOUS
 10
2116.7078069999998
 20
2531.7266340000001
 30
0.0
 11
2116.7078069999998
 21
1821.7266340000001
 31
0.0
  0
LINE
  5
7A95
  8
1
  6
CONTINUOUS
 10
2161.7078069999998
 20
2655.7266340000001
 30
0.0
 11
2161.7078069999998
 21
2141.7266340000001
 31
0.0
  0
LINE
  5
7A96
  8
1
  6
CONTINUOUS
 10
2136.7078069999998
 20
2158.7266340000001
 30
0.0
 11
2136.7078069999998
 21
2638.6566339999999
 31
0.0
  0
LINE
  5
7A97
  8
2
  6
CENTER
 10
1806.707807
 20
4122.8863199999996
 30
0.0
 11
1806.707807
 21
3284.0811979999989
 31
0.0
  0
ARC
  5
7A98
  8
1
  6
CONTINUOUS
 10
1776.246664
 20
2165.597624999999
 30
0.0
 40
343.89392400000003
 50
279.97638799999987
 51
358.85972099999998
  0
LINE
  5
7A99
  8
1
  6
CONTINUOUS
 10
2106.7078069999998
 20
1821.7266340000001
 30
0.0
 11
2106.7078069999998
 21
1741.726633999999
 31
0.0
  0
LINE
  5
7A9A
  8
1
  6
CONTINUOUS
 10
2106.7078069999998
 20
1646.7266340000001
 30
0.0
 11
2106.7078069999998
 21
1581.726633999999
 31
0.0
  0
LINE
  5
7A9B
  8
1
  6
CONTINUOUS
 10
2120.0778070000001
 20
2158.7266340000001
 30
0.0
 11
2161.7078069999998
 21
2158.7266340000001
 31
0.0
  0
LINE
  5
7A9C
  8
1
  6
CONTINUOUS
 10
2161.7078069999998
 20
2638.7266340000001
 30
0.0
 11
1806.3278069999999
 21
2637.7266340000001
 31
0.0
  0
LINE
  5
7A9D
  8
1
  6
CONTINUOUS
 10
986.70780699999989
 20
4003.8566340000002
 30
0.0
 11
2106.7078069999998
 21
4003.8566340000002
 31
0.0
  0
LINE
  5
7A9E
  8
1
  6
CONTINUOUS
 10
986.70780699999989
 20
3555.8566340000002
 30
0.0
 11
1187.7078069999991
 21
3555.8566340000002
 31
0.0
  0
LINE
  5
7A9F
  8
1
  6
CONTINUOUS
 10
1084.707807
 20
3580.096634
 30
0.0
 11
1328.707807
 21
3580.096634
 31
0.0
  0
LINE
  5
7AA0
  8
1
  6
CONTINUOUS
 10
1084.707807
 20
3930.096634
 30
0.0
 11
1328.707807
 21
3930.096634
 31
0.0
  0
LINE
  5
7AA1
  8
1
  6
CONTINUOUS
 10
1032.207807
 20
3409.8566340000002
 30
0.0
 11
2032.207807
 21
3409.8566340000002
 31
0.0
  0
LINE
  5
7AA2
  8
1
  6
CONTINUOUS
 10
2032.207807
 20
3529.8566340000002
 30
0.0
 11
1032.207807
 21
3529.8566340000002
 31
0.0
  0
LINE
  5
7AA3
  8
1
  6
CONTINUOUS
 10
986.70780699999989
 20
4003.8566340000002
 30
0.0
 11
986.70780699999989
 21
3555.8566340000002
 31
0.0
  0
LINE
  5
7AA4
  8
1
  6
CONTINUOUS
 10
1032.207807
 20
3529.8566340000002
 30
0.0
 11
1032.207807
 21
3409.8566340000002
 31
0.0
  0
LINE
  5
7AA5
  8
1
  6
CONTINUOUS
 10
1084.707807
 20
3580.096634
 30
0.0
 11
1084.707807
 21
3930.096634
 31
0.0
  0
LINE
  5
7AA6
  8
1
  6
CONTINUOUS
 10
1686.707807
 20
3439.8566340000002
 30
0.0
 11
1926.707807
 21
3439.8566340000002
 31
0.0
  0
LINE
  5
7AA7
  8
1
  6
CONTINUOUS
 10
1398.5178069999999
 20
3597.8566340000002
 30
0.0
 11
2161.7078069999998
 21
3597.8566340000002
 31
0.0
  0
LINE
  5
7AA8
  8
1
  6
CONTINUOUS
 10
1398.5178069999999
 20
3961.8566340000002
 30
0.0
 11
2161.7078069999998
 21
3961.8566340000002
 31
0.0
  0
LINE
  5
7AA9
  8
1
  6
CONTINUOUS
 10
1225.707807
 20
3555.8566340000002
 30
0.0
 11
1787.707807
 21
3555.8566340000002
 31
0.0
  0
LINE
  5
7AAA
  8
1
  6
CONTINUOUS
 10
1926.707807
 20
3499.8566340000002
 30
0.0
 11
1686.707807
 21
3499.8566340000002
 31
0.0
  0
LINE
  5
7AAB
  8
1
  6
CONTINUOUS
 10
1187.7078069999991
 20
3499.8566340000002
 30
0.0
 11
1187.7078069999991
 21
3580.096634
 31
0.0
  0
LINE
  5
7AAC
  8
1
  6
CONTINUOUS
 10
1225.707807
 20
3499.8566340000002
 30
0.0
 11
1225.707807
 21
3580.096634
 31
0.0
  0
LINE
  5
7AAD
  8
1
  6
CONTINUOUS
 10
1156.707807
 20
3439.8566340000002
 30
0.0
 11
1256.707807
 21
3439.8566340000002
 31
0.0
  0
LINE
  5
7AAE
  8
1
  6
CONTINUOUS
 10
1256.707807
 20
3499.8566340000002
 30
0.0
 11
1156.707807
 21
3499.8566340000002
 31
0.0
  0
LINE
  5
7AAF
  8
1
  6
CONTINUOUS
 10
1156.707807
 20
3499.8566340000002
 30
0.0
 11
1156.707807
 21
3439.8566340000002
 31
0.0
  0
LINE
  5
7AB0
  8
1
  6
CONTINUOUS
 10
1256.707807
 20
3439.8566340000002
 30
0.0
 11
1256.707807
 21
3499.8566340000002
 31
0.0
  0
LINE
  5
7AB1
  8
1
  6
CONTINUOUS
 10
1398.5178069999999
 20
3597.8566340000002
 30
0.0
 11
1398.5178069999999
 21
3961.8566340000002
 31
0.0
  0
LINE
  5
7AB2
  8
1
  6
CONTINUOUS
 10
1328.707807
 20
3580.096634
 30
0.0
 11
1328.707807
 21
3930.096634
 31
0.0
  0
LINE
  5
7AB3
  8
1
  6
CONTINUOUS
 10
1686.707807
 20
3439.8566340000002
 30
0.0
 11
1686.707807
 21
3499.8566340000002
 31
0.0
  0
LINE
  5
7AB4
  8
1
  6
CONTINUOUS
 10
2106.7078069999998
 20
4003.8566340000002
 30
0.0
 11
2106.7078069999998
 21
3961.8566340000002
 31
0.0
  0
LINE
  5
7AB5
  8
1
  6
CONTINUOUS
 10
1825.707807
 20
3555.8566340000002
 30
0.0
 11
2106.7078069999998
 21
3555.8566340000002
 31
0.0
  0
LINE
  5
7AB6
  8
1
  6
CONTINUOUS
 10
1825.707807
 20
3499.8566340000002
 30
0.0
 11
1825.707807
 21
3597.8566340000002
 31
0.0
  0
LINE
  5
7AB7
  8
1
  6
CONTINUOUS
 10
1787.707807
 20
3499.8566340000002
 30
0.0
 11
1787.707807
 21
3597.8566340000002
 31
0.0
  0
LINE
  5
7AB8
  8
1
  6
CONTINUOUS
 10
1926.707807
 20
3439.8566340000002
 30
0.0
 11
1926.707807
 21
3499.8566340000002
 31
0.0
  0
LINE
  5
7AB9
  8
1
  6
CONTINUOUS
 10
2032.207807
 20
3409.8566340000002
 30
0.0
 11
2032.207807
 21
3529.8566340000002
 31
0.0
  0
LINE
  5
7ABA
  8
1
  6
CONTINUOUS
 10
2136.7078069999998
 20
3597.8566340000002
 30
0.0
 11
2136.7078069999998
 21
3961.8566340000002
 31
0.0
  0
LINE
  5
7ABB
  8
1
  6
CONTINUOUS
 10
2161.7078069999998
 20
3572.8566340000002
 30
0.0
 11
2161.7078069999998
 21
3986.8566340000002
 31
0.0
  0
LINE
  5
7ABC
  8
1
  6
CONTINUOUS
 10
2106.7078069999998
 20
3597.8566340000002
 30
0.0
 11
2106.7078069999998
 21
3555.8566340000002
 31
0.0
  0
LINE
  5
7ABD
  8
1
  6
CONTINUOUS
 10
3135.7586609999998
 20
2131.7266340000001
 30
0.0
 11
3495.7586609999989
 21
2665.7266340000001
 31
0.0
  0
LINE
  5
7ABE
  8
1
  6
CONTINUOUS
 10
3495.7586609999989
 20
2131.7266340000001
 30
0.0
 11
3135.7586609999998
 21
2665.7266340000001
 31
0.0
  0
LINE
  5
7ABF
  8
1
  6
CONTINUOUS
 10
3495.7586609999989
 20
2665.7266340000001
 30
0.0
 11
3135.7586609999998
 21
2665.7266340000001
 31
0.0
  0
LINE
  5
7AC0
  8
1
  6
CONTINUOUS
 10
3135.7586609999998
 20
2131.7266340000001
 30
0.0
 11
3495.7586609999989
 21
2131.7266340000001
 31
0.0
  0
LINE
  5
7AC1
  8
1
  6
CONTINUOUS
 10
3091.7586609999998
 20
1741.726633999999
 30
0.0
 11
3539.7586609999998
 21
1741.726633999999
 31
0.0
  0
LINE
  5
7AC2
  8
1
  6
CONTINUOUS
 10
3091.7586609999998
 20
1821.7266340000001
 30
0.0
 11
3539.7586609999998
 21
1821.7266340000001
 31
0.0
  0
LINE
  5
7AC3
  8
1
  6
CONTINUOUS
 10
3091.7586609999998
 20
1581.726633999999
 30
0.0
 11
3539.7586609999998
 21
1581.726633999999
 31
0.0
  0
LINE
  5
7AC4
  8
1
  6
CONTINUOUS
 10
3091.7586609999998
 20
1646.7266340000001
 30
0.0
 11
3539.7586609999998
 21
1646.7266340000001
 31
0.0
  0
LINE
  5
7AC5
  8
1
  6
CONTINUOUS
 10
3035.7586609999998
 20
2056.7266339999992
 30
0.0
 11
3035.7586609999998
 21
2296.7266340000001
 31
0.0
  0
LINE
  5
7AC6
  8
1
  6
CONTINUOUS
 10
3135.7586609999998
 20
2665.7266340000001
 30
0.0
 11
3135.7586609999998
 21
1821.7266340000001
 31
0.0
  0
LINE
  5
7AC7
  8
1
  6
CONTINUOUS
 10
2975.7586609999998
 20
2296.7266340000001
 30
0.0
 11
2975.7586609999998
 21
2056.7266339999992
 31
0.0
  0
LINE
  5
7AC8
  8
1
  6
CONTINUOUS
 10
2945.7586609999998
 20
1821.7266340000001
 30
0.0
 11
2945.7586609999998
 21
2566.7266340000001
 31
0.0
  0
LINE
  5
7AC9
  8
1
  6
CONTINUOUS
 10
3065.7586609999998
 20
2566.7266340000001
 30
0.0
 11
3065.7586609999998
 21
1821.7266340000001
 31
0.0
  0
LINE
  5
7ACA
  8
1
  6
CONTINUOUS
 10
3035.7586609999998
 20
2056.7266339999992
 30
0.0
 11
2975.7586609999998
 21
2056.7266339999992
 31
0.0
  0
LINE
  5
7ACB
  8
1
  6
CONTINUOUS
 10
2975.7586609999998
 20
1953.726633999999
 30
0.0
 11
3035.7586609999998
 21
1953.726633999999
 31
0.0
  0
LINE
  5
7ACC
  8
1
  6
CONTINUOUS
 10
3035.7586609999998
 20
2053.7266340000001
 30
0.0
 11
2975.7586609999998
 21
2053.7266340000001
 31
0.0
  0
LINE
  5
7ACD
  8
1
  6
CONTINUOUS
 10
3065.7586609999998
 20
1821.7266340000001
 30
0.0
 11
2945.7586609999998
 21
1821.7266340000001
 31
0.0
  0
LINE
  5
7AD0
  8
1
  6
CONTINUOUS
 10
2975.7586609999998
 20
2053.7266340000001
 30
0.0
 11
2975.7586609999998
 21
1953.726633999999
 31
0.0
  0
LINE
  5
7AD1
  8
1
  6
CONTINUOUS
 10
3091.7586609999998
 20
1821.7266340000001
 30
0.0
 11
3091.7586609999998
 21
1741.726633999999
 31
0.0
  0
LINE
  5
7AD2
  8
1
  6
CONTINUOUS
 10
3091.7586609999998
 20
1646.7266340000001
 30
0.0
 11
3091.7586609999998
 21
1581.726633999999
 31
0.0
  0
LINE
  5
7AD3
  8
1
  6
CONTINUOUS
 10
3035.7586609999998
 20
2157.7266340000001
 30
0.0
 11
3135.7586609999998
 21
2157.7266340000001
 31
0.0
  0
LINE
  5
7AD4
  8
1
  6
CONTINUOUS
 10
3035.7586609999998
 20
1953.726633999999
 30
0.0
 11
3035.7586609999998
 21
2053.7266340000001
 31
0.0
  0
LINE
  5
7AD5
  8
1
  6
CONTINUOUS
 10
3035.7586609999998
 20
1984.7266340000001
 30
0.0
 11
3135.7586609999998
 21
1984.7266340000001
 31
0.0
  0
LINE
  5
7AD6
  8
1
  6
CONTINUOUS
 10
3035.7586609999998
 20
2022.7266340000001
 30
0.0
 11
3135.7586609999998
 21
2022.7266340000001
 31
0.0
  0
LINE
  5
7AD7
  8
1
  6
CONTINUOUS
 10
3035.7586609999998
 20
2296.7266340000001
 30
0.0
 11
2975.7586609999998
 21
2296.7266340000001
 31
0.0
  0
LINE
  5
7AD8
  8
1
  6
CONTINUOUS
 10
2945.7586609999998
 20
2566.7266340000001
 30
0.0
 11
3065.7586609999998
 21
2566.7266340000001
 31
0.0
  0
LINE
  5
7AD9
  8
1
  6
CONTINUOUS
 10
3035.7586609999998
 20
2195.7266340000001
 30
0.0
 11
3135.7586609999998
 21
2195.7266340000001
 31
0.0
  0
LINE
  5
7ADA
  8
1
  6
CONTINUOUS
 10
3495.7586609999989
 20
2665.7266340000001
 30
0.0
 11
3495.7586609999989
 21
1821.7266340000001
 31
0.0
  0
LINE
  5
7ADB
  8
1
  6
CONTINUOUS
 10
3539.7586609999998
 20
1821.7266340000001
 30
0.0
 11
3539.7586609999998
 21
1741.726633999999
 31
0.0
  0
LINE
  5
7ADC
  8
1
  6
CONTINUOUS
 10
3539.7586609999998
 20
1646.7266340000001
 30
0.0
 11
3539.7586609999998
 21
1581.726633999999
 31
0.0
  0
LINE
  5
7ADD
  8
2
  6
CENTER
 10
3315.7586609999989
 20
2752.8081139999999
 30
0.0
 11
3315.7586609999989
 21
1581.726633999999
 31
0.0
  0
LINE
  5
7ADE
  8
2
  6
CENTER
 10
906.36272199999996
 20
3779.8566340000002
 30
0.0
 11
2252.5559629999998
 21
3779.8566340000002
 31
0.0
  0
LINE
  5
7ADF
  8
2
  6
CENTER
 10
2833.0465909999998
 20
2176.7266340000001
 30
0.0
 11
3547.6016819999991
 21
2176.7266340000001
 31
0.0
  0
LINE
  5
7AE0
  8
2
  6
CENTER
 10
1806.707807
 20
2719.3803480000001
 30
0.0
 11
1806.7078069999991
 21
1581.7266340000001
 31
0.0
  0
DIMENSION
  5
7AF4
  8
3
  6
CONTINUOUS
  2
*D1
 10
2289.7997289999998
 20
2158.7266340000001
 30
0.0
 11
2289.7997289999989
 21
2393.0608219999999
 31
0.0
 70
   128
 13
2161.7078069999998
 23
2638.7266340000001
 33
0.0
 14
2161.7078069999998
 24
2158.7266340000001
 34
0.0
 50
90.0
1001
ACAD
1000
DSTYLE
1002
{
1070
   287
1070
     3
1070
   287
1070
     3
1070
    40
1040
20.0
1070
   143
1040
0.039
1070
   172
1070
     1
1070
   271
1070
     0
1070
   279
1070
     0
1070
   288
1070
     1
1002
}
  0
DIMENSION
  5
7B01
  8
3
  6
CONTINUOUS
  2
*D2
 10
2398.3869460000001
 20
2176.7266340000001
 30
0.0
 11
2398.3869460000001
 21
2384.0208679999992
 31
0.0
 70
   128
 13
2161.7078069999998
 23
2638.7266340000001
 33
0.0
 14
2265.175326
 24
2176.7266340000001
 34
0.0
 50
90.0
1001
ACAD
1000
DSTYLE
1002
{
1070
   287
1070
     3
1070
   287
1070
     3
1070
    40
1040
20.0
1070
   143
1040
0.039
1070
   172
1070
     1
1070
   271
1070
     0
1070
   279
1070
     0
1070
   288
1070
     1
1002
}
  0
DIMENSION
  5
7B1B
  8
3
  6
CONTINUOUS
  2
*D3
 10
2398.3869460000001
 20
1741.726633999999
 30
0.0
 11
2348.3869459999992
 21
1959.2266340000001
 31
0.0
 70
     0
 13
2265.175326
 23
2176.7266340000001
 33
0.0
 14
2106.7078069999998
 24
1741.726633999999
 34
0.0
 50
90.0
1001
ACAD
1000
DSTYLE
1002
{
1070
   287
1070
     4
1070
   287
1070
     4
1070
    40
1040
20.0
1070
    75
1070
     1
1070
   143
1040
0.039
1070
   172
1070
     1
1070
   271
1070
     0
1070
   279
1070
     1
1070
   288
1070
     1
1002
}
  0
DIMENSION
  5
7B45
  8
3
  6
CONTINUOUS
  2
*D4
 10
1806.707807
 20
2744.6589979999999
 30
0.0
 11
1982.135927
 21
2744.6589979999999
 31
0.0
 70
   128
 13
2161.7078069999998
 23
2655.7266340000001
 33
0.0
 14
1806.707807
 24
2719.3803480000001
 34
0.0
1001
ACAD
1000
DSTYLE
1002
{
1070
   287
1070
     3
1070
   287
1070
     3
1070
    40
1040
20.0
1070
   143
1040
0.039
1070
   172
1070
     1
1070
   271
1070
     0
1070
   279
1070
     0
1070
   288
1070
     1
1002
}
  0
DIMENSION
  5
7B51
  8
3
  6
CONTINUOUS
  2
*D5
 10
1396.707807
 20
2744.6589979999999
 30
0.0
 11
1601.707807
 21
2794.6589979999999
 31
0.0
 70
     0
 13
1806.707807
 23
2719.3803480000001
 33
0.0
 14
1396.707807
 24
2531.7266340000001
 34
0.0
1001
ACAD
1000
DSTYLE
1002
{
1070
   287
1070
     4
1070
   287
1070
     4
1070
    40
1040
20.0
1070
    75
1070
     1
1070
   143
1040
0.039
1070
   172
1070
     1
1070
   271
1070
     0
1070
   279
1070
     1
1070
   288
1070
     1
1002
}
  0
DIMENSION
  5
7BCB
  8
3
  6
CONTINUOUS
  2
*D6
 10
3135.7586609999998
 20
2776.2615959999998
 30
0.0
 11
3316.8538250000001
 21
2776.2615959999998
 31
0.0
 70
   128
 13
3495.7586609999989
 23
2665.7266340000001
 33
0.0
 14
3135.7586609999998
 24
2665.7266340000001
 34
0.0
1001
ACAD
1000
DSTYLE
1002
{
1070
   287
1070
     3
1070
   287
1070
     3
1070
    40
1040
20.0
1070
   143
1040
0.039
1070
   172
1070
     1
1070
   271
1070
     0
1070
   279
1070
     0
1070
   288
1070
     1
1002
}
  0
LINE
  5
7C24
  8
1
  6
CONTINUOUS
 10
3496.7586609999989
 20
2426.7266340000001
 30
0.0
 11
3496.7586609999989
 21
1926.726633999999
 31
0.0
  0
DIMENSION
  5
7C33
  8
3
  6
CONTINUOUS
  2
*D7
 10
3660.7133480000002
 20
1926.726633999999
 30
0.0
 11
3660.7133480000002
 21
2185.1418649999991
 31
0.0
 70
   128
 13
3496.7586609999989
 23
2426.7266340000001
 33
0.0
 14
3496.7586609999989
 24
1926.726633999999
 34
0.0
 50
90.0
1001
ACAD
1000
DSTYLE
1002
{
1070
   287
1070
     3
1070
   287
1070
     3
1070
     3
1000
φ<>
1070
    40
1040
20.0
1070
   143
1040
0.039
1070
   172
1070
     1
1070
   271
1070
     0
1070
   279
1070
     0
1070
   288
1070
     1
1002
}
  0
DIMENSION
  5
7C42
  8
3
  6
CONTINUOUS
  2
*D8
 10
3315.7586609999989
 20
2902.820952999999
 30
0.0
 11
3406.2586609999989
 21
2951.5831387150188
 31
0.0
 70
   128
 13
3496.7586609999989
 23
2426.7266340000001
 33
0.0
 14
3315.7586609999989
 24
2879.2910750000001
 34
0.0
1001
ACAD
1000
DSTYLE
1002
{
1070
   288
1070
     1
1070
   172
1070
     1
1070
    40
1040
20.0
1070
   271
1070
     0
1070
   143
1040
0.039
1002
}
  0
DIMENSION
  5
7C4E
  8
3
  6
CONTINUOUS
  2
*D9
 10
2945.7586609999998
 20
2902.820952999999
 30
0.0
 11
3130.7586609999989
 21
3002.8209529999999
 31
0.0
 70
     0
  1
MAX\P430
 13
3315.7586609999989
 23
2879.2910750000001
 33
0.0
 14
2945.7586609999998
 24
2566.7266340000001
 34
0.0
1001
ACAD
1000
DSTYLE
1002
{
1070
   287
1070
     4
1070
   287
1070
     4
1070
    40
1040
20.0
1070
    75
1070
     1
1070
   143
1040
0.039
1070
   172
1070
     1
1070
   271
1070
     0
1070
   279
1070
     1
1070
   288
1070
     1
1002
}
  0
DIMENSION
  5
7C5B
  8
3
  6
CONTINUOUS
  2
*D10
 10
2106.7078069999998
 20
4174.6137590000008
 30
0.0
 11
1534.213661999999
 21
4174.6137590000008
 31
0.0
 70
   128
 13
986.70780699999989
 23
4003.8566340000002
 33
0.0
 14
2106.7078069999998
 24
4003.8566340000002
 34
0.0
1001
ACAD
1000
DSTYLE
1002
{
1070
   287
1070
     3
1070
   287
1070
     3
1070
    40
1040
20.0
1070
   143
1040
0.039
1070
   172
1070
     1
1070
   271
1070
     0
1070
   279
1070
     0
1070
   288
1070
     1
1002
}
  0
DIMENSION
  5
7D42
  8
3
  6
CONTINUOUS
  2
*D11
 10
841.33728100000064
 20
3555.8566340000002
 30
0.0
 11
841.33728099999996
 21
3760.3200489999999
 31
0.0
 70
   128
 13
986.70780699999989
 23
4003.8566340000002
 33
0.0
 14
986.70780699999989
 24
3555.8566340000002
 34
0.0
 50
90.0
1001
ACAD
1000
DSTYLE
1002
{
1070
   287
1070
     3
1070
   287
1070
     3
1070
    40
1040
20.0
1070
   143
1040
0.039
1070
   172
1070
     1
1070
   271
1070
     0
1070
   279
1070
     0
1070
   288
1070
     1
1002
}
  0
LINE
  5
7D43
  8
4
  6
CONTINUOUS
 10
3700.0
 20
1000.0
 30
0.0
 11
3700.0
 21
600.0
 31
0.0
  0
LINE
  5
7D44
  8
4
  6
CONTINUOUS
 10
2300.0
 20
1000.0
 30
0.0
 11
2300.0
 21
600.0
 31
0.0
  0
LINE
  5
7D45
  8
4
  6
CONTINUOUS
 10
1300.0
 20
1000.0
 30
0.0
 11
1300.0
 21
600.0
 31
0.0
  0
LINE
  5
7D48
  8
4
  6
CONTINUOUS
 10
1300.0
 20
600.0
 30
0.0
 11
3700.0
 21
600.0
 31
0.0
  0
LINE
  5
7D49
  8
4
  6
CONTINUOUS
 10
1300.0
 20
800.0
 30
0.0
 11
3700.0
 21
800.0
 31
0.0
  0
TEXT
  5
7D4A
  8
4
  6
CONTINUOUS
 10
1377.004162
 20
863.086052
 30
0.0
 40
100.0
  1
機器名称
  0
TEXT
  5
7D4B
  8
4
  6
CONTINUOUS
 10
1372.516212
 20
643.29031299999986
 30
0.0
 40
100.0
  1
機器型番
  0
TEXT
  5
7D4C
  8
4
  6
CONTINUOUS
 10
2355.3574910000002
 20
845.14353800000015
 30
0.0
 40
100.0
  1
ミツヤ多翼送風機
  0
TEXT
  5
7D4D
  8
4
  6
CONTINUOUS
 10
2373.3089909999999
 20
634.31916899999999
 30
0.0
 40
100.0
  1
MFE#3-4
  0
TEXT
  5
7D4F
  8
4
  6
CONTINUOUS
 10
1539.0038520000001
 20
4766.8576830000002
 30
0.0
 40
108.0
  1
床置防振ベット
  0
TEXT
  5
7D50
  8
4
  6
CONTINUOUS
 10
632.33518700000002
 20
5067.7619520000007
 30
0.0
 40
144.0
  1
ベルト駆動式片吸込両持排煙ファン
  0
LINE
  5
7D51
  8
4
  6
CONTINUOUS
 10
500.0
 20
4938.8175090000004
 30
0.0
 11
3700.0
 21
4938.8175090000004
 31
0.0
  0
LINE
  5
7D52
  8
4
  6
CONTINUOUS
 10
500.0
 20
5338.8175090000004
 30
0.0
 11
3700.0
 21
5338.8175090000004
 31
0.0
  0
LINE
  5
7D53
  8
4
  6
CONTINUOUS
 10
1300.0
 20
1000.0
 30
0.0
 11
3700.0
 21
1000.0
 31
0.0
  0
LINE
  5
7D54
  8
4
  6
CONTINUOUS
 10
500.0
 20
5338.8175090000004
 30
0.0
 11
500.0
 21
4938.8175090000004
 31
0.0
  0
TEXT
  5
7D55
  8
4
  6
CONTINUOUS
 10
667.28621299999986
 20
4764.6389549999994
 30
0.0
 40
108.0
  1
右回転右横向
  0
TEXT
  5
7D56
  8
4
  6
CONTINUOUS
 10
2937.9391179999998
 20
5412.122163
 30
0.0
 40
112.0
  1
No.
  0
TEXT
  5
7D57
  8
4
  6
CONTINUOUS
 10
2622.5921250000001
 20
4766.8576830000002
 30
0.0
 40
108.0
  1
縮尺：1/20
  0
LINE
  5
7D58
  8
4
  6
CONTINUOUS
 10
3700.0
 20
5338.8175090000004
 30
0.0
 11
3700.0
 21
4938.8175090000004
 31
0.0
  0
LINE
  5
7D5A
  8
4
  6
CONTINUOUS
 10
2881.234845
 20
5362.5271659999999
 30
0.0
 11
2881.234845
 21
5573.3045229999998
 31
0.0
  0
LINE
  5
7D5B
  8
4
  6
CONTINUOUS
 10
2881.234845
 20
5573.3045229999998
 30
0.0
 11
3700.0
 21
5573.3045229999998
 31
0.0
  0
LINE
  5
7D5C
  8
4
  6
CONTINUOUS
 10
3700.0
 20
5573.3045229999998
 30
0.0
 11
3700.0
 21
5362.5271659999999
 31
0.0
  0
LINE
  5
7D5D
  8
4
  6
CONTINUOUS
 10
3700.0
 20
5362.5271659999999
 30
0.0
 11
2881.234845
 21
5362.5271659999999
 31
0.0
  0
DIMENSION
  5
7E74
  8
3
  2
*D12
 10
1806.7078069999991
 20
1441.6248549898919
 30
0.0
 11
1396.7078069999991
 21
1491.6248549898919
 31
0.0
 70
     0
 13
986.70780699999989
 23
1581.726633999999
 33
0.0
 14
1806.7078069999991
 24
1581.7266340000001
 34
0.0
1001
ACAD
1000
DSTYLE
1002
{
1070
   287
1070
     3
1070
   287
1070
     3
1070
    40
1040
20.0
1070
   143
1040
0.039
1070
   172
1070
     1
1070
   271
1070
     0
1070
   279
1070
     0
1002
}
  0
DIMENSION
  5
7E81
  8
3
  2
*D13
 10
2106.7078069999998
 20
1441.6248549898919
 30
0.0
 11
1956.707807
 21
1491.6248549898919
 31
0.0
 70
     0
 13
1806.7078069999991
 23
1581.7266340000001
 33
0.0
 14
2106.7078069999998
 24
1581.726633999999
 34
0.0
1001
ACAD
1000
DSTYLE
1002
{
1070
   287
1070
     3
1070
   287
1070
     3
1070
    40
1040
20.0
1070
   143
1040
0.039
1070
   172
1070
     1
1070
   271
1070
     0
1070
   279
1070
     0
1002
}
  0
DIMENSION
  5
7E90
  8
3
  2
*D14
 10
3315.7586609999989
 20
1441.6248549898919
 30
0.0
 11
3203.7586609999998
 21
1491.6248549898919
 31
0.0
 70
     0
 13
3091.7586609999998
 23
1581.726633999999
 33
0.0
 14
3315.7586609999989
 24
1581.726633999999
 34
0.0
1001
ACAD
1000
DSTYLE
1002
{
1070
   287
1070
     3
1070
   287
1070
     3
1070
    40
1040
20.0
1070
   143
1040
0.039
1070
   172
1070
     1
1070
   271
1070
     0
1070
   279
1070
     0
1002
}
  0
DIMENSION
  5
7E9F
  8
3
  2
*D15
 10
3539.7586609999998
 20
1441.6248549898919
 30
0.0
 11
3427.7586609999998
 21
1491.6248549898919
 31
0.0
 70
     0
 13
3315.7586609999989
 23
1581.726633999999
 33
0.0
 14
3539.7586609999998
 24
1581.726633999999
 34
0.0
1001
ACAD
1000
DSTYLE
1002
{
1070
   287
1070
     3
1070
   287
1070
     3
1070
    40
1040
20.0
1070
   143
1040
0.039
1070
   172
1070
     1
1070
   271
1070
     0
1070
   279
1070
     0
1002
}
  0
DIMENSION
  5
7EB6
  8
3
  2
*D17
 10
2399.8275776329569
 20
1581.726633999999
 30
0.0
 11
2349.8275776329569
 21
1433.155205428571
 31
0.0
 70
     0
 13
2106.7078069999998
 23
1646.7266340000001
 33
0.0
 14
2106.7078069999998
 24
1581.726633999999
 34
0.0
 50
90.0
1001
ACAD
1000
DSTYLE
1002
{
1070
   287
1070
     3
1070
   287
1070
     3
1070
    40
1040
20.0
1070
   143
1040
0.039
1070
   172
1070
     1
1070
   271
1070
     0
1070
   279
1070
     0
1070
     6
1000
DOT
1002
}
  0
DIMENSION
  5
7EC5
  8
3
  2
*D18
 10
2399.8275776329569
 20
1741.726633999999
 30
0.0
 11
2495.5418633472432
 21
1694.2266340000001
 31
0.0
 70
     0
 13
2106.7078069999998
 23
1646.7266340000001
 33
0.0
 14
2106.7078069999998
 24
1741.726633999999
 34
0.0
 50
90.0
1001
ACAD
1000
DSTYLE
1002
{
1070
   172
1070
     1
1070
    40
1040
20.0
1070
     3
1000
(<>)
1070
   271
1070
     0
1070
     6
1000
_DOT
1070
   143
1040
0.039
1002
}
  0
ENDSEC
  0
EOF
