  0
SECTION
  2
HEADER
  9
$ACADVER
  1
AC1009
  9
$INSBASE
 10
0.0
 20
0.0
 30
0.0
  9
$EXTMIN
 10
500.0
 20
600.0
 30
0.0
  9
$EXTMAX
 10
3700.0
 20
5573.3045229999998
 30
0.0
  9
$LIMMIN
 10
0.0
 20
0.0
  9
$LIMMAX
 10
297.0
 20
210.0
  9
$ORTHOMODE
 70
     0
  9
$REGENMODE
 70
     1
  9
$FILLMODE
 70
     0
  9
$QTEXTMODE
 70
     0
  9
$MIRRTEXT
 70
     1
  9
$DRAGMODE
 70
     2
  9
$LTSCALE
 40
100.0
  9
$OSMODE
 70
    37
  9
$ATTMODE
 70
     1
  9
$TEXTSIZE
 40
180.0
  9
$TRACEWID
 40
0.05
  9
$TEXTSTYLE
  7
STANDARD
  9
$CLAYER
  8
3
  9
$CELTYPE
  6
BYLAYER
  9
$CECOLOR
 62
   256
  9
$DIMSCALE
 40
20.0
  9
$DIMASZ
 40
2.0
  9
$DIMEXO
 40
0.5
  9
$DIMDLI
 40
10.0
  9
$DIMRND
 40
0.0
  9
$DIMDLE
 40
0.0
  9
$DIMEXE
 40
1.0
  9
$DIMTP
 40
1.0
  9
$DIMTM
 40
1.0
  9
$DIMTXT
 40
3.0
  9
$DIMCEN
 40
0.0
  9
$DIMTSZ
 40
0.0
  9
$DIMTOL
 70
     0
  9
$DIMLIM
 70
     0
  9
$DIMTIH
 70
     0
  9
$DIMTOH
 70
     0
  9
$DIMSE1
 70
     0
  9
$DIMSE2
 70
     0
  9
$DIMTAD
 70
     1
  9
$DIMZIN
 70
     8
  9
$DIMBLK
  1

  9
$DIMASO
 70
     1
  9
$DIMSHO
 70
     1
  9
$DIMPOST
  1

  9
$DIMAPOST
  1

  9
$DIMALT
 70
     0
  9
$DIMALTD
 70
     2
  9
$DIMALTF
 40
0.039
  9
$DIMLFAC
 40
1.0
  9
$DIMTOFL
 70
     1
  9
$DIMTVP
 40
0.0
  9
$DIMTIX
 70
     0
  9
$DIMSOXD
 70
     0
  9
$DIMSAH
 70
     1
  9
$DIMBLK1
  1
OPEN
  9
$DIMBLK2
  1
OPEN
  9
$DIMSTYLE
  2
IGA
  9
$DIMCLRD
 70
     0
  9
$DIMCLRE
 70
     0
  9
$DIMCLRT
 70
     0
  9
$DIMTFAC
 40
10.0
  9
$DIMGAP
 40
1.0
  9
$LUNITS
 70
     2
  9
$LUPREC
 70
     3
  9
$SKETCHINC
 40
0.1
  9
$FILLETRAD
 40
50.0
  9
$AUNITS
 70
     0
  9
$AUPREC
 70
     0
  9
$MENU
  1
acad
  9
$ELEVATION
 40
0.0
  9
$PELEVATION
 40
0.0
  9
$THICKNESS
 40
0.0
  9
$LIMCHECK
 70
     0
  9
$BLIPMODE
 70
     0
  9
$CHAMFERA
 40
0.5
  9
$CHAMFERB
 40
0.5
  9
$SKPOLY
 70
     0
  9
$TDCREATE
 40
2450731.5522401622
  9
$TDUPDATE
 40
2454953.836023021
  9
$TDINDWG
 40
0.004920463
  9
$TDUSRTIMER
 40
0.004920463
  9
$USRTIMER
 70
     1
  9
$ANGBASE
 50
0.0
  9
$ANGDIR
 70
     0
  9
$PDMODE
 70
     0
  9
$PDSIZE
 40
0.0
  9
$PLINEWID
 40
0.0
  9
$COORDS
 70
     1
  9
$SPLFRAME
 70
     0
  9
$SPLINETYPE
 70
     6
  9
$SPLINESEGS
 70
     8
  9
$ATTDIA
 70
     0
  9
$ATTREQ
 70
     1
  9
$HANDLING
 70
 10241
  9
$HANDSEED
  5
7F89
  9
$SURFTAB1
 70
     6
  9
$SURFTAB2
 70
     6
  9
$SURFTYPE
 70
     6
  9
$SURFU
 70
     6
  9
$SURFV
 70
     6
  9
$UCSNAME
  2

  9
$UCSORG
 10
0.0
 20
0.0
 30
0.0
  9
$UCSXDIR
 10
1.0
 20
0.0
 30
0.0
  9
$UCSYDIR
 10
0.0
 20
1.0
 30
0.0
  9
$PUCSNAME
  2

  9
$PUCSORG
 10
0.0
 20
0.0
 30
0.0
  9
$PUCSXDIR
 10
1.0
 20
0.0
 30
0.0
  9
$PUCSYDIR
 10
0.0
 20
1.0
 30
0.0
  9
$USERI1
 70
     0
  9
$USERI2
 70
     0
  9
$USERI3
 70
     0
  9
$USERI4
 70
     0
  9
$USERI5
 70
     0
  9
$USERR1
 40
0.0
  9
$USERR2
 40
0.0
  9
$USERR3
 40
0.0
  9
$USERR4
 40
0.0
  9
$USERR5
 40
0.0
  9
$WORLDVIEW
 70
     1
  9
$SHADEDGE
 70
     3
  9
$SHADEDIF
 70
    70
  9
$TILEMODE
 70
     1
  9
$MAXACTVP
 70
    16
  9
$PLIMCHECK
 70
     0
  9
$PEXTMIN
 10
1.0000000000000000E+020
 20
1.0000000000000000E+020
 30
1.0000000000000000E+020
  9
$PEXTMAX
 10
-1.0000000000000000E+020
 20
-1.0000000000000000E+020
 30
-1.0000000000000000E+020
  9
$PLIMMIN
 10
0.0
 20
0.0
  9
$PLIMMAX
 10
12.0
 20
9.0
  9
$UNITMODE
 70
     0
  9
$VISRETAIN
 70
     0
  9
$PLINEGEN
 70
     0
  9
$PSLTSCALE
 70
     1
  0
ENDSEC
  0
SECTION
  2
TABLES
  0
TABLE
  2
VPORT
 70
     2
  0
VPORT
  2
*ACTIVE
 70
     0
 10
0.0
 20
0.0
 11
1.0
 21
1.0
 12
5914.4389227302563
 22
3919.7264119827009
 13
0.0
 23
0.0
 14
10.0
 24
10.0
 15
10.0
 25
10.0
 16
0.0
 26
0.0
 36
1.0
 17
0.0
 27
0.0
 37
0.0
 40
7720.8617819453793
 41
1.5051150895140659
 42
50.0
 43
0.0
 44
0.0
 50
0.0
 51
0.0
 71
     0
 72
   100
 73
     1
 74
     0
 75
     0
 76
     0
 77
     0
 78
     0
  0
ENDTAB
  0
TABLE
  2
LTYPE
 70
     2
  0
LTYPE
  2
CONTINUOUS
 70
     0
  3
Solid line
 72
    65
 73
     0
 40
0.0
  0
LTYPE
  2
CENTER
 70
     0
  3
____ _ ____ _ ____ _ ____ _ ____ _ ____ _ ____ 
 72
    65
 73
     4
 40
2.0
 49
1.25
 49
-0.25
 49
0.25
 49
-0.25
  0
ENDTAB
  0
TABLE
  2
LAYER
 70
     6
  0
LAYER
  2
0
 70
     0
 62
     7
  6
CONTINUOUS
  0
LAYER
  2
3
 70
     0
 62
     2
  6
CONTINUOUS
  0
LAYER
  2
2
 70
     0
 62
     3
  6
CENTER
  0
LAYER
  2
1
 70
     0
 62
     4
  6
CONTINUOUS
  0
LAYER
  2
4
 70
     0
 62
     7
  6
CONTINUOUS
  0
LAYER
  2
DEFPOINTS
 70
     0
 62
     7
  6
CONTINUOUS
  0
ENDTAB
  0
TABLE
  2
STYLE
 70
     1
  0
STYLE
  2
STANDARD
 70
     0
 40
0.0
 41
1.0
 50
0.0
 71
     0
 42
180.0
  3
simplex.shx
  4
extfont.shx
  0
ENDTAB
  0
TABLE
  2
VIEW
 70
     0
  0
ENDTAB
  0
TABLE
  2
UCS
 70
     0
  0
ENDTAB
  0
TABLE
  2
APPID
 70
     1
  0
APPID
  2
ACAD
 70
     0
  0
ENDTAB
  0
TABLE
  2
DIMSTYLE
 70
     1
  0
DIMSTYLE
  2
IGA
 70
     0
  3

  4

  5

  6
OPEN
  7
OPEN
 40
2.0
 41
2.0
 42
0.5
 43
10.0
 44
1.0
 45
0.0
 46
0.0
 47
1.0
 48
1.0
140
3.0
141
0.0
142
0.0
143
0.03937
144
1.0
145
0.0
146
10.0
147
1.0
 71
     0
 72
     0
 73
     0
 74
     0
 75
     0
 76
     0
 77
     1
 78
     8
170
     0
171
     2
172
     0
173
     1
174
     0
175
     0
176
     0
177
     0
178
     0
  0
ENDTAB
  0
ENDSEC
  0
SECTION
  2
BLOCKS
  0
BLOCK
  8
0
  2
$MODEL_SPACE
 70
     0
 10
0.0
 20
0.0
 30
0.0
  3
$MODEL_SPACE
  1

  0
ENDBLK
  5
1B
  8
0
  0
BLOCK
 67
     1
  8
0
  2
$PAPER_SPACE
 70
     0
 10
0.0
 20
0.0
 30
0.0
  3
$PAPER_SPACE
  1

  0
ENDBLK
  5
18
 67
     1
  8
0
  0
BLOCK
  8
0
  2
_OPEN
 70
     0
 10
0.0
 20
0.0
 30
0.0
  3
_OPEN
  1

  0
LINE
  5
7B0A
  8
0
  6
BYBLOCK
 62
     0
 10
-1.0
 20
0.166667
 30
0.0
 11
0.0
 21
0.0
 31
0.0
  0
LINE
  5
7B0B
  8
0
  6
BYBLOCK
 62
     0
 10
0.0
 20
0.0
 30
0.0
 11
-1.0
 21
-0.166667
 31
0.0
  0
LINE
  5
7B0C
  8
0
  6
BYBLOCK
 62
     0
 10
0.0
 20
0.0
 30
0.0
 11
-1.0
 21
0.0
 31
0.0
  0
ENDBLK
  5
7B0D
  8
0
  0
BLOCK
  8
0
  2
*D1
 70
     1
 10
0.0
 20
0.0
 30
0.0
  3
*D1
  1

  0
LINE
  5
7EE1
  8
3
  6
CONTINUOUS
 62
     0
 10
2077.7699849999999
 20
2385.7615000000001
 30
0.0
 11
2210.3454750000001
 21
2385.7615000000001
 31
0.0
  0
LINE
  5
7EE2
  8
3
  6
CONTINUOUS
 62
     0
 10
2077.7699849999999
 20
1905.7615000000001
 30
0.0
 11
2210.3454750000001
 21
1905.7615000000001
 31
0.0
  0
LINE
  5
7EE3
  8
3
  6
CONTINUOUS
 62
     0
 10
2190.3454750000001
 20
2345.7615000000001
 30
0.0
 11
2190.3454750000001
 21
1945.7615000000001
 31
0.0
  0
INSERT
  5
7EE4
  8
3
  6
CONTINUOUS
 62
     0
  2
_OPEN
 10
2190.3454750000001
 20
2385.7615000000001
 30
0.0
 41
40.0
 42
40.0
 43
40.0
 50
90.0
  0
INSERT
  5
7EE5
  8
3
  6
CONTINUOUS
 62
     0
  2
_OPEN
 10
2190.3454750000001
 20
1905.7615000000001
 30
0.0
 41
40.0
 42
40.0
 43
40.0
 50
270.0
  0
TEXT
  8
3
  40
60
  5
7F77
  62
0
  72
0
  71
0
 10
2020.35
 20
2030.93
 30
0.000000
  1
480
  0
POINT
  5
7EE7
  8
DEFPOINTS
  6
CONTINUOUS
 62
     0
 10
2067.7699849999999
 20
2385.7615000000001
 30
0.0
  0
POINT
  5
7EE8
  8
DEFPOINTS
  6
CONTINUOUS
 62
     0
 10
2067.7699849999999
 20
1905.7615000000001
 30
0.0
  0
POINT
  5
7EE9
  8
DEFPOINTS
  6
CONTINUOUS
 62
     0
 10
2190.3454750000001
 20
1905.7615000000001
 30
0.0
  0
ENDBLK
  5
7BC8
  8
0
  0
BLOCK
  8
0
  2
*D2
 70
     1
 10
0.0
 20
0.0
 30
0.0
  3
*D2
  1

  0
LINE
  5
7EEA
  8
3
  6
CONTINUOUS
 62
     0
 10
2077.7699849999999
 20
1905.7615000000001
 30
0.0
 11
2319.8208450000002
 21
1905.7615000000001
 31
0.0
  0
LINE
  5
7EEB
  8
3
  6
CONTINUOUS
 62
     0
 10
2184.3836219999989
 20
2367.7614999999992
 30
0.0
 11
2319.8208450000002
 21
2367.7614999999992
 31
0.0
  0
LINE
  5
7EEC
  8
3
  6
CONTINUOUS
 62
     0
 10
2299.8208450000002
 20
1945.7615000000001
 30
0.0
 11
2299.8208450000002
 21
2327.7615000000001
 31
0.0
  0
INSERT
  5
7EED
  8
3
  6
CONTINUOUS
 62
     0
  2
_OPEN
 10
2299.8208450000002
 20
1905.7615000000001
 30
0.0
 41
40.0
 42
40.0
 43
40.0
 50
270.0
  0
INSERT
  5
7EEE
  8
3
  6
CONTINUOUS
 62
     0
  2
_OPEN
 10
2299.8208450000002
 20
2367.7614999999992
 30
0.0
 41
40.0
 42
40.0
 43
40.0
 50
90.0
  0
TEXT
  8
3
  40
60
  5
7F78
  62
0
  72
0
  71
0
 10
2129.82
 20
2030.93
 30
0.000000
  1
462
  0
POINT
  5
7EF0
  8
DEFPOINTS
  6
CONTINUOUS
 62
     0
 10
2067.7699849999999
 20
1905.7615000000001
 30
0.0
  0
POINT
  5
7EF1
  8
DEFPOINTS
  6
CONTINUOUS
 62
     0
 10
2174.3836219999998
 20
2367.7614999999992
 30
0.0
  0
POINT
  5
7EF2
  8
DEFPOINTS
  6
CONTINUOUS
 62
     0
 10
2299.8208450000002
 20
2367.7614999999992
 30
0.0
  0
ENDBLK
  5
7BBD
  8
0
  0
BLOCK
  8
0
  2
*D3
 70
     1
 10
0.0
 20
0.0
 30
0.0
  3
*D3
  1

  0
LINE
  5
7EF3
  8
3
  6
CONTINUOUS
 62
     0
 10
2032.7699849999999
 20
2722.7615000000001
 30
0.0
 11
2444.396283
 21
2722.7615000000001
 31
0.0
  0
LINE
  5
7EF4
  8
3
  6
CONTINUOUS
 62
     0
 10
2184.3836219999989
 20
2367.7614999999992
 30
0.0
 11
2444.396283
 21
2367.7614999999992
 31
0.0
  0
LINE
  5
7EF5
  8
3
  6
CONTINUOUS
 62
     0
 10
2424.396283
 20
2682.7615000000001
 30
0.0
 11
2424.396283
 21
2407.7615000000001
 31
0.0
  0
INSERT
  5
7EF6
  8
3
  6
CONTINUOUS
 62
     0
  2
_OPEN
 10
2424.396283
 20
2722.7615000000001
 30
0.0
 41
40.0
 42
40.0
 43
40.0
 50
90.0
  0
INSERT
  5
7EF7
  8
3
  6
CONTINUOUS
 62
     0
  2
_OPEN
 10
2424.396283
 20
2367.7614999999992
 30
0.0
 41
40.0
 42
40.0
 43
40.0
 50
270.0
  0
TEXT
  8
3
  40
60
  5
7F79
  62
0
  72
0
  71
0
 10
2254.40
 20
2445.77
 30
0.000000
  1
355
  0
POINT
  5
7EF9
  8
DEFPOINTS
  6
CONTINUOUS
 62
     0
 10
2022.7699849999999
 20
2722.7615000000001
 30
0.0
  0
POINT
  5
7EFA
  8
DEFPOINTS
  6
CONTINUOUS
 62
     0
 10
2174.3836219999998
 20
2367.7614999999992
 30
0.0
  0
POINT
  5
7EFB
  8
DEFPOINTS
  6
CONTINUOUS
 62
     0
 10
2424.396283
 20
2367.7614999999992
 30
0.0
  0
ENDBLK
  5
7B34
  8
0
  0
BLOCK
  8
0
  2
*D4
 70
     1
 10
0.0
 20
0.0
 30
0.0
  3
*D4
  1

  0
LINE
  5
7EFC
  8
3
  6
CONTINUOUS
 62
     0
 10
2022.7699849999999
 20
1767.7614999999989
 30
0.0
 11
2444.396283
 21
1767.7614999999989
 31
0.0
  0
LINE
  5
7EFD
  8
3
  6
CONTINUOUS
 62
     0
 10
2424.396283
 20
2327.7615000000001
 30
0.0
 11
2424.396283
 21
1807.7615000000001
 31
0.0
  0
INSERT
  5
7EFE
  8
3
  6
CONTINUOUS
 62
     0
  2
_OPEN
 10
2424.396283
 20
2367.7614999999992
 30
0.0
 41
40.0
 42
40.0
 43
40.0
 50
90.0
  0
INSERT
  5
7EFF
  8
3
  6
CONTINUOUS
 62
     0
  2
_OPEN
 10
2424.396283
 20
1767.7614999999989
 30
0.0
 41
40.0
 42
40.0
 43
40.0
 50
270.0
  0
TEXT
  8
3
  40
60
  5
7F7A
  62
0
  72
0
  71
0
 10
2254.40
 20
1961.56
 30
0.000000
  1
600
  0
POINT
  5
7F01
  8
DEFPOINTS
  6
CONTINUOUS
 62
     0
 10
2174.3836219999998
 20
2367.7614999999992
 30
0.0
  0
POINT
  5
7F02
  8
DEFPOINTS
  6
CONTINUOUS
 62
     0
 10
2012.7699849999999
 20
1767.7614999999989
 30
0.0
  0
POINT
  5
7F03
  8
DEFPOINTS
  6
CONTINUOUS
 62
     0
 10
2424.396283
 20
1767.7614999999989
 30
0.0
  0
ENDBLK
  5
7B4C
  8
0
  0
BLOCK
  8
0
  2
*D5
 70
     1
 10
0.0
 20
0.0
 30
0.0
  3
*D5
  1

  0
LINE
  5
7F04
  8
3
  6
CONTINUOUS
 62
     0
 10
2022.7699849999999
 20
1767.7614999999989
 30
0.0
 11
2444.7774789999999
 21
1767.7614999999989
 31
0.0
  0
LINE
  5
7F05
  8
3
  6
CONTINUOUS
 62
     0
 10
2022.7699849999999
 20
1680.7615000000001
 30
0.0
 11
2444.7774789999999
 21
1680.7615000000001
 31
0.0
  0
LINE
  5
7F06
  8
3
  6
CONTINUOUS
 62
     0
 10
2424.7774789999999
 20
1807.7615000000001
 30
0.0
 11
2424.7774789999999
 21
1847.7615000000001
 31
0.0
  0
LINE
  5
7F07
  8
3
  6
CONTINUOUS
 62
     0
 10
2424.7774789999999
 20
1640.7614999999989
 30
0.0
 11
2424.7774789999999
 21
1463.618642857143
 31
0.0
  0
LINE
  5
7F08
  8
3
  6
CONTINUOUS
 62
     0
 10
2424.7774789999999
 20
1767.7614999999989
 30
0.0
 11
2424.7774789999999
 21
1680.7615000000001
 31
0.0
  0
INSERT
  5
7F09
  8
3
  6
CONTINUOUS
 62
     0
  2
_OPEN
 10
2424.7774789999999
 20
1767.7614999999989
 30
0.0
 41
40.0
 42
40.0
 43
40.0
 50
270.0
  0
INSERT
  5
7F0A
  8
3
  6
CONTINUOUS
 62
     0
  2
_OPEN
 10
2424.7774789999999
 20
1680.7615000000001
 30
0.0
 41
40.0
 42
40.0
 43
40.0
 50
90.0
  0
TEXT
  8
3
  40
60
  5
7F7B
  62
0
  72
0
  71
0
 10
2254.78
 20
1425.99
 30
0.000000
  1
87
  0
POINT
  5
7F0C
  8
DEFPOINTS
  6
CONTINUOUS
 62
     0
 10
2012.7699849999999
 20
1767.7614999999989
 30
0.0
  0
POINT
  5
7F0D
  8
DEFPOINTS
  6
CONTINUOUS
 62
     0
 10
2012.7699849999999
 20
1680.7615000000001
 30
0.0
  0
POINT
  5
7F0E
  8
DEFPOINTS
  6
CONTINUOUS
 62
     0
 10
2424.7774789999999
 20
1680.7615000000001
 30
0.0
  0
ENDBLK
  5
7D74
  8
0
  0
BLOCK
  8
0
  2
*D6
 70
     1
 10
0.0
 20
0.0
 30
0.0
  3
*D6
  1

  0
LINE
  5
7F0F
  8
3
  6
CONTINUOUS
 62
     0
 10
2032.7699849999999
 20
2722.7615000000001
 30
0.0
 11
2577.8330140000012
 21
2722.7615000000001
 31
0.0
  0
LINE
  5
7F10
  8
3
  6
CONTINUOUS
 62
     0
 10
2022.7699849999999
 20
1680.7615000000001
 30
0.0
 11
2577.8330140000012
 21
1680.7615000000001
 31
0.0
  0
LINE
  5
7F11
  8
3
  6
CONTINUOUS
 62
     0
 10
2557.8330140000012
 20
2682.7615000000001
 30
0.0
 11
2557.8330140000012
 21
1720.7615000000001
 31
0.0
  0
INSERT
  5
7F12
  8
3
  6
CONTINUOUS
 62
     0
  2
_OPEN
 10
2557.8330140000012
 20
2722.7615000000001
 30
0.0
 41
40.0
 42
40.0
 43
40.0
 50
90.0
  0
INSERT
  5
7F13
  8
3
  6
CONTINUOUS
 62
     0
  2
_OPEN
 10
2557.8330140000012
 20
1680.7615000000001
 30
0.0
 41
40.0
 42
40.0
 43
40.0
 50
270.0
  0
TEXT
  8
3
  40
60
  5
7F7C
  62
0
  72
0
  71
0
 10
2387.83
 20
2098.82
 30
0.000000
  1
1042
  0
POINT
  5
7F15
  8
DEFPOINTS
  6
CONTINUOUS
 62
     0
 10
2022.7699849999999
 20
2722.7615000000001
 30
0.0
  0
POINT
  5
7F16
  8
DEFPOINTS
  6
CONTINUOUS
 62
     0
 10
2012.7699849999999
 20
1680.7615000000001
 30
0.0
  0
POINT
  5
7F17
  8
DEFPOINTS
  6
CONTINUOUS
 62
     0
 10
2557.8330140000012
 20
1680.7615000000001
 30
0.0
  0
ENDBLK
  5
7C78
  8
0
  0
BLOCK
  8
0
  2
*D7
 70
     1
 10
0.0
 20
0.0
 30
0.0
  3
*D7
  1

  0
LINE
  5
7F18
  8
3
  6
CONTINUOUS
 62
     0
 10
2067.7699849999999
 20
2412.7615000000001
 30
0.0
 11
2067.7699849999999
 21
2877.585251
 31
0.0
  0
LINE
  5
7F19
  8
3
  6
CONTINUOUS
 62
     0
 10
1712.7699849999999
 20
2862.7248559999989
 30
0.0
 11
1712.7699849999999
 21
2837.585251
 31
0.0
  0
LINE
  5
7F1A
  8
3
  6
CONTINUOUS
 62
     0
 10
2027.7699849999999
 20
2857.585251
 30
0.0
 11
1752.7699849999999
 21
2857.585251
 31
0.0
  0
INSERT
  5
7F1B
  8
3
  6
CONTINUOUS
 62
     0
  2
_OPEN
 10
2067.7699849999999
 20
2857.585251
 30
0.0
 41
40.0
 42
40.0
 43
40.0
  0
INSERT
  5
7F1C
  8
3
  6
CONTINUOUS
 62
     0
  2
_OPEN
 10
1712.7699849999999
 20
2857.585251
 30
0.0
 41
40.0
 42
40.0
 43
40.0
 50
180.0
  0
TEXT
  8
3
  40
60
  5
7F7D
  62
0
  72
0
  71
0
 10
1753.24
 20
2801.39
 30
0.000000
  1
355
  0
POINT
  5
7F1E
  8
DEFPOINTS
  6
CONTINUOUS
 62
     0
 10
2067.7699849999999
 20
2402.7615000000001
 30
0.0
  0
POINT
  5
7F1F
  8
DEFPOINTS
  6
CONTINUOUS
 62
     0
 10
1712.7699849999999
 20
2872.7248559999989
 30
0.0
  0
POINT
  5
7F20
  8
DEFPOINTS
  6
CONTINUOUS
 62
     0
 10
1712.7699849999999
 20
2857.585251
 30
0.0
  0
ENDBLK
  5
7C83
  8
0
  0
BLOCK
  8
0
  2
*D8
 70
     1
 10
0.0
 20
0.0
 30
0.0
  3
*D8
  1

  0
LINE
  5
7F21
  8
3
  6
CONTINUOUS
 62
     0
 10
1315.7699849999999
 20
2377.7615000000001
 30
0.0
 11
1315.7699849999999
 21
2877.585251
 31
0.0
  0
LINE
  5
7F22
  8
3
  6
CONTINUOUS
 62
     0
 10
1672.7699849999999
 20
2857.585251
 30
0.0
 11
1355.7699849999999
 21
2857.585251
 31
0.0
  0
INSERT
  5
7F23
  8
3
  6
CONTINUOUS
 62
     0
  2
_OPEN
 10
1712.7699849999999
 20
2857.585251
 30
0.0
 41
40.0
 42
40.0
 43
40.0
  0
INSERT
  5
7F24
  8
3
  6
CONTINUOUS
 62
     0
  2
_OPEN
 10
1315.7699849999999
 20
2857.585251
 30
0.0
 41
40.0
 42
40.0
 43
40.0
 50
180.0
  0
TEXT
  8
3
  40
60
  5
7F7E
  62
0
  72
0
  71
0
 10
1394.27
 20
2801.39
 30
0.000000
  1
397
  0
POINT
  5
7F26
  8
DEFPOINTS
  6
CONTINUOUS
 62
     0
 10
1712.7699849999999
 20
2872.7248559999989
 30
0.0
  0
POINT
  5
7F27
  8
DEFPOINTS
  6
CONTINUOUS
 62
     0
 10
1315.7699849999999
 20
2367.7614999999992
 30
0.0
  0
POINT
  5
7F28
  8
DEFPOINTS
  6
CONTINUOUS
 62
     0
 10
1315.7699849999999
 20
2857.585251
 30
0.0
  0
ENDBLK
  5
7DFB
  8
0
  0
BLOCK
  8
0
  2
*D9
 70
     1
 10
0.0
 20
0.0
 30
0.0
  3
*D9
  1

  0
LINE
  5
7F29
  8
3
  6
CONTINUOUS
 62
     0
 10
892.76998499999991
 20
1670.7615000000001
 30
0.0
 11
892.76998499999991
 21
1528.814975
 31
0.0
  0
LINE
  5
7F2A
  8
3
  6
CONTINUOUS
 62
     0
 10
1712.7699849999999
 20
1582.507002291587
 30
0.0
 11
1712.7699849999999
 21
1528.814975
 31
0.0
  0
LINE
  5
7F2B
  8
3
  6
CONTINUOUS
 62
     0
 10
932.76998500000002
 20
1548.8149749999991
 30
0.0
 11
1672.7699849999999
 21
1548.8149749999991
 31
0.0
  0
INSERT
  5
7F2C
  8
3
  6
CONTINUOUS
 62
     0
  2
_OPEN
 10
892.76998499999991
 20
1548.8149749999991
 30
0.0
 41
40.0
 42
40.0
 43
40.0
 50
180.0
  0
INSERT
  5
7F2D
  8
3
  6
CONTINUOUS
 62
     0
  2
_OPEN
 10
1712.7699849999999
 20
1548.8149749999991
 30
0.0
 41
40.0
 42
40.0
 43
40.0
  0
TEXT
  8
3
  40
60
  5
7F7F
  62
0
  72
0
  71
0
 10
1198.32
 20
1492.61
 30
0.000000
  1
820
  0
POINT
  5
7F2F
  8
DEFPOINTS
  6
CONTINUOUS
 62
     0
 10
892.76998499999991
 20
1680.7615000000001
 30
0.0
  0
POINT
  5
7F30
  8
DEFPOINTS
  6
CONTINUOUS
 62
     0
 10
1712.7699849999999
 20
1592.507002291587
 30
0.0
  0
POINT
  5
7F31
  8
DEFPOINTS
  6
CONTINUOUS
 62
     0
 10
1712.7699849999999
 20
1548.8149749999991
 30
0.0
  0
ENDBLK
  5
7DEC
  8
0
  0
BLOCK
  8
0
  2
*D10
 70
     1
 10
0.0
 20
0.0
 30
0.0
  3
*D10
  1

  0
LINE
  5
7F32
  8
3
  6
CONTINUOUS
 62
     0
 10
2012.7699849999999
 20
1670.7615000000001
 30
0.0
 11
2012.7699849999999
 21
1528.814975
 31
0.0
  0
LINE
  5
7F33
  8
3
  6
CONTINUOUS
 62
     0
 10
1752.7699849999999
 20
1548.8149749999991
 30
0.0
 11
1972.7699849999999
 21
1548.8149749999991
 31
0.0
  0
INSERT
  5
7F34
  8
3
  6
CONTINUOUS
 62
     0
  2
_OPEN
 10
1712.7699849999999
 20
1548.8149749999991
 30
0.0
 41
40.0
 42
40.0
 43
40.0
 50
180.0
  0
INSERT
  5
7F35
  8
3
  6
CONTINUOUS
 62
     0
  2
_OPEN
 10
2012.7699849999999
 20
1548.8149749999991
 30
0.0
 41
40.0
 42
40.0
 43
40.0
  0
TEXT
  8
3
  40
60
  5
7F80
  62
0
  72
0
  71
0
 10
1742.77
 20
1492.61
 30
0.000000
  1
300
  0
POINT
  5
7F37
  8
DEFPOINTS
  6
CONTINUOUS
 62
     0
 10
1712.7699849999999
 20
1592.507002291587
 30
0.0
  0
POINT
  5
7F38
  8
DEFPOINTS
  6
CONTINUOUS
 62
     0
 10
2012.7699849999999
 20
1680.7615000000001
 30
0.0
  0
POINT
  5
7F39
  8
DEFPOINTS
  6
CONTINUOUS
 62
     0
 10
2012.7699849999999
 20
1548.8149749999991
 30
0.0
  0
ENDBLK
  5
7DE1
  8
0
  0
BLOCK
  8
0
  2
*D11
 70
     1
 10
0.0
 20
0.0
 30
0.0
  3
*D11
  1

  0
LINE
  5
7DAC
  8
0
  6
BYBLOCK
 62
     0
 10
3063.3374610000001
 20
1670.7615000000001
 30
0.0
 11
3063.3374610000001
 21
1492.004739
 31
0.0
  0
LINE
  5
7DAD
  8
0
  6
BYBLOCK
 62
     0
 10
3287.3374609999992
 20
1515.960059
 30
0.0
 11
3287.3374609999992
 21
1492.004739
 31
0.0
  0
LINE
  5
7DAE
  8
0
  6
BYBLOCK
 62
     0
 10
3103.3374610000001
 20
1512.0047389999991
 30
0.0
 11
3247.3374610000001
 21
1512.0047389999991
 31
0.0
  0
TEXT
  5
7DAF
  8
3
 62
     0
 10
3096.7660324285712
 20
1542.0496130009501
 30
0.0
 40
60.0
  1
224
  0
INSERT
  5
7DB0
  8
0
  6
BYBLOCK
 62
     0
  2
_OPEN
 10
3063.3374610000001
 20
1512.0047389999991
 30
0.0
 41
40.0
 42
40.0
 43
40.0
 50
180.0
  0
INSERT
  5
7DB1
  8
0
  6
BYBLOCK
 62
     0
  2
_OPEN
 10
3287.3374609999992
 20
1512.0047389999991
 30
0.0
 41
40.0
 42
40.0
 43
40.0
  0
POINT
  5
7DB2
  8
DEFPOINTS
  6
BYBLOCK
 62
     0
 10
3063.3374610000001
 20
1680.7615000000001
 30
0.0
  0
POINT
  5
7DB3
  8
DEFPOINTS
  6
BYBLOCK
 62
     0
 10
3287.3374609999992
 20
1525.9600589999991
 30
0.0
  0
POINT
  5
7DB4
  8
DEFPOINTS
  6
BYBLOCK
 62
     0
 10
3287.3374609999992
 20
1512.0047389999991
 30
0.0
  0
ENDBLK
  5
7DB5
  8
0
  0
BLOCK
  8
0
  2
*D12
 70
     1
 10
0.0
 20
0.0
 30
0.0
  3
*D12
  1

  0
LINE
  5
7F3A
  8
3
  6
CONTINUOUS
 62
     0
 10
3511.3374610000001
 20
1670.7615000000001
 30
0.0
 11
3511.3374610000001
 21
1492.004739
 31
0.0
  0
LINE
  5
7F3B
  8
3
  6
CONTINUOUS
 62
     0
 10
3327.3374610000001
 20
1512.0047389999991
 30
0.0
 11
3471.3374610000001
 21
1512.0047389999991
 31
0.0
  0
TEXT
  8
3
  40
60
  5
7F81
  62
0
  72
0
  71
0
 10
3295.63
 20
1455.48
 30
0.000000
  1
224
  0
INSERT
  5
7F3D
  8
3
  6
CONTINUOUS
 62
     0
  2
_OPEN
 10
3287.3374609999992
 20
1512.0047389999991
 30
0.0
 41
40.0
 42
40.0
 43
40.0
 50
180.0
  0
INSERT
  5
7F3E
  8
3
  6
CONTINUOUS
 62
     0
  2
_OPEN
 10
3511.3374610000001
 20
1512.0047389999991
 30
0.0
 41
40.0
 42
40.0
 43
40.0
  0
POINT
  5
7F3F
  8
DEFPOINTS
  6
CONTINUOUS
 62
     0
 10
3287.3374609999992
 20
1525.9600589999991
 30
0.0
  0
POINT
  5
7F40
  8
DEFPOINTS
  6
CONTINUOUS
 62
     0
 10
3511.3374610000001
 20
1680.7615000000001
 30
0.0
  0
POINT
  5
7F41
  8
DEFPOINTS
  6
CONTINUOUS
 62
     0
 10
3511.3374610000001
 20
1512.0047389999991
 30
0.0
  0
ENDBLK
  5
7CC3
  8
0
  0
BLOCK
  8
0
  2
*D13
 70
     1
 10
0.0
 20
0.0
 30
0.0
  3
*D13
  1

  0
LINE
  5
7F42
  8
3
  6
CONTINUOUS
 62
     0
 10
3478.3374610000001
 20
2617.7615000000001
 30
0.0
 11
3650.5914509999998
 21
2617.7615000000001
 31
0.0
  0
LINE
  5
7F43
  8
3
  6
CONTINUOUS
 62
     0
 10
3478.3374610000001
 20
2117.7614999999992
 30
0.0
 11
3650.5914509999998
 21
2117.7614999999992
 31
0.0
  0
LINE
  5
7F44
  8
3
  6
CONTINUOUS
 62
     0
 10
3630.5914509999998
 20
2577.7615000000001
 30
0.0
 11
3630.5914509999998
 21
2157.7615000000001
 31
0.0
  0
INSERT
  5
7F45
  8
3
  6
CONTINUOUS
 62
     0
  2
_OPEN
 10
3630.5914509999998
 20
2617.7615000000001
 30
0.0
 41
40.0
 42
40.0
 43
40.0
 50
90.0
  0
INSERT
  5
7F46
  8
3
  6
CONTINUOUS
 62
     0
  2
_OPEN
 10
3630.5914509999998
 20
2117.7614999999992
 30
0.0
 41
40.0
 42
40.0
 43
40.0
 50
270.0
  0
TEXT
  8
3
  40
60
  5
7F82
  62
0
  72
0
  71
0
 10
3460.59
 20
2264.75
 30
0.000000
  1
φ500
  0
POINT
  5
7F48
  8
DEFPOINTS
  6
CONTINUOUS
 62
     0
 10
3468.3374610000001
 20
2617.7615000000001
 30
0.0
  0
POINT
  5
7F49
  8
DEFPOINTS
  6
CONTINUOUS
 62
     0
 10
3468.3374610000001
 20
2117.7614999999992
 30
0.0
  0
POINT
  5
7F4A
  8
DEFPOINTS
  6
CONTINUOUS
 62
     0
 10
3630.5914509999998
 20
2117.7614999999992
 30
0.0
  0
ENDBLK
  5
7D9F
  8
0
  0
BLOCK
  8
0
  2
*D14
 70
     1
 10
0.0
 20
0.0
 30
0.0
  3
*D14
  1

  0
LINE
  5
7D81
  8
0
  6
BYBLOCK
 62
     0
 10
3468.3374610000001
 20
2627.7615000000001
 30
0.0
 11
3468.3374610000001
 21
2951.3193820000001
 31
0.0
  0
LINE
  5
7D82
  8
0
  6
BYBLOCK
 62
     0
 10
3287.3374609999992
 20
2912.2737309999989
 30
0.0
 11
3287.3374609999992
 21
2951.3193820000001
 31
0.0
  0
LINE
  5
7D83
  8
0
  6
BYBLOCK
 62
     0
 10
3428.3374610000001
 20
2931.3193820000001
 30
0.0
 11
3327.3374610000001
 21
2931.3193820000001
 31
0.0
  0
TEXT
  5
7D84
  8
3
 62
     0
 10
3319.2660324285721
 20
2954.5728603025941
 30
0.0
 40
60.0
  1
181
  0
INSERT
  5
7D85
  8
0
  6
BYBLOCK
 62
     0
  2
_OPEN
 10
3468.3374610000001
 20
2931.3193820000001
 30
0.0
 41
40.0
 42
40.0
 43
40.0
  0
INSERT
  5
7D86
  8
0
  6
BYBLOCK
 62
     0
  2
_OPEN
 10
3287.3374609999992
 20
2931.3193820000001
 30
0.0
 41
40.0
 42
40.0
 43
40.0
 50
180.0
  0
POINT
  5
7D87
  8
DEFPOINTS
  6
BYBLOCK
 62
     0
 10
3468.3374610000001
 20
2617.7615000000001
 30
0.0
  0
POINT
  5
7D88
  8
DEFPOINTS
  6
BYBLOCK
 62
     0
 10
3287.3374609999992
 20
2902.2737309999989
 30
0.0
  0
POINT
  5
7D89
  8
DEFPOINTS
  6
BYBLOCK
 62
     0
 10
3287.3374609999992
 20
2931.3193820000001
 30
0.0
  0
ENDBLK
  5
7D8A
  8
0
  0
BLOCK
  8
0
  2
*D15
 70
     1
 10
0.0
 20
0.0
 30
0.0
  3
*D15
  1

  0
LINE
  5
7F4B
  8
3
  6
CONTINUOUS
 62
     0
 10
892.76998499999991
 20
4218.8767959999996
 30
0.0
 11
892.76998499999991
 21
4396.0731210000004
 31
0.0
  0
LINE
  5
7F4C
  8
3
  6
CONTINUOUS
 62
     0
 10
2012.7699849999999
 20
4218.8767959999996
 30
0.0
 11
2012.7699849999999
 21
4396.0731210000004
 31
0.0
  0
LINE
  5
7F4D
  8
3
  6
CONTINUOUS
 62
     0
 10
932.76998500000002
 20
4376.0731210000004
 30
0.0
 11
1972.7699849999999
 21
4376.0731210000004
 31
0.0
  0
INSERT
  5
7F4E
  8
3
  6
CONTINUOUS
 62
     0
  2
_OPEN
 10
892.76998499999991
 20
4376.0731210000004
 30
0.0
 41
40.0
 42
40.0
 43
40.0
 50
180.0
  0
INSERT
  5
7F4F
  8
3
  6
CONTINUOUS
 62
     0
  2
_OPEN
 10
2012.7699849999999
 20
4376.0731210000004
 30
0.0
 41
40.0
 42
40.0
 43
40.0
  0
TEXT
  8
3
  40
60
  5
7F83
  62
0
  72
0
  71
0
 10
1300.24
 20
4319.87
 30
0.000000
  1
1120
  0
POINT
  5
7F51
  8
DEFPOINTS
  6
CONTINUOUS
 62
     0
 10
892.76998499999991
 20
4208.8767960000014
 30
0.0
  0
POINT
  5
7F52
  8
DEFPOINTS
  6
CONTINUOUS
 62
     0
 10
2012.7699849999999
 20
4208.8767960000014
 30
0.0
  0
POINT
  5
7F53
  8
DEFPOINTS
  6
CONTINUOUS
 62
     0
 10
2012.7699849999999
 20
4376.0731210000004
 30
0.0
  0
ENDBLK
  5
7C98
  8
0
  0
BLOCK
  8
0
  2
*D16
 70
     1
 10
0.0
 20
0.0
 30
0.0
  3
*D16
  1

  0
LINE
  5
7F54
  8
3
  6
CONTINUOUS
 62
     0
 10
882.76998500000002
 20
4208.8767960000014
 30
0.0
 11
737.40937400000075
 21
4208.8767960000014
 31
0.0
  0
LINE
  5
7F55
  8
3
  6
CONTINUOUS
 62
     0
 10
882.76998500000002
 20
3760.876796
 30
0.0
 11
737.40937400000064
 21
3760.876796
 31
0.0
  0
LINE
  5
7F56
  8
3
  6
CONTINUOUS
 62
     0
 10
757.40937400000075
 20
4168.8767960000014
 30
0.0
 11
757.40937400000064
 21
3800.876796
 31
0.0
  0
INSERT
  5
7F57
  8
3
  6
CONTINUOUS
 62
     0
  2
_OPEN
 10
757.40937400000075
 20
4208.8767960000014
 30
0.0
 41
40.0
 42
40.0
 43
40.0
 50
90.0
  0
INSERT
  5
7F58
  8
3
  6
CONTINUOUS
 62
     0
  2
_OPEN
 10
757.40937400000064
 20
3760.876796
 30
0.0
 41
40.0
 42
40.0
 43
40.0
 50
270.0
  0
TEXT
  8
3
  40
60
  5
7F84
  62
0
  72
0
  71
0
 10
587.409
 20
3851.25
 30
0.000000
  1
448
  0
POINT
  5
7F5A
  8
DEFPOINTS
  6
CONTINUOUS
 62
     0
 10
892.76998499999991
 20
4208.8767960000014
 30
0.0
  0
POINT
  5
7F5B
  8
DEFPOINTS
  6
CONTINUOUS
 62
     0
 10
892.76998499999991
 20
3760.876796
 30
0.0
  0
POINT
  5
7F5C
  8
DEFPOINTS
  6
CONTINUOUS
 62
     0
 10
757.40937400000064
 20
3760.876796
 30
0.0
  0
ENDBLK
  5
7CA3
  8
0
  0
BLOCK
  8
0
  2
*D17
 70
     1
 10
0.0
 20
0.0
 30
0.0
  3
*D17
  1

  0
LINE
  5
7F5D
  8
3
  6
CONTINUOUS
 62
     0
 10
2917.3374610000001
 20
2602.7615000000001
 30
0.0
 11
2917.3374610000001
 21
2951.3193820000001
 31
0.0
  0
LINE
  5
7F5E
  8
3
  6
CONTINUOUS
 62
     0
 10
3247.3374610000001
 20
2931.3193820000001
 30
0.0
 11
2957.3374610000001
 21
2931.3193820000001
 31
0.0
  0
INSERT
  5
7F5F
  8
3
  6
CONTINUOUS
 62
     0
  2
_OPEN
 10
3287.3374609999992
 20
2931.3193820000001
 30
0.0
 41
40.0
 42
40.0
 43
40.0
  0
INSERT
  5
7F60
  8
3
  6
CONTINUOUS
 62
     0
  2
_OPEN
 10
2917.3374610000001
 20
2931.3193820000001
 30
0.0
 41
40.0
 42
40.0
 43
40.0
 50
180.0
  0
TEXT
  8
3
  40
60
  5
7F85
  62
0
  72
0
  71
0
 10
2982.34
 20
2925.12
 30
0.000000
  1
MAX
  0
TEXT
  8
3
  40
60
  5
7F86
  62
0
  72
0
  71
0
 10
2982.34
 20
2847.12
 30
0.000000
  1
430
  0
POINT
  5
7F62
  8
DEFPOINTS
  6
CONTINUOUS
 62
     0
 10
3287.3374609999992
 20
2902.2737309999989
 30
0.0
  0
POINT
  5
7F63
  8
DEFPOINTS
  6
CONTINUOUS
 62
     0
 10
2917.3374610000001
 20
2592.7615000000001
 30
0.0
  0
POINT
  5
7F64
  8
DEFPOINTS
  6
CONTINUOUS
 62
     0
 10
2917.3374610000001
 20
2931.3193820000001
 30
0.0
  0
ENDBLK
  5
7D94
  8
0
  0
BLOCK
  8
0
  2
*D18
 70
     1
 10
0.0
 20
0.0
 30
0.0
  3
*D18
  1

  0
LINE
  5
7F65
  8
3
  6
CONTINUOUS
 62
     0
 10
3107.3374610000001
 20
2731.7415000000001
 30
0.0
 11
3107.3374610000001
 21
2829.6082689999998
 31
0.0
  0
LINE
  5
7F66
  8
3
  6
CONTINUOUS
 62
     0
 10
3467.3374610000001
 20
2731.7415000000001
 30
0.0
 11
3467.3374610000001
 21
2829.6082689999998
 31
0.0
  0
LINE
  5
7F67
  8
3
  6
CONTINUOUS
 62
     0
 10
3147.3374610000001
 20
2809.6082689999998
 30
0.0
 11
3427.3374610000001
 21
2809.6082689999998
 31
0.0
  0
INSERT
  5
7F68
  8
3
  6
CONTINUOUS
 62
     0
  2
_OPEN
 10
3107.3374610000001
 20
2809.6082689999998
 30
0.0
 41
40.0
 42
40.0
 43
40.0
 50
180.0
  0
INSERT
  5
7F69
  8
3
  6
CONTINUOUS
 62
     0
  2
_OPEN
 10
3467.3374610000001
 20
2809.6082689999998
 30
0.0
 41
40.0
 42
40.0
 43
40.0
  0
TEXT
  8
3
  40
60
  5
7F87
  62
0
  72
0
  71
0
 10
3148.04
 20
2753.41
 30
0.000000
  1
360
  0
POINT
  5
7F6B
  8
DEFPOINTS
  6
CONTINUOUS
 62
     0
 10
3107.3374610000001
 20
2721.7415000000001
 30
0.0
  0
POINT
  5
7F6C
  8
DEFPOINTS
  6
CONTINUOUS
 62
     0
 10
3467.3374610000001
 20
2721.7415000000001
 30
0.0
  0
POINT
  5
7F6D
  8
DEFPOINTS
  6
CONTINUOUS
 62
     0
 10
3467.3374610000001
 20
2809.6082689999998
 30
0.0
  0
ENDBLK
  5
7D2D
  8
0
  0
BLOCK
  8
0
  2
*D19
 70
     1
 10
0.0
 20
0.0
 30
0.0
  3
*D19
  1

  0
LINE
  5
7F6E
  8
3
 62
     0
 10
2067.7699849999999
 20
2412.7615000000001
 30
0.0
 11
2067.7699849999999
 21
3008.801969585556
 31
0.0
  0
LINE
  5
7F6F
  8
3
 62
     0
 10
892.76998499999991
 20
1857.7615000000001
 30
0.0
 11
892.76998499999991
 21
3008.801969585556
 31
0.0
  0
LINE
  5
7F70
  8
3
 62
     0
 10
2027.7699849999999
 20
2988.801969585556
 30
0.0
 11
932.76998500000002
 21
2988.801969585556
 31
0.0
  0
INSERT
  5
7F71
  8
3
 62
     0
  2
_OPEN
 10
2067.7699849999999
 20
2988.801969585556
 30
0.0
 41
40.0
 42
40.0
 43
40.0
  0
INSERT
  5
7F72
  8
3
 62
     0
  2
_OPEN
 10
892.76998499999991
 20
2988.801969585556
 30
0.0
 41
40.0
 42
40.0
 43
40.0
 50
180.0
  0
TEXT
  8
3
  40
60
  5
7F88
  62
0
  72
0
  71
0
 10
1386.46
 20
2932.60
 30
0.000000
  1
1175
  0
POINT
  5
7F74
  8
DEFPOINTS
 62
     0
 10
2067.7699849999999
 20
2402.7615000000001
 30
0.0
  0
POINT
  5
7F75
  8
DEFPOINTS
 62
     0
 10
892.76998499999991
 20
1847.7615000000001
 30
0.0
  0
POINT
  5
7F76
  8
DEFPOINTS
 62
     0
 10
892.76998499999991
 20
2988.801969585556
 30
0.0
  0
ENDBLK
  5
7DC1
  8
0
  0
ENDSEC
  0
SECTION
  2
ENTITIES
  0
LINE
  5
7A73
  8
1
  6
CONTINUOUS
 10
3467.3374610000001
 20
2412.7615000000001
 30
0.0
 11
3107.3374610000001
 21
1878.7615000000001
 31
0.0
  0
LINE
  5
7A74
  8
1
  6
CONTINUOUS
 10
3107.3374610000001
 20
2412.7615000000001
 30
0.0
 11
3467.3374610000001
 21
1878.7615000000001
 31
0.0
  0
LINE
  5
7A75
  8
1
  6
CONTINUOUS
 10
3467.3374610000001
 20
2721.7415000000001
 30
0.0
 11
3107.3374610000001
 21
2721.7415000000001
 31
0.0
  0
LINE
  5
7A76
  8
1
  6
CONTINUOUS
 10
3063.3374610000001
 20
1767.7614999999989
 30
0.0
 11
3511.3374610000001
 21
1767.7614999999989
 31
0.0
  0
LINE
  5
7A77
  8
1
  6
CONTINUOUS
 10
3107.3374610000001
 20
1878.7615000000001
 30
0.0
 11
3467.3374610000001
 21
1878.7615000000001
 31
0.0
  0
LINE
  5
7A78
  8
1
  6
CONTINUOUS
 10
3467.3374610000001
 20
2412.7615000000001
 30
0.0
 11
3107.3374610000001
 21
2412.7615000000001
 31
0.0
  0
LINE
  5
7A79
  8
1
  6
CONTINUOUS
 10
3063.3374610000001
 20
1680.7615000000001
 30
0.0
 11
3511.3374610000001
 21
1680.7615000000001
 31
0.0
  0
LINE
  5
7A7A
  8
1
  6
CONTINUOUS
 10
3063.3374610000001
 20
1745.7615000000001
 30
0.0
 11
3511.3374610000001
 21
1745.7615000000001
 31
0.0
  0
LINE
  5
7A7B
  8
1
  6
CONTINUOUS
 10
3063.3374610000001
 20
1847.7615000000001
 30
0.0
 11
3511.3374610000001
 21
1847.7615000000001
 31
0.0
  0
CIRCLE
  5
7A7C
  8
1
  6
CONTINUOUS
 10
1712.7699849999999
 20
2367.7614999999992
 30
0.0
 40
275.0
  0
LINE
  5
7A7D
  8
1
  6
CONTINUOUS
 10
1402.769984999999
 20
2722.7615000000001
 30
0.0
 11
2022.7699849999999
 21
2722.7615000000001
 31
0.0
  0
LINE
  5
7A7E
  8
1
  6
CONTINUOUS
 10
892.76998499999991
 20
1847.7615000000001
 30
0.0
 11
2022.7699849999999
 21
1847.7615000000001
 31
0.0
  0
LINE
  5
7A7F
  8
1
  6
CONTINUOUS
 10
892.76998499999991
 20
1767.7614999999989
 30
0.0
 11
2012.7699849999999
 21
1767.7614999999989
 31
0.0
  0
LINE
  5
7A80
  8
1
  6
CONTINUOUS
 10
892.76998499999991
 20
1680.7615000000001
 30
0.0
 11
2012.7699849999999
 21
1680.7615000000001
 31
0.0
  0
LINE
  5
7A81
  8
1
  6
CONTINUOUS
 10
892.76998499999991
 20
1745.7615000000001
 30
0.0
 11
2012.7699849999999
 21
1745.7615000000001
 31
0.0
  0
CIRCLE
  5
7A82
  8
1
  6
CONTINUOUS
 10
1712.7699849999999
 20
2367.7614999999992
 30
0.0
 40
120.0
  0
LINE
  5
7A83
  8
2
  6
CENTER
 10
1179.110224668857
 20
2367.7614999999992
 30
0.0
 11
2174.3836219999998
 21
2367.7614999999992
 31
0.0
  0
LINE
  5
7A8B
  8
1
  6
CONTINUOUS
 10
1137.549984999999
 20
1975.1114999999991
 30
0.0
 11
1762.3299850000001
 21
2258.4715000000001
 31
0.0
  0
ARC
  5
7A8C
  8
1
  6
CONTINUOUS
 10
1728.525173606015
 20
2322.2970634992039
 30
0.0
 40
415.84575538233588
 50
173.01027804922211
 51
267.77466416649838
  0
ARC
  5
7A8D
  8
1
  6
CONTINUOUS
 10
1681.605176406538
 20
2356.372874870618
 30
0.0
 40
366.20859549172951
 50
80.525683360531417
 51
177.412384135401
  0
CIRCLE
  5
7A8E
  8
1
  6
CONTINUOUS
 10
1712.7699849999999
 20
2367.7614999999992
 30
0.0
 40
250.0
  0
LINE
  5
7A8F
  8
2
  6
CENTER
 10
1052.7699849999999
 20
2029.7615000000001
 30
0.0
 11
1172.769984999999
 21
2029.7615000000001
 31
0.0
  0
CIRCLE
  5
7A90
  8
1
  6
CONTINUOUS
 10
1112.769984999999
 20
2029.7615000000001
 30
0.0
 40
60.0
  0
ARC
  5
7A91
  8
1
  6
CONTINUOUS
 10
1112.769984999999
 20
2029.7615000000001
 30
0.0
 40
122.0
 50
324.60000000000002
 51
215.39999999999989
  0
LINE
  5
7A92
  8
1
  6
CONTINUOUS
 10
982.76998500000002
 20
1897.7615000000001
 30
0.0
 11
1242.7699849999999
 21
1897.7615000000001
 31
0.0
  0
LINE
  5
7A93
  8
1
  6
CONTINUOUS
 10
1078.879985
 20
2079.2714999999989
 30
0.0
 11
1644.9899849999999
 21
2466.7815000000001
 31
0.0
  0
LINE
  5
7A94
  8
1
  6
CONTINUOUS
 10
892.76998499999991
 20
1847.7615000000001
 30
0.0
 11
892.76998499999991
 21
1767.7614999999989
 31
0.0
  0
LINE
  5
7A95
  8
1
  6
CONTINUOUS
 10
892.76998499999991
 20
1745.7615000000001
 30
0.0
 11
892.76998499999991
 21
1680.7615000000001
 31
0.0
  0
LINE
  5
7A96
  8
1
  6
CONTINUOUS
 10
982.76998500000002
 20
1897.7615000000001
 30
0.0
 11
1032.7699849999999
 21
1897.7615000000001
 31
0.0
  0
LINE
  5
7A97
  8
1
  6
CONTINUOUS
 10
982.76998500000002
 20
1847.7615000000001
 30
0.0
 11
982.76998500000002
 21
1897.7615000000001
 31
0.0
  0
LINE
  5
7A98
  8
1
  6
CONTINUOUS
 10
982.76998500000002
 20
1897.7615000000001
 30
0.0
 11
1013.329985
 21
1959.0814999999991
 31
0.0
  0
LINE
  5
7A99
  8
1
  6
CONTINUOUS
 10
1402.769984999999
 20
1847.7615000000001
 30
0.0
 11
1402.769984999999
 21
2722.7615000000001
 31
0.0
  0
LINE
  5
7A9A
  8
2
  6
CENTER
 10
1112.769984999999
 20
1969.7615000000001
 30
0.0
 11
1112.769984999999
 21
2089.7615000000001
 31
0.0
  0
LINE
  5
7A9B
  8
1
  6
CONTINUOUS
 10
1242.7699849999999
 20
1897.7615000000001
 30
0.0
 11
1212.209985
 21
1959.0814999999991
 31
0.0
  0
LINE
  5
7A9C
  8
1
  6
CONTINUOUS
 10
1242.7699849999999
 20
1847.7615000000001
 30
0.0
 11
1242.7699849999999
 21
1897.7615000000001
 31
0.0
  0
LINE
  5
7A9D
  8
1
  6
CONTINUOUS
 10
1242.7699849999999
 20
1897.7615000000001
 30
0.0
 11
1192.769984999999
 21
1897.7615000000001
 31
0.0
  0
LINE
  5
7A9E
  8
1
  6
CONTINUOUS
 10
2022.7699849999999
 20
1847.7615000000001
 30
0.0
 11
2022.7699849999999
 21
2722.7615000000001
 31
0.0
  0
LINE
  5
7A9F
  8
1
  6
CONTINUOUS
 10
2042.7699849999999
 20
2385.7615000000001
 30
0.0
 11
2042.7699849999999
 21
1905.8315
 31
0.0
  0
LINE
  5
7AA0
  8
1
  6
CONTINUOUS
 10
2067.7699849999999
 20
1888.7615000000001
 30
0.0
 11
2067.7699849999999
 21
2402.7615000000001
 31
0.0
  0
LINE
  5
7AA1
  8
1
  6
CONTINUOUS
 10
2067.7699849999999
 20
1905.7615000000001
 30
0.0
 11
1712.389985
 21
1906.7614999999989
 31
0.0
  0
LINE
  5
7AA2
  8
1
  6
CONTINUOUS
 10
2012.7699849999999
 20
1847.7615000000001
 30
0.0
 11
2012.7699849999999
 21
1767.7614999999989
 31
0.0
  0
LINE
  5
7AA3
  8
1
  6
CONTINUOUS
 10
2012.7699849999999
 20
1745.7615000000001
 30
0.0
 11
2012.7699849999999
 21
1680.7615000000001
 31
0.0
  0
ARC
  5
7AA4
  8
1
  6
CONTINUOUS
 10
1682.3088419999999
 20
2378.8905089999998
 30
0.0
 40
343.89392400000003
 50
1.140279
 51
80.023612000000014
  0
LINE
  5
7AA5
  8
2
  6
CENTER
 10
1712.7699849999999
 20
1592.507002291587
 30
0.0
 11
1712.7699849999999
 21
2872.7248559999989
 31
0.0
  0
LINE
  5
7AA6
  8
1
  6
CONTINUOUS
 10
2026.139985
 20
2385.7615000000001
 30
0.0
 11
2067.7699849999999
 21
2385.7615000000001
 31
0.0
  0
LINE
  5
7AA7
  8
1
  6
CONTINUOUS
 10
3107.3374610000001
 20
2721.7415000000001
 30
0.0
 11
3107.3374610000001
 21
1878.7615000000001
 31
0.0
  0
LINE
  5
7AA8
  8
1
  6
CONTINUOUS
 10
2917.3374610000001
 20
1847.7615000000001
 30
0.0
 11
2917.3374610000001
 21
2592.7615000000001
 31
0.0
  0
LINE
  5
7AA9
  8
1
  6
CONTINUOUS
 10
3037.3374610000001
 20
2592.7615000000001
 30
0.0
 11
3037.3374610000001
 21
1847.7615000000001
 31
0.0
  0
LINE
  5
7AAA
  8
1
  6
CONTINUOUS
 10
2947.3374610000001
 20
1979.7615000000001
 30
0.0
 11
3007.3374610000001
 21
1979.7615000000001
 31
0.0
  0
LINE
  5
7AAB
  8
1
  6
CONTINUOUS
 10
3007.3374610000001
 20
2079.7615000000001
 30
0.0
 11
2947.3374610000001
 21
2079.7615000000001
 31
0.0
  0
LINE
  5
7AAC
  8
1
  6
CONTINUOUS
 10
3037.3374610000001
 20
1847.7615000000001
 30
0.0
 11
2917.3374610000001
 21
1847.7615000000001
 31
0.0
  0
LINE
  5
7AAF
  8
1
  6
CONTINUOUS
 10
2947.3374610000001
 20
2079.7615000000001
 30
0.0
 11
2947.3374610000001
 21
1979.7615000000001
 31
0.0
  0
LINE
  5
7AB0
  8
1
  6
CONTINUOUS
 10
3063.3374610000001
 20
1847.7615000000001
 30
0.0
 11
3063.3374610000001
 21
1767.7614999999989
 31
0.0
  0
LINE
  5
7AB1
  8
1
  6
CONTINUOUS
 10
3063.3374610000001
 20
1745.7615000000001
 30
0.0
 11
3063.3374610000001
 21
1680.7615000000001
 31
0.0
  0
LINE
  5
7AB2
  8
1
  6
CONTINUOUS
 10
3107.3374610000001
 20
1878.7615000000001
 30
0.0
 11
3107.3374610000001
 21
1847.7615000000001
 31
0.0
  0
LINE
  5
7AB3
  8
1
  6
CONTINUOUS
 10
3007.3374610000001
 20
1979.7615000000001
 30
0.0
 11
3007.3374610000001
 21
2079.7615000000001
 31
0.0
  0
LINE
  5
7AB4
  8
1
  6
CONTINUOUS
 10
3007.3374610000001
 20
2010.7615000000001
 30
0.0
 11
3107.3374610000001
 21
2010.7615000000001
 31
0.0
  0
LINE
  5
7AB5
  8
1
  6
CONTINUOUS
 10
3007.3374610000001
 20
2048.7615000000001
 30
0.0
 11
3107.3374610000001
 21
2048.7615000000001
 31
0.0
  0
LINE
  5
7AB6
  8
1
  6
CONTINUOUS
 10
3007.3374610000001
 20
2487.7615000000001
 30
0.0
 11
2947.3374610000001
 21
2487.7615000000001
 31
0.0
  0
LINE
  5
7AB7
  8
1
  6
CONTINUOUS
 10
3007.3374610000001
 20
2247.7615000000001
 30
0.0
 11
2947.3374610000001
 21
2247.7615000000001
 31
0.0
  0
LINE
  5
7AB8
  8
1
  6
CONTINUOUS
 10
2917.3374610000001
 20
2592.7615000000001
 30
0.0
 11
3037.3374610000001
 21
2592.7615000000001
 31
0.0
  0
LINE
  5
7AB9
  8
1
  6
CONTINUOUS
 10
2947.3374610000001
 20
2487.7615000000001
 30
0.0
 11
2947.3374610000001
 21
2247.7615000000001
 31
0.0
  0
LINE
  5
7ABA
  8
1
  6
CONTINUOUS
 10
3007.3374610000001
 20
2386.7614999999992
 30
0.0
 11
3107.3374610000001
 21
2386.7614999999992
 31
0.0
  0
LINE
  5
7ABB
  8
1
  6
CONTINUOUS
 10
3007.3374610000001
 20
2348.7615000000001
 30
0.0
 11
3107.3374610000001
 21
2348.7615000000001
 31
0.0
  0
LINE
  5
7ABC
  8
1
  6
CONTINUOUS
 10
3007.3374610000001
 20
2247.7615000000001
 30
0.0
 11
3007.3374610000001
 21
2487.7615000000001
 31
0.0
  0
LINE
  5
7ABD
  8
1
  6
CONTINUOUS
 10
1304.5799849999989
 20
3802.876796
 30
0.0
 11
2067.7699849999999
 21
3802.876796
 31
0.0
  0
LINE
  5
7ABE
  8
1
  6
CONTINUOUS
 10
1304.5799849999989
 20
4166.8767959999996
 30
0.0
 11
2067.7699849999999
 21
4166.8767959999996
 31
0.0
  0
LINE
  5
7ABF
  8
1
  6
CONTINUOUS
 10
1832.7699849999999
 20
3704.876796
 30
0.0
 11
1592.7699849999999
 21
3704.876796
 31
0.0
  0
LINE
  5
7AC0
  8
1
  6
CONTINUOUS
 10
892.76998499999991
 20
4208.8767960000014
 30
0.0
 11
2012.7699849999999
 21
4208.8767960000014
 31
0.0
  0
LINE
  5
7AC1
  8
1
  6
CONTINUOUS
 10
1592.7699849999999
 20
3644.876796
 30
0.0
 11
1832.7699849999999
 21
3644.876796
 31
0.0
  0
LINE
  5
7AC2
  8
1
  6
CONTINUOUS
 10
938.26998499999991
 20
3614.876796
 30
0.0
 11
1938.2699849999999
 21
3614.876796
 31
0.0
  0
LINE
  5
7AC3
  8
1
  6
CONTINUOUS
 10
1938.2699849999999
 20
3734.876796
 30
0.0
 11
938.26998499999991
 21
3734.876796
 31
0.0
  0
LINE
  5
7AC4
  8
1
  6
CONTINUOUS
 10
1162.769984999999
 20
3704.876796
 30
0.0
 11
1062.769984999999
 21
3704.876796
 31
0.0
  0
LINE
  5
7AC5
  8
1
  6
CONTINUOUS
 10
990.76998499999979
 20
4135.1167960000012
 30
0.0
 11
1234.7699849999999
 21
4135.1167960000012
 31
0.0
  0
LINE
  5
7AC6
  8
1
  6
CONTINUOUS
 10
990.76998499999979
 20
3785.1167959999998
 30
0.0
 11
1234.7699849999999
 21
3785.1167959999998
 31
0.0
  0
LINE
  5
7AC7
  8
1
  6
CONTINUOUS
 10
892.76998499999991
 20
3760.876796
 30
0.0
 11
1093.769984999999
 21
3760.876796
 31
0.0
  0
LINE
  5
7AC8
  8
1
  6
CONTINUOUS
 10
1062.769984999999
 20
3644.876796
 30
0.0
 11
1162.769984999999
 21
3644.876796
 31
0.0
  0
LINE
  5
7AC9
  8
1
  6
CONTINUOUS
 10
892.76998499999991
 20
4208.8767960000014
 30
0.0
 11
892.76998499999991
 21
3760.876796
 31
0.0
  0
LINE
  5
7ACA
  8
1
  6
CONTINUOUS
 10
938.26998499999991
 20
3734.876796
 30
0.0
 11
938.26998499999991
 21
3614.876796
 31
0.0
  0
LINE
  5
7ACB
  8
1
  6
CONTINUOUS
 10
1062.769984999999
 20
3704.876796
 30
0.0
 11
1062.769984999999
 21
3644.876796
 31
0.0
  0
LINE
  5
7ACC
  8
1
  6
CONTINUOUS
 10
990.76998499999979
 20
3785.1167959999998
 30
0.0
 11
990.76998499999979
 21
4135.1167960000012
 31
0.0
  0
LINE
  5
7ACD
  8
1
  6
CONTINUOUS
 10
1131.769984999999
 20
3760.876796
 30
0.0
 11
1693.7699849999999
 21
3760.876796
 31
0.0
  0
LINE
  5
7ACE
  8
1
  6
CONTINUOUS
 10
1131.769984999999
 20
3704.876796
 30
0.0
 11
1131.769984999999
 21
3785.1167959999998
 31
0.0
  0
LINE
  5
7ACF
  8
1
  6
CONTINUOUS
 10
1093.769984999999
 20
3704.876796
 30
0.0
 11
1093.769984999999
 21
3785.1167959999998
 31
0.0
  0
LINE
  5
7AD0
  8
1
  6
CONTINUOUS
 10
1162.769984999999
 20
3644.876796
 30
0.0
 11
1162.769984999999
 21
3704.876796
 31
0.0
  0
LINE
  5
7AD1
  8
1
  6
CONTINUOUS
 10
1234.7699849999999
 20
3785.1167959999998
 30
0.0
 11
1234.7699849999999
 21
4135.1167960000012
 31
0.0
  0
LINE
  5
7AD2
  8
1
  6
CONTINUOUS
 10
1304.5799849999989
 20
3802.876796
 30
0.0
 11
1304.5799849999989
 21
4166.8767959999996
 31
0.0
  0
LINE
  5
7AD3
  8
1
  6
CONTINUOUS
 10
1693.7699849999999
 20
3704.876796
 30
0.0
 11
1693.7699849999999
 21
3803.876796
 31
0.0
  0
LINE
  5
7AD4
  8
1
  6
CONTINUOUS
 10
1592.7699849999999
 20
3644.876796
 30
0.0
 11
1592.7699849999999
 21
3704.876796
 31
0.0
  0
LINE
  5
7AD5
  8
1
  6
CONTINUOUS
 10
2012.7699849999999
 20
4208.8767960000014
 30
0.0
 11
2012.7699849999999
 21
4166.8767959999996
 31
0.0
  0
LINE
  5
7AD6
  8
1
  6
CONTINUOUS
 10
1731.7699849999999
 20
3760.876796
 30
0.0
 11
2012.7699849999999
 21
3760.876796
 31
0.0
  0
LINE
  5
7AD7
  8
1
  6
CONTINUOUS
 10
1731.7699849999999
 20
3704.876796
 30
0.0
 11
1731.7699849999999
 21
3803.876796
 31
0.0
  0
LINE
  5
7AD8
  8
1
  6
CONTINUOUS
 10
1832.7699849999999
 20
3644.876796
 30
0.0
 11
1832.7699849999999
 21
3704.876796
 31
0.0
  0
LINE
  5
7AD9
  8
1
  6
CONTINUOUS
 10
1938.2699849999999
 20
3614.876796
 30
0.0
 11
1938.2699849999999
 21
3734.876796
 31
0.0
  0
LINE
  5
7ADA
  8
1
  6
CONTINUOUS
 10
2012.7699849999999
 20
3802.876796
 30
0.0
 11
2012.7699849999999
 21
3760.876796
 31
0.0
  0
LINE
  5
7ADB
  8
1
  6
CONTINUOUS
 10
2067.7699849999999
 20
3777.876796
 30
0.0
 11
2067.7699849999999
 21
4191.8767959999996
 31
0.0
  0
LINE
  5
7ADC
  8
1
  6
CONTINUOUS
 10
2042.7699849999999
 20
3803.876796
 30
0.0
 11
2042.7699849999999
 21
4165.8767959999996
 31
0.0
  0
LINE
  5
7ADD
  8
1
  6
CONTINUOUS
 10
3467.3374610000001
 20
2721.7415000000001
 30
0.0
 11
3467.3374610000001
 21
1878.7615000000001
 31
0.0
  0
LINE
  5
7ADE
  8
1
  6
CONTINUOUS
 10
3511.3374610000001
 20
1847.7615000000001
 30
0.0
 11
3511.3374610000001
 21
1767.7614999999989
 31
0.0
  0
LINE
  5
7ADF
  8
1
  6
CONTINUOUS
 10
3511.3374610000001
 20
1745.7615000000001
 30
0.0
 11
3511.3374610000001
 21
1680.7615000000001
 31
0.0
  0
LINE
  5
7AE0
  8
1
  6
CONTINUOUS
 10
3467.3374610000001
 20
1878.7615000000001
 30
0.0
 11
3467.3374610000001
 21
1847.7615000000001
 31
0.0
  0
LINE
  5
7AE2
  8
2
  6
CENTER
 10
851.77649191207445
 20
3984.876796
 30
0.0
 11
2163.282048
 21
3984.876796
 31
0.0
  0
LINE
  5
7AE3
  8
2
  6
CENTER
 10
1712.7699849999999
 20
3575.8135351282049
 30
0.0
 11
1712.7699849999999
 21
4261.2161638237158
 31
0.0
  0
LINE
  5
7AE4
  8
2
  6
CENTER
 10
2875.5889139999999
 20
2367.7614999999992
 30
0.0
 11
3517.341089
 21
2367.7614999999992
 31
0.0
  0
LINE
  5
7AE5
  8
4
  6
CONTINUOUS
 10
3700.0
 20
1000.0
 30
0.0
 11
3700.0
 21
600.0
 31
0.0
  0
LINE
  5
7AE6
  8
4
  6
CONTINUOUS
 10
2300.0
 20
1000.0
 30
0.0
 11
2300.0
 21
600.0
 31
0.0
  0
LINE
  5
7AE7
  8
4
  6
CONTINUOUS
 10
1300.0
 20
1000.0
 30
0.0
 11
1300.0
 21
600.0
 31
0.0
  0
LINE
  5
7AEA
  8
4
  6
CONTINUOUS
 10
1300.0
 20
600.0
 30
0.0
 11
3700.0
 21
600.0
 31
0.0
  0
LINE
  5
7AEB
  8
4
  6
CONTINUOUS
 10
1300.0
 20
800.0
 30
0.0
 11
3700.0
 21
800.0
 31
0.0
  0
TEXT
  5
7AEC
  8
4
  6
CONTINUOUS
 10
1377.004162
 20
863.086052
 30
0.0
 40
100.0
  1
機器名称
  0
TEXT
  5
7AED
  8
4
  6
CONTINUOUS
 10
1372.516212
 20
643.29031299999986
 30
0.0
 40
100.0
  1
機器型番
  0
TEXT
  5
7AEE
  8
4
  6
CONTINUOUS
 10
2355.3574910000002
 20
845.14353800000015
 30
0.0
 40
100.0
  1
ミツヤ多翼送風機
  0
TEXT
  5
7AEF
  8
4
  6
CONTINUOUS
 10
2373.3089909999999
 20
634.31916899999999
 30
0.0
 40
100.0
  1
MFE#3-4
  0
TEXT
  5
7AF1
  8
4
  6
CONTINUOUS
 10
1544.5656389999999
 20
4766.8576830000002
 30
0.0
 40
108.0
  1
床置防振ベット
  0
TEXT
  5
7AF2
  8
4
  6
CONTINUOUS
 10
632.33518700000002
 20
5067.7619520000007
 30
0.0
 40
144.0
  1
ベルト駆動式片吸込両持排煙ファン
  0
LINE
  5
7AF3
  8
4
  6
CONTINUOUS
 10
500.0
 20
4938.8175090000004
 30
0.0
 11
3700.0
 21
4938.8175090000004
 31
0.0
  0
LINE
  5
7AF4
  8
4
  6
CONTINUOUS
 10
500.0
 20
5338.8175090000004
 30
0.0
 11
3700.0
 21
5338.8175090000004
 31
0.0
  0
LINE
  5
7AF5
  8
4
  6
CONTINUOUS
 10
1300.0
 20
1000.0
 30
0.0
 11
3700.0
 21
1000.0
 31
0.0
  0
LINE
  5
7AF6
  8
4
  6
CONTINUOUS
 10
500.0
 20
5338.8175090000004
 30
0.0
 11
500.0
 21
4938.8175090000004
 31
0.0
  0
TEXT
  5
7AF7
  8
4
  6
CONTINUOUS
 10
597.13199799999995
 20
4764.6389549999994
 30
0.0
 40
108.0
  1
左回転右横向
  0
TEXT
  5
7AF8
  8
4
  6
CONTINUOUS
 10
2937.9391179999998
 20
5412.122163
 30
0.0
 40
112.0
  1
No.
  0
TEXT
  5
7AF9
  8
4
  6
CONTINUOUS
 10
2622.5921250000001
 20
4766.8576830000002
 30
0.0
 40
108.0
  1
縮尺：1/20
  0
LINE
  5
7AFA
  8
4
  6
CONTINUOUS
 10
3700.0
 20
5338.8175090000004
 30
0.0
 11
3700.0
 21
4938.8175090000004
 31
0.0
  0
LINE
  5
7AFC
  8
4
  6
CONTINUOUS
 10
2881.234845
 20
5362.5271659999999
 30
0.0
 11
2881.234845
 21
5573.3045229999998
 31
0.0
  0
LINE
  5
7AFD
  8
4
  6
CONTINUOUS
 10
2881.234845
 20
5573.3045229999998
 30
0.0
 11
3700.0
 21
5573.3045229999998
 31
0.0
  0
LINE
  5
7AFE
  8
4
  6
CONTINUOUS
 10
3700.0
 20
5573.3045229999998
 30
0.0
 11
3700.0
 21
5362.5271659999999
 31
0.0
  0
LINE
  5
7AFF
  8
4
  6
CONTINUOUS
 10
3700.0
 20
5362.5271659999999
 30
0.0
 11
2881.234845
 21
5362.5271659999999
 31
0.0
  0
LINE
  5
7B04
  8
1
  6
CONTINUOUS
 10
1938.2699849999999
 20
1847.7615000000001
 30
0.0
 11
1938.2699849999999
 21
2517.7615000000001
 31
0.0
  0
LINE
  5
7B05
  8
1
  6
CONTINUOUS
 10
1938.2699849999999
 20
2517.7615000000001
 30
0.0
 11
1698.2699849999999
 21
2592.7615000000001
 31
0.0
  0
LINE
  5
7B06
  8
1
  6
CONTINUOUS
 10
1698.2699849999999
 20
2592.7615000000001
 30
0.0
 11
938.26998499999991
 21
2082.7615000000001
 31
0.0
  0
LINE
  5
7B07
  8
1
  6
CONTINUOUS
 10
938.26998499999991
 20
2082.7615000000001
 30
0.0
 11
938.26998499999991
 21
1847.7615000000001
 31
0.0
  0
DIMENSION
  5
7B1B
  8
3
  6
CONTINUOUS
  2
*D1
 10
2190.3454750000001
 20
1905.7615000000001
 30
0.0
 11
2190.3454750000001
 21
2137.1340749999999
 31
0.0
 70
   128
 13
2067.7699849999999
 23
2385.7615000000001
 33
0.0
 14
2067.7699849999999
 24
1905.7615000000001
 34
0.0
 50
90.0
1001
ACAD
1000
DSTYLE
1002
{
1070
   287
1070
     3
1070
   287
1070
     3
1070
    40
1040
20.0
1070
   143
1040
0.039
1070
   172
1070
     1
1070
   271
1070
     0
1070
   279
1070
     0
1070
   288
1070
     1
1002
}
  0
DIMENSION
  5
7B28
  8
3
  6
CONTINUOUS
  2
*D2
 10
2299.8208450000002
 20
2367.7614999999992
 30
0.0
 11
2299.8208449999988
 21
2137.1340749999999
 31
0.0
 70
   128
 13
2067.7699849999999
 23
1905.7615000000001
 33
0.0
 14
2174.3836219999998
 24
2367.7614999999992
 34
0.0
 50
90.0
1001
ACAD
1000
DSTYLE
1002
{
1070
   287
1070
     3
1070
   287
1070
     3
1070
    40
1040
20.0
1070
   143
1040
0.039
1070
   172
1070
     1
1070
   271
1070
     0
1070
   279
1070
     0
1070
   288
1070
     1
1002
}
  0
DIMENSION
  5
7B35
  8
3
  6
CONTINUOUS
  2
*D3
 10
2424.396283
 20
2367.7614999999992
 30
0.0
 11
2424.396283
 21
2551.9744620000001
 31
0.0
 70
   128
 13
2022.7699849999999
 23
2722.7615000000001
 33
0.0
 14
2174.3836219999998
 24
2367.7614999999992
 34
0.0
 50
90.0
1001
ACAD
1000
DSTYLE
1002
{
1070
   287
1070
     3
1070
   287
1070
     3
1070
    40
1040
20.0
1070
   143
1040
0.039
1070
   172
1070
     1
1070
   271
1070
     0
1070
   279
1070
     0
1070
   288
1070
     1
1002
}
  0
DIMENSION
  5
7B4D
  8
3
  6
CONTINUOUS
  2
*D4
 10
2424.396283
 20
1767.7614999999989
 30
0.0
 11
2374.3962829999991
 21
2067.7615000000001
 31
0.0
 70
     0
 13
2174.3836219999998
 23
2367.7614999999992
 33
0.0
 14
2012.7699849999999
 24
1767.7614999999989
 34
0.0
 50
90.0
1001
ACAD
1000
DSTYLE
1002
{
1070
   287
1070
     4
1070
   287
1070
     4
1070
    40
1040
20.0
1070
    75
1070
     1
1070
   143
1040
0.039
1070
   172
1070
     1
1070
   271
1070
     0
1070
   279
1070
     1
1070
   288
1070
     1
1002
}
  0
DIMENSION
  5
7B5D
  8
3
  6
CONTINUOUS
  2
*D5
 10
2424.7774789999999
 20
1680.7615000000001
 30
0.0
 11
2424.7774789999989
 21
1532.1900714285709
 31
0.0
 70
   128
 13
2012.7699849999999
 23
1767.7614999999989
 33
0.0
 14
2012.7699849999999
 24
1680.7615000000001
 34
0.0
 50
90.0
1001
ACAD
1000
DSTYLE
1002
{
1070
   287
1070
     3
1070
   287
1070
     3
1070
    40
1040
20.0
1070
   143
1040
0.039
1070
   172
1070
     1
1070
   271
1070
     0
1070
   279
1070
     0
1070
   288
1070
     1
1002
}
  0
DIMENSION
  5
7B6A
  8
3
  6
CONTINUOUS
  2
*D6
 10
2557.8330140000012
 20
1680.7615000000001
 30
0.0
 11
2557.8330139999998
 21
2205.017038
 31
0.0
 70
   128
 13
2022.7699849999999
 23
2722.7615000000001
 33
0.0
 14
2012.7699849999999
 24
1680.7615000000001
 34
0.0
 50
90.0
1001
ACAD
1000
DSTYLE
1002
{
1070
   287
1070
     3
1070
   287
1070
     3
1070
    40
1040
20.0
1070
   143
1040
0.039
1070
   172
1070
     1
1070
   271
1070
     0
1070
   279
1070
     0
1070
   288
1070
     1
1002
}
  0
DIMENSION
  5
7B77
  8
3
  6
CONTINUOUS
  2
*D7
 10
1712.7699849999999
 20
2857.585251
 30
0.0
 11
1873.244418
 21
2857.585251
 31
0.0
 70
   128
 13
2067.7699849999999
 23
2402.7615000000001
 33
0.0
 14
1712.7699849999999
 24
2872.7248559999989
 34
0.0
1001
ACAD
1000
DSTYLE
1002
{
1070
   287
1070
     3
1070
   287
1070
     3
1070
    40
1040
20.0
1070
   143
1040
0.039
1070
   172
1070
     1
1070
   271
1070
     0
1070
   279
1070
     0
1070
   288
1070
     1
1002
}
  0
DIMENSION
  5
7B83
  8
3
  6
CONTINUOUS
  2
*D8
 10
1315.7699849999999
 20
2857.585251
 30
0.0
 11
1514.2699849999999
 21
2907.585251
 31
0.0
 70
     0
 13
1712.7699849999999
 23
2872.7248559999989
 33
0.0
 14
1315.7699849999999
 24
2367.7614999999992
 34
0.0
1001
ACAD
1000
DSTYLE
1002
{
1070
   287
1070
     4
1070
   287
1070
     4
1070
    40
1040
20.0
1070
    75
1070
     1
1070
   143
1040
0.039
1070
   172
1070
     1
1070
   271
1070
     0
1070
   279
1070
     1
1070
   288
1070
     1
1002
}
  0
DIMENSION
  5
7B90
  8
3
  6
CONTINUOUS
  2
*D9
 10
1712.7699849999999
 20
1548.8149749999991
 30
0.0
 11
1318.3175609999989
 21
1548.8149749999991
 31
0.0
 70
   128
 13
892.76998499999991
 23
1680.7615000000001
 33
0.0
 14
1712.7699849999999
 24
1592.507002291587
 34
0.0
1001
ACAD
1000
DSTYLE
1002
{
1070
   287
1070
     3
1070
   287
1070
     3
1070
    40
1040
20.0
1070
   143
1040
0.039
1070
   172
1070
     1
1070
   271
1070
     0
1070
   279
1070
     0
1070
   288
1070
     1
1002
}
  0
DIMENSION
  5
7B9C
  8
3
  6
CONTINUOUS
  2
*D10
 10
2012.7699849999999
 20
1548.8149749999991
 30
0.0
 11
1862.7699849999999
 21
1598.8149749999991
 31
0.0
 70
     0
 13
1712.7699849999999
 23
1592.507002291587
 33
0.0
 14
2012.7699849999999
 24
1680.7615000000001
 34
0.0
1001
ACAD
1000
DSTYLE
1002
{
1070
   287
1070
     4
1070
   287
1070
     4
1070
    40
1040
20.0
1070
    75
1070
     1
1070
   143
1040
0.039
1070
   172
1070
     1
1070
   271
1070
     0
1070
   279
1070
     1
1070
   288
1070
     1
1002
}
  0
DIMENSION
  5
7BD7
  8
3
  6
CONTINUOUS
  2
*D11
 10
3287.3374609999992
 20
1512.0047389999991
 30
0.0
 11
3175.3374610000001
 21
1572.0496130009501
 31
0.0
 70
   128
 13
3063.3374610000001
 23
1680.7615000000001
 33
0.0
 14
3287.3374609999992
 24
1525.9600589999991
 34
0.0
1001
ACAD
1000
DSTYLE
1002
{
1070
   288
1070
     1
1070
   172
1070
     1
1070
    40
1040
20.0
1070
   271
1070
     0
1070
   143
1040
0.039
1002
}
  0
DIMENSION
  5
7BE5
  8
3
  6
CONTINUOUS
  2
*D12
 10
3511.3374610000001
 20
1512.0047389999991
 30
0.0
 11
3415.6303009999988
 21
1511.681466
 31
0.0
 70
   128
 13
3287.3374609999992
 23
1525.9600589999991
 33
0.0
 14
3511.3374610000001
 24
1680.7615000000001
 34
0.0
1001
ACAD
1000
DSTYLE
1002
{
1070
   287
1070
     4
1070
   287
1070
     4
1070
    40
1040
20.0
1070
    75
1070
     1
1070
   143
1040
0.039
1070
   172
1070
     1
1070
   271
1070
     0
1070
   279
1070
     1
1070
   288
1070
     1
1002
}
  0
LINE
  5
7C09
  8
1
  6
CONTINUOUS
 10
3468.3374610000001
 20
2617.7615000000001
 30
0.0
 11
3468.3374610000001
 21
2117.7614999999992
 31
0.0
  0
DIMENSION
  5
7C19
  8
3
  6
CONTINUOUS
  2
*D13
 10
3630.5914509999998
 20
2117.7614999999992
 30
0.0
 11
3630.5914509999998
 21
2370.953199
 31
0.0
 70
   128
 13
3468.3374610000001
 23
2617.7615000000001
 33
0.0
 14
3468.3374610000001
 24
2117.7614999999992
 34
0.0
 50
90.0
1001
ACAD
1000
DSTYLE
1002
{
1070
   287
1070
     3
1070
   287
1070
     3
1070
     3
1000
φ<>
1070
    40
1040
20.0
1070
   143
1040
0.039
1070
   172
1070
     1
1070
   271
1070
     0
1070
   279
1070
     0
1070
   288
1070
     1
1002
}
  0
DIMENSION
  5
7C28
  8
3
  6
CONTINUOUS
  2
*D14
 10
3287.3374609999992
 20
2931.3193820000001
 30
0.0
 11
3377.8374610000001
 21
2984.572860302595
 31
0.0
 70
   128
 13
3468.3374610000001
 23
2617.7615000000001
 33
0.0
 14
3287.3374609999992
 24
2902.2737309999989
 34
0.0
1001
ACAD
1000
DSTYLE
1002
{
1070
   288
1070
     1
1070
   172
1070
     1
1070
    40
1040
20.0
1070
   271
1070
     0
1070
   143
1040
0.039
1002
}
  0
DIMENSION
  5
7C41
  8
3
  6
CONTINUOUS
  2
*D15
 10
2012.7699849999999
 20
4376.0731210000004
 30
0.0
 11
1420.242896
 21
4376.0731210000004
 31
0.0
 70
   128
 13
892.76998499999991
 23
4208.8767960000014
 33
0.0
 14
2012.7699849999999
 24
4208.8767960000014
 34
0.0
1001
ACAD
1000
DSTYLE
1002
{
1070
   287
1070
     3
1070
   287
1070
     3
1070
    40
1040
20.0
1070
   143
1040
0.039
1070
   172
1070
     1
1070
   271
1070
     0
1070
   279
1070
     0
1070
   288
1070
     1
1002
}
  0
DIMENSION
  5
7C4E
  8
3
  6
CONTINUOUS
  2
*D16
 10
757.40937400000064
 20
3760.876796
 30
0.0
 11
757.40937400000007
 21
3957.4495750000001
 31
0.0
 70
   128
 13
892.76998499999991
 23
4208.8767960000014
 33
0.0
 14
892.76998499999991
 24
3760.876796
 34
0.0
 50
90.0
1001
ACAD
1000
DSTYLE
1002
{
1070
   287
1070
     3
1070
   287
1070
     3
1070
    40
1040
20.0
1070
   143
1040
0.039
1070
   172
1070
     1
1070
   271
1070
     0
1070
   279
1070
     0
1070
   288
1070
     1
1002
}
  0
DIMENSION
  5
7CDC
  8
3
  6
CONTINUOUS
  2
*D17
 10
2917.3374610000001
 20
2931.3193820000001
 30
0.0
 11
3102.3374610000001
 21
3031.3193820000001
 31
0.0
 70
     0
  1
MAX\P430
 13
3287.3374609999992
 23
2902.2737309999989
 33
0.0
 14
2917.3374610000001
 24
2592.7615000000001
 34
0.0
1001
ACAD
1000
DSTYLE
1002
{
1070
   287
1070
     4
1070
   287
1070
     4
1070
    40
1040
20.0
1070
    75
1070
     1
1070
   143
1040
0.039
1070
   172
1070
     1
1070
   271
1070
     0
1070
   279
1070
     1
1070
   288
1070
     1
1002
}
  0
DIMENSION
  5
7D2E
  8
3
  6
CONTINUOUS
  2
*D18
 10
3467.3374610000001
 20
2809.6082689999998
 30
0.0
 11
3268.036701999999
 21
2809.6082689999998
 31
0.0
 70
   128
 13
3107.3374610000001
 23
2721.7415000000001
 33
0.0
 14
3467.3374610000001
 24
2721.7415000000001
 34
0.0
1001
ACAD
1000
DSTYLE
1002
{
1070
   287
1070
     3
1070
   287
1070
     3
1070
    40
1040
20.0
1070
   143
1040
0.039
1070
   172
1070
     1
1070
   271
1070
     0
1070
   279
1070
     0
1070
   288
1070
     1
1002
}
  0
LINE
  5
7D2F
  8
2
  6
CENTER
 10
3287.3374609999992
 20
2771.369604
 30
0.0
 11
3287.3374609999992
 21
1525.9600589999991
 31
0.0
  0
DIMENSION
  5
7DC2
  8
3
  2
*D19
 10
892.76998499999991
 20
2988.801969585556
 30
0.0
 11
1506.4570253399429
 21
2988.801969585556
 31
0.0
 70
   128
 13
2067.7699849999999
 23
2402.7615000000001
 33
0.0
 14
892.76998499999991
 24
1847.7615000000001
 34
0.0
1001
ACAD
1000
DSTYLE
1002
{
1070
   287
1070
     3
1070
   287
1070
     3
1070
    40
1040
20.0
1070
   143
1040
0.039
1070
   172
1070
     1
1070
   271
1070
     0
1070
   279
1070
     0
1070
   288
1070
     1
1002
}
  0
ENDSEC
  0
EOF
