  0
SECTION
  2
HEADER
  9
$ACADVER
  1
AC1009
  9
$INSBASE
 10
0.0
 20
0.0
 30
0.0
  9
$EXTMIN
 10
500.0
 20
600.0
 30
0.0
  9
$EXTMAX
 10
3700.0
 20
5573.3045229999998
 30
0.0
  9
$LIMMIN
 10
0.0
 20
0.0
  9
$LIMMAX
 10
297.0
 20
210.0
  9
$ORTHOMODE
 70
     0
  9
$REGENMODE
 70
     1
  9
$FILLMODE
 70
     0
  9
$QTEXTMODE
 70
     0
  9
$MIRRTEXT
 70
     1
  9
$DRAGMODE
 70
     2
  9
$LTSCALE
 40
100.0
  9
$OSMODE
 70
    37
  9
$ATTMODE
 70
     1
  9
$TEXTSIZE
 40
180.0
  9
$TRACEWID
 40
0.05
  9
$TEXTSTYLE
  7
STANDARD
  9
$CLAYER
  8
3
  9
$CELTYPE
  6
BYLAYER
  9
$CECOLOR
 62
   256
  9
$DIMSCALE
 40
20.0
  9
$DIMASZ
 40
2.0
  9
$DIMEXO
 40
0.5
  9
$DIMDLI
 40
10.0
  9
$DIMRND
 40
0.0
  9
$DIMDLE
 40
0.0
  9
$DIMEXE
 40
1.0
  9
$DIMTP
 40
1.0
  9
$DIMTM
 40
1.0
  9
$DIMTXT
 40
3.0
  9
$DIMCEN
 40
0.0
  9
$DIMTSZ
 40
0.0
  9
$DIMTOL
 70
     0
  9
$DIMLIM
 70
     0
  9
$DIMTIH
 70
     0
  9
$DIMTOH
 70
     0
  9
$DIMSE1
 70
     0
  9
$DIMSE2
 70
     0
  9
$DIMTAD
 70
     1
  9
$DIMZIN
 70
     8
  9
$DIMBLK
  1

  9
$DIMASO
 70
     1
  9
$DIMSHO
 70
     1
  9
$DIMPOST
  1

  9
$DIMAPOST
  1

  9
$DIMALT
 70
     0
  9
$DIMALTD
 70
     2
  9
$DIMALTF
 40
0.039
  9
$DIMLFAC
 40
1.0
  9
$DIMTOFL
 70
     1
  9
$DIMTVP
 40
0.0
  9
$DIMTIX
 70
     0
  9
$DIMSOXD
 70
     0
  9
$DIMSAH
 70
     1
  9
$DIMBLK1
  1
OPEN
  9
$DIMBLK2
  1
OPEN
  9
$DIMSTYLE
  2
IGA
  9
$DIMCLRD
 70
     0
  9
$DIMCLRE
 70
     0
  9
$DIMCLRT
 70
     0
  9
$DIMTFAC
 40
10.0
  9
$DIMGAP
 40
1.0
  9
$LUNITS
 70
     2
  9
$LUPREC
 70
     3
  9
$SKETCHINC
 40
0.1
  9
$FILLETRAD
 40
50.0
  9
$AUNITS
 70
     0
  9
$AUPREC
 70
     0
  9
$MENU
  1
acad
  9
$ELEVATION
 40
0.0
  9
$PELEVATION
 40
0.0
  9
$THICKNESS
 40
0.0
  9
$LIMCHECK
 70
     0
  9
$BLIPMODE
 70
     0
  9
$CHAMFERA
 40
0.5
  9
$CHAMFERB
 40
0.5
  9
$SKPOLY
 70
     0
  9
$TDCREATE
 40
2450730.6331898142
  9
$TDUPDATE
 40
2454953.8358441782
  9
$TDINDWG
 40
0.0150629977
  9
$TDUSRTIMER
 40
0.0150629977
  9
$USRTIMER
 70
     1
  9
$ANGBASE
 50
0.0
  9
$ANGDIR
 70
     0
  9
$PDMODE
 70
     0
  9
$PDSIZE
 40
0.0
  9
$PLINEWID
 40
0.0
  9
$COORDS
 70
     1
  9
$SPLFRAME
 70
     0
  9
$SPLINETYPE
 70
     6
  9
$SPLINESEGS
 70
     8
  9
$ATTDIA
 70
     0
  9
$ATTREQ
 70
     1
  9
$HANDLING
 70
 10241
  9
$HANDSEED
  5
807A
  9
$SURFTAB1
 70
     6
  9
$SURFTAB2
 70
     6
  9
$SURFTYPE
 70
     6
  9
$SURFU
 70
     6
  9
$SURFV
 70
     6
  9
$UCSNAME
  2

  9
$UCSORG
 10
0.0
 20
0.0
 30
0.0
  9
$UCSXDIR
 10
1.0
 20
0.0
 30
0.0
  9
$UCSYDIR
 10
0.0
 20
1.0
 30
0.0
  9
$PUCSNAME
  2

  9
$PUCSORG
 10
0.0
 20
0.0
 30
0.0
  9
$PUCSXDIR
 10
1.0
 20
0.0
 30
0.0
  9
$PUCSYDIR
 10
0.0
 20
1.0
 30
0.0
  9
$USERI1
 70
     0
  9
$USERI2
 70
     0
  9
$USERI3
 70
     0
  9
$USERI4
 70
     0
  9
$USERI5
 70
     0
  9
$USERR1
 40
0.0
  9
$USERR2
 40
0.0
  9
$USERR3
 40
0.0
  9
$USERR4
 40
0.0
  9
$USERR5
 40
0.0
  9
$WORLDVIEW
 70
     1
  9
$SHADEDGE
 70
     3
  9
$SHADEDIF
 70
    70
  9
$TILEMODE
 70
     1
  9
$MAXACTVP
 70
    16
  9
$PLIMCHECK
 70
     0
  9
$PEXTMIN
 10
1.0000000000000000E+020
 20
1.0000000000000000E+020
 30
1.0000000000000000E+020
  9
$PEXTMAX
 10
-1.0000000000000000E+020
 20
-1.0000000000000000E+020
 30
-1.0000000000000000E+020
  9
$PLIMMIN
 10
0.0
 20
0.0
  9
$PLIMMAX
 10
12.0
 20
9.0
  9
$UNITMODE
 70
     0
  9
$VISRETAIN
 70
     0
  9
$PLINEGEN
 70
     0
  9
$PSLTSCALE
 70
     1
  0
ENDSEC
  0
SECTION
  2
TABLES
  0
TABLE
  2
VPORT
 70
     2
  0
VPORT
  2
*ACTIVE
 70
     0
 10
0.0
 20
0.0
 11
1.0
 21
1.0
 12
5822.3566332327009
 22
3864.4770211761111
 13
0.0
 23
0.0
 14
10.0
 24
10.0
 15
10.0
 25
10.0
 16
0.0
 26
0.0
 36
1.0
 17
0.0
 27
0.0
 37
0.0
 40
7720.8617655927192
 41
1.5051150895140659
 42
50.0
 43
0.0
 44
0.0
 50
0.0
 51
0.0
 71
     0
 72
   100
 73
     1
 74
     0
 75
     0
 76
     0
 77
     0
 78
     0
  0
ENDTAB
  0
TABLE
  2
LTYPE
 70
     2
  0
LTYPE
  2
CONTINUOUS
 70
     0
  3
Solid line
 72
    65
 73
     0
 40
0.0
  0
LTYPE
  2
CENTER
 70
     0
  3
____ _ ____ _ ____ _ ____ _ ____ _ ____ _ ____ 
 72
    65
 73
     4
 40
2.0
 49
1.25
 49
-0.25
 49
0.25
 49
-0.25
  0
ENDTAB
  0
TABLE
  2
LAYER
 70
     6
  0
LAYER
  2
0
 70
     0
 62
     7
  6
CONTINUOUS
  0
LAYER
  2
3
 70
     0
 62
     2
  6
CONTINUOUS
  0
LAYER
  2
2
 70
     0
 62
     3
  6
CENTER
  0
LAYER
  2
1
 70
     0
 62
     4
  6
CONTINUOUS
  0
LAYER
  2
4
 70
     0
 62
     7
  6
CONTINUOUS
  0
LAYER
  2
DEFPOINTS
 70
     0
 62
     7
  6
CONTINUOUS
  0
ENDTAB
  0
TABLE
  2
STYLE
 70
     1
  0
STYLE
  2
STANDARD
 70
     0
 40
0.0
 41
1.0
 50
0.0
 71
     0
 42
180.0
  3
simplex.shx
  4
extfont.shx
  0
ENDTAB
  0
TABLE
  2
VIEW
 70
     0
  0
ENDTAB
  0
TABLE
  2
UCS
 70
     0
  0
ENDTAB
  0
TABLE
  2
APPID
 70
     1
  0
APPID
  2
ACAD
 70
     0
  0
ENDTAB
  0
TABLE
  2
DIMSTYLE
 70
     1
  0
DIMSTYLE
  2
IGA
 70
     0
  3

  4

  5

  6
OPEN
  7
OPEN
 40
2.0
 41
2.0
 42
0.5
 43
10.0
 44
1.0
 45
0.0
 46
0.0
 47
1.0
 48
1.0
140
3.0
141
0.0
142
0.0
143
0.03937
144
1.0
145
0.0
146
10.0
147
1.0
 71
     0
 72
     0
 73
     0
 74
     0
 75
     0
 76
     0
 77
     1
 78
     8
170
     0
171
     2
172
     0
173
     1
174
     0
175
     0
176
     0
177
     0
178
     0
  0
ENDTAB
  0
ENDSEC
  0
SECTION
  2
BLOCKS
  0
BLOCK
  8
0
  2
$MODEL_SPACE
 70
     0
 10
0.0
 20
0.0
 30
0.0
  3
$MODEL_SPACE
  1

  0
ENDBLK
  5
1B
  8
0
  0
BLOCK
 67
     1
  8
0
  2
$PAPER_SPACE
 70
     0
 10
0.0
 20
0.0
 30
0.0
  3
$PAPER_SPACE
  1

  0
ENDBLK
  5
18
 67
     1
  8
0
  0
BLOCK
  8
0
  2
_OPEN
 70
     0
 10
0.0
 20
0.0
 30
0.0
  3
_OPEN
  1

  0
LINE
  5
7B84
  8
0
  6
BYBLOCK
 62
     0
 10
-1.0
 20
0.166667
 30
0.0
 11
0.0
 21
0.0
 31
0.0
  0
LINE
  5
7B85
  8
0
  6
BYBLOCK
 62
     0
 10
0.0
 20
0.0
 30
0.0
 11
-1.0
 21
-0.166667
 31
0.0
  0
LINE
  5
7B86
  8
0
  6
BYBLOCK
 62
     0
 10
0.0
 20
0.0
 30
0.0
 11
-1.0
 21
0.0
 31
0.0
  0
ENDBLK
  5
7B87
  8
0
  0
BLOCK
  8
0
  2
*D1
 70
     1
 10
0.0
 20
0.0
 30
0.0
  3
*D1
  1

  0
LINE
  5
7FDE
  8
3
  6
CONTINUOUS
 62
     0
 10
1136.2511059999999
 20
2287.2869839999998
 30
0.0
 11
984.79080300000021
 21
2287.2869839999998
 31
0.0
  0
LINE
  5
7FDF
  8
3
  6
CONTINUOUS
 62
     0
 10
1136.2511059999999
 20
1807.2869840000001
 30
0.0
 11
984.79080300000021
 21
1807.2869840000001
 31
0.0
  0
LINE
  5
7FE0
  8
3
  6
CONTINUOUS
 62
     0
 10
1004.790803
 20
2247.2869839999998
 30
0.0
 11
1004.790803
 21
1847.2869840000001
 31
0.0
  0
INSERT
  5
7FE1
  8
3
  6
CONTINUOUS
 62
     0
  2
_OPEN
 10
1004.790803
 20
2287.2869839999998
 30
0.0
 41
40.0
 42
40.0
 43
40.0
 50
90.0
  0
INSERT
  5
7FE2
  8
3
  6
CONTINUOUS
 62
     0
  2
_OPEN
 10
1004.790803
 20
1807.2869840000001
 30
0.0
 41
40.0
 42
40.0
 43
40.0
 50
270.0
  0
TEXT
  8
3
  40
60
  5
8069
  62
0
  72
0
  71
0
 10
834.791
 20
1936.41
 30
0.000000
  1
480
  0
POINT
  5
7FE4
  8
DEFPOINTS
  6
CONTINUOUS
 62
     0
 10
1146.2511059999999
 20
2287.2869839999998
 30
0.0
  0
POINT
  5
7FE5
  8
DEFPOINTS
  6
CONTINUOUS
 62
     0
 10
1146.2511059999999
 20
1807.2869840000001
 30
0.0
  0
POINT
  5
7FE6
  8
DEFPOINTS
  6
CONTINUOUS
 62
     0
 10
1004.790803
 20
1807.2869840000001
 30
0.0
  0
ENDBLK
  5
7DC9
  8
0
  0
BLOCK
  8
0
  2
*D2
 70
     1
 10
0.0
 20
0.0
 30
0.0
  3
*D2
  1

  0
LINE
  5
7FE7
  8
3
  6
CONTINUOUS
 62
     0
 10
1136.2511059999999
 20
1807.2869840000001
 30
0.0
 11
860.40932200000043
 21
1807.2869840000001
 31
0.0
  0
LINE
  5
7FE8
  8
3
  6
CONTINUOUS
 62
     0
 10
883.74716099999989
 20
2269.2869839999998
 30
0.0
 11
860.40932200000043
 21
2269.2869839999998
 31
0.0
  0
LINE
  5
7FE9
  8
3
  6
CONTINUOUS
 62
     0
 10
880.40932200000032
 20
1847.2869840000001
 30
0.0
 11
880.40932200000032
 21
2229.2869839999989
 31
0.0
  0
INSERT
  5
7FEA
  8
3
  6
CONTINUOUS
 62
     0
  2
_OPEN
 10
880.40932200000032
 20
1807.2869840000001
 30
0.0
 41
40.0
 42
40.0
 43
40.0
 50
270.0
  0
INSERT
  5
7FEB
  8
3
  6
CONTINUOUS
 62
     0
  2
_OPEN
 10
880.40932200000032
 20
2269.2869839999998
 30
0.0
 41
40.0
 42
40.0
 43
40.0
 50
90.0
  0
TEXT
  8
3
  40
60
  5
806A
  62
0
  72
0
  71
0
 10
710.409
 20
1940.42
 30
0.000000
  1
462
  0
POINT
  5
7FED
  8
DEFPOINTS
  6
CONTINUOUS
 62
     0
 10
1146.2511059999999
 20
1807.2869840000001
 30
0.0
  0
POINT
  5
7FEE
  8
DEFPOINTS
  6
CONTINUOUS
 62
     0
 10
893.74716099999989
 20
2269.2869839999998
 30
0.0
  0
POINT
  5
7FEF
  8
DEFPOINTS
  6
CONTINUOUS
 62
     0
 10
880.40932200000032
 20
2269.2869839999998
 30
0.0
  0
ENDBLK
  5
7DBE
  8
0
  0
BLOCK
  8
0
  2
*D3
 70
     1
 10
0.0
 20
0.0
 30
0.0
  3
*D3
  1

  0
LINE
  5
7FF0
  8
3
  6
CONTINUOUS
 62
     0
 10
1183.2511059999999
 20
1659.2869840000001
 30
0.0
 11
1183.2511059999999
 21
1513.1542469999999
 31
0.0
  0
LINE
  5
7FF1
  8
3
  6
CONTINUOUS
 62
     0
 10
1483.6011060000001
 20
1532.3123149999999
 30
0.0
 11
1483.6011060000001
 21
1553.1542469999999
 31
0.0
  0
LINE
  5
7FF2
  8
3
  6
CONTINUOUS
 62
     0
 10
1223.2511059999999
 20
1533.1542469999999
 30
0.0
 11
1443.6011060000001
 21
1533.1542469999999
 31
0.0
  0
INSERT
  5
7FF3
  8
3
  6
CONTINUOUS
 62
     0
  2
_OPEN
 10
1183.2511059999999
 20
1533.1542469999999
 30
0.0
 41
40.0
 42
40.0
 43
40.0
 50
180.0
  0
INSERT
  5
7FF4
  8
3
  6
CONTINUOUS
 62
     0
  2
_OPEN
 10
1483.6011060000001
 20
1533.1542469999999
 30
0.0
 41
40.0
 42
40.0
 43
40.0
  0
TEXT
  8
3
  40
60
  5
806B
  62
0
  72
0
  71
0
 10
1226.46
 20
1476.95
 30
0.000000
  1
300
  0
POINT
  5
7FF6
  8
DEFPOINTS
  6
CONTINUOUS
 62
     0
 10
1183.2511059999999
 20
1669.2869840000001
 30
0.0
  0
POINT
  5
7FF7
  8
DEFPOINTS
  6
CONTINUOUS
 62
     0
 10
1483.6011060000001
 20
1522.3123149999999
 30
0.0
  0
POINT
  5
7FF8
  8
DEFPOINTS
  6
CONTINUOUS
 62
     0
 10
1483.6011060000001
 20
1533.1542469999999
 30
0.0
  0
ENDBLK
  5
7CBE
  8
0
  0
BLOCK
  8
0
  2
*D4
 70
     1
 10
0.0
 20
0.0
 30
0.0
  3
*D4
  1

  0
LINE
  5
7FF9
  8
3
  6
CONTINUOUS
 62
     0
 10
2303.2511059999988
 20
1659.2869840000001
 30
0.0
 11
2303.2511059999988
 21
1513.1542469999999
 31
0.0
  0
LINE
  5
7FFA
  8
3
  6
CONTINUOUS
 62
     0
 10
1523.6011060000001
 20
1533.1542469999999
 30
0.0
 11
2263.2511059999988
 21
1533.1542469999999
 31
0.0
  0
INSERT
  5
7FFB
  8
3
  6
CONTINUOUS
 62
     0
  2
_OPEN
 10
1483.6011060000001
 20
1533.1542469999999
 30
0.0
 41
40.0
 42
40.0
 43
40.0
 50
180.0
  0
INSERT
  5
7FFC
  8
3
  6
CONTINUOUS
 62
     0
  2
_OPEN
 10
2303.2511059999988
 20
1533.1542469999999
 30
0.0
 41
40.0
 42
40.0
 43
40.0
  0
TEXT
  8
3
  40
60
  5
806C
  62
0
  72
0
  71
0
 10
1773.43
 20
1476.95
 30
0.000000
  1
820
  0
POINT
  5
7FFE
  8
DEFPOINTS
  6
CONTINUOUS
 62
     0
 10
1483.6011060000001
 20
1522.3123149999999
 30
0.0
  0
POINT
  5
7FFF
  8
DEFPOINTS
  6
CONTINUOUS
 62
     0
 10
2303.2511059999988
 20
1669.2869840000001
 30
0.0
  0
POINT
  5
8000
  8
DEFPOINTS
  6
CONTINUOUS
 62
     0
 10
2303.2511059999988
 20
1533.1542469999999
 30
0.0
  0
ENDBLK
  5
7CC8
  8
0
  0
BLOCK
  8
0
  2
*D5
 70
     1
 10
0.0
 20
0.0
 30
0.0
  3
*D5
  1

  0
LINE
  5
8001
  8
3
  6
CONTINUOUS
 62
     0
 10
1128.2511059999999
 20
2314.2869839999998
 30
0.0
 11
1128.2511059999999
 21
2743.629473
 31
0.0
  0
LINE
  5
8002
  8
3
  6
CONTINUOUS
 62
     0
 10
1483.6011060000001
 20
2708.2807779999998
 30
0.0
 11
1483.6011060000001
 21
2743.629473
 31
0.0
  0
LINE
  5
8003
  8
3
  6
CONTINUOUS
 62
     0
 10
1168.2511059999999
 20
2723.629473
 30
0.0
 11
1443.6011060000001
 21
2723.629473
 31
0.0
  0
INSERT
  5
8004
  8
3
  6
CONTINUOUS
 62
     0
  2
_OPEN
 10
1128.2511059999999
 20
2723.629473
 30
0.0
 41
40.0
 42
40.0
 43
40.0
 50
180.0
  0
INSERT
  5
8005
  8
3
  6
CONTINUOUS
 62
     0
  2
_OPEN
 10
1483.6011060000001
 20
2723.629473
 30
0.0
 41
40.0
 42
40.0
 43
40.0
  0
TEXT
  8
3
  40
60
  5
806D
  62
0
  72
0
  71
0
 10
1174.93
 20
2667.43
 30
0.000000
  1
355
  0
POINT
  5
8007
  8
DEFPOINTS
  6
CONTINUOUS
 62
     0
 10
1128.2511059999999
 20
2304.2869839999989
 30
0.0
  0
POINT
  5
8008
  8
DEFPOINTS
  6
CONTINUOUS
 62
     0
 10
1483.6011060000001
 20
2698.2807779999998
 30
0.0
  0
POINT
  5
8009
  8
DEFPOINTS
  6
CONTINUOUS
 62
     0
 10
1483.6011060000001
 20
2723.629473
 30
0.0
  0
ENDBLK
  5
7CD4
  8
0
  0
BLOCK
  8
0
  2
*D6
 70
     1
 10
0.0
 20
0.0
 30
0.0
  3
*D6
  1

  0
LINE
  5
800A
  8
3
  6
CONTINUOUS
 62
     0
 10
1181.2511059999999
 20
2624.2869839999989
 30
0.0
 11
630.68940800000041
 21
2624.2869839999998
 31
0.0
  0
LINE
  5
800B
  8
3
  6
CONTINUOUS
 62
     0
 10
1173.2511059999999
 20
1669.2869840000001
 30
0.0
 11
630.68940800000007
 21
1669.2869840000001
 31
0.0
  0
LINE
  5
800C
  8
3
  6
CONTINUOUS
 62
     0
 10
650.6894080000003
 20
2584.2869839999998
 30
0.0
 11
650.68940800000018
 21
1709.2869840000001
 31
0.0
  0
INSERT
  5
800D
  8
3
  6
CONTINUOUS
 62
     0
  2
_OPEN
 10
650.6894080000003
 20
2624.2869839999998
 30
0.0
 41
40.0
 42
40.0
 43
40.0
 50
90.0
  0
INSERT
  5
800E
  8
3
  6
CONTINUOUS
 62
     0
  2
_OPEN
 10
650.68940800000018
 20
1669.2869840000001
 30
0.0
 41
40.0
 42
40.0
 43
40.0
 50
270.0
  0
TEXT
  8
3
  40
60
  5
806E
  62
0
  72
0
  71
0
 10
480.689
 20
2040.23
 30
0.000000
  1
955
  0
POINT
  5
8010
  8
DEFPOINTS
  6
CONTINUOUS
 62
     0
 10
1191.2511059999999
 20
2624.2869839999989
 30
0.0
  0
POINT
  5
8011
  8
DEFPOINTS
  6
CONTINUOUS
 62
     0
 10
1183.2511059999999
 20
1669.2869840000001
 30
0.0
  0
POINT
  5
8012
  8
DEFPOINTS
  6
CONTINUOUS
 62
     0
 10
650.68940800000018
 20
1669.2869840000001
 30
0.0
  0
ENDBLK
  5
7DD4
  8
0
  0
BLOCK
  8
0
  2
*D7
 70
     1
 10
0.0
 20
0.0
 30
0.0
  3
*D7
  1

  0
LINE
  5
8013
  8
3
  6
CONTINUOUS
 62
     0
 10
3392.4818540000001
 20
2633.2669839999999
 30
0.0
 11
3392.4818540000001
 21
2687.512792999999
 31
0.0
  0
LINE
  5
8014
  8
3
  6
CONTINUOUS
 62
     0
 10
3032.4818540000001
 20
2633.2669839999999
 30
0.0
 11
3032.4818540000001
 21
2687.512792999999
 31
0.0
  0
LINE
  5
8015
  8
3
  6
CONTINUOUS
 62
     0
 10
3352.4818540000001
 20
2667.5127929999999
 30
0.0
 11
3072.4818540000001
 21
2667.5127929999999
 31
0.0
  0
INSERT
  5
8016
  8
3
  6
CONTINUOUS
 62
     0
  2
_OPEN
 10
3392.4818540000001
 20
2667.5127929999999
 30
0.0
 41
40.0
 42
40.0
 43
40.0
  0
INSERT
  5
8017
  8
3
  6
CONTINUOUS
 62
     0
  2
_OPEN
 10
3032.4818540000001
 20
2667.5127929999999
 30
0.0
 41
40.0
 42
40.0
 43
40.0
 50
180.0
  0
TEXT
  8
3
  40
60
  5
806F
  62
0
  72
0
  71
0
 10
3081.10
 20
2611.31
 30
0.000000
  1
360
  0
POINT
  5
8019
  8
DEFPOINTS
  6
CONTINUOUS
 62
     0
 10
3392.4818540000001
 20
2623.2669839999999
 30
0.0
  0
POINT
  5
801A
  8
DEFPOINTS
  6
CONTINUOUS
 62
     0
 10
3032.4818540000001
 20
2623.2669839999999
 30
0.0
  0
POINT
  5
801B
  8
DEFPOINTS
  6
CONTINUOUS
 62
     0
 10
3032.4818540000001
 20
2667.5127929999999
 30
0.0
  0
ENDBLK
  5
7D61
  8
0
  0
BLOCK
  8
0
  2
*D8
 70
     1
 10
0.0
 20
0.0
 30
0.0
  3
*D8
  1

  0
LINE
  5
801C
  8
3
  6
CONTINUOUS
 62
     0
 10
2842.4818540000001
 20
2504.2869839999998
 30
0.0
 11
2842.4818540000001
 21
2819.787816
 31
0.0
  0
LINE
  5
801D
  8
3
  6
CONTINUOUS
 62
     0
 10
3172.4818540000001
 20
2799.787816
 30
0.0
 11
2882.4818540000001
 21
2799.787816
 31
0.0
  0
INSERT
  5
801E
  8
3
  6
CONTINUOUS
 62
     0
  2
_OPEN
 10
3212.4818539999992
 20
2799.787816
 30
0.0
 41
40.0
 42
40.0
 43
40.0
  0
INSERT
  5
801F
  8
3
  6
CONTINUOUS
 62
     0
  2
_OPEN
 10
2842.4818540000001
 20
2799.787816
 30
0.0
 41
40.0
 42
40.0
 43
40.0
 50
180.0
  0
TEXT
  8
3
  40
60
  5
8070
  62
0
  72
0
  71
0
 10
2907.48
 20
2793.59
 30
0.000000
  1
MAX
  0
TEXT
  8
3
  40
60
  5
8071
  62
0
  72
0
  71
0
 10
2907.48
 20
2715.59
 30
0.000000
  1
430
  0
POINT
  5
8021
  8
DEFPOINTS
  6
CONTINUOUS
 62
     0
 10
3212.4818539999992
 20
2722.2629790000001
 30
0.0
  0
POINT
  5
8022
  8
DEFPOINTS
  6
CONTINUOUS
 62
     0
 10
2842.4818540000001
 20
2494.2869839999998
 30
0.0
  0
POINT
  5
8023
  8
DEFPOINTS
  6
CONTINUOUS
 62
     0
 10
2842.4818540000001
 20
2799.787816
 30
0.0
  0
ENDBLK
  5
7E67
  8
0
  0
BLOCK
  8
0
  2
*D9
 70
     1
 10
0.0
 20
0.0
 30
0.0
  3
*D9
  1

  0
LINE
  5
7EDA
  8
0
  6
BYBLOCK
 62
     0
 10
2988.4818540000001
 20
1659.2869840000001
 30
0.0
 11
2988.4818540000001
 21
1482.347082
 31
0.0
  0
LINE
  5
7EDB
  8
0
  6
BYBLOCK
 62
     0
 10
3212.4818539999992
 20
1540.0727180474869
 30
0.0
 11
3212.4818539999992
 21
1482.347082
 31
0.0
  0
LINE
  5
7EDC
  8
0
  6
BYBLOCK
 62
     0
 10
3028.4818540000001
 20
1502.347082
 30
0.0
 11
3172.4818540000001
 21
1502.347082
 31
0.0
  0
TEXT
  5
7EDD
  8
3
 62
     0
 10
3021.9104254285721
 20
1516.3786975428679
 30
0.0
 40
60.0
  1
224
  0
INSERT
  5
7EDE
  8
0
  6
BYBLOCK
 62
     0
  2
_OPEN
 10
2988.4818540000001
 20
1502.347082
 30
0.0
 41
40.0
 42
40.0
 43
40.0
 50
180.0
  0
INSERT
  5
7EDF
  8
0
  6
BYBLOCK
 62
     0
  2
_OPEN
 10
3212.4818539999992
 20
1502.347082
 30
0.0
 41
40.0
 42
40.0
 43
40.0
  0
POINT
  5
7EE0
  8
DEFPOINTS
  6
BYBLOCK
 62
     0
 10
2988.4818540000001
 20
1669.2869840000001
 30
0.0
  0
POINT
  5
7EE1
  8
DEFPOINTS
  6
BYBLOCK
 62
     0
 10
3212.4818539999992
 20
1550.072718047488
 30
0.0
  0
POINT
  5
7EE2
  8
DEFPOINTS
  6
BYBLOCK
 62
     0
 10
3212.4818539999992
 20
1502.347082
 30
0.0
  0
ENDBLK
  5
7EE3
  8
0
  0
BLOCK
  8
0
  2
*D10
 70
     1
 10
0.0
 20
0.0
 30
0.0
  3
*D10
  1

  0
LINE
  5
8024
  8
3
  6
CONTINUOUS
 62
     0
 10
3436.4818540000001
 20
1659.2869840000001
 30
0.0
 11
3436.4818540000001
 21
1482.347082
 31
0.0
  0
LINE
  5
8025
  8
3
  6
CONTINUOUS
 62
     0
 10
3252.4818540000001
 20
1502.347082
 30
0.0
 11
3396.4818540000001
 21
1502.347082
 31
0.0
  0
TEXT
  8
3
  40
60
  5
8072
  62
0
  72
0
  71
0
 10
3219.74
 20
1446.72
 30
0.000000
  1
224
  0
INSERT
  5
8027
  8
3
  6
CONTINUOUS
 62
     0
  2
_OPEN
 10
3212.4818539999992
 20
1502.347082
 30
0.0
 41
40.0
 42
40.0
 43
40.0
 50
180.0
  0
INSERT
  5
8028
  8
3
  6
CONTINUOUS
 62
     0
  2
_OPEN
 10
3436.4818540000001
 20
1502.347082
 30
0.0
 41
40.0
 42
40.0
 43
40.0
  0
POINT
  5
8029
  8
DEFPOINTS
  6
CONTINUOUS
 62
     0
 10
3212.4818539999992
 20
1547.0888729969261
 30
0.0
  0
POINT
  5
802A
  8
DEFPOINTS
  6
CONTINUOUS
 62
     0
 10
3436.4818540000001
 20
1669.2869840000001
 30
0.0
  0
POINT
  5
802B
  8
DEFPOINTS
  6
CONTINUOUS
 62
     0
 10
3436.4818540000001
 20
1502.347082
 30
0.0
  0
ENDBLK
  5
7ED8
  8
0
  0
BLOCK
  8
0
  2
*D11
 70
     1
 10
0.0
 20
0.0
 30
0.0
  3
*D11
  1

  0
LINE
  5
802C
  8
3
  6
CONTINUOUS
 62
     0
 10
3403.4818540000001
 20
2519.2869839999998
 30
0.0
 11
3569.578074
 21
2519.2869839999998
 31
0.0
  0
LINE
  5
802D
  8
3
  6
CONTINUOUS
 62
     0
 10
3403.4818540000001
 20
2019.2869840000001
 30
0.0
 11
3569.578074
 21
2019.2869840000001
 31
0.0
  0
LINE
  5
802E
  8
3
  6
CONTINUOUS
 62
     0
 10
3549.5780740000009
 20
2479.2869839999989
 30
0.0
 11
3549.5780740000009
 21
2059.2869839999989
 31
0.0
  0
INSERT
  5
802F
  8
3
  6
CONTINUOUS
 62
     0
  2
_OPEN
 10
3549.5780740000009
 20
2519.2869839999998
 30
0.0
 41
40.0
 42
40.0
 43
40.0
 50
90.0
  0
INSERT
  5
8030
  8
3
  6
CONTINUOUS
 62
     0
  2
_OPEN
 10
3549.5780740000009
 20
2019.2869840000001
 30
0.0
 41
40.0
 42
40.0
 43
40.0
 50
270.0
  0
TEXT
  8
3
  40
60
  5
8073
  62
0
  72
0
  71
0
 10
3379.58
 20
2161.01
 30
0.000000
  1
φ500
  0
POINT
  5
8032
  8
DEFPOINTS
  6
CONTINUOUS
 62
     0
 10
3393.4818540000001
 20
2519.2869839999998
 30
0.0
  0
POINT
  5
8033
  8
DEFPOINTS
  6
CONTINUOUS
 62
     0
 10
3393.4818540000001
 20
2019.2869840000001
 30
0.0
  0
POINT
  5
8034
  8
DEFPOINTS
  6
CONTINUOUS
 62
     0
 10
3549.5780740000009
 20
2019.2869840000001
 30
0.0
  0
ENDBLK
  5
7E73
  8
0
  0
BLOCK
  8
0
  2
*D12
 70
     1
 10
0.0
 20
0.0
 30
0.0
  3
*D12
  1

  0
LINE
  5
7EBB
  8
0
  6
BYBLOCK
 62
     0
 10
3212.4818539999992
 20
2775.6297065439808
 30
0.0
 11
3212.4818539999992
 21
2819.5686599999999
 31
0.0
  0
LINE
  5
7EBC
  8
0
  6
BYBLOCK
 62
     0
 10
3393.4818540000001
 20
2529.2869839999998
 30
0.0
 11
3393.4818540000001
 21
2819.5686599999999
 31
0.0
  0
LINE
  5
7EBD
  8
0
  6
BYBLOCK
 62
     0
 10
3252.4818540000001
 20
2799.5686599999999
 30
0.0
 11
3353.4818540000001
 21
2799.5686599999999
 31
0.0
  0
TEXT
  5
7EBE
  8
3
 62
     0
 10
3244.4104254285721
 20
2828.1392738892951
 30
0.0
 40
60.0
  1
181
  0
INSERT
  5
7EBF
  8
0
  6
BYBLOCK
 62
     0
  2
_OPEN
 10
3212.4818539999992
 20
2799.5686599999999
 30
0.0
 41
40.0
 42
40.0
 43
40.0
 50
180.0
  0
INSERT
  5
7EC0
  8
0
  6
BYBLOCK
 62
     0
  2
_OPEN
 10
3393.4818540000001
 20
2799.5686599999999
 30
0.0
 41
40.0
 42
40.0
 43
40.0
  0
POINT
  5
7EC1
  8
DEFPOINTS
  6
BYBLOCK
 62
     0
 10
3212.4818539999992
 20
2765.6297065439808
 30
0.0
  0
POINT
  5
7EC2
  8
DEFPOINTS
  6
BYBLOCK
 62
     0
 10
3393.4818540000001
 20
2519.2869839999998
 30
0.0
  0
POINT
  5
7EC3
  8
DEFPOINTS
  6
BYBLOCK
 62
     0
 10
3393.4818540000001
 20
2799.5686599999999
 30
0.0
  0
ENDBLK
  5
7EC4
  8
0
  0
BLOCK
  8
0
  2
*D13
 70
     1
 10
0.0
 20
0.0
 30
0.0
  3
*D13
  1

  0
LINE
  5
8035
  8
3
  6
CONTINUOUS
 62
     0
 10
1201.2511059999999
 20
4039.5199189999989
 30
0.0
 11
1201.2511059999999
 21
4223.0321110000004
 31
0.0
  0
LINE
  5
8036
  8
3
  6
CONTINUOUS
 62
     0
 10
2321.2511059999988
 20
4039.5199189999989
 30
0.0
 11
2321.2511059999988
 21
4223.0321110000004
 31
0.0
  0
LINE
  5
8037
  8
3
  6
CONTINUOUS
 62
     0
 10
1241.2511059999999
 20
4203.0321109999986
 30
0.0
 11
2281.2511060000002
 21
4203.0321109999986
 31
0.0
  0
INSERT
  5
8038
  8
3
  6
CONTINUOUS
 62
     0
  2
_OPEN
 10
1201.2511059999999
 20
4203.0321109999986
 30
0.0
 41
40.0
 42
40.0
 43
40.0
 50
180.0
  0
INSERT
  5
8039
  8
3
  6
CONTINUOUS
 62
     0
  2
_OPEN
 10
2321.2511059999988
 20
4203.0321109999986
 30
0.0
 41
40.0
 42
40.0
 43
40.0
  0
TEXT
  8
3
  40
60
  5
8074
  62
0
  72
0
  71
0
 10
1612.24
 20
4146.83
 30
0.000000
  1
1120
  0
POINT
  5
803B
  8
DEFPOINTS
  6
CONTINUOUS
 62
     0
 10
1201.2511059999999
 20
4029.5199189999998
 30
0.0
  0
POINT
  5
803C
  8
DEFPOINTS
  6
CONTINUOUS
 62
     0
 10
2321.2511059999988
 20
4029.5199189999998
 30
0.0
  0
POINT
  5
803D
  8
DEFPOINTS
  6
CONTINUOUS
 62
     0
 10
2321.2511059999988
 20
4203.0321109999986
 30
0.0
  0
ENDBLK
  5
7E04
  8
0
  0
BLOCK
  8
0
  2
*D14
 70
     1
 10
0.0
 20
0.0
 30
0.0
  3
*D14
  1

  0
LINE
  5
803E
  8
3
  6
CONTINUOUS
 62
     0
 10
2331.2511059999988
 20
4029.5199189999998
 30
0.0
 11
2500.8835549999999
 21
4029.5199189999998
 31
0.0
  0
LINE
  5
803F
  8
3
  6
CONTINUOUS
 62
     0
 10
2331.2511059999988
 20
3581.5199189999998
 30
0.0
 11
2500.8835549999999
 21
3581.5199189999998
 31
0.0
  0
LINE
  5
8040
  8
3
  6
CONTINUOUS
 62
     0
 10
2480.8835549999999
 20
3989.5199189999998
 30
0.0
 11
2480.8835549999999
 21
3621.5199189999998
 31
0.0
  0
INSERT
  5
8041
  8
3
  6
CONTINUOUS
 62
     0
  2
_OPEN
 10
2480.8835549999999
 20
4029.5199189999998
 30
0.0
 41
40.0
 42
40.0
 43
40.0
 50
90.0
  0
INSERT
  5
8042
  8
3
  6
CONTINUOUS
 62
     0
  2
_OPEN
 10
2480.8835549999999
 20
3581.5199189999998
 30
0.0
 41
40.0
 42
40.0
 43
40.0
 50
270.0
  0
TEXT
  8
3
  40
60
  5
8075
  62
0
  72
0
  71
0
 10
2310.88
 20
3711.03
 30
0.000000
  1
448
  0
POINT
  5
8044
  8
DEFPOINTS
  6
CONTINUOUS
 62
     0
 10
2321.2511059999988
 20
4029.5199189999998
 30
0.0
  0
POINT
  5
8045
  8
DEFPOINTS
  6
CONTINUOUS
 62
     0
 10
2321.2511059999988
 20
3581.5199189999998
 30
0.0
  0
POINT
  5
8046
  8
DEFPOINTS
  6
CONTINUOUS
 62
     0
 10
2480.8835549999999
 20
3581.5199189999998
 30
0.0
  0
ENDBLK
  5
7D98
  8
0
  0
BLOCK
  8
0
  2
*D15
 70
     1
 10
0.0
 20
0.0
 30
0.0
  3
*D15
  1

  0
LINE
  5
8047
  8
3
  6
CONTINUOUS
 62
     0
 10
1181.2511059999999
 20
2624.2869839999989
 30
0.0
 11
748.68865300000039
 21
2624.2869839999998
 31
0.0
  0
LINE
  5
8048
  8
3
  6
CONTINUOUS
 62
     0
 10
883.74716099999989
 20
2269.2869839999998
 30
0.0
 11
748.68865300000039
 21
2269.2869839999998
 31
0.0
  0
LINE
  5
8049
  8
3
  6
CONTINUOUS
 62
     0
 10
768.6886530000005
 20
2584.2869839999998
 30
0.0
 11
768.6886530000005
 21
2309.2869839999989
 31
0.0
  0
INSERT
  5
804A
  8
3
  6
CONTINUOUS
 62
     0
  2
_OPEN
 10
768.6886530000005
 20
2624.2869839999998
 30
0.0
 41
40.0
 42
40.0
 43
40.0
 50
90.0
  0
INSERT
  5
804B
  8
3
  6
CONTINUOUS
 62
     0
  2
_OPEN
 10
768.68865300000039
 20
2269.2869839999998
 30
0.0
 41
40.0
 42
40.0
 43
40.0
 50
270.0
  0
TEXT
  8
3
  40
60
  5
8076
  62
0
  72
0
  71
0
 10
598.689
 20
2327.55
 30
0.000000
  1
355
  0
POINT
  5
804D
  8
DEFPOINTS
  6
CONTINUOUS
 62
     0
 10
1191.2511059999999
 20
2624.2869839999989
 30
0.0
  0
POINT
  5
804E
  8
DEFPOINTS
  6
CONTINUOUS
 62
     0
 10
893.74716099999989
 20
2269.2869839999998
 30
0.0
  0
POINT
  5
804F
  8
DEFPOINTS
  6
CONTINUOUS
 62
     0
 10
768.68865300000039
 20
2269.2869839999998
 30
0.0
  0
ENDBLK
  5
7DE0
  8
0
  0
BLOCK
  8
0
  2
*D16
 70
     1
 10
0.0
 20
0.0
 30
0.0
  3
*D16
  1

  0
LINE
  5
8050
  8
3
  6
CONTINUOUS
 62
     0
 10
1173.2511059999999
 20
1669.2869840000001
 30
0.0
 11
748.68865300000004
 21
1669.2869840000001
 31
0.0
  0
LINE
  5
8051
  8
3
  6
CONTINUOUS
 62
     0
 10
768.68865300000004
 20
2229.2869839999989
 30
0.0
 11
768.68865300000004
 21
1709.2869840000001
 31
0.0
  0
INSERT
  5
8052
  8
3
  6
CONTINUOUS
 62
     0
  2
_OPEN
 10
768.68865300000004
 20
2269.2869839999998
 30
0.0
 41
40.0
 42
40.0
 43
40.0
 50
90.0
  0
INSERT
  5
8053
  8
3
  6
CONTINUOUS
 62
     0
  2
_OPEN
 10
768.68865300000004
 20
1669.2869840000001
 30
0.0
 41
40.0
 42
40.0
 43
40.0
 50
270.0
  0
TEXT
  8
3
  40
60
  5
8077
  62
0
  72
0
  71
0
 10
598.689
 20
1863.09
 30
0.000000
  1
600
  0
POINT
  5
8055
  8
DEFPOINTS
  6
CONTINUOUS
 62
     0
 10
893.74716099999989
 20
2269.2869839999998
 30
0.0
  0
POINT
  5
8056
  8
DEFPOINTS
  6
CONTINUOUS
 62
     0
 10
1183.2511059999999
 20
1669.2869840000001
 30
0.0
  0
POINT
  5
8057
  8
DEFPOINTS
  6
CONTINUOUS
 62
     0
 10
768.68865300000004
 20
1669.2869840000001
 30
0.0
  0
ENDBLK
  5
7DEC
  8
0
  0
BLOCK
  8
0
  2
*D17
 70
     1
 10
0.0
 20
0.0
 30
0.0
  3
*D17
  1

  0
LINE
  5
8058
  8
3
  6
CONTINUOUS
 62
     0
 10
1880.6011060000001
 20
2279.2869839999998
 30
0.0
 11
1880.6011060000001
 21
2743.629473
 31
0.0
  0
LINE
  5
8059
  8
3
  6
CONTINUOUS
 62
     0
 10
1523.6011060000001
 20
2723.629473
 30
0.0
 11
1840.6011060000001
 21
2723.629473
 31
0.0
  0
INSERT
  5
805A
  8
3
  6
CONTINUOUS
 62
     0
  2
_OPEN
 10
1483.6011060000001
 20
2723.629473
 30
0.0
 41
40.0
 42
40.0
 43
40.0
 50
180.0
  0
INSERT
  5
805B
  8
3
  6
CONTINUOUS
 62
     0
  2
_OPEN
 10
1880.6011060000001
 20
2723.629473
 30
0.0
 41
40.0
 42
40.0
 43
40.0
  0
TEXT
  8
3
  40
60
  5
8078
  62
0
  72
0
  71
0
 10
1562.10
 20
2667.43
 30
0.000000
  1
397
  0
POINT
  5
805D
  8
DEFPOINTS
  6
CONTINUOUS
 62
     0
 10
1483.6011060000001
 20
2698.2807779999998
 30
0.0
  0
POINT
  5
805E
  8
DEFPOINTS
  6
CONTINUOUS
 62
     0
 10
1880.6011060000001
 20
2269.2869839999998
 30
0.0
  0
POINT
  5
805F
  8
DEFPOINTS
  6
CONTINUOUS
 62
     0
 10
1880.6011060000001
 20
2723.629473
 30
0.0
  0
ENDBLK
  5
7F01
  8
0
  0
BLOCK
  8
0
  2
*D18
 70
     1
 10
0.0
 20
0.0
 30
0.0
  3
*D18
  1

  0
LINE
  5
8060
  8
3
 62
     0
 10
1128.2511059999999
 20
2314.2869839999998
 30
0.0
 11
1128.2511059999999
 21
2868.9015606742969
 31
0.0
  0
LINE
  5
8061
  8
3
 62
     0
 10
2303.2511059999988
 20
1759.2869840000001
 30
0.0
 11
2303.2511059999988
 21
2868.9015606742969
 31
0.0
  0
LINE
  5
8062
  8
3
 62
     0
 10
1168.2511059999999
 20
2848.9015606742969
 30
0.0
 11
2263.2511059999988
 21
2848.9015606742969
 31
0.0
  0
INSERT
  5
8063
  8
3
 62
     0
  2
_OPEN
 10
1128.2511059999999
 20
2848.9015606742969
 30
0.0
 41
40.0
 42
40.0
 43
40.0
 50
180.0
  0
INSERT
  5
8064
  8
3
 62
     0
  2
_OPEN
 10
2303.2511059999988
 20
2848.9015606742969
 30
0.0
 41
40.0
 42
40.0
 43
40.0
  0
TEXT
  8
3
  40
60
  5
8079
  62
0
  72
0
  71
0
 10
1629.69
 20
2792.70
 30
0.000000
  1
1175
  0
POINT
  5
8066
  8
DEFPOINTS
 62
     0
 10
1128.2511059999999
 20
2304.2869839999989
 30
0.0
  0
POINT
  5
8067
  8
DEFPOINTS
 62
     0
 10
2303.2511059999988
 20
1749.2869840000001
 30
0.0
  0
POINT
  5
8068
  8
DEFPOINTS
 62
     0
 10
2303.2511059999988
 20
2848.9015606742969
 30
0.0
  0
ENDBLK
  5
7E95
  8
0
  0
ENDSEC
  0
SECTION
  2
ENTITIES
  0
CIRCLE
  5
7AB0
  8
1
  6
CONTINUOUS
 10
1483.2511059999999
 20
2269.2869839999998
 30
0.0
 40
275.0
  0
LINE
  5
7AB1
  8
1
  6
CONTINUOUS
 10
1811.2511059999999
 20
2624.2869839999989
 30
0.0
 11
1191.2511059999999
 21
2624.2869839999989
 31
0.0
  0
LINE
  5
7AB2
  8
1
  6
CONTINUOUS
 10
2303.2511059999988
 20
1749.2869840000001
 30
0.0
 11
1191.2511059999999
 21
1749.2869840000001
 31
0.0
  0
LINE
  5
7AB3
  8
1
  6
CONTINUOUS
 10
2303.2511059999988
 20
1669.2869840000001
 30
0.0
 11
1183.2511059999999
 21
1669.2869840000001
 31
0.0
  0
LINE
  5
7AB4
  8
1
  6
CONTINUOUS
 10
1128.2511059999999
 20
1807.2869840000001
 30
0.0
 11
1483.6311059999989
 21
1808.2869840000001
 31
0.0
  0
ARC
  5
7AB5
  8
1
  6
CONTINUOUS
 10
1513.7122489999999
 20
2280.4159930000001
 30
0.0
 40
343.89392400000003
 50
99.976388000000014
 51
178.85972100000001
  0
LINE
  5
7AB6
  8
1
  6
CONTINUOUS
 10
1191.2511059999999
 20
1749.2869840000001
 30
0.0
 11
1191.2511059999999
 21
2624.2869839999989
 31
0.0
  0
LINE
  5
7AB7
  8
1
  6
CONTINUOUS
 10
1153.2511059999999
 20
2287.2869839999998
 30
0.0
 11
1153.2511059999999
 21
1807.356984
 31
0.0
  0
LINE
  5
7AB8
  8
1
  6
CONTINUOUS
 10
1128.2511059999999
 20
1780.2869839999989
 30
0.0
 11
1128.2511059999999
 21
2304.2869839999989
 31
0.0
  0
LINE
  5
7AB9
  8
1
  6
CONTINUOUS
 10
1183.2511059999999
 20
1749.2869840000001
 30
0.0
 11
1183.2511059999999
 21
1669.2869840000001
 31
0.0
  0
LINE
  5
7ABA
  8
1
  6
CONTINUOUS
 10
1187.881106
 20
2287.2869839999998
 30
0.0
 11
1146.2511059999999
 21
2287.2869839999998
 31
0.0
  0
LINE
  5
7AC2
  8
1
  6
CONTINUOUS
 10
2117.4911059999999
 20
1980.7969840000001
 30
0.0
 11
1551.381106
 21
2368.3069839999989
 31
0.0
  0
LINE
  5
7AC3
  8
1
  6
CONTINUOUS
 10
2058.821105999999
 20
1876.636984
 30
0.0
 11
1434.0411059999999
 21
2159.9969839999999
 31
0.0
  0
ARC
  5
7AC4
  8
1
  6
CONTINUOUS
 10
1467.2367839306421
 20
2224.3532728063492
 30
0.0
 40
416.3862107148334
 50
272.25813065690051
 51
6.9070355957749294
  0
ARC
  5
7AC5
  8
1
  6
CONTINUOUS
 10
1514.2679093880431
 20
2257.3435759333588
 30
0.0
 40
366.73152521618562
 50
2.670690566372115
 51
99.437241369298945
  0
LINE
  5
7AC6
  8
1
  6
CONTINUOUS
 10
1811.2511059999999
 20
1749.2869840000001
 30
0.0
 11
1811.2511059999999
 21
2624.2869839999989
 31
0.0
  0
CIRCLE
  5
7AC7
  8
1
  6
CONTINUOUS
 10
1483.6011060000001
 20
2269.2869839999998
 30
0.0
 40
120.0
  0
LINE
  5
7AC8
  8
2
  6
CENTER
 10
1483.6011060000001
 20
1522.3123149999999
 30
0.0
 11
1483.6011060000001
 21
2698.2807779999998
 31
0.0
  0
CIRCLE
  5
7AC9
  8
1
  6
CONTINUOUS
 10
1483.6011060000001
 20
2269.2869839999998
 30
0.0
 40
250.0
  0
LINE
  5
7ACA
  8
2
  6
CENTER
 10
3452.909678999999
 20
2269.2869839999998
 30
0.0
 11
2765.857375
 21
2269.2869839999998
 31
0.0
  0
LINE
  5
7ACB
  8
2
  6
CENTER
 10
2143.6011060000001
 20
1931.2869840000001
 30
0.0
 11
2023.6011060000001
 21
1931.2869840000001
 31
0.0
  0
CIRCLE
  5
7ACC
  8
1
  6
CONTINUOUS
 10
2083.6011060000001
 20
1931.2869840000001
 30
0.0
 40
60.0
  0
ARC
  5
7ACD
  8
1
  6
CONTINUOUS
 10
2083.6011060000001
 20
1931.2869840000001
 30
0.0
 40
122.0
 50
324.60000000000002
 51
215.39999999999989
  0
LINE
  5
7ACE
  8
1
  6
CONTINUOUS
 10
2213.6011060000001
 20
1799.2869840000001
 30
0.0
 11
1953.6011059999989
 21
1799.2869840000001
 31
0.0
  0
LINE
  5
7ACF
  8
1
  6
CONTINUOUS
 10
1953.6011059999989
 20
1749.2869840000001
 30
0.0
 11
1953.6011059999989
 21
1799.2869840000001
 31
0.0
  0
LINE
  5
7AD0
  8
1
  6
CONTINUOUS
 10
1953.6011059999989
 20
1799.2869840000001
 30
0.0
 11
2003.6011060000001
 21
1799.2869840000001
 31
0.0
  0
LINE
  5
7AD1
  8
1
  6
CONTINUOUS
 10
1953.6011059999989
 20
1799.2869840000001
 30
0.0
 11
1984.1611059999991
 21
1860.606984
 31
0.0
  0
LINE
  5
7AD2
  8
2
  6
CENTER
 10
2083.6011060000001
 20
1871.2869840000001
 30
0.0
 11
2083.6011060000001
 21
1991.2869840000001
 31
0.0
  0
LINE
  5
7AD3
  8
1
  6
CONTINUOUS
 10
2213.6011060000001
 20
1749.2869840000001
 30
0.0
 11
2213.6011060000001
 21
1799.2869840000001
 31
0.0
  0
LINE
  5
7AD4
  8
1
  6
CONTINUOUS
 10
2303.2511059999988
 20
1749.2869840000001
 30
0.0
 11
2303.2511059999988
 21
1669.2869840000001
 31
0.0
  0
LINE
  5
7AD5
  8
1
  6
CONTINUOUS
 10
2213.6011060000001
 20
1799.2869840000001
 30
0.0
 11
2163.6011060000001
 21
1799.2869840000001
 31
0.0
  0
LINE
  5
7AD6
  8
1
  6
CONTINUOUS
 10
2213.6011060000001
 20
1799.2869840000001
 30
0.0
 11
2183.0411059999992
 21
1860.606984
 31
0.0
  0
LINE
  5
7AD7
  8
1
  6
CONTINUOUS
 10
1909.441106
 20
3623.5199189999989
 30
0.0
 11
1146.2511059999999
 21
3623.5199189999989
 31
0.0
  0
LINE
  5
7AD8
  8
1
  6
CONTINUOUS
 10
1909.441106
 20
3987.5199189999998
 30
0.0
 11
1146.2511059999999
 21
3987.5199189999998
 31
0.0
  0
LINE
  5
7AD9
  8
1
  6
CONTINUOUS
 10
1482.2511059999999
 20
3581.5199189999998
 30
0.0
 11
1201.2511059999999
 21
3581.5199189999998
 31
0.0
  0
LINE
  5
7ADA
  8
1
  6
CONTINUOUS
 10
2321.2511059999988
 20
4029.5199189999998
 30
0.0
 11
1201.2511059999999
 21
4029.5199189999998
 31
0.0
  0
LINE
  5
7ADB
  8
1
  6
CONTINUOUS
 10
1146.2511059999999
 20
3598.5199189999989
 30
0.0
 11
1146.2511059999999
 21
4012.5199189999989
 31
0.0
  0
LINE
  5
7ADC
  8
1
  6
CONTINUOUS
 10
1171.2511059999999
 20
3624.5199189999998
 30
0.0
 11
1171.2511059999999
 21
3986.5199189999998
 31
0.0
  0
LINE
  5
7ADD
  8
1
  6
CONTINUOUS
 10
1201.2511059999999
 20
3623.5199189999989
 30
0.0
 11
1201.2511059999999
 21
3581.5199189999998
 31
0.0
  0
LINE
  5
7ADE
  8
1
  6
CONTINUOUS
 10
1201.2511059999999
 20
4029.5199189999998
 30
0.0
 11
1201.2511059999999
 21
3987.5199189999998
 31
0.0
  0
LINE
  5
7ADF
  8
1
  6
CONTINUOUS
 10
2064.6011060000001
 20
3581.5199189999998
 30
0.0
 11
1520.2511059999999
 21
3581.5199189999998
 31
0.0
  0
LINE
  5
7AE0
  8
1
  6
CONTINUOUS
 10
1275.7511059999999
 20
3435.5199189999998
 30
0.0
 11
2275.7511059999988
 21
3435.5199189999998
 31
0.0
  0
LINE
  5
7AE1
  8
1
  6
CONTINUOUS
 10
2275.7511059999988
 20
3555.5199189999989
 30
0.0
 11
1275.7511059999999
 21
3555.5199189999989
 31
0.0
  0
LINE
  5
7AE2
  8
1
  6
CONTINUOUS
 10
1381.2511059999999
 20
3525.5199189999998
 30
0.0
 11
1621.2511059999999
 21
3525.5199189999998
 31
0.0
  0
LINE
  5
7AE3
  8
1
  6
CONTINUOUS
 10
1621.2511059999999
 20
3465.5199189999998
 30
0.0
 11
1381.2511059999999
 21
3465.5199189999998
 31
0.0
  0
LINE
  5
7AE4
  8
1
  6
CONTINUOUS
 10
1275.7511059999999
 20
3555.5199189999989
 30
0.0
 11
1275.7511059999999
 21
3435.5199189999998
 31
0.0
  0
LINE
  5
7AE5
  8
1
  6
CONTINUOUS
 10
1381.2511059999999
 20
3465.5199189999998
 30
0.0
 11
1381.2511059999999
 21
3525.5199189999998
 31
0.0
  0
LINE
  5
7AE6
  8
1
  6
CONTINUOUS
 10
1520.2511059999999
 20
3525.5199189999998
 30
0.0
 11
1520.2511059999999
 21
3624.5199189999998
 31
0.0
  0
LINE
  5
7AE7
  8
1
  6
CONTINUOUS
 10
1482.2511059999999
 20
3525.5199189999998
 30
0.0
 11
1482.2511059999999
 21
3624.5199189999998
 31
0.0
  0
LINE
  5
7AE8
  8
1
  6
CONTINUOUS
 10
1621.2511059999999
 20
3465.5199189999998
 30
0.0
 11
1621.2511059999999
 21
3525.5199189999998
 31
0.0
  0
LINE
  5
7AE9
  8
1
  6
CONTINUOUS
 10
2205.6011060000001
 20
3955.7599190000001
 30
0.0
 11
1961.6011059999989
 21
3955.7599190000001
 31
0.0
  0
LINE
  5
7AEA
  8
1
  6
CONTINUOUS
 10
2205.6011060000001
 20
3605.7599190000001
 30
0.0
 11
1961.6011059999989
 21
3605.7599190000001
 31
0.0
  0
LINE
  5
7AEB
  8
1
  6
CONTINUOUS
 10
2321.2511059999988
 20
3581.5199189999998
 30
0.0
 11
2102.6011060000001
 21
3581.5199189999998
 31
0.0
  0
LINE
  5
7AEC
  8
1
  6
CONTINUOUS
 10
1961.6011059999989
 20
3605.7599190000001
 30
0.0
 11
1961.6011059999989
 21
3955.7599190000001
 31
0.0
  0
LINE
  5
7AED
  8
1
  6
CONTINUOUS
 10
1909.441106
 20
3623.5199189999989
 30
0.0
 11
1909.441106
 21
3987.5199189999998
 31
0.0
  0
LINE
  5
7AEE
  8
1
  6
CONTINUOUS
 10
2033.6011060000001
 20
3525.5199189999998
 30
0.0
 11
2133.6011059999992
 21
3525.5199189999998
 31
0.0
  0
LINE
  5
7AEF
  8
1
  6
CONTINUOUS
 10
2064.6011060000001
 20
3525.5199189999998
 30
0.0
 11
2064.6011060000001
 21
3605.7599190000001
 31
0.0
  0
LINE
  5
7AF0
  8
1
  6
CONTINUOUS
 10
2102.6011060000001
 20
3525.5199189999998
 30
0.0
 11
2102.6011060000001
 21
3605.7599190000001
 31
0.0
  0
LINE
  5
7AF1
  8
1
  6
CONTINUOUS
 10
2133.6011059999992
 20
3465.5199189999998
 30
0.0
 11
2033.6011060000001
 21
3465.5199189999998
 31
0.0
  0
LINE
  5
7AF2
  8
1
  6
CONTINUOUS
 10
2133.6011059999992
 20
3525.5199189999998
 30
0.0
 11
2133.6011059999992
 21
3465.5199189999998
 31
0.0
  0
LINE
  5
7AF3
  8
1
  6
CONTINUOUS
 10
2033.6011060000001
 20
3465.5199189999998
 30
0.0
 11
2033.6011060000001
 21
3525.5199189999998
 31
0.0
  0
LINE
  5
7AF4
  8
1
  6
CONTINUOUS
 10
2205.6011060000001
 20
3605.7599190000001
 30
0.0
 11
2205.6011060000001
 21
3955.7599190000001
 31
0.0
  0
LINE
  5
7AF5
  8
1
  6
CONTINUOUS
 10
2321.2511059999988
 20
4029.5199189999998
 30
0.0
 11
2321.2511059999988
 21
3581.5199189999998
 31
0.0
  0
LINE
  5
7AF6
  8
1
  6
CONTINUOUS
 10
2275.7511059999988
 20
3435.5199189999998
 30
0.0
 11
2275.7511059999988
 21
3555.5199189999989
 31
0.0
  0
LINE
  5
7AF7
  8
1
  6
CONTINUOUS
 10
3392.4818540000001
 20
2314.2869839999998
 30
0.0
 11
3032.4818540000001
 21
2314.2869839999998
 31
0.0
  0
LINE
  5
7AF8
  8
1
  6
CONTINUOUS
 10
3032.4818540000001
 20
1780.2869839999989
 30
0.0
 11
3392.4818540000001
 21
1780.2869839999989
 31
0.0
  0
LINE
  5
7AF9
  8
1
  6
CONTINUOUS
 10
2988.4818540000001
 20
1669.2869840000001
 30
0.0
 11
3436.4818540000001
 21
1669.2869840000001
 31
0.0
  0
LINE
  5
7AFA
  8
1
  6
CONTINUOUS
 10
2988.4818540000001
 20
1749.2869840000001
 30
0.0
 11
3434.4818539999992
 21
1749.2869840000001
 31
0.0
  0
LINE
  5
7AFB
  8
1
  6
CONTINUOUS
 10
3392.4818540000001
 20
2623.2669839999999
 30
0.0
 11
3032.4818540000001
 21
2623.2669839999999
 31
0.0
  0
LINE
  5
7AFC
  8
1
  6
CONTINUOUS
 10
3032.4818540000001
 20
2314.2869839999998
 30
0.0
 11
3392.4818540000001
 21
1780.2869839999989
 31
0.0
  0
LINE
  5
7AFD
  8
1
  6
CONTINUOUS
 10
3392.4818540000001
 20
2314.2869839999998
 30
0.0
 11
3032.4818540000001
 21
1780.2869839999989
 31
0.0
  0
LINE
  5
7B25
  8
1
  6
CONTINUOUS
 10
2932.4818540000001
 20
2149.2869839999989
 30
0.0
 11
2932.4818540000001
 21
2389.2869839999989
 31
0.0
  0
LINE
  5
7B26
  8
1
  6
CONTINUOUS
 10
3032.4818540000001
 20
2623.2669839999999
 30
0.0
 11
3032.4818540000001
 21
1780.2869839999989
 31
0.0
  0
LINE
  5
7B27
  8
1
  6
CONTINUOUS
 10
2872.4818540000001
 20
2389.2869839999989
 30
0.0
 11
2872.4818540000001
 21
2149.2869839999989
 31
0.0
  0
LINE
  5
7B28
  8
1
  6
CONTINUOUS
 10
2842.4818540000001
 20
1749.2869840000001
 30
0.0
 11
2842.4818540000001
 21
2494.2869839999998
 31
0.0
  0
LINE
  5
7B29
  8
1
  6
CONTINUOUS
 10
2962.4818540000001
 20
2494.2869839999998
 30
0.0
 11
2962.4818540000001
 21
1749.2869840000001
 31
0.0
  0
LINE
  5
7B2A
  8
1
  6
CONTINUOUS
 10
2932.4818540000001
 20
2149.2869839999989
 30
0.0
 11
2872.4818540000001
 21
2149.2869839999989
 31
0.0
  0
LINE
  5
7B2B
  8
1
  6
CONTINUOUS
 10
2872.4818540000001
 20
1881.2869840000001
 30
0.0
 11
2932.4818540000001
 21
1881.2869840000001
 31
0.0
  0
LINE
  5
7B2C
  8
1
  6
CONTINUOUS
 10
2932.4818540000001
 20
1981.2869840000001
 30
0.0
 11
2872.4818540000001
 21
1981.2869840000001
 31
0.0
  0
LINE
  5
7B2D
  8
1
  6
CONTINUOUS
 10
2962.4818540000001
 20
1749.2869840000001
 30
0.0
 11
2842.4818540000001
 21
1749.2869840000001
 31
0.0
  0
LINE
  5
7B2E
  8
1
  6
CONTINUOUS
 10
2872.4818540000001
 20
1981.2869840000001
 30
0.0
 11
2872.4818540000001
 21
1881.2869840000001
 31
0.0
  0
LINE
  5
7B2F
  8
1
  6
CONTINUOUS
 10
3032.4818540000001
 20
1780.2869839999989
 30
0.0
 11
3032.4818540000001
 21
1749.2869840000001
 31
0.0
  0
LINE
  5
7B30
  8
1
  6
CONTINUOUS
 10
2988.4818540000001
 20
1749.2869840000001
 30
0.0
 11
2988.4818540000001
 21
1669.2869840000001
 31
0.0
  0
LINE
  5
7B31
  8
1
  6
CONTINUOUS
 10
2932.4818540000001
 20
1881.2869840000001
 30
0.0
 11
2932.4818540000001
 21
1981.2869840000001
 31
0.0
  0
LINE
  5
7B32
  8
1
  6
CONTINUOUS
 10
2932.4818540000001
 20
1912.2869839999989
 30
0.0
 11
3032.4818540000001
 21
1912.2869839999989
 31
0.0
  0
LINE
  5
7B33
  8
1
  6
CONTINUOUS
 10
2932.4818540000001
 20
1950.2869840000001
 30
0.0
 11
3032.4818540000001
 21
1950.2869840000001
 31
0.0
  0
LINE
  5
7B34
  8
1
  6
CONTINUOUS
 10
2932.4818540000001
 20
2389.2869839999989
 30
0.0
 11
2872.4818540000001
 21
2389.2869839999989
 31
0.0
  0
LINE
  5
7B35
  8
1
  6
CONTINUOUS
 10
2842.4818540000001
 20
2494.2869839999998
 30
0.0
 11
2962.4818540000001
 21
2494.2869839999998
 31
0.0
  0
LINE
  5
7B36
  8
1
  6
CONTINUOUS
 10
2932.4818540000001
 20
2250.2869839999998
 30
0.0
 11
3032.4818540000001
 21
2250.2869839999998
 31
0.0
  0
LINE
  5
7B37
  8
1
  6
CONTINUOUS
 10
2932.4818540000001
 20
2288.2869839999989
 30
0.0
 11
3032.4818540000001
 21
2288.2869839999989
 31
0.0
  0
LINE
  5
7B38
  8
1
  6
CONTINUOUS
 10
3392.4818540000001
 20
2623.2669839999999
 30
0.0
 11
3392.4818540000001
 21
1780.2869839999989
 31
0.0
  0
LINE
  5
7B39
  8
1
  6
CONTINUOUS
 10
3392.4818540000001
 20
1780.2869839999989
 30
0.0
 11
3392.4818540000001
 21
1749.2869840000001
 31
0.0
  0
LINE
  5
7B3A
  8
1
  6
CONTINUOUS
 10
3436.4818540000001
 20
1749.2869840000001
 30
0.0
 11
3436.4818540000001
 21
1669.2869840000001
 31
0.0
  0
LINE
  5
7B5B
  8
4
  6
CONTINUOUS
 10
3700.0
 20
1000.0
 30
0.0
 11
3700.0
 21
600.0
 31
0.0
  0
LINE
  5
7B5C
  8
4
  6
CONTINUOUS
 10
2300.0
 20
1000.0
 30
0.0
 11
2300.0
 21
600.0
 31
0.0
  0
LINE
  5
7B5D
  8
4
  6
CONTINUOUS
 10
1300.0
 20
1000.0
 30
0.0
 11
1300.0
 21
600.0
 31
0.0
  0
LINE
  5
7B60
  8
4
  6
CONTINUOUS
 10
1300.0
 20
600.0
 30
0.0
 11
3700.0
 21
600.0
 31
0.0
  0
LINE
  5
7B61
  8
4
  6
CONTINUOUS
 10
1300.0
 20
800.0
 30
0.0
 11
3700.0
 21
800.0
 31
0.0
  0
TEXT
  5
7B62
  8
4
  6
CONTINUOUS
 10
1377.004162
 20
863.086052
 30
0.0
 40
100.0
  1
機器名称
  0
TEXT
  5
7B63
  8
4
  6
CONTINUOUS
 10
1372.516212
 20
643.29031299999986
 30
0.0
 40
100.0
  1
機器型番
  0
TEXT
  5
7B64
  8
4
  6
CONTINUOUS
 10
2355.3574910000002
 20
845.14353800000015
 30
0.0
 40
100.0
  1
ミツヤ多翼送風機
  0
TEXT
  5
7B65
  8
4
  6
CONTINUOUS
 10
2373.3089909999999
 20
634.31916899999999
 30
0.0
 40
100.0
  1
MFE#3-4
  0
TEXT
  5
7B67
  8
4
  6
CONTINUOUS
 10
1809.5715309999989
 20
4766.8576830000002
 30
0.0
 40
108.0
  1
床置ベット
  0
TEXT
  5
7B68
  8
4
  6
CONTINUOUS
 10
632.33518700000002
 20
5067.7619520000007
 30
0.0
 40
144.0
  1
ベルト駆動式片吸込両持排煙ファン
  0
LINE
  5
7B69
  8
4
  6
CONTINUOUS
 10
500.0
 20
4938.8175090000004
 30
0.0
 11
3700.0
 21
4938.8175090000004
 31
0.0
  0
LINE
  5
7B6A
  8
4
  6
CONTINUOUS
 10
500.0
 20
5338.8175090000004
 30
0.0
 11
3700.0
 21
5338.8175090000004
 31
0.0
  0
LINE
  5
7B6B
  8
4
  6
CONTINUOUS
 10
1300.0
 20
1000.0
 30
0.0
 11
3700.0
 21
1000.0
 31
0.0
  0
LINE
  5
7B6C
  8
4
  6
CONTINUOUS
 10
500.0
 20
5338.8175090000004
 30
0.0
 11
500.0
 21
4938.8175090000004
 31
0.0
  0
TEXT
  5
7B6D
  8
4
  6
CONTINUOUS
 10
937.85386600000004
 20
4764.6389549999994
 30
0.0
 40
108.0
  1
右回転左横向
  0
TEXT
  5
7B6E
  8
4
  6
CONTINUOUS
 10
2937.9391179999998
 20
5412.122163
 30
0.0
 40
112.0
  1
No.
  0
TEXT
  5
7B6F
  8
4
  6
CONTINUOUS
 10
2622.5921250000001
 20
4766.8576830000002
 30
0.0
 40
108.0
  1
縮尺：1/20
  0
LINE
  5
7B70
  8
4
  6
CONTINUOUS
 10
3700.0
 20
5338.8175090000004
 30
0.0
 11
3700.0
 21
4938.8175090000004
 31
0.0
  0
LINE
  5
7B72
  8
4
  6
CONTINUOUS
 10
2881.234845
 20
5362.5271659999999
 30
0.0
 11
2881.234845
 21
5573.3045229999998
 31
0.0
  0
LINE
  5
7B73
  8
4
  6
CONTINUOUS
 10
2881.234845
 20
5573.3045229999998
 30
0.0
 11
3700.0
 21
5573.3045229999998
 31
0.0
  0
LINE
  5
7B74
  8
4
  6
CONTINUOUS
 10
3700.0
 20
5573.3045229999998
 30
0.0
 11
3700.0
 21
5362.5271659999999
 31
0.0
  0
LINE
  5
7B75
  8
4
  6
CONTINUOUS
 10
3700.0
 20
5362.5271659999999
 30
0.0
 11
2881.234845
 21
5362.5271659999999
 31
0.0
  0
LINE
  5
7B7A
  8
1
  6
CONTINUOUS
 10
1258.1011060000001
 20
1749.2869840000001
 30
0.0
 11
1258.1011060000001
 21
2419.2869839999998
 31
0.0
  0
LINE
  5
7B7B
  8
1
  6
CONTINUOUS
 10
1258.1011060000001
 20
2419.2869839999998
 30
0.0
 11
1498.1011060000001
 21
2494.2869839999998
 31
0.0
  0
LINE
  5
7B7D
  8
1
  6
CONTINUOUS
 10
2258.1011060000001
 20
1984.2869840000001
 30
0.0
 11
2258.1011060000001
 21
1749.2869840000001
 31
0.0
  0
LINE
  5
7B7E
  8
2
  6
CENTER
 10
3212.4818539999992
 20
2676.568609553924
 30
0.0
 11
3212.4818539999992
 21
1546.3428996892469
 31
0.0
  0
LINE
  5
7B7F
  8
2
  6
CENTER
 10
1107.23213983609
 20
3805.5199189999989
 30
0.0
 11
2354.427854342171
 21
3805.5199189999989
 31
0.0
  0
LINE
  5
7B80
  8
2
  6
CENTER
 10
1483.6011060000001
 20
3397.0264068576248
 30
0.0
 11
1483.6011060000001
 21
4079.1082907832729
 31
0.0
  0
LINE
  5
7B81
  8
2
  6
CENTER
 10
2014.72671790258
 20
2269.2869839999998
 30
0.0
 11
893.74716099999989
 21
2269.2869839999998
 31
0.0
  0
DIMENSION
  5
7B95
  8
3
  6
CONTINUOUS
  2
*D1
 10
1004.790803
 20
1807.2869840000001
 30
0.0
 11
1004.790803
 21
2042.6074940000001
 31
0.0
 70
   128
 13
1146.2511059999999
 23
2287.2869839999998
 33
0.0
 14
1146.2511059999999
 24
1807.2869840000001
 34
0.0
 50
90.0
1001
ACAD
1000
DSTYLE
1002
{
1070
   287
1070
     3
1070
   287
1070
     3
1070
    40
1040
20.0
1070
   143
1040
0.039
1070
   172
1070
     1
1070
   271
1070
     0
1070
   279
1070
     0
1070
   288
1070
     1
1002
}
  0
DIMENSION
  5
7BA2
  8
3
  6
CONTINUOUS
  2
*D2
 10
880.40932200000032
 20
2269.2869839999998
 30
0.0
 11
880.40932199999997
 21
2046.6158289999989
 31
0.0
 70
   128
 13
1146.2511059999999
 23
1807.2869840000001
 33
0.0
 14
893.74716099999989
 24
2269.2869839999998
 34
0.0
 50
90.0
1001
ACAD
1000
DSTYLE
1002
{
1070
   287
1070
     3
1070
   287
1070
     3
1070
    40
1040
20.0
1070
   143
1040
0.039
1070
   172
1070
     1
1070
   271
1070
     0
1070
   279
1070
     0
1070
   288
1070
     1
1002
}
  0
DIMENSION
  5
7C4F
  8
3
  6
CONTINUOUS
  2
*D3
 10
1483.6011060000001
 20
1533.1542469999999
 30
0.0
 11
1346.4582479999999
 21
1533.1542469999999
 31
0.0
 70
   128
 13
1183.2511059999999
 23
1669.2869840000001
 33
0.0
 14
1483.6011060000001
 24
1522.3123149999999
 34
0.0
1001
ACAD
1000
DSTYLE
1002
{
1070
   287
1070
     3
1070
   287
1070
     3
1070
    40
1040
20.0
1070
   143
1040
0.039
1070
   172
1070
     1
1070
   271
1070
     0
1070
   279
1070
     0
1070
   288
1070
     1
1002
}
  0
DIMENSION
  5
7C5B
  8
3
  6
CONTINUOUS
  2
*D4
 10
2303.2511059999988
 20
1533.1542469999999
 30
0.0
 11
1893.4261059999999
 21
1583.1542469999999
 31
0.0
 70
     0
 13
1483.6011060000001
 23
1522.3123149999999
 33
0.0
 14
2303.2511059999988
 24
1669.2869840000001
 34
0.0
1001
ACAD
1000
DSTYLE
1002
{
1070
   287
1070
     4
1070
   287
1070
     4
1070
    40
1040
20.0
1070
    75
1070
     1
1070
   143
1040
0.039
1070
   172
1070
     1
1070
   271
1070
     0
1070
   279
1070
     1
1070
   288
1070
     1
1002
}
  0
DIMENSION
  5
7CD5
  8
3
  6
CONTINUOUS
  2
*D5
 10
1483.6011060000001
 20
2723.629473
 30
0.0
 11
1294.9328849999999
 21
2723.629473
 31
0.0
 70
   128
 13
1128.2511059999999
 23
2304.2869839999989
 33
0.0
 14
1483.6011060000001
 24
2698.2807779999998
 34
0.0
1001
ACAD
1000
DSTYLE
1002
{
1070
   287
1070
     3
1070
   287
1070
     3
1070
    40
1040
20.0
1070
   143
1040
0.039
1070
   172
1070
     1
1070
   271
1070
     0
1070
   279
1070
     0
1070
   288
1070
     1
1002
}
  0
DIMENSION
  5
7CFA
  8
3
  6
CONTINUOUS
  2
*D6
 10
650.68940800000018
 20
1669.2869840000001
 30
0.0
 11
650.68940799999984
 21
2146.4293550000002
 31
0.0
 70
   128
 13
1191.2511059999999
 23
2624.2869839999989
 33
0.0
 14
1183.2511059999999
 24
1669.2869840000001
 34
0.0
 50
90.0
1001
ACAD
1000
DSTYLE
1002
{
1070
   287
1070
     3
1070
   287
1070
     3
1070
    40
1040
20.0
1070
   143
1040
0.039
1070
   172
1070
     1
1070
   271
1070
     0
1070
   279
1070
     0
1070
   288
1070
     1
1002
}
  0
DIMENSION
  5
7D07
  8
3
  6
CONTINUOUS
  2
*D7
 10
3032.4818540000001
 20
2667.5127929999999
 30
0.0
 11
3201.1022840000001
 21
2667.5127929999999
 31
0.0
 70
   128
 13
3392.4818540000001
 23
2623.2669839999999
 33
0.0
 14
3032.4818540000001
 24
2623.2669839999999
 34
0.0
1001
ACAD
1000
DSTYLE
1002
{
1070
   287
1070
     3
1070
   287
1070
     3
1070
    40
1040
20.0
1070
   143
1040
0.039
1070
   172
1070
     1
1070
   271
1070
     0
1070
   279
1070
     0
1070
   288
1070
     1
1002
}
  0
DIMENSION
  5
7D21
  8
3
  6
CONTINUOUS
  2
*D8
 10
2842.4818540000001
 20
2799.787816
 30
0.0
 11
3027.4818540000001
 21
2899.7878159999991
 31
0.0
 70
     0
  1
MAX\P430
 13
3212.4818539999992
 23
2722.2629790000001
 33
0.0
 14
2842.4818540000001
 24
2494.2869839999998
 34
0.0
1001
ACAD
1000
DSTYLE
1002
{
1070
   287
1070
     4
1070
   287
1070
     4
1070
    40
1040
20.0
1070
    75
1070
     1
1070
   143
1040
0.039
1070
   172
1070
     1
1070
   271
1070
     0
1070
   279
1070
     1
1070
   288
1070
     1
1002
}
  0
DIMENSION
  5
7D30
  8
3
  6
CONTINUOUS
  2
*D9
 10
3212.4818539999992
 20
1502.347082
 30
0.0
 11
3100.4818540000001
 21
1546.3786975428679
 31
0.0
 70
   128
 13
2988.4818540000001
 23
1669.2869840000001
 33
0.0
 14
3212.4818539999992
 24
1550.072718047488
 34
0.0
1001
ACAD
1000
DSTYLE
1002
{
1070
   288
1070
     1
1070
   172
1070
     1
1070
    40
1040
20.0
1070
   271
1070
     0
1070
   143
1040
0.039
1002
}
  0
DIMENSION
  5
7D3E
  8
3
  6
CONTINUOUS
  2
*D10
 10
3436.4818540000001
 20
1502.347082
 30
0.0
 11
3339.7400320000002
 21
1502.9234389999999
 31
0.0
 70
   128
 13
3212.4818539999992
 23
1547.0888729969261
 33
0.0
 14
3436.4818540000001
 24
1669.2869840000001
 34
0.0
1001
ACAD
1000
DSTYLE
1002
{
1070
   287
1070
     4
1070
   287
1070
     4
1070
    40
1040
20.0
1070
    75
1070
     1
1070
   143
1040
0.039
1070
   172
1070
     1
1070
   271
1070
     0
1070
   279
1070
     1
1070
   288
1070
     1
1002
}
  0
LINE
  5
7D62
  8
1
  6
CONTINUOUS
 10
3393.4818540000001
 20
2519.2869839999998
 30
0.0
 11
3393.4818540000001
 21
2019.2869840000001
 31
0.0
  0
DIMENSION
  5
7D71
  8
3
  6
CONTINUOUS
  2
*D11
 10
3549.5780740000009
 20
2019.2869840000001
 30
0.0
 11
3549.578074
 21
2267.2083989999992
 31
0.0
 70
   128
 13
3393.4818540000001
 23
2519.2869839999998
 33
0.0
 14
3393.4818540000001
 24
2019.2869840000001
 34
0.0
 50
90.0
1001
ACAD
1000
DSTYLE
1002
{
1070
   287
1070
     3
1070
   287
1070
     3
1070
     3
1000
φ<>
1070
    40
1040
20.0
1070
   143
1040
0.039
1070
   172
1070
     1
1070
   271
1070
     0
1070
   279
1070
     0
1070
   288
1070
     1
1002
}
  0
DIMENSION
  5
7D7F
  8
3
  6
CONTINUOUS
  2
*D12
 10
3393.4818540000001
 20
2799.5686599999999
 30
0.0
 11
3302.9818540000001
 21
2858.1392738892951
 31
0.0
 70
   128
 13
3212.4818539999992
 23
2765.6297065439808
 33
0.0
 14
3393.4818540000001
 24
2519.2869839999998
 34
0.0
1001
ACAD
1000
DSTYLE
1002
{
1070
   288
1070
     1
1070
   172
1070
     1
1070
    40
1040
20.0
1070
   271
1070
     0
1070
   143
1040
0.039
1002
}
  0
DIMENSION
  5
7D8C
  8
3
  6
CONTINUOUS
  2
*D13
 10
2321.2511059999988
 20
4203.0321109999986
 30
0.0
 11
1732.2431759999999
 21
4203.0321109999986
 31
0.0
 70
   128
 13
1201.2511059999999
 23
4029.5199189999998
 33
0.0
 14
2321.2511059999988
 24
4029.5199189999998
 34
0.0
1001
ACAD
1000
DSTYLE
1002
{
1070
   287
1070
     3
1070
   287
1070
     3
1070
    40
1040
20.0
1070
   143
1040
0.039
1070
   172
1070
     1
1070
   271
1070
     0
1070
   279
1070
     0
1070
   288
1070
     1
1002
}
  0
DIMENSION
  5
7D99
  8
3
  6
CONTINUOUS
  2
*D14
 10
2480.8835549999999
 20
3581.5199189999998
 30
0.0
 11
2480.8835549999999
 21
3817.2253420000002
 31
0.0
 70
   128
 13
2321.2511059999988
 23
4029.5199189999998
 33
0.0
 14
2321.2511059999988
 24
3581.5199189999998
 34
0.0
 50
90.0
1001
ACAD
1000
DSTYLE
1002
{
1070
   287
1070
     3
1070
   287
1070
     3
1070
    40
1040
20.0
1070
   143
1040
0.039
1070
   172
1070
     1
1070
   271
1070
     0
1070
   279
1070
     0
1070
   288
1070
     1
1002
}
  0
DIMENSION
  5
7DE1
  8
3
  6
CONTINUOUS
  2
*D15
 10
768.68865300000039
 20
2269.2869839999998
 30
0.0
 11
768.68865300000004
 21
2433.748012
 31
0.0
 70
   128
 13
1191.2511059999999
 23
2624.2869839999989
 33
0.0
 14
893.74716099999989
 24
2269.2869839999998
 34
0.0
 50
90.0
1001
ACAD
1000
DSTYLE
1002
{
1070
   287
1070
     3
1070
   287
1070
     3
1070
    40
1040
20.0
1070
   143
1040
0.039
1070
   172
1070
     1
1070
   271
1070
     0
1070
   279
1070
     0
1070
   288
1070
     1
1002
}
  0
DIMENSION
  5
7DED
  8
3
  6
CONTINUOUS
  2
*D16
 10
768.68865300000004
 20
1669.2869840000001
 30
0.0
 11
718.6886529999997
 21
1969.2869840000001
 31
0.0
 70
     0
 13
893.74716099999989
 23
2269.2869839999998
 33
0.0
 14
1183.2511059999999
 24
1669.2869840000001
 34
0.0
 50
90.0
1001
ACAD
1000
DSTYLE
1002
{
1070
   287
1070
     4
1070
   287
1070
     4
1070
    40
1040
20.0
1070
    75
1070
     1
1070
   143
1040
0.039
1070
   172
1070
     1
1070
   271
1070
     0
1070
   279
1070
     1
1070
   288
1070
     1
1002
}
  0
DIMENSION
  5
7DF9
  8
3
  6
CONTINUOUS
  2
*D17
 10
1880.6011060000001
 20
2723.629473
 30
0.0
 11
1682.1011060000001
 21
2773.629473
 31
0.0
 70
     0
 13
1483.6011060000001
 23
2698.2807779999998
 33
0.0
 14
1880.6011060000001
 24
2269.2869839999998
 34
0.0
1001
ACAD
1000
DSTYLE
1002
{
1070
   287
1070
     4
1070
   287
1070
     4
1070
    40
1040
20.0
1070
    75
1070
     1
1070
   143
1040
0.039
1070
   172
1070
     1
1070
   271
1070
     0
1070
   279
1070
     1
1070
   288
1070
     1
1002
}
  0
LINE
  5
7E68
  8
1
 10
1498.1011060000001
 20
2494.2869839999998
 30
0.0
 11
2258.1011060000001
 21
1984.2869840000001
 31
0.0
  0
DIMENSION
  5
7E96
  8
3
  2
*D18
 10
2303.2511059999988
 20
2848.9015606742969
 30
0.0
 11
1749.6933449967801
 21
2848.9015606742969
 31
0.0
 70
   128
 13
1128.2511059999999
 23
2304.2869839999989
 33
0.0
 14
2303.2511059999988
 24
1749.2869840000001
 34
0.0
1001
ACAD
1000
DSTYLE
1002
{
1070
   287
1070
     3
1070
   287
1070
     3
1070
    40
1040
20.0
1070
   143
1040
0.039
1070
   172
1070
     1
1070
   271
1070
     0
1070
   279
1070
     0
1070
   288
1070
     1
1002
}
  0
ENDSEC
  0
EOF
