  0
SECTION
  2
HEADER
  9
$ACADVER
  1
AC1009
  9
$INSBASE
 10
0.0
 20
0.0
 30
0.0
  9
$EXTMIN
 10
500.0
 20
600.0
 30
0.0
  9
$EXTMAX
 10
3700.0
 20
5573.3045229999998
 30
0.0
  9
$LIMMIN
 10
0.0
 20
0.0
  9
$LIMMAX
 10
297.0
 20
210.0
  9
$ORTHOMODE
 70
     0
  9
$REGENMODE
 70
     1
  9
$FILLMODE
 70
     0
  9
$QTEXTMODE
 70
     0
  9
$MIRRTEXT
 70
     1
  9
$DRAGMODE
 70
     2
  9
$LTSCALE
 40
100.0
  9
$OSMODE
 70
    37
  9
$ATTMODE
 70
     1
  9
$TEXTSIZE
 40
180.0
  9
$TRACEWID
 40
0.05
  9
$TEXTSTYLE
  7
STANDARD
  9
$CLAYER
  8
3
  9
$CELTYPE
  6
BYLAYER
  9
$CECOLOR
 62
   256
  9
$DIMSCALE
 40
20.0
  9
$DIMASZ
 40
2.0
  9
$DIMEXO
 40
0.5
  9
$DIMDLI
 40
10.0
  9
$DIMRND
 40
0.0
  9
$DIMDLE
 40
0.0
  9
$DIMEXE
 40
1.0
  9
$DIMTP
 40
1.0
  9
$DIMTM
 40
1.0
  9
$DIMTXT
 40
3.0
  9
$DIMCEN
 40
0.0
  9
$DIMTSZ
 40
0.0
  9
$DIMTOL
 70
     0
  9
$DIMLIM
 70
     0
  9
$DIMTIH
 70
     0
  9
$DIMTOH
 70
     0
  9
$DIMSE1
 70
     0
  9
$DIMSE2
 70
     0
  9
$DIMTAD
 70
     1
  9
$DIMZIN
 70
     8
  9
$DIMBLK
  1

  9
$DIMASO
 70
     1
  9
$DIMSHO
 70
     1
  9
$DIMPOST
  1

  9
$DIMAPOST
  1

  9
$DIMALT
 70
     0
  9
$DIMALTD
 70
     2
  9
$DIMALTF
 40
0.039
  9
$DIMLFAC
 40
1.0
  9
$DIMTOFL
 70
     1
  9
$DIMTVP
 40
0.0
  9
$DIMTIX
 70
     0
  9
$DIMSOXD
 70
     0
  9
$DIMSAH
 70
     1
  9
$DIMBLK1
  1
OPEN
  9
$DIMBLK2
  1
OPEN
  9
$DIMSTYLE
  2
IGA
  9
$DIMCLRD
 70
     0
  9
$DIMCLRE
 70
     0
  9
$DIMCLRT
 70
     0
  9
$DIMTFAC
 40
10.0
  9
$DIMGAP
 40
1.0
  9
$LUNITS
 70
     2
  9
$LUPREC
 70
     3
  9
$SKETCHINC
 40
0.1
  9
$FILLETRAD
 40
50.0
  9
$AUNITS
 70
     0
  9
$AUPREC
 70
     0
  9
$MENU
  1
acad
  9
$ELEVATION
 40
0.0
  9
$PELEVATION
 40
0.0
  9
$THICKNESS
 40
0.0
  9
$LIMCHECK
 70
     0
  9
$BLIPMODE
 70
     0
  9
$CHAMFERA
 40
0.5
  9
$CHAMFERB
 40
0.5
  9
$SKPOLY
 70
     0
  9
$TDCREATE
 40
2450728.6429537032
  9
$TDUPDATE
 40
2454953.8356964351
  9
$TDINDWG
 40
0.0047480324
  9
$TDUSRTIMER
 40
0.0047480324
  9
$USRTIMER
 70
     1
  9
$ANGBASE
 50
0.0
  9
$ANGDIR
 70
     0
  9
$PDMODE
 70
     0
  9
$PDSIZE
 40
0.0
  9
$PLINEWID
 40
0.0
  9
$COORDS
 70
     1
  9
$SPLFRAME
 70
     0
  9
$SPLINETYPE
 70
     6
  9
$SPLINESEGS
 70
     8
  9
$ATTDIA
 70
     0
  9
$ATTREQ
 70
     1
  9
$HANDLING
 70
 10241
  9
$HANDSEED
  5
800B
  9
$SURFTAB1
 70
     6
  9
$SURFTAB2
 70
     6
  9
$SURFTYPE
 70
     6
  9
$SURFU
 70
     6
  9
$SURFV
 70
     6
  9
$UCSNAME
  2

  9
$UCSORG
 10
0.0
 20
0.0
 30
0.0
  9
$UCSXDIR
 10
1.0
 20
0.0
 30
0.0
  9
$UCSYDIR
 10
0.0
 20
1.0
 30
0.0
  9
$PUCSNAME
  2

  9
$PUCSORG
 10
0.0
 20
0.0
 30
0.0
  9
$PUCSXDIR
 10
1.0
 20
0.0
 30
0.0
  9
$PUCSYDIR
 10
0.0
 20
1.0
 30
0.0
  9
$USERI1
 70
     0
  9
$USERI2
 70
     0
  9
$USERI3
 70
     0
  9
$USERI4
 70
     0
  9
$USERI5
 70
     0
  9
$USERR1
 40
0.0
  9
$USERR2
 40
0.0
  9
$USERR3
 40
0.0
  9
$USERR4
 40
0.0
  9
$USERR5
 40
0.0
  9
$WORLDVIEW
 70
     1
  9
$SHADEDGE
 70
     3
  9
$SHADEDIF
 70
    70
  9
$TILEMODE
 70
     1
  9
$MAXACTVP
 70
    16
  9
$PLIMCHECK
 70
     0
  9
$PEXTMIN
 10
1.0000000000000000E+020
 20
1.0000000000000000E+020
 30
1.0000000000000000E+020
  9
$PEXTMAX
 10
-1.0000000000000000E+020
 20
-1.0000000000000000E+020
 30
-1.0000000000000000E+020
  9
$PLIMMIN
 10
0.0
 20
0.0
  9
$PLIMMAX
 10
12.0
 20
9.0
  9
$UNITMODE
 70
     0
  9
$VISRETAIN
 70
     0
  9
$PLINEGEN
 70
     0
  9
$PSLTSCALE
 70
     1
  0
ENDSEC
  0
SECTION
  2
TABLES
  0
TABLE
  2
VPORT
 70
     2
  0
VPORT
  2
*ACTIVE
 70
     0
 10
0.0
 20
0.0
 11
1.0
 21
1.0
 12
5849.9813286963918
 22
3919.7264119827018
 13
0.0
 23
0.0
 14
10.0
 24
10.0
 15
10.0
 25
10.0
 16
0.0
 26
0.0
 36
1.0
 17
0.0
 27
0.0
 37
0.0
 40
7720.8617819453802
 41
1.5051150895140659
 42
50.0
 43
0.0
 44
0.0
 50
0.0
 51
0.0
 71
     0
 72
   100
 73
     1
 74
     0
 75
     0
 76
     0
 77
     0
 78
     0
  0
ENDTAB
  0
TABLE
  2
LTYPE
 70
     2
  0
LTYPE
  2
CONTINUOUS
 70
     0
  3
Solid line
 72
    65
 73
     0
 40
0.0
  0
LTYPE
  2
CENTER
 70
     0
  3
____ _ ____ _ ____ _ ____ _ ____ _ ____ _ ____ 
 72
    65
 73
     4
 40
2.0
 49
1.25
 49
-0.25
 49
0.25
 49
-0.25
  0
ENDTAB
  0
TABLE
  2
LAYER
 70
     6
  0
LAYER
  2
0
 70
     0
 62
     7
  6
CONTINUOUS
  0
LAYER
  2
3
 70
     0
 62
     2
  6
CONTINUOUS
  0
LAYER
  2
2
 70
     0
 62
     3
  6
CENTER
  0
LAYER
  2
1
 70
     0
 62
     4
  6
CONTINUOUS
  0
LAYER
  2
4
 70
     0
 62
     7
  6
CONTINUOUS
  0
LAYER
  2
DEFPOINTS
 70
     0
 62
     7
  6
CONTINUOUS
  0
ENDTAB
  0
TABLE
  2
STYLE
 70
     1
  0
STYLE
  2
STANDARD
 70
     0
 40
0.0
 41
1.0
 50
0.0
 71
     0
 42
180.0
  3
simplex.shx
  4
extfont.shx
  0
ENDTAB
  0
TABLE
  2
VIEW
 70
     0
  0
ENDTAB
  0
TABLE
  2
UCS
 70
     0
  0
ENDTAB
  0
TABLE
  2
APPID
 70
     1
  0
APPID
  2
ACAD
 70
     0
  0
ENDTAB
  0
TABLE
  2
DIMSTYLE
 70
     1
  0
DIMSTYLE
  2
IGA
 70
     0
  3

  4

  5

  6
OPEN
  7
OPEN
 40
2.0
 41
2.0
 42
0.5
 43
10.0
 44
1.0
 45
0.0
 46
0.0
 47
1.0
 48
1.0
140
3.0
141
0.0
142
0.0
143
0.03937
144
1.0
145
0.0
146
10.0
147
1.0
 71
     0
 72
     0
 73
     0
 74
     0
 75
     0
 76
     0
 77
     1
 78
     8
170
     0
171
     2
172
     0
173
     1
174
     0
175
     0
176
     0
177
     0
178
     0
  0
ENDTAB
  0
ENDSEC
  0
SECTION
  2
BLOCKS
  0
BLOCK
  8
0
  2
$MODEL_SPACE
 70
     0
 10
0.0
 20
0.0
 30
0.0
  3
$MODEL_SPACE
  1

  0
ENDBLK
  5
1B
  8
0
  0
BLOCK
 67
     1
  8
0
  2
$PAPER_SPACE
 70
     0
 10
0.0
 20
0.0
 30
0.0
  3
$PAPER_SPACE
  1

  0
ENDBLK
  5
18
 67
     1
  8
0
  0
BLOCK
  8
0
  2
_OPEN
 70
     0
 10
0.0
 20
0.0
 30
0.0
  3
_OPEN
  1

  0
LINE
  5
7AF0
  8
0
  6
BYBLOCK
 62
     0
 10
-1.0
 20
0.166667
 30
0.0
 11
0.0
 21
0.0
 31
0.0
  0
LINE
  5
7AF1
  8
0
  6
BYBLOCK
 62
     0
 10
0.0
 20
0.0
 30
0.0
 11
-1.0
 21
-0.166667
 31
0.0
  0
LINE
  5
7AF2
  8
0
  6
BYBLOCK
 62
     0
 10
0.0
 20
0.0
 30
0.0
 11
-1.0
 21
0.0
 31
0.0
  0
ENDBLK
  5
7AF3
  8
0
  0
BLOCK
  8
0
  2
*D1
 70
     1
 10
0.0
 20
0.0
 30
0.0
  3
*D1
  1

  0
LINE
  5
7F70
  8
3
  6
CONTINUOUS
 62
     0
 10
2083.0820359999989
 20
2804.7423509999999
 30
0.0
 11
2208.2263499999999
 21
2804.7423509999999
 31
0.0
  0
LINE
  5
7F71
  8
3
  6
CONTINUOUS
 62
     0
 10
2083.0820359999989
 20
2324.7423509999999
 30
0.0
 11
2208.2263499999999
 21
2324.7423509999999
 31
0.0
  0
LINE
  5
7F72
  8
3
  6
CONTINUOUS
 62
     0
 10
2188.2263499999999
 20
2764.7423509999999
 30
0.0
 11
2188.2263499999999
 21
2364.7423509999999
 31
0.0
  0
INSERT
  5
7F73
  8
3
  6
CONTINUOUS
 62
     0
  2
_OPEN
 10
2188.2263499999999
 20
2804.7423509999999
 30
0.0
 41
40.0
 42
40.0
 43
40.0
 50
90.0
  0
INSERT
  5
7F74
  8
3
  6
CONTINUOUS
 62
     0
  2
_OPEN
 10
2188.2263499999999
 20
2324.7423509999999
 30
0.0
 41
40.0
 42
40.0
 43
40.0
 50
270.0
  0
TEXT
  8
3
  40
60
  5
7FFA
  62
0
  72
0
  71
0
 10
2018.23
 20
2439.96
 30
0.000000
  1
480
  0
POINT
  5
7F76
  8
DEFPOINTS
  6
CONTINUOUS
 62
     0
 10
2073.0820359999998
 20
2804.7423509999999
 30
0.0
  0
POINT
  5
7F77
  8
DEFPOINTS
  6
CONTINUOUS
 62
     0
 10
2073.0820359999998
 20
2324.7423509999999
 30
0.0
  0
POINT
  5
7F78
  8
DEFPOINTS
  6
CONTINUOUS
 62
     0
 10
2188.2263499999999
 20
2324.7423509999999
 30
0.0
  0
ENDBLK
  5
7D4A
  8
0
  0
BLOCK
  8
0
  2
*D2
 70
     1
 10
0.0
 20
0.0
 30
0.0
  3
*D2
  1

  0
LINE
  5
7F79
  8
3
  6
CONTINUOUS
 62
     0
 10
2073.0820359999998
 20
2831.7423509999999
 30
0.0
 11
2073.0820359999998
 21
2948.4482359999988
 31
0.0
  0
LINE
  5
7F7A
  8
3
  6
CONTINUOUS
 62
     0
 10
1718.082036
 20
2901.7842999999998
 30
0.0
 11
1718.082036
 21
2948.4482359999988
 31
0.0
  0
LINE
  5
7F7B
  8
3
  6
CONTINUOUS
 62
     0
 10
2033.0820359999991
 20
2928.4482359999988
 30
0.0
 11
1758.082036
 21
2928.4482359999988
 31
0.0
  0
INSERT
  5
7F7C
  8
3
  6
CONTINUOUS
 62
     0
  2
_OPEN
 10
2073.0820359999998
 20
2928.4482359999988
 30
0.0
 41
40.0
 42
40.0
 43
40.0
  0
INSERT
  5
7F7D
  8
3
  6
CONTINUOUS
 62
     0
  2
_OPEN
 10
1718.082036
 20
2928.4482359999988
 30
0.0
 41
40.0
 42
40.0
 43
40.0
 50
180.0
  0
TEXT
  8
3
  40
60
  5
7FFB
  62
0
  72
0
  71
0
 10
1766.41
 20
2872.25
 30
0.000000
  1
355
  0
POINT
  5
7F7F
  8
DEFPOINTS
  6
CONTINUOUS
 62
     0
 10
2073.0820359999998
 20
2821.7423509999999
 30
0.0
  0
POINT
  5
7F80
  8
DEFPOINTS
  6
CONTINUOUS
 62
     0
 10
1718.082036
 20
2891.7842999999989
 30
0.0
  0
POINT
  5
7F81
  8
DEFPOINTS
  6
CONTINUOUS
 62
     0
 10
1718.082036
 20
2928.4482359999988
 30
0.0
  0
ENDBLK
  5
7CFE
  8
0
  0
BLOCK
  8
0
  2
*D3
 70
     1
 10
0.0
 20
0.0
 30
0.0
  3
*D3
  1

  0
LINE
  5
7F82
  8
3
  6
CONTINUOUS
 62
     0
 10
1308.082036
 20
2707.7423509999999
 30
0.0
 11
1308.082036
 21
2948.4482359999988
 31
0.0
  0
LINE
  5
7F83
  8
3
  6
CONTINUOUS
 62
     0
 10
1678.082036
 20
2928.4482359999988
 30
0.0
 11
1348.082036
 21
2928.4482359999988
 31
0.0
  0
INSERT
  5
7F84
  8
3
  6
CONTINUOUS
 62
     0
  2
_OPEN
 10
1718.082036
 20
2928.4482359999988
 30
0.0
 41
40.0
 42
40.0
 43
40.0
  0
INSERT
  5
7F85
  8
3
  6
CONTINUOUS
 62
     0
  2
_OPEN
 10
1308.082036
 20
2928.4482359999988
 30
0.0
 41
40.0
 42
40.0
 43
40.0
 50
180.0
  0
TEXT
  8
3
  40
60
  5
7FFC
  62
0
  72
0
  71
0
 10
1393.08
 20
2872.25
 30
0.000000
  1
410
  0
POINT
  5
7F87
  8
DEFPOINTS
  6
CONTINUOUS
 62
     0
 10
1718.082036
 20
2891.7842999999989
 30
0.0
  0
POINT
  5
7F88
  8
DEFPOINTS
  6
CONTINUOUS
 62
     0
 10
1308.082036
 20
2697.7423509999999
 30
0.0
  0
POINT
  5
7F89
  8
DEFPOINTS
  6
CONTINUOUS
 62
     0
 10
1308.082036
 20
2928.4482359999988
 30
0.0
  0
ENDBLK
  5
7B32
  8
0
  0
BLOCK
  8
0
  2
*D4
 70
     1
 10
0.0
 20
0.0
 30
0.0
  3
*D4
  1

  0
LINE
  5
7F8A
  8
3
  6
CONTINUOUS
 62
     0
 10
2083.0820359999989
 20
2831.7423509999999
 30
0.0
 11
2466.929803
 21
2831.7423509999999
 31
0.0
  0
LINE
  5
7F8B
  8
3
  6
CONTINUOUS
 62
     0
 10
2028.082036
 20
1907.7423510000001
 30
0.0
 11
2466.929803
 21
1907.7423510000001
 31
0.0
  0
LINE
  5
7F8C
  8
3
  6
CONTINUOUS
 62
     0
 10
2446.929803
 20
2791.7423509999999
 30
0.0
 11
2446.929803
 21
1947.7423510000001
 31
0.0
  0
INSERT
  5
7F8D
  8
3
  6
CONTINUOUS
 62
     0
  2
_OPEN
 10
2446.929803
 20
2831.7423509999999
 30
0.0
 41
40.0
 42
40.0
 43
40.0
 50
90.0
  0
INSERT
  5
7F8E
  8
3
  6
CONTINUOUS
 62
     0
  2
_OPEN
 10
2446.929803
 20
1907.7423510000001
 30
0.0
 41
40.0
 42
40.0
 43
40.0
 50
270.0
  0
TEXT
  8
3
  40
60
  5
7FFD
  62
0
  72
0
  71
0
 10
2276.93
 20
2262.28
 30
0.000000
  1
924
  0
POINT
  5
7F90
  8
DEFPOINTS
  6
CONTINUOUS
 62
     0
 10
2073.0820359999998
 20
2831.7423509999999
 30
0.0
  0
POINT
  5
7F91
  8
DEFPOINTS
  6
CONTINUOUS
 62
     0
 10
2018.082036
 20
1907.7423510000001
 30
0.0
  0
POINT
  5
7F92
  8
DEFPOINTS
  6
CONTINUOUS
 62
     0
 10
2446.929803
 20
1907.7423510000001
 30
0.0
  0
ENDBLK
  5
7D09
  8
0
  0
BLOCK
  8
0
  2
*D5
 70
     1
 10
0.0
 20
0.0
 30
0.0
  3
*D5
  1

  0
LINE
  5
7F93
  8
3
  6
CONTINUOUS
 62
     0
 10
898.0820359999999
 20
1897.7423510000001
 30
0.0
 11
898.0820359999999
 21
1745.434892
 31
0.0
  0
LINE
  5
7F94
  8
3
  6
CONTINUOUS
 62
     0
 10
1718.082036
 20
1817.2116175823451
 30
0.0
 11
1718.082036
 21
1745.434892
 31
0.0
  0
LINE
  5
7F95
  8
3
  6
CONTINUOUS
 62
     0
 10
938.0820359999999
 20
1765.434892
 30
0.0
 11
1678.082036
 21
1765.434892
 31
0.0
  0
INSERT
  5
7F96
  8
3
  6
CONTINUOUS
 62
     0
  2
_OPEN
 10
898.0820359999999
 20
1765.434892
 30
0.0
 41
40.0
 42
40.0
 43
40.0
 50
180.0
  0
INSERT
  5
7F97
  8
3
  6
CONTINUOUS
 62
     0
  2
_OPEN
 10
1718.082036
 20
1765.434892
 30
0.0
 41
40.0
 42
40.0
 43
40.0
  0
TEXT
  8
3
  40
60
  5
7FFE
  62
0
  72
0
  71
0
 10
1195.10
 20
1709.23
 30
0.000000
  1
820
  0
POINT
  5
7F99
  8
DEFPOINTS
  6
CONTINUOUS
 62
     0
 10
898.0820359999999
 20
1907.7423510000001
 30
0.0
  0
POINT
  5
7F9A
  8
DEFPOINTS
  6
CONTINUOUS
 62
     0
 10
1718.082036
 20
1827.2116175823451
 30
0.0
  0
POINT
  5
7F9B
  8
DEFPOINTS
  6
CONTINUOUS
 62
     0
 10
1718.082036
 20
1765.434892
 30
0.0
  0
ENDBLK
  5
7E7F
  8
0
  0
BLOCK
  8
0
  2
*D6
 70
     1
 10
0.0
 20
0.0
 30
0.0
  3
*D6
  1

  0
LINE
  5
7F9C
  8
3
  6
CONTINUOUS
 62
     0
 10
2018.082036
 20
1897.7423510000001
 30
0.0
 11
2018.082036
 21
1745.434892
 31
0.0
  0
LINE
  5
7F9D
  8
3
  6
CONTINUOUS
 62
     0
 10
1758.082036
 20
1765.434892
 30
0.0
 11
1978.0820359999991
 21
1765.434892
 31
0.0
  0
INSERT
  5
7F9E
  8
3
  6
CONTINUOUS
 62
     0
  2
_OPEN
 10
1718.082036
 20
1765.434892
 30
0.0
 41
40.0
 42
40.0
 43
40.0
 50
180.0
  0
INSERT
  5
7F9F
  8
3
  6
CONTINUOUS
 62
     0
  2
_OPEN
 10
2018.082036
 20
1765.434892
 30
0.0
 41
40.0
 42
40.0
 43
40.0
  0
TEXT
  8
3
  40
60
  5
7FFF
  62
0
  72
0
  71
0
 10
1748.08
 20
1709.23
 30
0.000000
  1
300
  0
POINT
  5
7FA1
  8
DEFPOINTS
  6
CONTINUOUS
 62
     0
 10
1718.082036
 20
1827.2116175823451
 30
0.0
  0
POINT
  5
7FA2
  8
DEFPOINTS
  6
CONTINUOUS
 62
     0
 10
2018.082036
 20
1907.7423510000001
 30
0.0
  0
POINT
  5
7FA3
  8
DEFPOINTS
  6
CONTINUOUS
 62
     0
 10
2018.082036
 20
1765.434892
 30
0.0
  0
ENDBLK
  5
7E74
  8
0
  0
BLOCK
  8
0
  2
*D7
 70
     1
 10
0.0
 20
0.0
 30
0.0
  3
*D7
  1

  0
LINE
  5
7E61
  8
0
  6
BYBLOCK
 62
     0
 10
3031.4030670000002
 20
1897.7423510000001
 30
0.0
 11
3031.4030670000002
 21
1734.666242999999
 31
0.0
  0
LINE
  5
7E62
  8
0
  6
BYBLOCK
 62
     0
 10
3255.4030670000002
 20
1801.7101659797131
 30
0.0
 11
3255.4030670000002
 21
1734.666242999999
 31
0.0
  0
LINE
  5
7E63
  8
0
  6
BYBLOCK
 62
     0
 10
3071.4030670000002
 20
1754.666242999999
 30
0.0
 11
3215.4030670000002
 21
1754.666242999999
 31
0.0
  0
TEXT
  5
7E64
  8
3
 62
     0
 10
3064.8316384285722
 20
1772.074081481052
 30
0.0
 40
60.0
  1
224
  0
INSERT
  5
7E65
  8
0
  6
BYBLOCK
 62
     0
  2
_OPEN
 10
3031.4030670000002
 20
1754.666242999999
 30
0.0
 41
40.0
 42
40.0
 43
40.0
 50
180.0
  0
INSERT
  5
7E66
  8
0
  6
BYBLOCK
 62
     0
  2
_OPEN
 10
3255.4030670000002
 20
1754.666242999999
 30
0.0
 41
40.0
 42
40.0
 43
40.0
  0
POINT
  5
7E67
  8
DEFPOINTS
  6
BYBLOCK
 62
     0
 10
3031.4030670000002
 20
1907.7423510000001
 30
0.0
  0
POINT
  5
7E68
  8
DEFPOINTS
  6
BYBLOCK
 62
     0
 10
3255.4030670000002
 20
1811.7101659797131
 30
0.0
  0
POINT
  5
7E69
  8
DEFPOINTS
  6
BYBLOCK
 62
     0
 10
3255.4030670000002
 20
1754.666242999999
 30
0.0
  0
ENDBLK
  5
7E6A
  8
0
  0
BLOCK
  8
0
  2
*D8
 70
     1
 10
0.0
 20
0.0
 30
0.0
  3
*D8
  1

  0
LINE
  5
7FA4
  8
3
  6
CONTINUOUS
 62
     0
 10
3479.4030670000002
 20
1897.7423510000001
 30
0.0
 11
3479.4030670000002
 21
1734.666242999999
 31
0.0
  0
LINE
  5
7FA5
  8
3
  6
CONTINUOUS
 62
     0
 10
3295.4030670000002
 20
1754.666242999999
 30
0.0
 11
3439.4030670000002
 21
1754.666242999999
 31
0.0
  0
TEXT
  8
3
  40
60
  5
8000
  62
0
  72
0
  71
0
 10
3258.16
 20
1698.53
 30
0.000000
  1
224
  0
INSERT
  5
7FA7
  8
3
  6
CONTINUOUS
 62
     0
  2
_OPEN
 10
3255.4030670000002
 20
1754.666242999999
 30
0.0
 41
40.0
 42
40.0
 43
40.0
 50
180.0
  0
INSERT
  5
7FA8
  8
3
  6
CONTINUOUS
 62
     0
  2
_OPEN
 10
3479.4030670000002
 20
1754.666242999999
 30
0.0
 41
40.0
 42
40.0
 43
40.0
  0
POINT
  5
7FA9
  8
DEFPOINTS
  6
CONTINUOUS
 62
     0
 10
3255.4030670000002
 20
1811.7101659797131
 30
0.0
  0
POINT
  5
7FAA
  8
DEFPOINTS
  6
CONTINUOUS
 62
     0
 10
3479.4030670000002
 20
1907.7423510000001
 30
0.0
  0
POINT
  5
7FAB
  8
DEFPOINTS
  6
CONTINUOUS
 62
     0
 10
3479.4030670000002
 20
1754.666242999999
 30
0.0
  0
ENDBLK
  5
7E5F
  8
0
  0
BLOCK
  8
0
  2
*D9
 70
     1
 10
0.0
 20
0.0
 30
0.0
  3
*D9
  1

  0
LINE
  5
7FAC
  8
3
  6
CONTINUOUS
 62
     0
 10
3435.4030670000002
 20
2841.7423509999999
 30
0.0
 11
3435.4030670000002
 21
2926.903949999999
 31
0.0
  0
LINE
  5
7FAD
  8
3
  6
CONTINUOUS
 62
     0
 10
3075.4030670000002
 20
2841.7423509999999
 30
0.0
 11
3075.4030670000002
 21
2926.903949999999
 31
0.0
  0
LINE
  5
7FAE
  8
3
  6
CONTINUOUS
 62
     0
 10
3395.4030670000002
 20
2906.9039499999999
 30
0.0
 11
3115.4030670000002
 21
2906.9039499999999
 31
0.0
  0
INSERT
  5
7FAF
  8
3
  6
CONTINUOUS
 62
     0
  2
_OPEN
 10
3435.4030670000002
 20
2906.9039499999999
 30
0.0
 41
40.0
 42
40.0
 43
40.0
  0
INSERT
  5
7FB0
  8
3
  6
CONTINUOUS
 62
     0
  2
_OPEN
 10
3075.4030670000002
 20
2906.9039499999999
 30
0.0
 41
40.0
 42
40.0
 43
40.0
 50
180.0
  0
TEXT
  8
3
  40
60
  5
8001
  62
0
  72
0
  71
0
 10
3131.59
 20
2850.70
 30
0.000000
  1
360
  0
POINT
  5
7FB2
  8
DEFPOINTS
  6
CONTINUOUS
 62
     0
 10
3435.4030670000002
 20
2831.7423509999999
 30
0.0
  0
POINT
  5
7FB3
  8
DEFPOINTS
  6
CONTINUOUS
 62
     0
 10
3075.4030670000002
 20
2831.7423509999999
 30
0.0
  0
POINT
  5
7FB4
  8
DEFPOINTS
  6
CONTINUOUS
 62
     0
 10
3075.4030670000002
 20
2906.9039499999999
 30
0.0
  0
ENDBLK
  5
7E08
  8
0
  0
BLOCK
  8
0
  2
*D10
 70
     1
 10
0.0
 20
0.0
 30
0.0
  3
*D10
  1

  0
LINE
  5
7FB5
  8
3
  6
CONTINUOUS
 62
     0
 10
2885.4030670000002
 20
2742.7423509999999
 30
0.0
 11
2885.4030670000002
 21
3045.3660159999999
 31
0.0
  0
LINE
  5
7FB6
  8
3
  6
CONTINUOUS
 62
     0
 10
3215.4030670000002
 20
3025.366015999999
 30
0.0
 11
2925.4030670000002
 21
3025.366015999999
 31
0.0
  0
INSERT
  5
7FB7
  8
3
  6
CONTINUOUS
 62
     0
  2
_OPEN
 10
3255.4030670000002
 20
3025.366015999999
 30
0.0
 41
40.0
 42
40.0
 43
40.0
  0
INSERT
  5
7FB8
  8
3
  6
CONTINUOUS
 62
     0
  2
_OPEN
 10
2885.4030670000002
 20
3025.366015999999
 30
0.0
 41
40.0
 42
40.0
 43
40.0
 50
180.0
  0
TEXT
  8
3
  40
60
  5
8002
  62
0
  72
0
  71
0
 10
2950.40
 20
3019.17
 30
0.000000
  1
MAX
  0
TEXT
  8
3
  40
60
  5
8003
  62
0
  72
0
  71
0
 10
2950.40
 20
2941.17
 30
0.000000
  1
430
  0
POINT
  5
7FBA
  8
DEFPOINTS
  6
CONTINUOUS
 62
     0
 10
3255.4030670000002
 20
2926.1723139999999
 30
0.0
  0
POINT
  5
7FBB
  8
DEFPOINTS
  6
CONTINUOUS
 62
     0
 10
2885.4030670000002
 20
2732.7423509999999
 30
0.0
  0
POINT
  5
7FBC
  8
DEFPOINTS
  6
CONTINUOUS
 62
     0
 10
2885.4030670000002
 20
3025.366015999999
 30
0.0
  0
ENDBLK
  5
7E96
  8
0
  0
BLOCK
  8
0
  2
*D11
 70
     1
 10
0.0
 20
0.0
 30
0.0
  3
*D11
  1

  0
LINE
  5
7FBD
  8
3
  6
CONTINUOUS
 62
     0
 10
898.0820359999999
 20
4179.872351
 30
0.0
 11
898.0820359999999
 21
4360.710415999999
 31
0.0
  0
LINE
  5
7FBE
  8
3
  6
CONTINUOUS
 62
     0
 10
2018.082036
 20
4179.872351
 30
0.0
 11
2018.082036
 21
4360.710415999999
 31
0.0
  0
LINE
  5
7FBF
  8
3
  6
CONTINUOUS
 62
     0
 10
938.0820359999999
 20
4340.7104159999999
 30
0.0
 11
1978.0820359999991
 21
4340.7104159999999
 31
0.0
  0
INSERT
  5
7FC0
  8
3
  6
CONTINUOUS
 62
     0
  2
_OPEN
 10
898.0820359999999
 20
4340.7104159999999
 30
0.0
 41
40.0
 42
40.0
 43
40.0
 50
180.0
  0
INSERT
  5
7FC1
  8
3
  6
CONTINUOUS
 62
     0
  2
_OPEN
 10
2018.082036
 20
4340.7104159999999
 30
0.0
 41
40.0
 42
40.0
 43
40.0
  0
TEXT
  8
3
  40
60
  5
8004
  62
0
  72
0
  71
0
 10
1335.23
 20
4284.51
 30
0.000000
  1
1120
  0
POINT
  5
7FC3
  8
DEFPOINTS
  6
CONTINUOUS
 62
     0
 10
898.0820359999999
 20
4169.872351
 30
0.0
  0
POINT
  5
7FC4
  8
DEFPOINTS
  6
CONTINUOUS
 62
     0
 10
2018.082036
 20
4169.872351
 30
0.0
  0
POINT
  5
7FC5
  8
DEFPOINTS
  6
CONTINUOUS
 62
     0
 10
2018.082036
 20
4340.7104159999999
 30
0.0
  0
ENDBLK
  5
7DDB
  8
0
  0
BLOCK
  8
0
  2
*D12
 70
     1
 10
0.0
 20
0.0
 30
0.0
  3
*D12
  1

  0
LINE
  5
7FC6
  8
3
  6
CONTINUOUS
 62
     0
 10
888.0820359999999
 20
4169.872351
 30
0.0
 11
758.85712500000068
 21
4169.872351
 31
0.0
  0
LINE
  5
7FC7
  8
3
  6
CONTINUOUS
 62
     0
 10
888.0820359999999
 20
3721.872351
 30
0.0
 11
758.85712500000045
 21
3721.872351
 31
0.0
  0
LINE
  5
7FC8
  8
3
  6
CONTINUOUS
 62
     0
 10
778.85712500000056
 20
4129.872351
 30
0.0
 11
778.85712500000045
 21
3761.872351
 31
0.0
  0
INSERT
  5
7FC9
  8
3
  6
CONTINUOUS
 62
     0
  2
_OPEN
 10
778.85712500000056
 20
4169.872351
 30
0.0
 41
40.0
 42
40.0
 43
40.0
 50
90.0
  0
INSERT
  5
7FCA
  8
3
  6
CONTINUOUS
 62
     0
  2
_OPEN
 10
778.85712500000045
 20
3721.872351
 30
0.0
 41
40.0
 42
40.0
 43
40.0
 50
270.0
  0
TEXT
  8
3
  40
60
  5
8005
  62
0
  72
0
  71
0
 10
608.857
 20
3836.09
 30
0.000000
  1
448
  0
POINT
  5
7FCC
  8
DEFPOINTS
  6
CONTINUOUS
 62
     0
 10
898.0820359999999
 20
4169.872351
 30
0.0
  0
POINT
  5
7FCD
  8
DEFPOINTS
  6
CONTINUOUS
 62
     0
 10
898.0820359999999
 20
3721.872351
 30
0.0
  0
POINT
  5
7FCE
  8
DEFPOINTS
  6
CONTINUOUS
 62
     0
 10
778.85712500000045
 20
3721.872351
 30
0.0
  0
ENDBLK
  5
7DE6
  8
0
  0
BLOCK
  8
0
  2
*D13
 70
     1
 10
0.0
 20
0.0
 30
0.0
  3
*D13
  1

  0
LINE
  5
7FCF
  8
3
  6
CONTINUOUS
 62
     0
 10
2083.0820359999989
 20
2804.7423509999999
 30
0.0
 11
2330.480712
 21
2804.7423509999999
 31
0.0
  0
LINE
  5
7FD0
  8
3
  6
CONTINUOUS
 62
     0
 10
2159.5918099999999
 20
2342.7423509999999
 30
0.0
 11
2330.480712
 21
2342.7423509999999
 31
0.0
  0
LINE
  5
7FD1
  8
3
  6
CONTINUOUS
 62
     0
 10
2310.480712
 20
2764.7423509999999
 30
0.0
 11
2310.480712
 21
2382.7423509999999
 31
0.0
  0
INSERT
  5
7FD2
  8
3
  6
CONTINUOUS
 62
     0
  2
_OPEN
 10
2310.480712
 20
2804.7423509999999
 30
0.0
 41
40.0
 42
40.0
 43
40.0
 50
90.0
  0
INSERT
  5
7FD3
  8
3
  6
CONTINUOUS
 62
     0
  2
_OPEN
 10
2310.480712
 20
2342.7423509999999
 30
0.0
 41
40.0
 42
40.0
 43
40.0
 50
270.0
  0
TEXT
  8
3
  40
60
  5
8006
  62
0
  72
0
  71
0
 10
2140.48
 20
2438.73
 30
0.000000
  1
462
  0
POINT
  5
7FD5
  8
DEFPOINTS
  6
CONTINUOUS
 62
     0
 10
2073.0820359999998
 20
2804.7423509999999
 30
0.0
  0
POINT
  5
7FD6
  8
DEFPOINTS
  6
CONTINUOUS
 62
     0
 10
2149.5918099999999
 20
2342.7423509999999
 30
0.0
  0
POINT
  5
7FD7
  8
DEFPOINTS
  6
CONTINUOUS
 62
     0
 10
2310.480712
 20
2342.7423509999999
 30
0.0
  0
ENDBLK
  5
7D14
  8
0
  0
BLOCK
  8
0
  2
*D14
 70
     1
 10
0.0
 20
0.0
 30
0.0
  3
*D14
  1

  0
LINE
  5
7FD8
  8
3
  6
CONTINUOUS
 62
     0
 10
2028.082036
 20
1907.7423510000001
 30
0.0
 11
2330.4807119999991
 21
1907.7423510000001
 31
0.0
  0
LINE
  5
7FD9
  8
3
  6
CONTINUOUS
 62
     0
 10
2310.4807119999991
 20
2302.7423509999999
 30
0.0
 11
2310.4807119999991
 21
1947.7423510000001
 31
0.0
  0
INSERT
  5
7FDA
  8
3
  6
CONTINUOUS
 62
     0
  2
_OPEN
 10
2310.4807119999991
 20
2342.7423509999999
 30
0.0
 41
40.0
 42
40.0
 43
40.0
 50
90.0
  0
INSERT
  5
7FDB
  8
3
  6
CONTINUOUS
 62
     0
  2
_OPEN
 10
2310.4807119999991
 20
1907.7423510000001
 30
0.0
 41
40.0
 42
40.0
 43
40.0
 50
270.0
  0
TEXT
  8
3
  40
60
  5
8007
  62
0
  72
0
  71
0
 10
2140.48
 20
2019.04
 30
0.000000
  1
435
  0
POINT
  5
7FDD
  8
DEFPOINTS
  6
CONTINUOUS
 62
     0
 10
2149.5918099999999
 20
2342.7423509999999
 30
0.0
  0
POINT
  5
7FDE
  8
DEFPOINTS
  6
CONTINUOUS
 62
     0
 10
2018.082036
 20
1907.7423510000001
 30
0.0
  0
POINT
  5
7FDF
  8
DEFPOINTS
  6
CONTINUOUS
 62
     0
 10
2310.4807119999991
 20
1907.7423510000001
 30
0.0
  0
ENDBLK
  5
7CF2
  8
0
  0
BLOCK
  8
0
  2
*D15
 70
     1
 10
0.0
 20
0.0
 30
0.0
  3
*D15
  1

  0
LINE
  5
7FE0
  8
3
  6
CONTINUOUS
 62
     0
 10
3446.4030670000002
 20
2592.7423509999999
 30
0.0
 11
3624.4943039999998
 21
2592.7423509999999
 31
0.0
  0
LINE
  5
7FE1
  8
3
  6
CONTINUOUS
 62
     0
 10
3446.4030670000002
 20
2092.7423509999999
 30
0.0
 11
3624.4943039999998
 21
2092.7423509999999
 31
0.0
  0
LINE
  5
7FE2
  8
3
  6
CONTINUOUS
 62
     0
 10
3604.4943040000012
 20
2552.7423509999999
 30
0.0
 11
3604.4943040000012
 21
2132.7423509999999
 31
0.0
  0
INSERT
  5
7FE3
  8
3
  6
CONTINUOUS
 62
     0
  2
_OPEN
 10
3604.4943040000012
 20
2592.7423509999999
 30
0.0
 41
40.0
 42
40.0
 43
40.0
 50
90.0
  0
INSERT
  5
7FE4
  8
3
  6
CONTINUOUS
 62
     0
  2
_OPEN
 10
3604.4943040000012
 20
2092.7423509999999
 30
0.0
 41
40.0
 42
40.0
 43
40.0
 50
270.0
  0
TEXT
  8
3
  40
60
  5
8008
  62
0
  72
0
  71
0
 10
3434.49
 20
2252.60
 30
0.000000
  1
φ500
  0
POINT
  5
7FE6
  8
DEFPOINTS
  6
CONTINUOUS
 62
     0
 10
3436.4030670000002
 20
2592.7423509999999
 30
0.0
  0
POINT
  5
7FE7
  8
DEFPOINTS
  6
CONTINUOUS
 62
     0
 10
3436.4030670000002
 20
2092.7423509999999
 30
0.0
  0
POINT
  5
7FE8
  8
DEFPOINTS
  6
CONTINUOUS
 62
     0
 10
3604.4943040000012
 20
2092.7423509999999
 30
0.0
  0
ENDBLK
  5
7E4A
  8
0
  0
BLOCK
  8
0
  2
*D16
 70
     1
 10
0.0
 20
0.0
 30
0.0
  3
*D16
  1

  0
LINE
  5
7FE9
  8
3
  6
CONTINUOUS
 62
     0
 10
3436.4030670000002
 20
2602.7423509999999
 30
0.0
 11
3436.4030670000002
 21
3045.3660159999999
 31
0.0
  0
LINE
  5
7FEA
  8
3
  6
CONTINUOUS
 62
     0
 10
3295.4030670000002
 20
3025.366015999999
 30
0.0
 11
3396.4030670000002
 21
3025.366015999999
 31
0.0
  0
TEXT
  8
3
  40
60
  5
8009
  62
0
  72
0
  71
0
 10
3213.85
 20
2969.80
 30
0.000000
  1
181
  0
INSERT
  5
7FEC
  8
3
  6
CONTINUOUS
 62
     0
  2
_OPEN
 10
3255.4030670000002
 20
3025.366015999999
 30
0.0
 41
40.0
 42
40.0
 43
40.0
 50
180.0
  0
INSERT
  5
7FED
  8
3
  6
CONTINUOUS
 62
     0
  2
_OPEN
 10
3436.4030670000002
 20
3025.366015999999
 30
0.0
 41
40.0
 42
40.0
 43
40.0
  0
POINT
  5
7FEE
  8
DEFPOINTS
  6
CONTINUOUS
 62
     0
 10
3255.4030670000002
 20
2926.1723139999999
 30
0.0
  0
POINT
  5
7FEF
  8
DEFPOINTS
  6
CONTINUOUS
 62
     0
 10
3436.4030670000002
 20
2592.7423509999999
 30
0.0
  0
POINT
  5
7FF0
  8
DEFPOINTS
  6
CONTINUOUS
 62
     0
 10
3436.4030670000002
 20
3025.366015999999
 30
0.0
  0
ENDBLK
  5
7DFD
  8
0
  0
BLOCK
  8
0
  2
*D17
 70
     1
 10
0.0
 20
0.0
 30
0.0
  3
*D17
  1

  0
LINE
  5
7FF1
  8
3
 62
     0
 10
2073.0820359999998
 20
2831.7423509999999
 30
0.0
 11
2073.0820359999998
 21
3093.384203424946
 31
0.0
  0
LINE
  5
7FF2
  8
3
 62
     0
 10
898.0820359999999
 20
1997.7423510000001
 30
0.0
 11
898.08203600000002
 21
3093.384203424946
 31
0.0
  0
LINE
  5
7FF3
  8
3
 62
     0
 10
2033.0820359999991
 20
3073.3842034249469
 30
0.0
 11
938.0820359999999
 21
3073.3842034249469
 31
0.0
  0
INSERT
  5
7FF4
  8
3
 62
     0
  2
_OPEN
 10
2073.0820359999998
 20
3073.3842034249469
 30
0.0
 41
40.0
 42
40.0
 43
40.0
  0
INSERT
  5
7FF5
  8
3
 62
     0
  2
_OPEN
 10
898.08203600000002
 20
3073.3842034249469
 30
0.0
 41
40.0
 42
40.0
 43
40.0
 50
180.0
  0
TEXT
  8
3
  40
60
  5
800A
  62
0
  72
0
  71
0
 10
1400.13
 20
3017.18
 30
0.000000
  1
1175
  0
POINT
  5
7FF7
  8
DEFPOINTS
 62
     0
 10
2073.0820359999998
 20
2821.7423509999999
 30
0.0
  0
POINT
  5
7FF8
  8
DEFPOINTS
 62
     0
 10
898.0820359999999
 20
1987.742350999999
 30
0.0
  0
POINT
  5
7FF9
  8
DEFPOINTS
 62
     0
 10
898.08203600000002
 20
3073.3842034249469
 30
0.0
  0
ENDBLK
  5
7E8B
  8
0
  0
ENDSEC
  0
SECTION
  2
ENTITIES
  0
LINE
  5
7A66
  8
1
  6
CONTINUOUS
 10
898.0820359999999
 20
1987.742350999999
 30
0.0
 11
2028.082036
 21
1987.742350999999
 31
0.0
  0
LINE
  5
7A67
  8
1
  6
CONTINUOUS
 10
898.0820359999999
 20
1907.7423510000001
 30
0.0
 11
2018.082036
 21
1907.7423510000001
 31
0.0
  0
ARC
  5
7A68
  8
1
  6
CONTINUOUS
 10
1114.802036
 20
2169.7423509999999
 30
0.0
 40
122.0
 50
324.60000000000002
 51
215.39999999999989
  0
LINE
  5
7A69
  8
1
  6
CONTINUOUS
 10
984.80203599999993
 20
2037.742350999999
 30
0.0
 11
1244.802036
 21
2037.742350999999
 31
0.0
  0
LINE
  5
7A6A
  8
1
  6
CONTINUOUS
 10
984.80203599999993
 20
2037.742350999999
 30
0.0
 11
1034.802036
 21
2037.742350999999
 31
0.0
  0
LINE
  5
7A6B
  8
1
  6
CONTINUOUS
 10
984.80203599999993
 20
2037.742350999999
 30
0.0
 11
1015.352036
 21
2099.062351
 31
0.0
  0
LINE
  5
7A73
  8
1
  6
CONTINUOUS
 10
984.80203599999993
 20
1987.742350999999
 30
0.0
 11
984.80203599999993
 21
2037.742350999999
 31
0.0
  0
LINE
  5
7A74
  8
1
  6
CONTINUOUS
 10
898.0820359999999
 20
1987.742350999999
 30
0.0
 11
898.0820359999999
 21
1907.7423510000001
 31
0.0
  0
ARC
  5
7A75
  8
1
  6
CONTINUOUS
 10
1741.1616649999989
 20
2373.2057690000001
 30
0.0
 40
431.17249299999992
 50
93.120533999999992
 51
184.73655500000001
  0
ARC
  5
7A76
  8
1
  6
CONTINUOUS
 10
1691.082036
 20
2369.7423509999999
 30
0.0
 40
380.98000000000002
 50
184.83999999999989
 51
278.47000000000003
  0
LINE
  5
7A77
  8
1
  6
CONTINUOUS
 10
1308.082036
 20
2697.7423509999999
 30
0.0
 11
2028.082036
 21
2697.7423509999999
 31
0.0
  0
CIRCLE
  5
7A78
  8
1
  6
CONTINUOUS
 10
1718.082036
 20
2342.7423509999999
 30
0.0
 40
275.0
  0
CIRCLE
  5
7A79
  8
1
  6
CONTINUOUS
 10
1718.082036
 20
2342.7423509999999
 30
0.0
 40
120.0
  0
LINE
  5
7A7A
  8
2
  6
CENTER
 10
985.07872362238402
 20
2342.7423509999999
 30
0.0
 11
2149.5918099999999
 21
2342.7423509999999
 31
0.0
  0
LINE
  5
7A7B
  8
1
  6
CONTINUOUS
 10
1095.992035999999
 20
2225.5323509999998
 30
0.0
 11
1673.9120359999999
 21
2454.312351
 31
0.0
  0
LINE
  5
7A7C
  8
1
  6
CONTINUOUS
 10
1740.092036
 20
2224.7823509999998
 30
0.0
 11
1129.092036
 21
2110.7623509999999
 31
0.0
  0
CIRCLE
  5
7A7D
  8
1
  6
CONTINUOUS
 10
1718.082036
 20
2342.7423509999999
 30
0.0
 40
250.0
  0
LINE
  5
7A7E
  8
1
  6
CONTINUOUS
 10
1308.082036
 20
2697.7423509999999
 30
0.0
 11
1308.082036
 21
1987.742350999999
 31
0.0
  0
LINE
  5
7A7F
  8
1
  6
CONTINUOUS
 10
1244.802036
 20
1987.742350999999
 30
0.0
 11
1244.802036
 21
2037.742350999999
 31
0.0
  0
LINE
  5
7A80
  8
2
  6
CENTER
 10
1058.082036
 20
2169.7423509999999
 30
0.0
 11
1178.0820359999991
 21
2169.7423509999999
 31
0.0
  0
CIRCLE
  5
7A81
  8
1
  6
CONTINUOUS
 10
1118.082036
 20
2169.7423509999999
 30
0.0
 40
60.0
  0
LINE
  5
7A82
  8
2
  6
CENTER
 10
1118.082036
 20
2109.7423509999999
 30
0.0
 11
1118.082036
 21
2229.7423509999999
 31
0.0
  0
LINE
  5
7A83
  8
1
  6
CONTINUOUS
 10
1244.802036
 20
2037.742350999999
 30
0.0
 11
1214.242035999999
 21
2099.062351
 31
0.0
  0
LINE
  5
7A84
  8
1
  6
CONTINUOUS
 10
1244.802036
 20
2037.742350999999
 30
0.0
 11
1194.802036
 21
2037.742350999999
 31
0.0
  0
LINE
  5
7A85
  8
1
  6
CONTINUOUS
 10
2048.0820359999989
 20
2324.7423509999999
 30
0.0
 11
2048.0820359999989
 21
2804.6723510000002
 31
0.0
  0
LINE
  5
7A86
  8
1
  6
CONTINUOUS
 10
2073.0820359999998
 20
2821.7423509999999
 30
0.0
 11
2073.0820359999998
 21
2307.7423509999999
 31
0.0
  0
LINE
  5
7A87
  8
1
  6
CONTINUOUS
 10
2028.082036
 20
2697.7423509999999
 30
0.0
 11
2028.082036
 21
1987.742350999999
 31
0.0
  0
LINE
  5
7A88
  8
2
  6
CENTER
 10
1718.082036
 20
4209.1599159999987
 30
0.0
 11
1718.082036
 21
3487.8432939999989
 31
0.0
  0
ARC
  5
7A89
  8
1
  6
CONTINUOUS
 10
1687.620893
 20
2331.6133420000001
 30
0.0
 40
343.89392400000003
 50
279.97638799999987
 51
358.85972099999998
  0
LINE
  5
7A8A
  8
1
  6
CONTINUOUS
 10
2018.082036
 20
1987.742350999999
 30
0.0
 11
2018.082036
 21
1907.7423510000001
 31
0.0
  0
LINE
  5
7A8B
  8
1
  6
CONTINUOUS
 10
2031.4520359999999
 20
2324.7423509999999
 30
0.0
 11
2073.0820359999998
 21
2324.7423509999999
 31
0.0
  0
LINE
  5
7A8C
  8
1
  6
CONTINUOUS
 10
2073.0820359999998
 20
2804.7423509999999
 30
0.0
 11
1717.7020359999999
 21
2803.7423509999999
 31
0.0
  0
LINE
  5
7A8D
  8
1
  6
CONTINUOUS
 10
3031.4030670000002
 20
1987.742350999999
 30
0.0
 11
3479.4030670000002
 21
1987.742350999999
 31
0.0
  0
LINE
  5
7A8E
  8
1
  6
CONTINUOUS
 10
3031.4030670000002
 20
1907.7423510000001
 30
0.0
 11
3479.4030670000002
 21
1907.7423510000001
 31
0.0
  0
LINE
  5
7A8F
  8
1
  6
CONTINUOUS
 10
3075.4030670000002
 20
2297.7423509999999
 30
0.0
 11
3435.4030670000002
 21
2297.7423509999999
 31
0.0
  0
LINE
  5
7A90
  8
1
  6
CONTINUOUS
 10
3435.4030670000002
 20
2831.7423509999999
 30
0.0
 11
3075.4030670000002
 21
2831.7423509999999
 31
0.0
  0
LINE
  5
7A91
  8
1
  6
CONTINUOUS
 10
3435.4030670000002
 20
2297.7423509999999
 30
0.0
 11
3075.4030670000002
 21
2831.7423509999999
 31
0.0
  0
LINE
  5
7A92
  8
1
  6
CONTINUOUS
 10
3075.4030670000002
 20
2297.7423509999999
 30
0.0
 11
3435.4030670000002
 21
2831.7423509999999
 31
0.0
  0
LINE
  5
7A93
  8
1
  6
CONTINUOUS
 10
2915.4030670000002
 20
2462.7423509999999
 30
0.0
 11
2915.4030670000002
 21
2222.7423509999999
 31
0.0
  0
LINE
  5
7A94
  8
1
  6
CONTINUOUS
 10
3075.4030670000002
 20
2831.7423509999999
 30
0.0
 11
3075.4030670000002
 21
1987.742350999999
 31
0.0
  0
LINE
  5
7A95
  8
1
  6
CONTINUOUS
 10
2975.4030670000002
 20
2222.7423509999999
 30
0.0
 11
2975.4030670000002
 21
2462.7423509999999
 31
0.0
  0
LINE
  5
7A96
  8
1
  6
CONTINUOUS
 10
2885.4030670000002
 20
1987.742350999999
 30
0.0
 11
2885.4030670000002
 21
2732.7423509999999
 31
0.0
  0
LINE
  5
7A97
  8
1
  6
CONTINUOUS
 10
3005.4030670000002
 20
2732.7423509999999
 30
0.0
 11
3005.4030670000002
 21
1987.742350999999
 31
0.0
  0
LINE
  5
7A98
  8
1
  6
CONTINUOUS
 10
3005.4030670000002
 20
1987.742350999999
 30
0.0
 11
2885.4030670000002
 21
1987.742350999999
 31
0.0
  0
LINE
  5
7A99
  8
1
  6
CONTINUOUS
 10
3031.4030670000002
 20
1987.742350999999
 30
0.0
 11
3031.4030670000002
 21
1907.7423510000001
 31
0.0
  0
LINE
  5
7A9A
  8
1
  6
CONTINUOUS
 10
2975.4030670000002
 20
2361.7423509999999
 30
0.0
 11
3075.4030670000002
 21
2361.7423509999999
 31
0.0
  0
LINE
  5
7A9B
  8
1
  6
CONTINUOUS
 10
2975.4030670000002
 20
2323.7423509999999
 30
0.0
 11
3075.4030670000002
 21
2323.7423509999999
 31
0.0
  0
LINE
  5
7A9C
  8
1
  6
CONTINUOUS
 10
2975.4030670000002
 20
2150.7423509999999
 30
0.0
 11
3075.4030670000002
 21
2150.7423509999999
 31
0.0
  0
LINE
  5
7A9D
  8
1
  6
CONTINUOUS
 10
2975.4030670000002
 20
2188.7423509999999
 30
0.0
 11
3075.4030670000002
 21
2188.7423509999999
 31
0.0
  0
LINE
  5
7A9E
  8
1
  6
CONTINUOUS
 10
2975.4030670000002
 20
2222.7423509999999
 30
0.0
 11
2915.4030670000002
 21
2222.7423509999999
 31
0.0
  0
LINE
  5
7A9F
  8
1
  6
CONTINUOUS
 10
2915.4030670000002
 20
2119.7423509999999
 30
0.0
 11
2975.4030670000002
 21
2119.7423509999999
 31
0.0
  0
LINE
  5
7AA0
  8
1
  6
CONTINUOUS
 10
2975.4030670000002
 20
2219.7423509999999
 30
0.0
 11
2915.4030670000002
 21
2219.7423509999999
 31
0.0
  0
LINE
  5
7AA1
  8
1
  6
CONTINUOUS
 10
2915.4030670000002
 20
2219.7423509999999
 30
0.0
 11
2915.4030670000002
 21
2119.7423509999999
 31
0.0
  0
LINE
  5
7AA2
  8
1
  6
CONTINUOUS
 10
2975.4030670000002
 20
2119.7423509999999
 30
0.0
 11
2975.4030670000002
 21
2219.7423509999999
 31
0.0
  0
LINE
  5
7AA3
  8
1
  6
CONTINUOUS
 10
2885.4030670000002
 20
2732.7423509999999
 30
0.0
 11
3005.4030670000002
 21
2732.7423509999999
 31
0.0
  0
LINE
  5
7AA4
  8
1
  6
CONTINUOUS
 10
2975.4030670000002
 20
2462.7423509999999
 30
0.0
 11
2915.4030670000002
 21
2462.7423509999999
 31
0.0
  0
LINE
  5
7AA5
  8
1
  6
CONTINUOUS
 10
3435.4030670000002
 20
2831.7423509999999
 30
0.0
 11
3435.4030670000002
 21
1987.742350999999
 31
0.0
  0
LINE
  5
7AA6
  8
1
  6
CONTINUOUS
 10
3479.4030670000002
 20
1987.742350999999
 30
0.0
 11
3479.4030670000002
 21
1907.7423510000001
 31
0.0
  0
LINE
  5
7AA7
  8
1
  6
CONTINUOUS
 10
996.0820359999999
 20
4096.1123509999998
 30
0.0
 11
1240.082036
 21
4096.1123509999998
 31
0.0
  0
LINE
  5
7AA8
  8
1
  6
CONTINUOUS
 10
996.0820359999999
 20
3746.1123510000002
 30
0.0
 11
1240.082036
 21
3746.1123510000002
 31
0.0
  0
LINE
  5
7AA9
  8
1
  6
CONTINUOUS
 10
898.0820359999999
 20
3721.872351
 30
0.0
 11
1099.082036
 21
3721.872351
 31
0.0
  0
LINE
  5
7AAA
  8
1
  6
CONTINUOUS
 10
898.0820359999999
 20
4169.872351
 30
0.0
 11
2018.082036
 21
4169.872351
 31
0.0
  0
LINE
  5
7AAB
  8
1
  6
CONTINUOUS
 10
943.5820359999999
 20
3575.872351
 30
0.0
 11
1943.582036
 21
3575.872351
 31
0.0
  0
LINE
  5
7AAC
  8
1
  6
CONTINUOUS
 10
1943.582036
 20
3695.872351
 30
0.0
 11
943.5820359999999
 21
3695.872351
 31
0.0
  0
LINE
  5
7AAD
  8
1
  6
CONTINUOUS
 10
996.0820359999999
 20
3746.1123510000002
 30
0.0
 11
996.0820359999999
 21
4096.1123509999998
 31
0.0
  0
LINE
  5
7AAE
  8
1
  6
CONTINUOUS
 10
898.0820359999999
 20
4169.872351
 30
0.0
 11
898.0820359999999
 21
3721.872351
 31
0.0
  0
LINE
  5
7AAF
  8
1
  6
CONTINUOUS
 10
943.5820359999999
 20
3695.872351
 30
0.0
 11
943.5820359999999
 21
3575.872351
 31
0.0
  0
LINE
  5
7AB0
  8
1
  6
CONTINUOUS
 10
1838.082036
 20
3665.872351
 30
0.0
 11
1598.082036
 21
3665.872351
 31
0.0
  0
LINE
  5
7AB1
  8
1
  6
CONTINUOUS
 10
1137.082036
 20
3721.872351
 30
0.0
 11
1699.082036
 21
3721.872351
 31
0.0
  0
LINE
  5
7AB2
  8
1
  6
CONTINUOUS
 10
1309.8920359999991
 20
4127.8723509999991
 30
0.0
 11
2073.0820359999998
 21
4127.8723509999991
 31
0.0
  0
LINE
  5
7AB3
  8
1
  6
CONTINUOUS
 10
1309.8920359999991
 20
3763.8723509999991
 30
0.0
 11
2073.0820359999998
 21
3763.8723509999991
 31
0.0
  0
LINE
  5
7AB4
  8
1
  6
CONTINUOUS
 10
1598.082036
 20
3605.872351
 30
0.0
 11
1838.082036
 21
3605.872351
 31
0.0
  0
LINE
  5
7AB5
  8
1
  6
CONTINUOUS
 10
1240.082036
 20
3746.1123510000002
 30
0.0
 11
1240.082036
 21
4096.1123509999998
 31
0.0
  0
LINE
  5
7AB6
  8
1
  6
CONTINUOUS
 10
1309.8920359999991
 20
3763.8723509999991
 30
0.0
 11
1309.8920359999991
 21
4127.8723509999991
 31
0.0
  0
LINE
  5
7AB7
  8
1
  6
CONTINUOUS
 10
1168.082036
 20
3665.872351
 30
0.0
 11
1068.082036
 21
3665.872351
 31
0.0
  0
LINE
  5
7AB8
  8
1
  6
CONTINUOUS
 10
1068.082036
 20
3605.872351
 30
0.0
 11
1168.082036
 21
3605.872351
 31
0.0
  0
LINE
  5
7AB9
  8
1
  6
CONTINUOUS
 10
1137.082036
 20
3665.872351
 30
0.0
 11
1137.082036
 21
3746.1123510000002
 31
0.0
  0
LINE
  5
7ABA
  8
1
  6
CONTINUOUS
 10
1099.082036
 20
3665.872351
 30
0.0
 11
1099.082036
 21
3746.1123510000002
 31
0.0
  0
LINE
  5
7ABB
  8
1
  6
CONTINUOUS
 10
1068.082036
 20
3665.872351
 30
0.0
 11
1068.082036
 21
3605.872351
 31
0.0
  0
LINE
  5
7ABC
  8
1
  6
CONTINUOUS
 10
1168.082036
 20
3605.872351
 30
0.0
 11
1168.082036
 21
3665.872351
 31
0.0
  0
LINE
  5
7ABD
  8
1
  6
CONTINUOUS
 10
1598.082036
 20
3605.872351
 30
0.0
 11
1598.082036
 21
3665.872351
 31
0.0
  0
LINE
  5
7ABE
  8
1
  6
CONTINUOUS
 10
1737.082036
 20
3721.872351
 30
0.0
 11
2018.082036
 21
3721.872351
 31
0.0
  0
LINE
  5
7ABF
  8
1
  6
CONTINUOUS
 10
1699.082036
 20
3665.872351
 30
0.0
 11
1699.082036
 21
3763.8723509999991
 31
0.0
  0
LINE
  5
7AC0
  8
1
  6
CONTINUOUS
 10
1737.082036
 20
3665.872351
 30
0.0
 11
1737.082036
 21
3763.8723509999991
 31
0.0
  0
LINE
  5
7AC1
  8
1
  6
CONTINUOUS
 10
1838.082036
 20
3605.872351
 30
0.0
 11
1838.082036
 21
3665.872351
 31
0.0
  0
LINE
  5
7AC2
  8
1
  6
CONTINUOUS
 10
2073.0820359999998
 20
3738.8723509999991
 30
0.0
 11
2073.0820359999998
 21
4152.872351
 31
0.0
  0
LINE
  5
7AC3
  8
1
  6
CONTINUOUS
 10
2048.0820359999989
 20
3763.8723509999991
 30
0.0
 11
2048.0820359999989
 21
4127.8723509999991
 31
0.0
  0
LINE
  5
7AC4
  8
1
  6
CONTINUOUS
 10
2018.082036
 20
3763.8723509999991
 30
0.0
 11
2018.082036
 21
3721.872351
 31
0.0
  0
LINE
  5
7AC5
  8
1
  6
CONTINUOUS
 10
1943.582036
 20
3575.872351
 30
0.0
 11
1943.582036
 21
3695.872351
 31
0.0
  0
LINE
  5
7AC6
  8
1
  6
CONTINUOUS
 10
2018.082036
 20
4169.872351
 30
0.0
 11
2018.082036
 21
4127.8723509999991
 31
0.0
  0
LINE
  5
7AC7
  8
2
  6
CENTER
 10
3255.4030670000002
 20
2891.4298690000001
 30
0.0
 11
3255.4030670000002
 21
1811.7101659797131
 31
0.0
  0
LINE
  5
7AC8
  8
2
  6
CENTER
 10
856.98138400000005
 20
3945.872351
 30
0.0
 11
2184.0139079999999
 21
3945.872351
 31
0.0
  0
LINE
  5
7AC9
  8
2
  6
CENTER
 10
1718.082036
 20
2891.7842999999989
 30
0.0
 11
1718.082036
 21
1827.2116175823451
 31
0.0
  0
LINE
  5
7ACA
  8
2
  6
CENTER
 10
2805.2376669999999
 20
2342.7423509999999
 30
0.0
 11
3481.3474549999992
 21
2342.7423509999999
 31
0.0
  0
LINE
  5
7ACB
  8
1
  6
CONTINUOUS
 10
1943.582036
 20
1987.742350999999
 30
0.0
 11
1943.582036
 21
2657.7423509999999
 31
0.0
  0
LINE
  5
7ACC
  8
1
  6
CONTINUOUS
 10
1943.582036
 20
2657.7423509999999
 30
0.0
 11
1703.582036
 21
2732.7423509999999
 31
0.0
  0
LINE
  5
7ACD
  8
1
  6
CONTINUOUS
 10
1703.582036
 20
2732.7423509999999
 30
0.0
 11
943.5820359999999
 21
2222.7423509999999
 31
0.0
  0
LINE
  5
7ACE
  8
1
  6
CONTINUOUS
 10
943.5820359999999
 20
2222.7423509999999
 30
0.0
 11
943.5820359999999
 21
1987.742350999999
 31
0.0
  0
LINE
  5
7ACF
  8
4
  6
CONTINUOUS
 10
3700.0
 20
1000.0
 30
0.0
 11
3700.0
 21
600.0
 31
0.0
  0
LINE
  5
7AD0
  8
4
  6
CONTINUOUS
 10
2300.0
 20
1000.0
 30
0.0
 11
2300.0
 21
600.0
 31
0.0
  0
LINE
  5
7AD1
  8
4
  6
CONTINUOUS
 10
1300.0
 20
1000.0
 30
0.0
 11
1300.0
 21
600.0
 31
0.0
  0
LINE
  5
7AD4
  8
4
  6
CONTINUOUS
 10
1300.0
 20
600.0
 30
0.0
 11
3700.0
 21
600.0
 31
0.0
  0
LINE
  5
7AD5
  8
4
  6
CONTINUOUS
 10
1300.0
 20
800.0
 30
0.0
 11
3700.0
 21
800.0
 31
0.0
  0
TEXT
  5
7AD6
  8
4
  6
CONTINUOUS
 10
1377.004162
 20
863.086052
 30
0.0
 40
100.0
  1
機器名称
  0
TEXT
  5
7AD7
  8
4
  6
CONTINUOUS
 10
1372.516212
 20
643.29031299999986
 30
0.0
 40
100.0
  1
機器型番
  0
TEXT
  5
7AD8
  8
4
  6
CONTINUOUS
 10
2355.3574910000002
 20
845.14353800000015
 30
0.0
 40
100.0
  1
ミツヤ多翼送風機
  0
TEXT
  5
7AD9
  8
4
  6
CONTINUOUS
 10
2373.3089909999999
 20
634.31916899999999
 30
0.0
 40
100.0
  1
MFE#3-4
  0
TEXT
  5
7ADB
  8
4
  6
CONTINUOUS
 10
1809.5715309999989
 20
4766.8576830000002
 30
0.0
 40
108.0
  1
床置ベット
  0
TEXT
  5
7ADC
  8
4
  6
CONTINUOUS
 10
632.33518700000002
 20
5067.7619520000007
 30
0.0
 40
144.0
  1
ベルト駆動式片吸込両持排煙ファン
  0
LINE
  5
7ADD
  8
4
  6
CONTINUOUS
 10
500.0
 20
4938.8175090000004
 30
0.0
 11
3700.0
 21
4938.8175090000004
 31
0.0
  0
LINE
  5
7ADE
  8
4
  6
CONTINUOUS
 10
500.0
 20
5338.8175090000004
 30
0.0
 11
3700.0
 21
5338.8175090000004
 31
0.0
  0
LINE
  5
7ADF
  8
4
  6
CONTINUOUS
 10
1300.0
 20
1000.0
 30
0.0
 11
3700.0
 21
1000.0
 31
0.0
  0
LINE
  5
7AE0
  8
4
  6
CONTINUOUS
 10
500.0
 20
5338.8175090000004
 30
0.0
 11
500.0
 21
4938.8175090000004
 31
0.0
  0
TEXT
  5
7AE1
  8
4
  6
CONTINUOUS
 10
937.85386600000004
 20
4764.6389549999994
 30
0.0
 40
108.0
  1
右回転右横向
  0
TEXT
  5
7AE2
  8
4
  6
CONTINUOUS
 10
2937.9391179999998
 20
5412.122163
 30
0.0
 40
112.0
  1
No.
  0
TEXT
  5
7AE3
  8
4
  6
CONTINUOUS
 10
2622.5921250000001
 20
4766.8576830000002
 30
0.0
 40
108.0
  1
縮尺：1/20
  0
LINE
  5
7AE4
  8
4
  6
CONTINUOUS
 10
3700.0
 20
5338.8175090000004
 30
0.0
 11
3700.0
 21
4938.8175090000004
 31
0.0
  0
LINE
  5
7AE6
  8
4
  6
CONTINUOUS
 10
2881.234845
 20
5362.5271659999999
 30
0.0
 11
2881.234845
 21
5573.3045229999998
 31
0.0
  0
LINE
  5
7AE7
  8
4
  6
CONTINUOUS
 10
2881.234845
 20
5573.3045229999998
 30
0.0
 11
3700.0
 21
5573.3045229999998
 31
0.0
  0
LINE
  5
7AE8
  8
4
  6
CONTINUOUS
 10
3700.0
 20
5573.3045229999998
 30
0.0
 11
3700.0
 21
5362.5271659999999
 31
0.0
  0
LINE
  5
7AE9
  8
4
  6
CONTINUOUS
 10
3700.0
 20
5362.5271659999999
 30
0.0
 11
2881.234845
 21
5362.5271659999999
 31
0.0
  0
DIMENSION
  5
7B01
  8
3
  6
CONTINUOUS
  2
*D1
 10
2188.2263499999999
 20
2324.7423509999999
 30
0.0
 11
2188.2263499999999
 21
2546.1614410000002
 31
0.0
 70
   128
 13
2073.0820359999998
 23
2804.7423509999999
 33
0.0
 14
2073.0820359999998
 24
2324.7423509999999
 34
0.0
 50
90.0
1001
ACAD
1000
DSTYLE
1002
{
1070
   287
1070
     3
1070
   287
1070
     3
1070
    40
1040
20.0
1070
   143
1040
0.039
1070
   172
1070
     1
1070
   271
1070
     0
1070
   279
1070
     0
1070
   288
1070
     1
1002
}
  0
DIMENSION
  5
7B27
  8
3
  6
CONTINUOUS
  2
*D2
 10
1718.082036
 20
2928.4482359999988
 30
0.0
 11
1886.405626
 21
2928.4482359999988
 31
0.0
 70
   128
 13
2073.0820359999998
 23
2821.7423509999999
 33
0.0
 14
1718.082036
 24
2891.7842999999989
 34
0.0
1001
ACAD
1000
DSTYLE
1002
{
1070
   287
1070
     3
1070
   287
1070
     3
1070
    40
1040
20.0
1070
   143
1040
0.039
1070
   172
1070
     1
1070
   271
1070
     0
1070
   279
1070
     0
1070
   288
1070
     1
1002
}
  0
DIMENSION
  5
7B33
  8
3
  6
CONTINUOUS
  2
*D3
 10
1308.082036
 20
2928.4482359999988
 30
0.0
 11
1513.082036
 21
2978.4482360000002
 31
0.0
 70
     0
 13
1718.082036
 23
2891.7842999999989
 33
0.0
 14
1308.082036
 24
2697.7423509999999
 34
0.0
1001
ACAD
1000
DSTYLE
1002
{
1070
   287
1070
     4
1070
   287
1070
     4
1070
    40
1040
20.0
1070
    75
1070
     1
1070
   143
1040
0.039
1070
   172
1070
     1
1070
   271
1070
     0
1070
   279
1070
     1
1070
   288
1070
     1
1002
}
  0
DIMENSION
  5
7B40
  8
3
  6
CONTINUOUS
  2
*D4
 10
2446.929803
 20
1907.7423510000001
 30
0.0
 11
2446.929803
 21
2368.4788549999998
 31
0.0
 70
   128
 13
2073.0820359999998
 23
2831.7423509999999
 33
0.0
 14
2018.082036
 24
1907.7423510000001
 34
0.0
 50
90.0
1001
ACAD
1000
DSTYLE
1002
{
1070
   287
1070
     3
1070
   287
1070
     3
1070
    40
1040
20.0
1070
   143
1040
0.039
1070
   172
1070
     1
1070
   271
1070
     0
1070
   279
1070
     0
1070
   288
1070
     1
1002
}
  0
DIMENSION
  5
7B4D
  8
3
  6
CONTINUOUS
  2
*D5
 10
1718.082036
 20
1765.434892
 30
0.0
 11
1315.10211
 21
1765.434892
 31
0.0
 70
   128
 13
898.0820359999999
 23
1907.7423510000001
 33
0.0
 14
1718.082036
 24
1827.2116175823451
 34
0.0
1001
ACAD
1000
DSTYLE
1002
{
1070
   287
1070
     3
1070
   287
1070
     3
1070
    40
1040
20.0
1070
   143
1040
0.039
1070
   172
1070
     1
1070
   271
1070
     0
1070
   279
1070
     0
1070
   288
1070
     1
1002
}
  0
DIMENSION
  5
7B59
  8
3
  6
CONTINUOUS
  2
*D6
 10
2018.082036
 20
1765.434892
 30
0.0
 11
1868.082036
 21
1815.434892
 31
0.0
 70
     0
 13
1718.082036
 23
1827.2116175823451
 33
0.0
 14
2018.082036
 24
1907.7423510000001
 34
0.0
1001
ACAD
1000
DSTYLE
1002
{
1070
   287
1070
     4
1070
   287
1070
     4
1070
    40
1040
20.0
1070
    75
1070
     1
1070
   143
1040
0.039
1070
   172
1070
     1
1070
   271
1070
     0
1070
   279
1070
     1
1070
   288
1070
     1
1002
}
  0
DIMENSION
  5
7B68
  8
3
  6
CONTINUOUS
  2
*D7
 10
3255.4030670000002
 20
1754.666242999999
 30
0.0
 11
3143.4030670000002
 21
1802.074081481052
 31
0.0
 70
   128
 13
3031.4030670000002
 23
1907.7423510000001
 33
0.0
 14
3255.4030670000002
 24
1811.7101659797131
 34
0.0
1001
ACAD
1000
DSTYLE
1002
{
1070
   288
1070
     1
1070
   172
1070
     1
1070
    40
1040
20.0
1070
   271
1070
     0
1070
   143
1040
0.039
1002
}
  0
DIMENSION
  5
7B76
  8
3
  6
CONTINUOUS
  2
*D8
 10
3479.4030670000002
 20
1754.666242999999
 30
0.0
 11
3378.1645049999988
 21
1754.732951
 31
0.0
 70
   128
 13
3255.4030670000002
 23
1811.7101659797131
 33
0.0
 14
3479.4030670000002
 24
1907.7423510000001
 34
0.0
1001
ACAD
1000
DSTYLE
1002
{
1070
   287
1070
     4
1070
   287
1070
     4
1070
    40
1040
20.0
1070
    75
1070
     1
1070
   143
1040
0.039
1070
   172
1070
     1
1070
   271
1070
     0
1070
   279
1070
     1
1070
   288
1070
     1
1002
}
  0
DIMENSION
  5
7B83
  8
3
  6
CONTINUOUS
  2
*D9
 10
3075.4030670000002
 20
2906.9039499999999
 30
0.0
 11
3251.592279
 21
2906.9039499999999
 31
0.0
 70
   128
 13
3435.4030670000002
 23
2831.7423509999999
 33
0.0
 14
3075.4030670000002
 24
2831.7423509999999
 34
0.0
1001
ACAD
1000
DSTYLE
1002
{
1070
   287
1070
     3
1070
   287
1070
     3
1070
    40
1040
20.0
1070
   143
1040
0.039
1070
   172
1070
     1
1070
   271
1070
     0
1070
   279
1070
     0
1070
   288
1070
     1
1002
}
  0
DIMENSION
  5
7B9D
  8
3
  6
CONTINUOUS
  2
*D10
 10
2885.4030670000002
 20
3025.366015999999
 30
0.0
 11
3070.4030670000002
 21
3125.3660159999999
 31
0.0
 70
     0
  1
MAX\P430
 13
3255.4030670000002
 23
2926.1723139999999
 33
0.0
 14
2885.4030670000002
 24
2732.7423509999999
 34
0.0
1001
ACAD
1000
DSTYLE
1002
{
1070
   287
1070
     4
1070
   287
1070
     4
1070
    40
1040
20.0
1070
    75
1070
     1
1070
   143
1040
0.039
1070
   172
1070
     1
1070
   271
1070
     0
1070
   279
1070
     1
1070
   288
1070
     1
1002
}
  0
DIMENSION
  5
7BB9
  8
3
  6
CONTINUOUS
  2
*D11
 10
2018.082036
 20
4340.7104159999999
 30
0.0
 11
1455.233176
 21
4340.7104159999999
 31
0.0
 70
   128
 13
898.0820359999999
 23
4169.872351
 33
0.0
 14
2018.082036
 24
4169.872351
 34
0.0
1001
ACAD
1000
DSTYLE
1002
{
1070
   287
1070
     3
1070
   287
1070
     3
1070
    40
1040
20.0
1070
   143
1040
0.039
1070
   172
1070
     1
1070
   271
1070
     0
1070
   279
1070
     0
1070
   288
1070
     1
1002
}
  0
DIMENSION
  5
7BC6
  8
3
  6
CONTINUOUS
  2
*D12
 10
778.85712500000045
 20
3721.872351
 30
0.0
 11
778.857125
 21
3942.2916739999991
 31
0.0
 70
   128
 13
898.0820359999999
 23
4169.872351
 33
0.0
 14
898.0820359999999
 24
3721.872351
 34
0.0
 50
90.0
1001
ACAD
1000
DSTYLE
1002
{
1070
   287
1070
     3
1070
   287
1070
     3
1070
    40
1040
20.0
1070
   143
1040
0.039
1070
   172
1070
     1
1070
   271
1070
     0
1070
   279
1070
     0
1070
   288
1070
     1
1002
}
  0
DIMENSION
  5
7CE7
  8
3
  6
CONTINUOUS
  2
*D13
 10
2310.480712
 20
2342.7423509999999
 30
0.0
 11
2310.4807119999991
 21
2544.9281820000001
 31
0.0
 70
   128
 13
2073.0820359999998
 23
2804.7423509999999
 33
0.0
 14
2149.5918099999999
 24
2342.7423509999999
 34
0.0
 50
90.0
1001
ACAD
1000
DSTYLE
1002
{
1070
   287
1070
     3
1070
   287
1070
     3
1070
    40
1040
20.0
1070
   143
1040
0.039
1070
   172
1070
     1
1070
   271
1070
     0
1070
   279
1070
     0
1070
   288
1070
     1
1002
}
  0
DIMENSION
  5
7CF3
  8
3
  6
CONTINUOUS
  2
*D14
 10
2310.4807119999991
 20
1907.7423510000001
 30
0.0
 11
2260.4807119999991
 21
2125.2423509999999
 31
0.0
 70
     0
 13
2149.5918099999999
 23
2342.7423509999999
 33
0.0
 14
2018.082036
 24
1907.7423510000001
 34
0.0
 50
90.0
1001
ACAD
1000
DSTYLE
1002
{
1070
   287
1070
     4
1070
   287
1070
     4
1070
    40
1040
20.0
1070
    75
1070
     1
1070
   143
1040
0.039
1070
   172
1070
     1
1070
   271
1070
     0
1070
   279
1070
     1
1070
   288
1070
     1
1002
}
  0
LINE
  5
7DAE
  8
1
  6
CONTINUOUS
 10
3436.4030670000002
 20
2592.7423509999999
 30
0.0
 11
3436.4030670000002
 21
2092.7423509999999
 31
0.0
  0
DIMENSION
  5
7DBD
  8
3
  6
CONTINUOUS
  2
*D15
 10
3604.4943040000012
 20
2092.7423509999999
 30
0.0
 11
3604.4943039999998
 21
2358.8024620000001
 31
0.0
 70
   128
 13
3436.4030670000002
 23
2592.7423509999999
 33
0.0
 14
3436.4030670000002
 24
2092.7423509999999
 34
0.0
 50
90.0
1001
ACAD
1000
DSTYLE
1002
{
1070
   287
1070
     3
1070
   287
1070
     3
1070
     3
1000
φ<>
1070
    40
1040
20.0
1070
   143
1040
0.039
1070
   172
1070
     1
1070
   271
1070
     0
1070
   279
1070
     0
1070
   288
1070
     1
1002
}
  0
DIMENSION
  5
7DCB
  8
3
  6
CONTINUOUS
  2
*D16
 10
3436.4030670000002
 20
3025.366015999999
 30
0.0
 11
3333.851545999999
 21
3026.002888
 31
0.0
 70
   128
 13
3255.4030670000002
 23
2926.1723139999999
 33
0.0
 14
3436.4030670000002
 24
2592.7423509999999
 34
0.0
1001
ACAD
1000
DSTYLE
1002
{
1070
   287
1070
     4
1070
   287
1070
     4
1070
    40
1040
20.0
1070
    75
1070
     1
1070
   143
1040
0.039
1070
   172
1070
     1
1070
   271
1070
     0
1070
   279
1070
     1
1070
   288
1070
     1
1002
}
  0
DIMENSION
  5
7E8C
  8
3
  2
*D17
 10
898.08203600000002
 20
3073.3842034249469
 30
0.0
 11
1520.13068199699
 21
3073.3842034249469
 31
0.0
 70
   128
 13
2073.0820359999998
 23
2821.7423509999999
 33
0.0
 14
898.0820359999999
 24
1987.742350999999
 34
0.0
1001
ACAD
1000
DSTYLE
1002
{
1070
   287
1070
     3
1070
   287
1070
     3
1070
    40
1040
20.0
1070
   143
1040
0.039
1070
   172
1070
     1
1070
   271
1070
     0
1070
   279
1070
     0
1070
   288
1070
     1
1002
}
  0
ENDSEC
  0
EOF
