  0
SECTION
  2
HEADER
  9
$ACADVER
  1
AC1009
  9
$INSBASE
 10
0.0
 20
0.0
 30
0.0
  9
$EXTMIN
 10
500.0
 20
600.0
 30
0.0
  9
$EXTMAX
 10
3700.0
 20
5573.3045229999998
 30
0.0
  9
$LIMMIN
 10
0.0
 20
0.0
  9
$LIMMAX
 10
297.0
 20
210.0
  9
$ORTHOMODE
 70
     0
  9
$REGENMODE
 70
     1
  9
$FILLMODE
 70
     0
  9
$QTEXTMODE
 70
     0
  9
$MIRRTEXT
 70
     1
  9
$DRAGMODE
 70
     2
  9
$LTSCALE
 40
100.0
  9
$OSMODE
 70
    37
  9
$ATTMODE
 70
     1
  9
$TEXTSIZE
 40
180.0
  9
$TRACEWID
 40
0.05
  9
$TEXTSTYLE
  7
STANDARD
  9
$CLAYER
  8
3
  9
$CELTYPE
  6
BYLAYER
  9
$CECOLOR
 62
   256
  9
$DIMSCALE
 40
20.0
  9
$DIMASZ
 40
2.0
  9
$DIMEXO
 40
0.5
  9
$DIMDLI
 40
10.0
  9
$DIMRND
 40
0.0
  9
$DIMDLE
 40
0.0
  9
$DIMEXE
 40
1.0
  9
$DIMTP
 40
1.0
  9
$DIMTM
 40
1.0
  9
$DIMTXT
 40
3.0
  9
$DIMCEN
 40
0.0
  9
$DIMTSZ
 40
0.0
  9
$DIMTOL
 70
     0
  9
$DIMLIM
 70
     0
  9
$DIMTIH
 70
     0
  9
$DIMTOH
 70
     0
  9
$DIMSE1
 70
     0
  9
$DIMSE2
 70
     0
  9
$DIMTAD
 70
     1
  9
$DIMZIN
 70
     8
  9
$DIMBLK
  1

  9
$DIMASO
 70
     1
  9
$DIMSHO
 70
     1
  9
$DIMPOST
  1

  9
$DIMAPOST
  1

  9
$DIMALT
 70
     0
  9
$DIMALTD
 70
     2
  9
$DIMALTF
 40
0.039
  9
$DIMLFAC
 40
1.0
  9
$DIMTOFL
 70
     1
  9
$DIMTVP
 40
0.0
  9
$DIMTIX
 70
     0
  9
$DIMSOXD
 70
     0
  9
$DIMSAH
 70
     1
  9
$DIMBLK1
  1
OPEN
  9
$DIMBLK2
  1
OPEN
  9
$DIMSTYLE
  2
IGA
  9
$DIMCLRD
 70
     0
  9
$DIMCLRE
 70
     0
  9
$DIMCLRT
 70
     0
  9
$DIMTFAC
 40
10.0
  9
$DIMGAP
 40
1.0
  9
$LUNITS
 70
     2
  9
$LUPREC
 70
     3
  9
$SKETCHINC
 40
0.1
  9
$FILLETRAD
 40
50.0
  9
$AUNITS
 70
     0
  9
$AUPREC
 70
     0
  9
$MENU
  1
acad
  9
$ELEVATION
 40
0.0
  9
$PELEVATION
 40
0.0
  9
$THICKNESS
 40
0.0
  9
$LIMCHECK
 70
     0
  9
$BLIPMODE
 70
     0
  9
$CHAMFERA
 40
0.5
  9
$CHAMFERB
 40
0.5
  9
$SKPOLY
 70
     0
  9
$TDCREATE
 40
2450730.6619042819
  9
$TDUPDATE
 40
2454953.8356109029
  9
$TDINDWG
 40
0.0055539931
  9
$TDUSRTIMER
 40
0.0055539931
  9
$USRTIMER
 70
     1
  9
$ANGBASE
 50
0.0
  9
$ANGDIR
 70
     0
  9
$PDMODE
 70
     0
  9
$PDSIZE
 40
0.0
  9
$PLINEWID
 40
0.0
  9
$COORDS
 70
     1
  9
$SPLFRAME
 70
     0
  9
$SPLINETYPE
 70
     6
  9
$SPLINESEGS
 70
     8
  9
$ATTDIA
 70
     0
  9
$ATTREQ
 70
     1
  9
$HANDLING
 70
 10241
  9
$HANDSEED
  5
7F7E
  9
$SURFTAB1
 70
     6
  9
$SURFTAB2
 70
     6
  9
$SURFTYPE
 70
     6
  9
$SURFU
 70
     6
  9
$SURFV
 70
     6
  9
$UCSNAME
  2

  9
$UCSORG
 10
0.0
 20
0.0
 30
0.0
  9
$UCSXDIR
 10
1.0
 20
0.0
 30
0.0
  9
$UCSYDIR
 10
0.0
 20
1.0
 30
0.0
  9
$PUCSNAME
  2

  9
$PUCSORG
 10
0.0
 20
0.0
 30
0.0
  9
$PUCSXDIR
 10
1.0
 20
0.0
 30
0.0
  9
$PUCSYDIR
 10
0.0
 20
1.0
 30
0.0
  9
$USERI1
 70
     0
  9
$USERI2
 70
     0
  9
$USERI3
 70
     0
  9
$USERI4
 70
     0
  9
$USERI5
 70
     0
  9
$USERR1
 40
0.0
  9
$USERR2
 40
0.0
  9
$USERR3
 40
0.0
  9
$USERR4
 40
0.0
  9
$USERR5
 40
0.0
  9
$WORLDVIEW
 70
     1
  9
$SHADEDGE
 70
     3
  9
$SHADEDIF
 70
    70
  9
$TILEMODE
 70
     1
  9
$MAXACTVP
 70
    16
  9
$PLIMCHECK
 70
     0
  9
$PEXTMIN
 10
1.0000000000000000E+020
 20
1.0000000000000000E+020
 30
1.0000000000000000E+020
  9
$PEXTMAX
 10
-1.0000000000000000E+020
 20
-1.0000000000000000E+020
 30
-1.0000000000000000E+020
  9
$PLIMMIN
 10
0.0
 20
0.0
  9
$PLIMMAX
 10
12.0
 20
9.0
  9
$UNITMODE
 70
     0
  9
$VISRETAIN
 70
     0
  9
$PLINEGEN
 70
     0
  9
$PSLTSCALE
 70
     1
  0
ENDSEC
  0
SECTION
  2
TABLES
  0
TABLE
  2
VPORT
 70
     2
  0
VPORT
  2
*ACTIVE
 70
     0
 10
0.0
 20
0.0
 11
1.0
 21
1.0
 12
5831.5648609518266
 22
3698.7288893864538
 13
0.0
 23
0.0
 14
10.0
 24
10.0
 15
10.0
 25
10.0
 16
0.0
 26
0.0
 36
1.0
 17
0.0
 27
0.0
 37
0.0
 40
7720.861765592721
 41
1.5051150895140659
 42
50.0
 43
0.0
 44
0.0
 50
0.0
 51
0.0
 71
     0
 72
   100
 73
     1
 74
     0
 75
     0
 76
     0
 77
     0
 78
     0
  0
ENDTAB
  0
TABLE
  2
LTYPE
 70
     2
  0
LTYPE
  2
CONTINUOUS
 70
     0
  3
Solid line
 72
    65
 73
     0
 40
0.0
  0
LTYPE
  2
CENTER
 70
     0
  3
____ _ ____ _ ____ _ ____ _ ____ _ ____ _ ____ 
 72
    65
 73
     4
 40
2.0
 49
1.25
 49
-0.25
 49
0.25
 49
-0.25
  0
ENDTAB
  0
TABLE
  2
LAYER
 70
     6
  0
LAYER
  2
0
 70
     0
 62
     7
  6
CONTINUOUS
  0
LAYER
  2
3
 70
     0
 62
     2
  6
CONTINUOUS
  0
LAYER
  2
2
 70
     0
 62
     3
  6
CENTER
  0
LAYER
  2
1
 70
     0
 62
     4
  6
CONTINUOUS
  0
LAYER
  2
4
 70
     0
 62
     7
  6
CONTINUOUS
  0
LAYER
  2
DEFPOINTS
 70
     0
 62
     7
  6
CONTINUOUS
  0
ENDTAB
  0
TABLE
  2
STYLE
 70
     1
  0
STYLE
  2
STANDARD
 70
     0
 40
0.0
 41
1.0
 50
0.0
 71
     0
 42
180.0
  3
simplex.shx
  4
extfont.shx
  0
ENDTAB
  0
TABLE
  2
VIEW
 70
     0
  0
ENDTAB
  0
TABLE
  2
UCS
 70
     0
  0
ENDTAB
  0
TABLE
  2
APPID
 70
     1
  0
APPID
  2
ACAD
 70
     0
  0
ENDTAB
  0
TABLE
  2
DIMSTYLE
 70
     1
  0
DIMSTYLE
  2
IGA
 70
     0
  3

  4

  5

  6
OPEN
  7
OPEN
 40
2.0
 41
2.0
 42
0.5
 43
10.0
 44
1.0
 45
0.0
 46
0.0
 47
1.0
 48
1.0
140
3.0
141
0.0
142
0.0
143
0.03937
144
1.0
145
0.0
146
10.0
147
1.0
 71
     0
 72
     0
 73
     0
 74
     0
 75
     0
 76
     0
 77
     1
 78
     8
170
     0
171
     2
172
     0
173
     1
174
     0
175
     0
176
     0
177
     0
178
     0
  0
ENDTAB
  0
ENDSEC
  0
SECTION
  2
BLOCKS
  0
BLOCK
  8
0
  2
$MODEL_SPACE
 70
     0
 10
0.0
 20
0.0
 30
0.0
  3
$MODEL_SPACE
  1

  0
ENDBLK
  5
1B
  8
0
  0
BLOCK
 67
     1
  8
0
  2
$PAPER_SPACE
 70
     0
 10
0.0
 20
0.0
 30
0.0
  3
$PAPER_SPACE
  1

  0
ENDBLK
  5
18
 67
     1
  8
0
  0
BLOCK
  8
0
  2
_OPEN
 70
     0
 10
0.0
 20
0.0
 30
0.0
  3
_OPEN
  1

  0
LINE
  5
7AFB
  8
0
  6
BYBLOCK
 62
     0
 10
-1.0
 20
0.166667
 30
0.0
 11
0.0
 21
0.0
 31
0.0
  0
LINE
  5
7AFC
  8
0
  6
BYBLOCK
 62
     0
 10
0.0
 20
0.0
 30
0.0
 11
-1.0
 21
-0.166667
 31
0.0
  0
LINE
  5
7AFD
  8
0
  6
BYBLOCK
 62
     0
 10
0.0
 20
0.0
 30
0.0
 11
-1.0
 21
0.0
 31
0.0
  0
ENDBLK
  5
7AFE
  8
0
  0
BLOCK
  8
0
  2
*D1
 70
     1
 10
0.0
 20
0.0
 30
0.0
  3
*D1
  1

  0
LINE
  5
7EE2
  8
3
  6
CONTINUOUS
 62
     0
 10
2106.3374389999999
 20
2332.3880939999999
 30
0.0
 11
2233.0940169999999
 21
2332.3880939999999
 31
0.0
  0
LINE
  5
7EE3
  8
3
  6
CONTINUOUS
 62
     0
 10
2106.3374389999999
 20
1852.3880939999999
 30
0.0
 11
2233.0940169999999
 21
1852.3880939999999
 31
0.0
  0
LINE
  5
7EE4
  8
3
  6
CONTINUOUS
 62
     0
 10
2213.0940169999999
 20
2292.3880939999999
 30
0.0
 11
2213.0940169999999
 21
1892.3880939999999
 31
0.0
  0
INSERT
  5
7EE5
  8
3
  6
CONTINUOUS
 62
     0
  2
_OPEN
 10
2213.0940169999999
 20
2332.3880939999999
 30
0.0
 41
40.0
 42
40.0
 43
40.0
 50
90.0
  0
INSERT
  5
7EE6
  8
3
  6
CONTINUOUS
 62
     0
  2
_OPEN
 10
2213.0940169999999
 20
1852.3880939999999
 30
0.0
 41
40.0
 42
40.0
 43
40.0
 50
270.0
  0
TEXT
  8
3
  40
60
  5
7F6D
  62
0
  72
0
  71
0
 10
2043.09
 20
1983.65
 30
0.000000
  1
480
  0
POINT
  5
7EE8
  8
DEFPOINTS
  6
CONTINUOUS
 62
     0
 10
2096.3374389999999
 20
2332.3880939999999
 30
0.0
  0
POINT
  5
7EE9
  8
DEFPOINTS
  6
CONTINUOUS
 62
     0
 10
2096.3374389999999
 20
1852.3880939999999
 30
0.0
  0
POINT
  5
7EEA
  8
DEFPOINTS
  6
CONTINUOUS
 62
     0
 10
2213.0940169999999
 20
1852.3880939999999
 30
0.0
  0
ENDBLK
  5
7B9E
  8
0
  0
BLOCK
  8
0
  2
*D2
 70
     1
 10
0.0
 20
0.0
 30
0.0
  3
*D2
  1

  0
LINE
  5
7EEB
  8
3
  6
CONTINUOUS
 62
     0
 10
2106.3374389999999
 20
1852.3880939999999
 30
0.0
 11
2349.2557360000001
 21
1852.3880939999999
 31
0.0
  0
LINE
  5
7EEC
  8
3
  6
CONTINUOUS
 62
     0
 10
2251.0141719999988
 20
2314.388093999999
 30
0.0
 11
2349.2557360000001
 21
2314.388093999999
 31
0.0
  0
LINE
  5
7EED
  8
3
  6
CONTINUOUS
 62
     0
 10
2329.2557360000001
 20
1892.3880939999999
 30
0.0
 11
2329.2557360000001
 21
2274.3880939999999
 31
0.0
  0
INSERT
  5
7EEE
  8
3
  6
CONTINUOUS
 62
     0
  2
_OPEN
 10
2329.2557360000001
 20
1852.3880939999999
 30
0.0
 41
40.0
 42
40.0
 43
40.0
 50
270.0
  0
INSERT
  5
7EEF
  8
3
  6
CONTINUOUS
 62
     0
  2
_OPEN
 10
2329.2557360000001
 20
2314.388093999999
 30
0.0
 41
40.0
 42
40.0
 43
40.0
 50
90.0
  0
TEXT
  8
3
  40
60
  5
7F6E
  62
0
  72
0
  71
0
 10
2159.26
 20
1979.50
 30
0.000000
  1
462
  0
POINT
  5
7EF1
  8
DEFPOINTS
  6
CONTINUOUS
 62
     0
 10
2096.3374389999999
 20
1852.3880939999999
 30
0.0
  0
POINT
  5
7EF2
  8
DEFPOINTS
  6
CONTINUOUS
 62
     0
 10
2241.0141719999988
 20
2314.388093999999
 30
0.0
  0
POINT
  5
7EF3
  8
DEFPOINTS
  6
CONTINUOUS
 62
     0
 10
2329.2557360000001
 20
2314.388093999999
 30
0.0
  0
ENDBLK
  5
7B93
  8
0
  0
BLOCK
  8
0
  2
*D3
 70
     1
 10
0.0
 20
0.0
 30
0.0
  3
*D3
  1

  0
LINE
  5
7EF4
  8
3
  6
CONTINUOUS
 62
     0
 10
1344.3374389999999
 20
2292.3880939999999
 30
0.0
 11
1344.3374389999999
 21
2842.9052769999989
 31
0.0
  0
LINE
  5
7EF5
  8
3
  6
CONTINUOUS
 62
     0
 10
1701.3374389999999
 20
2822.9052769999998
 30
0.0
 11
1384.3374389999999
 21
2822.9052769999998
 31
0.0
  0
INSERT
  5
7EF6
  8
3
  6
CONTINUOUS
 62
     0
  2
_OPEN
 10
1741.3374389999999
 20
2822.9052769999998
 30
0.0
 41
40.0
 42
40.0
 43
40.0
  0
INSERT
  5
7EF7
  8
3
  6
CONTINUOUS
 62
     0
  2
_OPEN
 10
1344.3374389999999
 20
2822.9052769999998
 30
0.0
 41
40.0
 42
40.0
 43
40.0
 50
180.0
  0
TEXT
  8
3
  40
60
  5
7F6F
  62
0
  72
0
  71
0
 10
1422.84
 20
2766.71
 30
0.000000
  1
397
  0
POINT
  5
7EF9
  8
DEFPOINTS
  6
CONTINUOUS
 62
     0
 10
1741.3374389999999
 20
2791.7971787031088
 30
0.0
  0
POINT
  5
7EFA
  8
DEFPOINTS
  6
CONTINUOUS
 62
     0
 10
1344.3374389999999
 20
2282.388093999999
 30
0.0
  0
POINT
  5
7EFB
  8
DEFPOINTS
  6
CONTINUOUS
 62
     0
 10
1344.3374389999999
 20
2822.9052769999998
 30
0.0
  0
ENDBLK
  5
7E07
  8
0
  0
BLOCK
  8
0
  2
*D4
 70
     1
 10
0.0
 20
0.0
 30
0.0
  3
*D4
  1

  0
LINE
  5
7EFC
  8
3
  6
CONTINUOUS
 62
     0
 10
921.33743900000002
 20
1704.3880939999999
 30
0.0
 11
921.33743900000002
 21
1526.915281
 31
0.0
  0
LINE
  5
7EFD
  8
3
  6
CONTINUOUS
 62
     0
 10
1741.3374389999999
 20
1591.866734
 30
0.0
 11
1741.3374389999999
 21
1526.915281
 31
0.0
  0
LINE
  5
7EFE
  8
3
  6
CONTINUOUS
 62
     0
 10
961.33743900000002
 20
1546.915281
 30
0.0
 11
1701.3374389999999
 21
1546.915281
 31
0.0
  0
INSERT
  5
7EFF
  8
3
  6
CONTINUOUS
 62
     0
  2
_OPEN
 10
921.33743900000002
 20
1546.915281
 30
0.0
 41
40.0
 42
40.0
 43
40.0
 50
180.0
  0
INSERT
  5
7F00
  8
3
  6
CONTINUOUS
 62
     0
  2
_OPEN
 10
1741.3374389999999
 20
1546.915281
 30
0.0
 41
40.0
 42
40.0
 43
40.0
  0
TEXT
  8
3
  40
60
  5
7F70
  62
0
  72
0
  71
0
 10
1188.69
 20
1490.72
 30
0.000000
  1
820
  0
POINT
  5
7F02
  8
DEFPOINTS
  6
CONTINUOUS
 62
     0
 10
921.33743900000002
 20
1714.3880939999999
 30
0.0
  0
POINT
  5
7F03
  8
DEFPOINTS
  6
CONTINUOUS
 62
     0
 10
1741.3374389999999
 20
1601.866734
 30
0.0
  0
POINT
  5
7F04
  8
DEFPOINTS
  6
CONTINUOUS
 62
     0
 10
1741.3374389999999
 20
1546.915281
 30
0.0
  0
ENDBLK
  5
7B4A
  8
0
  0
BLOCK
  8
0
  2
*D5
 70
     1
 10
0.0
 20
0.0
 30
0.0
  3
*D5
  1

  0
LINE
  5
7F05
  8
3
  6
CONTINUOUS
 62
     0
 10
2041.3374389999999
 20
1704.3880939999999
 30
0.0
 11
2041.3374389999999
 21
1526.915281
 31
0.0
  0
LINE
  5
7F06
  8
3
  6
CONTINUOUS
 62
     0
 10
1781.3374389999999
 20
1546.915281
 30
0.0
 11
2001.3374389999999
 21
1546.915281
 31
0.0
  0
INSERT
  5
7F07
  8
3
  6
CONTINUOUS
 62
     0
  2
_OPEN
 10
1741.3374389999999
 20
1546.915281
 30
0.0
 41
40.0
 42
40.0
 43
40.0
 50
180.0
  0
INSERT
  5
7F08
  8
3
  6
CONTINUOUS
 62
     0
  2
_OPEN
 10
2041.3374389999999
 20
1546.915281
 30
0.0
 41
40.0
 42
40.0
 43
40.0
  0
TEXT
  8
3
  40
60
  5
7F71
  62
0
  72
0
  71
0
 10
1771.34
 20
1490.72
 30
0.000000
  1
300
  0
POINT
  5
7F0A
  8
DEFPOINTS
  6
CONTINUOUS
 62
     0
 10
1741.3374389999999
 20
1601.866734
 30
0.0
  0
POINT
  5
7F0B
  8
DEFPOINTS
  6
CONTINUOUS
 62
     0
 10
2041.3374389999999
 20
1714.3880939999999
 30
0.0
  0
POINT
  5
7F0C
  8
DEFPOINTS
  6
CONTINUOUS
 62
     0
 10
2041.3374389999999
 20
1546.915281
 30
0.0
  0
ENDBLK
  5
7B56
  8
0
  0
BLOCK
  8
0
  2
*D6
 70
     1
 10
0.0
 20
0.0
 30
0.0
  3
*D6
  1

  0
LINE
  5
7F0D
  8
3
  6
CONTINUOUS
 62
     0
 10
2051.3374389999999
 20
1714.3880939999999
 30
0.0
 11
2473.7147190000001
 21
1714.3880939999999
 31
0.0
  0
LINE
  5
7F0E
  8
3
  6
CONTINUOUS
 62
     0
 10
2251.0141719999988
 20
2314.388093999999
 30
0.0
 11
2473.7147190000001
 21
2314.388093999999
 31
0.0
  0
LINE
  5
7F0F
  8
3
  6
CONTINUOUS
 62
     0
 10
2453.7147190000001
 20
1754.3880939999999
 30
0.0
 11
2453.7147190000001
 21
2274.3880939999999
 31
0.0
  0
INSERT
  5
7F10
  8
3
  6
CONTINUOUS
 62
     0
  2
_OPEN
 10
2453.7147190000001
 20
1714.3880939999999
 30
0.0
 41
40.0
 42
40.0
 43
40.0
 50
270.0
  0
INSERT
  5
7F11
  8
3
  6
CONTINUOUS
 62
     0
  2
_OPEN
 10
2453.7147190000001
 20
2314.388093999999
 30
0.0
 41
40.0
 42
40.0
 43
40.0
 50
90.0
  0
TEXT
  8
3
  40
60
  5
7F72
  62
0
  72
0
  71
0
 10
2283.71
 20
1925.62
 30
0.000000
  1
600
  0
POINT
  5
7F13
  8
DEFPOINTS
  6
CONTINUOUS
 62
     0
 10
2041.3374389999999
 20
1714.3880939999999
 30
0.0
  0
POINT
  5
7F14
  8
DEFPOINTS
  6
CONTINUOUS
 62
     0
 10
2241.0141719999988
 20
2314.388093999999
 30
0.0
  0
POINT
  5
7F15
  8
DEFPOINTS
  6
CONTINUOUS
 62
     0
 10
2453.7147190000001
 20
2314.388093999999
 30
0.0
  0
ENDBLK
  5
7B63
  8
0
  0
BLOCK
  8
0
  2
*D7
 70
     1
 10
0.0
 20
0.0
 30
0.0
  3
*D7
  1

  0
LINE
  5
7F16
  8
3
  6
CONTINUOUS
 62
     0
 10
2061.3374389999999
 20
2669.3880939999999
 30
0.0
 11
2473.7147190000001
 21
2669.3880939999999
 31
0.0
  0
LINE
  5
7F17
  8
3
  6
CONTINUOUS
 62
     0
 10
2453.7147190000001
 20
2354.3880939999999
 30
0.0
 11
2453.7147190000001
 21
2629.3880939999999
 31
0.0
  0
INSERT
  5
7F18
  8
3
  6
CONTINUOUS
 62
     0
  2
_OPEN
 10
2453.7147190000001
 20
2314.388093999999
 30
0.0
 41
40.0
 42
40.0
 43
40.0
 50
270.0
  0
INSERT
  5
7F19
  8
3
  6
CONTINUOUS
 62
     0
  2
_OPEN
 10
2453.7147190000001
 20
2669.3880939999999
 30
0.0
 41
40.0
 42
40.0
 43
40.0
 50
90.0
  0
TEXT
  8
3
  40
60
  5
7F73
  62
0
  72
0
  71
0
 10
2283.71
 20
2385.69
 30
0.000000
  1
355
  0
POINT
  5
7F1B
  8
DEFPOINTS
  6
CONTINUOUS
 62
     0
 10
2241.0141719999988
 20
2314.388093999999
 30
0.0
  0
POINT
  5
7F1C
  8
DEFPOINTS
  6
CONTINUOUS
 62
     0
 10
2051.3374389999999
 20
2669.3880939999999
 30
0.0
  0
POINT
  5
7F1D
  8
DEFPOINTS
  6
CONTINUOUS
 62
     0
 10
2453.7147190000001
 20
2669.3880939999999
 30
0.0
  0
ENDBLK
  5
7B6F
  8
0
  0
BLOCK
  8
0
  2
*D8
 70
     1
 10
0.0
 20
0.0
 30
0.0
  3
*D8
  1

  0
LINE
  5
7F1E
  8
3
  6
CONTINUOUS
 62
     0
 10
2061.3374389999999
 20
2669.3880939999999
 30
0.0
 11
2606.4709849999999
 21
2669.3880939999999
 31
0.0
  0
LINE
  5
7F1F
  8
3
  6
CONTINUOUS
 62
     0
 10
2051.3374389999999
 20
1714.3880939999999
 30
0.0
 11
2606.4709849999999
 21
1714.3880939999999
 31
0.0
  0
LINE
  5
7F20
  8
3
  6
CONTINUOUS
 62
     0
 10
2586.4709849999999
 20
2629.3880939999999
 30
0.0
 11
2586.4709849999999
 21
1754.3880939999999
 31
0.0
  0
INSERT
  5
7F21
  8
3
  6
CONTINUOUS
 62
     0
  2
_OPEN
 10
2586.4709849999999
 20
2669.3880939999999
 30
0.0
 41
40.0
 42
40.0
 43
40.0
 50
90.0
  0
INSERT
  5
7F22
  8
3
  6
CONTINUOUS
 62
     0
  2
_OPEN
 10
2586.4709849999999
 20
1714.3880939999999
 30
0.0
 41
40.0
 42
40.0
 43
40.0
 50
270.0
  0
TEXT
  8
3
  40
60
  5
7F74
  62
0
  72
0
  71
0
 10
2416.47
 20
2091.40
 30
0.000000
  1
955
  0
POINT
  5
7F24
  8
DEFPOINTS
  6
CONTINUOUS
 62
     0
 10
2051.3374389999999
 20
2669.3880939999999
 30
0.0
  0
POINT
  5
7F25
  8
DEFPOINTS
  6
CONTINUOUS
 62
     0
 10
2041.3374389999999
 20
1714.3880939999999
 30
0.0
  0
POINT
  5
7F26
  8
DEFPOINTS
  6
CONTINUOUS
 62
     0
 10
2586.4709849999999
 20
1714.3880939999999
 30
0.0
  0
ENDBLK
  5
7B7C
  8
0
  0
BLOCK
  8
0
  2
*D9
 70
     1
 10
0.0
 20
0.0
 30
0.0
  3
*D9
  1

  0
LINE
  5
7F27
  8
3
  6
CONTINUOUS
 62
     0
 10
1741.3374389999999
 20
2801.7971787031088
 30
0.0
 11
1741.3374389999999
 21
2842.9052769999989
 31
0.0
  0
LINE
  5
7F28
  8
3
  6
CONTINUOUS
 62
     0
 10
2096.3374389999999
 20
2359.388093999999
 30
0.0
 11
2096.3374389999999
 21
2842.9052769999989
 31
0.0
  0
LINE
  5
7F29
  8
3
  6
CONTINUOUS
 62
     0
 10
1781.3374389999999
 20
2822.9052769999998
 30
0.0
 11
2056.337438999999
 21
2822.9052769999998
 31
0.0
  0
INSERT
  5
7F2A
  8
3
  6
CONTINUOUS
 62
     0
  2
_OPEN
 10
1741.3374389999999
 20
2822.9052769999998
 30
0.0
 41
40.0
 42
40.0
 43
40.0
 50
180.0
  0
INSERT
  5
7F2B
  8
3
  6
CONTINUOUS
 62
     0
  2
_OPEN
 10
2096.3374389999999
 20
2822.9052769999998
 30
0.0
 41
40.0
 42
40.0
 43
40.0
  0
TEXT
  8
3
  40
60
  5
7F75
  62
0
  72
0
  71
0
 10
1798.84
 20
2766.71
 30
0.000000
  1
355
  0
POINT
  5
7F2D
  8
DEFPOINTS
  6
CONTINUOUS
 62
     0
 10
1741.3374389999999
 20
2791.7971787031088
 30
0.0
  0
POINT
  5
7F2E
  8
DEFPOINTS
  6
CONTINUOUS
 62
     0
 10
2096.3374389999999
 20
2349.3880939999999
 30
0.0
  0
POINT
  5
7F2F
  8
DEFPOINTS
  6
CONTINUOUS
 62
     0
 10
2096.3374389999999
 20
2822.9052769999998
 30
0.0
  0
ENDBLK
  5
7DEB
  8
0
  0
BLOCK
  8
0
  2
*D10
 70
     1
 10
0.0
 20
0.0
 30
0.0
  3
*D10
  1

  0
LINE
  5
7DC3
  8
0
  6
BYBLOCK
 62
     0
 10
3009.9928309999991
 20
1704.3880939999999
 30
0.0
 11
3009.9928309999991
 21
1521.8034929999999
 31
0.0
  0
LINE
  5
7DC4
  8
0
  6
BYBLOCK
 62
     0
 10
3233.992831
 20
1549.918981
 30
0.0
 11
3233.992831
 21
1561.8034929999999
 31
0.0
  0
LINE
  5
7DC5
  8
0
  6
BYBLOCK
 62
     0
 10
3049.992831
 20
1541.803492999999
 30
0.0
 11
3193.992831
 21
1541.803492999999
 31
0.0
  0
TEXT
  5
7DC6
  8
3
 62
     0
 10
3043.4214024285711
 20
1566.8385305346219
 30
0.0
 40
60.0
  1
224
  0
INSERT
  5
7DC7
  8
0
  6
BYBLOCK
 62
     0
  2
_OPEN
 10
3009.9928309999991
 20
1541.803492999999
 30
0.0
 41
40.0
 42
40.0
 43
40.0
 50
180.0
  0
INSERT
  5
7DC8
  8
0
  6
BYBLOCK
 62
     0
  2
_OPEN
 10
3233.992831
 20
1541.803492999999
 30
0.0
 41
40.0
 42
40.0
 43
40.0
  0
POINT
  5
7DC9
  8
DEFPOINTS
  6
BYBLOCK
 62
     0
 10
3009.9928309999991
 20
1714.3880939999999
 30
0.0
  0
POINT
  5
7DCA
  8
DEFPOINTS
  6
BYBLOCK
 62
     0
 10
3233.992831
 20
1539.918981
 30
0.0
  0
POINT
  5
7DCB
  8
DEFPOINTS
  6
BYBLOCK
 62
     0
 10
3233.992831
 20
1541.803492999999
 30
0.0
  0
ENDBLK
  5
7DCC
  8
0
  0
BLOCK
  8
0
  2
*D11
 70
     1
 10
0.0
 20
0.0
 30
0.0
  3
*D11
  1

  0
LINE
  5
7F30
  8
3
  6
CONTINUOUS
 62
     0
 10
3457.992831
 20
1704.3880939999999
 30
0.0
 11
3457.992831
 21
1521.8034929999999
 31
0.0
  0
LINE
  5
7F31
  8
3
  6
CONTINUOUS
 62
     0
 10
3273.992831
 20
1541.803492999999
 30
0.0
 11
3417.992831
 21
1541.803492999999
 31
0.0
  0
TEXT
  8
3
  40
60
  5
7F76
  62
0
  72
0
  71
0
 10
3241.64
 20
1485.36
 30
0.000000
  1
224
  0
INSERT
  5
7F33
  8
3
  6
CONTINUOUS
 62
     0
  2
_OPEN
 10
3233.992831
 20
1541.803492999999
 30
0.0
 41
40.0
 42
40.0
 43
40.0
 50
180.0
  0
INSERT
  5
7F34
  8
3
  6
CONTINUOUS
 62
     0
  2
_OPEN
 10
3457.992831
 20
1541.803492999999
 30
0.0
 41
40.0
 42
40.0
 43
40.0
  0
POINT
  5
7F35
  8
DEFPOINTS
  6
CONTINUOUS
 62
     0
 10
3233.992831
 20
1539.918981
 30
0.0
  0
POINT
  5
7F36
  8
DEFPOINTS
  6
CONTINUOUS
 62
     0
 10
3457.992831
 20
1714.3880939999999
 30
0.0
  0
POINT
  5
7F37
  8
DEFPOINTS
  6
CONTINUOUS
 62
     0
 10
3457.992831
 20
1541.803492999999
 30
0.0
  0
ENDBLK
  5
7D5E
  8
0
  0
BLOCK
  8
0
  2
*D12
 70
     1
 10
0.0
 20
0.0
 30
0.0
  3
*D12
  1

  0
LINE
  5
7F38
  8
3
  6
CONTINUOUS
 62
     0
 10
3413.992831
 20
2678.3680939999999
 30
0.0
 11
3413.992831
 21
2758.7203049999998
 31
0.0
  0
LINE
  5
7F39
  8
3
  6
CONTINUOUS
 62
     0
 10
3053.992831
 20
2678.3680939999999
 30
0.0
 11
3053.992831
 21
2758.7203049999998
 31
0.0
  0
LINE
  5
7F3A
  8
3
  6
CONTINUOUS
 62
     0
 10
3373.992831
 20
2738.7203049999998
 30
0.0
 11
3093.992831
 21
2738.7203049999998
 31
0.0
  0
INSERT
  5
7F3B
  8
3
  6
CONTINUOUS
 62
     0
  2
_OPEN
 10
3413.992831
 20
2738.7203049999998
 30
0.0
 41
40.0
 42
40.0
 43
40.0
  0
INSERT
  5
7F3C
  8
3
  6
CONTINUOUS
 62
     0
  2
_OPEN
 10
3053.992831
 20
2738.7203049999998
 30
0.0
 41
40.0
 42
40.0
 43
40.0
 50
180.0
  0
TEXT
  8
3
  40
60
  5
7F77
  62
0
  72
0
  71
0
 10
3121.78
 20
2682.52
 30
0.000000
  1
360
  0
POINT
  5
7F3E
  8
DEFPOINTS
  6
CONTINUOUS
 62
     0
 10
3413.992831
 20
2668.368093999999
 30
0.0
  0
POINT
  5
7F3F
  8
DEFPOINTS
  6
CONTINUOUS
 62
     0
 10
3053.992831
 20
2668.368093999999
 30
0.0
  0
POINT
  5
7F40
  8
DEFPOINTS
  6
CONTINUOUS
 62
     0
 10
3053.992831
 20
2738.7203049999998
 30
0.0
  0
ENDBLK
  5
7D33
  8
0
  0
BLOCK
  8
0
  2
*D13
 70
     1
 10
0.0
 20
0.0
 30
0.0
  3
*D13
  1

  0
LINE
  5
7F41
  8
3
  6
CONTINUOUS
 62
     0
 10
3424.992831
 20
2564.388093999999
 30
0.0
 11
3599.4090299999998
 21
2564.388093999999
 31
0.0
  0
LINE
  5
7F42
  8
3
  6
CONTINUOUS
 62
     0
 10
3424.992831
 20
2064.388093999999
 30
0.0
 11
3599.4090299999998
 21
2064.388093999999
 31
0.0
  0
LINE
  5
7F43
  8
3
  6
CONTINUOUS
 62
     0
 10
3579.4090299999998
 20
2524.3880939999999
 30
0.0
 11
3579.4090299999998
 21
2104.3880939999999
 31
0.0
  0
INSERT
  5
7F44
  8
3
  6
CONTINUOUS
 62
     0
  2
_OPEN
 10
3579.4090299999998
 20
2564.388093999999
 30
0.0
 41
40.0
 42
40.0
 43
40.0
 50
90.0
  0
INSERT
  5
7F45
  8
3
  6
CONTINUOUS
 62
     0
  2
_OPEN
 10
3579.4090299999998
 20
2064.388093999999
 30
0.0
 41
40.0
 42
40.0
 43
40.0
 50
270.0
  0
TEXT
  8
3
  40
60
  5
7F78
  62
0
  72
0
  71
0
 10
3409.41
 20
2200.41
 30
0.000000
  1
φ500
  0
POINT
  5
7F47
  8
DEFPOINTS
  6
CONTINUOUS
 62
     0
 10
3414.992831
 20
2564.388093999999
 30
0.0
  0
POINT
  5
7F48
  8
DEFPOINTS
  6
CONTINUOUS
 62
     0
 10
3414.992831
 20
2064.388093999999
 30
0.0
  0
POINT
  5
7F49
  8
DEFPOINTS
  6
CONTINUOUS
 62
     0
 10
3579.4090299999998
 20
2064.388093999999
 30
0.0
  0
ENDBLK
  5
7DB6
  8
0
  0
BLOCK
  8
0
  2
*D14
 70
     1
 10
0.0
 20
0.0
 30
0.0
  3
*D14
  1

  0
LINE
  5
7F4A
  8
3
  6
CONTINUOUS
 62
     0
 10
921.33743900000002
 20
3983.5180939999991
 30
0.0
 11
921.33743900000002
 21
4161.4674159999986
 31
0.0
  0
LINE
  5
7F4B
  8
3
  6
CONTINUOUS
 62
     0
 10
2041.3374389999999
 20
3983.5180939999991
 30
0.0
 11
2041.3374389999999
 21
4161.4674159999986
 31
0.0
  0
LINE
  5
7F4C
  8
3
  6
CONTINUOUS
 62
     0
 10
961.33743900000002
 20
4141.4674160000004
 30
0.0
 11
2001.3374389999999
 21
4141.4674160000004
 31
0.0
  0
INSERT
  5
7F4D
  8
3
  6
CONTINUOUS
 62
     0
  2
_OPEN
 10
921.33743900000002
 20
4141.4674160000004
 30
0.0
 41
40.0
 42
40.0
 43
40.0
 50
180.0
  0
INSERT
  5
7F4E
  8
3
  6
CONTINUOUS
 62
     0
  2
_OPEN
 10
2041.3374389999999
 20
4141.4674160000004
 30
0.0
 41
40.0
 42
40.0
 43
40.0
  0
TEXT
  8
3
  40
60
  5
7F79
  62
0
  72
0
  71
0
 10
1303.03
 20
4085.27
 30
0.000000
  1
1120
  0
POINT
  5
7F50
  8
DEFPOINTS
  6
CONTINUOUS
 62
     0
 10
921.33743900000002
 20
3973.518094
 30
0.0
  0
POINT
  5
7F51
  8
DEFPOINTS
  6
CONTINUOUS
 62
     0
 10
2041.3374389999999
 20
3973.518094
 30
0.0
  0
POINT
  5
7F52
  8
DEFPOINTS
  6
CONTINUOUS
 62
     0
 10
2041.3374389999999
 20
4141.4674160000004
 30
0.0
  0
ENDBLK
  5
7D1B
  8
0
  0
BLOCK
  8
0
  2
*D15
 70
     1
 10
0.0
 20
0.0
 30
0.0
  3
*D15
  1

  0
LINE
  5
7F53
  8
3
  6
CONTINUOUS
 62
     0
 10
911.33743900000002
 20
3973.518094
 30
0.0
 11
761.92744100000073
 21
3973.518094
 31
0.0
  0
LINE
  5
7F54
  8
3
  6
CONTINUOUS
 62
     0
 10
911.33743900000002
 20
3525.5180939999991
 30
0.0
 11
761.92744100000061
 21
3525.5180939999991
 31
0.0
  0
LINE
  5
7F55
  8
3
  6
CONTINUOUS
 62
     0
 10
781.92744100000073
 20
3933.5180939999991
 30
0.0
 11
781.92744100000061
 21
3565.5180939999991
 31
0.0
  0
INSERT
  5
7F56
  8
3
  6
CONTINUOUS
 62
     0
  2
_OPEN
 10
781.92744100000073
 20
3973.518094
 30
0.0
 41
40.0
 42
40.0
 43
40.0
 50
90.0
  0
INSERT
  5
7F57
  8
3
  6
CONTINUOUS
 62
     0
  2
_OPEN
 10
781.92744100000061
 20
3525.5180939999991
 30
0.0
 41
40.0
 42
40.0
 43
40.0
 50
270.0
  0
TEXT
  8
3
  40
60
  5
7F7A
  62
0
  72
0
  71
0
 10
611.927
 20
3607.79
 30
0.000000
  1
448
  0
POINT
  5
7F59
  8
DEFPOINTS
  6
CONTINUOUS
 62
     0
 10
921.33743900000002
 20
3973.518094
 30
0.0
  0
POINT
  5
7F5A
  8
DEFPOINTS
  6
CONTINUOUS
 62
     0
 10
921.33743900000002
 20
3525.5180939999991
 30
0.0
  0
POINT
  5
7F5B
  8
DEFPOINTS
  6
CONTINUOUS
 62
     0
 10
781.92744100000061
 20
3525.5180939999991
 30
0.0
  0
ENDBLK
  5
7D10
  8
0
  0
BLOCK
  8
0
  2
*D16
 70
     1
 10
0.0
 20
0.0
 30
0.0
  3
*D16
  1

  0
LINE
  5
7D98
  8
0
  6
BYBLOCK
 62
     0
 10
3414.992831
 20
2574.3880939999999
 30
0.0
 11
3414.992831
 21
2884.665947
 31
0.0
  0
LINE
  5
7D99
  8
0
  6
BYBLOCK
 62
     0
 10
3233.992831
 20
2835.7770340000002
 30
0.0
 11
3233.992831
 21
2884.665947
 31
0.0
  0
LINE
  5
7D9A
  8
0
  6
BYBLOCK
 62
     0
 10
3374.992831
 20
2864.665947
 30
0.0
 11
3273.992831
 21
2864.665947
 31
0.0
  0
TEXT
  5
7D9B
  8
3
 62
     0
 10
3265.9214024285711
 20
2888.8400513302481
 30
0.0
 40
60.0
  1
181
  0
INSERT
  5
7D9C
  8
0
  6
BYBLOCK
 62
     0
  2
_OPEN
 10
3414.992831
 20
2864.665947
 30
0.0
 41
40.0
 42
40.0
 43
40.0
  0
INSERT
  5
7D9D
  8
0
  6
BYBLOCK
 62
     0
  2
_OPEN
 10
3233.992831
 20
2864.665947
 30
0.0
 41
40.0
 42
40.0
 43
40.0
 50
180.0
  0
POINT
  5
7D9E
  8
DEFPOINTS
  6
BYBLOCK
 62
     0
 10
3414.992831
 20
2564.388093999999
 30
0.0
  0
POINT
  5
7D9F
  8
DEFPOINTS
  6
BYBLOCK
 62
     0
 10
3233.992831
 20
2825.7770340000002
 30
0.0
  0
POINT
  5
7DA0
  8
DEFPOINTS
  6
BYBLOCK
 62
     0
 10
3233.992831
 20
2864.665947
 30
0.0
  0
ENDBLK
  5
7DA1
  8
0
  0
BLOCK
  8
0
  2
*D17
 70
     1
 10
0.0
 20
0.0
 30
0.0
  3
*D17
  1

  0
LINE
  5
7F5C
  8
3
  6
CONTINUOUS
 62
     0
 10
2863.992831
 20
2549.3880939999999
 30
0.0
 11
2863.992831
 21
2884.665947
 31
0.0
  0
LINE
  5
7F5D
  8
3
  6
CONTINUOUS
 62
     0
 10
3193.992831
 20
2864.665947
 30
0.0
 11
2903.992831
 21
2864.665947
 31
0.0
  0
INSERT
  5
7F5E
  8
3
  6
CONTINUOUS
 62
     0
  2
_OPEN
 10
3233.992831
 20
2864.665947
 30
0.0
 41
40.0
 42
40.0
 43
40.0
  0
INSERT
  5
7F5F
  8
3
  6
CONTINUOUS
 62
     0
  2
_OPEN
 10
2863.992831
 20
2864.665947
 30
0.0
 41
40.0
 42
40.0
 43
40.0
 50
180.0
  0
TEXT
  8
3
  40
60
  5
7F7B
  62
0
  72
0
  71
0
 10
2928.99
 20
2858.47
 30
0.000000
  1
MAX
  0
TEXT
  8
3
  40
60
  5
7F7C
  62
0
  72
0
  71
0
 10
2928.99
 20
2780.47
 30
0.000000
  1
430
  0
POINT
  5
7F61
  8
DEFPOINTS
  6
CONTINUOUS
 62
     0
 10
3233.992831
 20
2825.7770340000002
 30
0.0
  0
POINT
  5
7F62
  8
DEFPOINTS
  6
CONTINUOUS
 62
     0
 10
2863.992831
 20
2539.388093999999
 30
0.0
  0
POINT
  5
7F63
  8
DEFPOINTS
  6
CONTINUOUS
 62
     0
 10
2863.992831
 20
2864.665947
 30
0.0
  0
ENDBLK
  5
7DAB
  8
0
  0
BLOCK
  8
0
  2
*D18
 70
     1
 10
0.0
 20
0.0
 30
0.0
  3
*D18
  1

  0
LINE
  5
7F64
  8
3
 62
     0
 10
2096.3374389999999
 20
2359.388093999999
 30
0.0
 11
2096.3374389999999
 21
2966.967733010973
 31
0.0
  0
LINE
  5
7F65
  8
3
 62
     0
 10
921.33743900000002
 20
1804.3880939999999
 30
0.0
 11
921.33743900000024
 21
2966.967733010973
 31
0.0
  0
LINE
  5
7F66
  8
3
 62
     0
 10
2056.337438999999
 20
2946.967733010973
 30
0.0
 11
961.33743900000024
 21
2946.967733010973
 31
0.0
  0
INSERT
  5
7F67
  8
3
 62
     0
  2
_OPEN
 10
2096.3374389999999
 20
2946.967733010973
 30
0.0
 41
40.0
 42
40.0
 43
40.0
  0
INSERT
  5
7F68
  8
3
 62
     0
  2
_OPEN
 10
921.33743900000024
 20
2946.967733010973
 30
0.0
 41
40.0
 42
40.0
 43
40.0
 50
180.0
  0
TEXT
  8
3
  40
60
  5
7F7D
  62
0
  72
0
  71
0
 10
1421.97
 20
2890.77
 30
0.000000
  1
1175
  0
POINT
  5
7F6A
  8
DEFPOINTS
 62
     0
 10
2096.3374389999999
 20
2349.3880939999999
 30
0.0
  0
POINT
  5
7F6B
  8
DEFPOINTS
 62
     0
 10
921.33743900000002
 20
1794.3880939999999
 30
0.0
  0
POINT
  5
7F6C
  8
DEFPOINTS
 62
     0
 10
921.33743900000024
 20
2946.967733010973
 30
0.0
  0
ENDBLK
  5
7DF7
  8
0
  0
ENDSEC
  0
SECTION
  2
ENTITIES
  0
LINE
  5
7A69
  8
1
  6
CONTINUOUS
 10
3413.992831
 20
2359.388093999999
 30
0.0
 11
3053.992831
 21
2359.388093999999
 31
0.0
  0
LINE
  5
7A6A
  8
1
  6
CONTINUOUS
 10
3053.992831
 20
1825.3880939999999
 30
0.0
 11
3413.992831
 21
1825.3880939999999
 31
0.0
  0
LINE
  5
7A6B
  8
1
  6
CONTINUOUS
 10
3009.9928309999991
 20
1714.3880939999999
 30
0.0
 11
3457.992831
 21
1714.3880939999999
 31
0.0
  0
LINE
  5
7A6C
  8
1
  6
CONTINUOUS
 10
3009.9928309999991
 20
1794.3880939999999
 30
0.0
 11
3457.992831
 21
1794.3880939999999
 31
0.0
  0
LINE
  5
7A6D
  8
1
  6
CONTINUOUS
 10
3413.992831
 20
2668.368093999999
 30
0.0
 11
3053.992831
 21
2668.368093999999
 31
0.0
  0
LINE
  5
7A6E
  8
1
  6
CONTINUOUS
 10
3053.992831
 20
2359.388093999999
 30
0.0
 11
3413.992831
 21
1825.3880939999999
 31
0.0
  0
LINE
  5
7A6F
  8
1
  6
CONTINUOUS
 10
3413.992831
 20
2359.388093999999
 30
0.0
 11
3053.992831
 21
1825.3880939999999
 31
0.0
  0
LINE
  5
7A70
  8
1
  6
CONTINUOUS
 10
921.33743900000002
 20
1714.3880939999999
 30
0.0
 11
2041.3374389999999
 21
1714.3880939999999
 31
0.0
  0
LINE
  5
7A71
  8
1
  6
CONTINUOUS
 10
921.33743900000002
 20
1794.3880939999999
 30
0.0
 11
2051.3374389999999
 21
1794.3880939999999
 31
0.0
  0
LINE
  5
7A72
  8
1
  6
CONTINUOUS
 10
1431.3374389999999
 20
2669.3880939999999
 30
0.0
 11
2051.3374389999999
 21
2669.3880939999999
 31
0.0
  0
CIRCLE
  5
7A73
  8
1
  6
CONTINUOUS
 10
1741.3374389999999
 20
2314.388093999999
 30
0.0
 40
275.0
  0
LINE
  5
7A74
  8
2
 10
1230.1711427268999
 20
2314.388093999999
 30
0.0
 11
2241.0141719999988
 21
2314.388093999999
 31
0.0
  0
CIRCLE
  5
7A75
  8
1
  6
CONTINUOUS
 10
1741.3374389999999
 20
2314.388093999999
 30
0.0
 40
120.0
  0
LINE
  5
7A7D
  8
1
  6
CONTINUOUS
 10
1790.8974390000001
 20
2205.098093999999
 30
0.0
 11
1166.1174390000001
 21
1921.738094
 31
0.0
  0
ARC
  5
7A7E
  8
1
  6
CONTINUOUS
 10
1757.092627606015
 20
2268.9236574992028
 30
0.0
 40
415.84575538233588
 50
173.01027804922211
 51
267.77466416649838
  0
ARC
  5
7A7F
  8
1
  6
CONTINUOUS
 10
1710.2094922981371
 20
2302.86129570004
 30
0.0
 40
366.3388210077328
 50
80.534927153815488
 51
177.56957856330069
  0
CIRCLE
  5
7A80
  8
1
  6
CONTINUOUS
 10
1741.3374389999999
 20
2314.388093999999
 30
0.0
 40
250.0
  0
LINE
  5
7A81
  8
1
  6
CONTINUOUS
 10
1011.337439
 20
1844.3880939999999
 30
0.0
 11
1271.3374389999999
 21
1844.3880939999999
 31
0.0
  0
ARC
  5
7A82
  8
1
  6
CONTINUOUS
 10
1141.3374389999999
 20
1976.3880939999999
 30
0.0
 40
122.0
 50
324.60000000000002
 51
215.39999999999989
  0
CIRCLE
  5
7A83
  8
1
  6
CONTINUOUS
 10
1141.3374389999999
 20
1976.3880939999999
 30
0.0
 40
60.0
  0
LINE
  5
7A84
  8
2
 10
1081.3374389999999
 20
1976.3880939999999
 30
0.0
 11
1201.3374389999999
 21
1976.3880939999999
 31
0.0
  0
LINE
  5
7A85
  8
1
  6
CONTINUOUS
 10
1107.447439
 20
2025.898093999999
 30
0.0
 11
1673.5574389999999
 21
2413.4080939999999
 31
0.0
  0
LINE
  5
7A86
  8
1
  6
CONTINUOUS
 10
1011.337439
 20
1794.3880939999999
 30
0.0
 11
1011.337439
 21
1844.3880939999999
 31
0.0
  0
LINE
  5
7A87
  8
1
  6
CONTINUOUS
 10
921.33743900000002
 20
1794.3880939999999
 30
0.0
 11
921.33743900000002
 21
1714.3880939999999
 31
0.0
  0
LINE
  5
7A88
  8
1
  6
CONTINUOUS
 10
1011.337439
 20
1844.3880939999999
 30
0.0
 11
1041.8974390000001
 21
1905.7080940000001
 31
0.0
  0
LINE
  5
7A89
  8
1
  6
CONTINUOUS
 10
1011.337439
 20
1844.3880939999999
 30
0.0
 11
1061.3374389999999
 21
1844.3880939999999
 31
0.0
  0
LINE
  5
7A8A
  8
1
  6
CONTINUOUS
 10
1431.3374389999999
 20
1794.3880939999999
 30
0.0
 11
1431.3374389999999
 21
2669.3880939999999
 31
0.0
  0
LINE
  5
7A8B
  8
1
  6
CONTINUOUS
 10
1271.3374389999999
 20
1794.3880939999999
 30
0.0
 11
1271.3374389999999
 21
1844.3880939999999
 31
0.0
  0
LINE
  5
7A8C
  8
1
  6
CONTINUOUS
 10
1271.3374389999999
 20
1844.3880939999999
 30
0.0
 11
1221.3374389999999
 21
1844.3880939999999
 31
0.0
  0
LINE
  5
7A8D
  8
1
  6
CONTINUOUS
 10
1271.3374389999999
 20
1844.3880939999999
 30
0.0
 11
1240.777439
 21
1905.7080940000001
 31
0.0
  0
LINE
  5
7A8E
  8
2
 10
1141.3374389999999
 20
1916.3880939999999
 30
0.0
 11
1141.3374389999999
 21
2036.3880939999999
 31
0.0
  0
LINE
  5
7A8F
  8
1
  6
CONTINUOUS
 10
2096.3374389999999
 20
1835.3880939999999
 30
0.0
 11
2096.3374389999999
 21
2349.3880939999999
 31
0.0
  0
LINE
  5
7A90
  8
1
  6
CONTINUOUS
 10
2071.3374389999999
 20
2332.3880939999999
 30
0.0
 11
2071.3374389999999
 21
1852.4580940000001
 31
0.0
  0
LINE
  5
7A91
  8
1
  6
CONTINUOUS
 10
2051.3374389999999
 20
1794.3880939999999
 30
0.0
 11
2051.3374389999999
 21
2669.3880939999999
 31
0.0
  0
LINE
  5
7A92
  8
2
 10
1741.3374389999999
 20
1601.866734
 30
0.0
 11
1741.3374389999999
 21
2780.918859010917
 31
0.0
  0
LINE
  5
7A93
  8
1
  6
CONTINUOUS
 10
2096.3374389999999
 20
1852.3880939999999
 30
0.0
 11
1740.9574389999991
 21
1853.3880939999999
 31
0.0
  0
LINE
  5
7A94
  8
1
  6
CONTINUOUS
 10
2041.3374389999999
 20
1794.3880939999999
 30
0.0
 11
2041.3374389999999
 21
1714.3880939999999
 31
0.0
  0
ARC
  5
7A95
  8
1
  6
CONTINUOUS
 10
1710.8762959999999
 20
2325.5171030000001
 30
0.0
 40
343.89392400000003
 50
1.140279
 51
80.023612000000014
  0
LINE
  5
7A96
  8
1
  6
CONTINUOUS
 10
2054.7074389999998
 20
2332.3880939999999
 30
0.0
 11
2096.3374389999999
 21
2332.3880939999999
 31
0.0
  0
LINE
  5
7A97
  8
1
  6
CONTINUOUS
 10
2953.992831
 20
2194.3880939999999
 30
0.0
 11
2953.992831
 21
2434.3880939999999
 31
0.0
  0
LINE
  5
7A98
  8
1
  6
CONTINUOUS
 10
3053.992831
 20
2668.368093999999
 30
0.0
 11
3053.992831
 21
1825.3880939999999
 31
0.0
  0
LINE
  5
7A99
  8
1
  6
CONTINUOUS
 10
2893.992831
 20
2434.3880939999999
 30
0.0
 11
2893.992831
 21
2194.3880939999999
 31
0.0
  0
LINE
  5
7A9A
  8
1
  6
CONTINUOUS
 10
2863.992831
 20
1794.3880939999999
 30
0.0
 11
2863.992831
 21
2539.388093999999
 31
0.0
  0
LINE
  5
7A9B
  8
1
  6
CONTINUOUS
 10
2983.992831
 20
2539.388093999999
 30
0.0
 11
2983.992831
 21
1794.3880939999999
 31
0.0
  0
LINE
  5
7A9C
  8
1
  6
CONTINUOUS
 10
2953.992831
 20
2194.3880939999999
 30
0.0
 11
2893.992831
 21
2194.3880939999999
 31
0.0
  0
LINE
  5
7A9D
  8
1
  6
CONTINUOUS
 10
2893.992831
 20
1926.3880939999999
 30
0.0
 11
2953.992831
 21
1926.3880939999999
 31
0.0
  0
LINE
  5
7A9E
  8
1
  6
CONTINUOUS
 10
2953.992831
 20
2026.3880939999999
 30
0.0
 11
2893.992831
 21
2026.3880939999999
 31
0.0
  0
LINE
  5
7A9F
  8
1
  6
CONTINUOUS
 10
2983.992831
 20
1794.3880939999999
 30
0.0
 11
2863.992831
 21
1794.3880939999999
 31
0.0
  0
LINE
  5
7AA0
  8
1
  6
CONTINUOUS
 10
2893.992831
 20
2026.3880939999999
 30
0.0
 11
2893.992831
 21
1926.3880939999999
 31
0.0
  0
LINE
  5
7AA1
  8
1
  6
CONTINUOUS
 10
3053.992831
 20
1825.3880939999999
 30
0.0
 11
3053.992831
 21
1794.3880939999999
 31
0.0
  0
LINE
  5
7AA2
  8
1
  6
CONTINUOUS
 10
3009.9928309999991
 20
1794.3880939999999
 30
0.0
 11
3009.9928309999991
 21
1714.3880939999999
 31
0.0
  0
LINE
  5
7AA3
  8
1
  6
CONTINUOUS
 10
2953.992831
 20
1926.3880939999999
 30
0.0
 11
2953.992831
 21
2026.3880939999999
 31
0.0
  0
LINE
  5
7AA4
  8
1
  6
CONTINUOUS
 10
2953.992831
 20
1957.3880939999999
 30
0.0
 11
3053.992831
 21
1957.3880939999999
 31
0.0
  0
LINE
  5
7AA5
  8
1
  6
CONTINUOUS
 10
2953.992831
 20
1995.3880939999999
 30
0.0
 11
3053.992831
 21
1995.3880939999999
 31
0.0
  0
LINE
  5
7AA6
  8
1
  6
CONTINUOUS
 10
2953.992831
 20
2434.3880939999999
 30
0.0
 11
2893.992831
 21
2434.3880939999999
 31
0.0
  0
LINE
  5
7AA7
  8
1
  6
CONTINUOUS
 10
2863.992831
 20
2539.388093999999
 30
0.0
 11
2983.992831
 21
2539.388093999999
 31
0.0
  0
LINE
  5
7AA8
  8
1
  6
CONTINUOUS
 10
2953.992831
 20
2295.3880939999999
 30
0.0
 11
3053.992831
 21
2295.3880939999999
 31
0.0
  0
LINE
  5
7AA9
  8
1
  6
CONTINUOUS
 10
2953.992831
 20
2333.3880939999999
 30
0.0
 11
3053.992831
 21
2333.3880939999999
 31
0.0
  0
LINE
  5
7AAA
  8
1
  6
CONTINUOUS
 10
3413.992831
 20
2668.368093999999
 30
0.0
 11
3413.992831
 21
1825.3880939999999
 31
0.0
  0
LINE
  5
7AAB
  8
1
  6
CONTINUOUS
 10
3413.992831
 20
1825.3880939999999
 30
0.0
 11
3413.992831
 21
1794.3880939999999
 31
0.0
  0
LINE
  5
7AAC
  8
1
  6
CONTINUOUS
 10
3457.992831
 20
1794.3880939999999
 30
0.0
 11
3457.992831
 21
1714.3880939999999
 31
0.0
  0
LINE
  5
7AAD
  8
1
  6
CONTINUOUS
 10
1621.3374389999999
 20
3409.518094
 30
0.0
 11
1861.3374389999999
 21
3409.518094
 31
0.0
  0
LINE
  5
7AAE
  8
1
  6
CONTINUOUS
 10
921.33743900000002
 20
3973.518094
 30
0.0
 11
2041.3374389999999
 21
3973.518094
 31
0.0
  0
LINE
  5
7AAF
  8
1
  6
CONTINUOUS
 10
1861.3374389999999
 20
3469.5180939999991
 30
0.0
 11
1621.3374389999999
 21
3469.5180939999991
 31
0.0
  0
LINE
  5
7AB0
  8
1
  6
CONTINUOUS
 10
1333.1474390000001
 20
3931.5180939999991
 30
0.0
 11
2096.3374389999999
 21
3931.5180939999991
 31
0.0
  0
LINE
  5
7AB1
  8
1
  6
CONTINUOUS
 10
1333.1474390000001
 20
3567.5180939999991
 30
0.0
 11
2096.3374389999999
 21
3567.5180939999991
 31
0.0
  0
LINE
  5
7AB2
  8
1
  6
CONTINUOUS
 10
966.83743900000002
 20
3379.5180939999991
 30
0.0
 11
1966.8374389999999
 21
3379.5180939999991
 31
0.0
  0
LINE
  5
7AB3
  8
1
  6
CONTINUOUS
 10
1966.8374389999999
 20
3499.5180939999991
 30
0.0
 11
966.83743900000002
 21
3499.5180939999991
 31
0.0
  0
LINE
  5
7AB4
  8
1
  6
CONTINUOUS
 10
1091.3374389999999
 20
3409.518094
 30
0.0
 11
1191.3374389999999
 21
3409.518094
 31
0.0
  0
LINE
  5
7AB5
  8
1
  6
CONTINUOUS
 10
921.33743900000002
 20
3525.5180939999991
 30
0.0
 11
1122.3374389999999
 21
3525.5180939999991
 31
0.0
  0
LINE
  5
7AB6
  8
1
  6
CONTINUOUS
 10
1019.337439
 20
3549.7580939999989
 30
0.0
 11
1263.3374389999999
 21
3549.7580939999989
 31
0.0
  0
LINE
  5
7AB7
  8
1
  6
CONTINUOUS
 10
1019.337439
 20
3899.7580939999998
 30
0.0
 11
1263.3374389999999
 21
3899.7580939999998
 31
0.0
  0
LINE
  5
7AB8
  8
1
  6
CONTINUOUS
 10
1191.3374389999999
 20
3469.5180939999991
 30
0.0
 11
1091.3374389999999
 21
3469.5180939999991
 31
0.0
  0
LINE
  5
7AB9
  8
1
  6
CONTINUOUS
 10
921.33743900000002
 20
3973.518094
 30
0.0
 11
921.33743900000002
 21
3525.5180939999991
 31
0.0
  0
LINE
  5
7ABA
  8
1
  6
CONTINUOUS
 10
1019.337439
 20
3549.7580939999989
 30
0.0
 11
1019.337439
 21
3899.7580939999998
 31
0.0
  0
LINE
  5
7ABB
  8
1
  6
CONTINUOUS
 10
966.83743900000002
 20
3499.5180939999991
 30
0.0
 11
966.83743900000002
 21
3379.5180939999991
 31
0.0
  0
LINE
  5
7ABC
  8
1
  6
CONTINUOUS
 10
1091.3374389999999
 20
3469.5180939999991
 30
0.0
 11
1091.3374389999999
 21
3409.518094
 31
0.0
  0
LINE
  5
7ABD
  8
1
  6
CONTINUOUS
 10
1160.3374389999999
 20
3525.5180939999991
 30
0.0
 11
1722.3374389999999
 21
3525.5180939999991
 31
0.0
  0
LINE
  5
7ABE
  8
1
  6
CONTINUOUS
 10
1333.1474390000001
 20
3567.5180939999991
 30
0.0
 11
1333.1474390000001
 21
3931.5180939999991
 31
0.0
  0
LINE
  5
7ABF
  8
1
  6
CONTINUOUS
 10
1263.3374389999999
 20
3549.7580939999989
 30
0.0
 11
1263.3374389999999
 21
3899.7580939999998
 31
0.0
  0
LINE
  5
7AC0
  8
1
  6
CONTINUOUS
 10
1191.3374389999999
 20
3409.518094
 30
0.0
 11
1191.3374389999999
 21
3469.5180939999991
 31
0.0
  0
LINE
  5
7AC1
  8
1
  6
CONTINUOUS
 10
1122.3374389999999
 20
3469.5180939999991
 30
0.0
 11
1122.3374389999999
 21
3549.7580939999989
 31
0.0
  0
LINE
  5
7AC2
  8
1
  6
CONTINUOUS
 10
1160.3374389999999
 20
3469.5180939999991
 30
0.0
 11
1160.3374389999999
 21
3549.7580939999989
 31
0.0
  0
LINE
  5
7AC3
  8
1
  6
CONTINUOUS
 10
1621.3374389999999
 20
3409.518094
 30
0.0
 11
1621.3374389999999
 21
3469.5180939999991
 31
0.0
  0
LINE
  5
7AC4
  8
1
  6
CONTINUOUS
 10
1722.3374389999999
 20
3469.5180939999991
 30
0.0
 11
1722.3374389999999
 21
3568.5180939999991
 31
0.0
  0
LINE
  5
7AC5
  8
1
  6
CONTINUOUS
 10
1760.3374389999999
 20
3525.5180939999991
 30
0.0
 11
2041.3374389999999
 21
3525.5180939999991
 31
0.0
  0
LINE
  5
7AC6
  8
1
  6
CONTINUOUS
 10
1760.3374389999999
 20
3469.5180939999991
 30
0.0
 11
1760.3374389999999
 21
3568.5180939999991
 31
0.0
  0
LINE
  5
7AC7
  8
1
  6
CONTINUOUS
 10
1861.3374389999999
 20
3409.518094
 30
0.0
 11
1861.3374389999999
 21
3469.5180939999991
 31
0.0
  0
LINE
  5
7AC8
  8
1
  6
CONTINUOUS
 10
1966.8374389999999
 20
3379.5180939999991
 30
0.0
 11
1966.8374389999999
 21
3499.5180939999991
 31
0.0
  0
LINE
  5
7AC9
  8
1
  6
CONTINUOUS
 10
2071.3374389999999
 20
3568.5180939999991
 30
0.0
 11
2071.3374389999999
 21
3930.5180939999991
 31
0.0
  0
LINE
  5
7ACA
  8
1
  6
CONTINUOUS
 10
2096.3374389999999
 20
3542.518094
 30
0.0
 11
2096.3374389999999
 21
3956.5180939999991
 31
0.0
  0
LINE
  5
7ACB
  8
1
  6
CONTINUOUS
 10
2041.3374389999999
 20
3567.5180939999991
 30
0.0
 11
2041.3374389999999
 21
3525.5180939999991
 31
0.0
  0
LINE
  5
7ACC
  8
1
  6
CONTINUOUS
 10
2041.3374389999999
 20
3973.518094
 30
0.0
 11
2041.3374389999999
 21
3931.5180939999991
 31
0.0
  0
LINE
  5
7ACD
  8
4
  6
CONTINUOUS
 10
3700.0
 20
1000.0
 30
0.0
 11
3700.0
 21
600.0
 31
0.0
  0
LINE
  5
7ACE
  8
4
  6
CONTINUOUS
 10
2300.0
 20
1000.0
 30
0.0
 11
2300.0
 21
600.0
 31
0.0
  0
LINE
  5
7ACF
  8
4
  6
CONTINUOUS
 10
1300.0
 20
1000.0
 30
0.0
 11
1300.0
 21
600.0
 31
0.0
  0
LINE
  5
7AD2
  8
4
  6
CONTINUOUS
 10
1300.0
 20
600.0
 30
0.0
 11
3700.0
 21
600.0
 31
0.0
  0
LINE
  5
7AD3
  8
4
  6
CONTINUOUS
 10
1300.0
 20
800.0
 30
0.0
 11
3700.0
 21
800.0
 31
0.0
  0
TEXT
  5
7AD4
  8
4
  6
CONTINUOUS
 10
1377.004162
 20
863.086052
 30
0.0
 40
100.0
  1
機器名称
  0
TEXT
  5
7AD5
  8
4
  6
CONTINUOUS
 10
1372.516212
 20
643.29031299999986
 30
0.0
 40
100.0
  1
機器型番
  0
TEXT
  5
7AD6
  8
4
  6
CONTINUOUS
 10
2355.3574910000002
 20
845.14353800000015
 30
0.0
 40
100.0
  1
ミツヤ多翼送風機
  0
TEXT
  5
7AD7
  8
4
  6
CONTINUOUS
 10
2373.3089909999999
 20
634.31916899999999
 30
0.0
 40
100.0
  1
MFE#3-4
  0
TEXT
  5
7AD9
  8
4
  6
CONTINUOUS
 10
1809.5715309999989
 20
4766.8576830000002
 30
0.0
 40
108.0
  1
床置ベット
  0
TEXT
  5
7ADA
  8
4
  6
CONTINUOUS
 10
632.33518700000002
 20
5067.7619520000007
 30
0.0
 40
144.0
  1
ベルト駆動式片吸込両持排煙ファン
  0
LINE
  5
7ADB
  8
4
  6
CONTINUOUS
 10
500.0
 20
4938.8175090000004
 30
0.0
 11
3700.0
 21
4938.8175090000004
 31
0.0
  0
LINE
  5
7ADC
  8
4
  6
CONTINUOUS
 10
500.0
 20
5338.8175090000004
 30
0.0
 11
3700.0
 21
5338.8175090000004
 31
0.0
  0
LINE
  5
7ADD
  8
4
  6
CONTINUOUS
 10
1300.0
 20
1000.0
 30
0.0
 11
3700.0
 21
1000.0
 31
0.0
  0
LINE
  5
7ADE
  8
4
  6
CONTINUOUS
 10
500.0
 20
5338.8175090000004
 30
0.0
 11
500.0
 21
4938.8175090000004
 31
0.0
  0
TEXT
  5
7ADF
  8
4
  6
CONTINUOUS
 10
937.85386600000004
 20
4764.6389549999994
 30
0.0
 40
108.0
  1
左回転右横向
  0
TEXT
  5
7AE0
  8
4
  6
CONTINUOUS
 10
2937.9391179999998
 20
5412.122163
 30
0.0
 40
112.0
  1
No.
  0
TEXT
  5
7AE1
  8
4
  6
CONTINUOUS
 10
2622.5921250000001
 20
4766.8576830000002
 30
0.0
 40
108.0
  1
縮尺：1/20
  0
LINE
  5
7AE2
  8
4
  6
CONTINUOUS
 10
3700.0
 20
5338.8175090000004
 30
0.0
 11
3700.0
 21
4938.8175090000004
 31
0.0
  0
LINE
  5
7AE4
  8
4
  6
CONTINUOUS
 10
2881.234845
 20
5362.5271659999999
 30
0.0
 11
2881.234845
 21
5573.3045229999998
 31
0.0
  0
LINE
  5
7AE5
  8
4
  6
CONTINUOUS
 10
2881.234845
 20
5573.3045229999998
 30
0.0
 11
3700.0
 21
5573.3045229999998
 31
0.0
  0
LINE
  5
7AE6
  8
4
  6
CONTINUOUS
 10
3700.0
 20
5573.3045229999998
 30
0.0
 11
3700.0
 21
5362.5271659999999
 31
0.0
  0
LINE
  5
7AE7
  8
4
  6
CONTINUOUS
 10
3700.0
 20
5362.5271659999999
 30
0.0
 11
2881.234845
 21
5362.5271659999999
 31
0.0
  0
LINE
  5
7AEC
  8
1
  6
CONTINUOUS
 10
1966.8374389999999
 20
1794.3880939999999
 30
0.0
 11
1966.8374389999999
 21
2464.3880939999999
 31
0.0
  0
LINE
  5
7AED
  8
1
  6
CONTINUOUS
 10
1966.8374389999999
 20
2464.3880939999999
 30
0.0
 11
1726.8374389999999
 21
2539.388093999999
 31
0.0
  0
LINE
  5
7AEE
  8
1
  6
CONTINUOUS
 10
1726.8374389999999
 20
2539.388093999999
 30
0.0
 11
966.83743900000002
 21
2029.3880939999999
 31
0.0
  0
LINE
  5
7AEF
  8
1
  6
CONTINUOUS
 10
966.83743900000002
 20
2029.3880939999999
 30
0.0
 11
966.83743900000002
 21
1794.3880939999999
 31
0.0
  0
LINE
  5
7AF5
  8
2
 10
3233.992831
 20
2709.5129940000002
 30
0.0
 11
3233.992831
 21
1539.918981
 31
0.0
  0
LINE
  5
7AF6
  8
2
 10
882.82682699999998
 20
3749.5180939999991
 30
0.0
 11
2203.1560840000002
 21
3749.5180939999991
 31
0.0
  0
LINE
  5
7AF7
  8
2
 10
1741.3374389999999
 20
3271.474361
 30
0.0
 11
1741.3374389999999
 21
4026.6581329999999
 31
0.0
  0
LINE
  5
7AF8
  8
2
 10
2755.5793480000002
 20
2314.388093999999
 30
0.0
 11
3459.363304
 21
2314.388093999999
 31
0.0
  0
DIMENSION
  5
7B0C
  8
3
  6
CONTINUOUS
  2
*D1
 10
2213.0940169999999
 20
1852.3880939999999
 30
0.0
 11
2213.0940169999999
 21
2089.8468800000001
 31
0.0
 70
   128
 13
2096.3374389999999
 23
2332.3880939999999
 33
0.0
 14
2096.3374389999999
 24
1852.3880939999999
 34
0.0
 50
90.0
1001
ACAD
1000
DSTYLE
1002
{
1070
   287
1070
     3
1070
   287
1070
     3
1070
    40
1040
20.0
1070
   143
1040
0.039
1070
   172
1070
     1
1070
   271
1070
     0
1070
   279
1070
     0
1070
   288
1070
     1
1002
}
  0
DIMENSION
  5
7B19
  8
3
  6
CONTINUOUS
  2
*D2
 10
2329.2557360000001
 20
2314.388093999999
 30
0.0
 11
2329.2557359999992
 21
2085.7023559999998
 31
0.0
 70
   128
 13
2096.3374389999999
 23
1852.3880939999999
 33
0.0
 14
2241.0141719999988
 24
2314.388093999999
 34
0.0
 50
90.0
1001
ACAD
1000
DSTYLE
1002
{
1070
   287
1070
     3
1070
   287
1070
     3
1070
    40
1040
20.0
1070
   143
1040
0.039
1070
   172
1070
     1
1070
   271
1070
     0
1070
   279
1070
     0
1070
   288
1070
     1
1002
}
  0
DIMENSION
  5
7B3E
  8
3
  6
CONTINUOUS
  2
*D3
 10
1344.3374389999999
 20
2822.9052769999998
 30
0.0
 11
1542.8374389999999
 21
2872.9052769999998
 31
0.0
 70
     0
 13
1741.3374389999999
 23
2791.7971787031088
 33
0.0
 14
1344.3374389999999
 24
2282.388093999999
 34
0.0
1001
ACAD
1000
DSTYLE
1002
{
1070
   287
1070
     4
1070
   287
1070
     4
1070
    40
1040
20.0
1070
    75
1070
     1
1070
   143
1040
0.039
1070
   172
1070
     1
1070
   271
1070
     0
1070
   279
1070
     1
1070
   288
1070
     1
1002
}
  0
DIMENSION
  5
7B4B
  8
3
  6
CONTINUOUS
  2
*D4
 10
1741.3374389999999
 20
1546.915281
 30
0.0
 11
1308.6919849999999
 21
1546.915281
 31
0.0
 70
   128
 13
921.33743900000002
 23
1714.3880939999999
 33
0.0
 14
1741.3374389999999
 24
1601.866734
 34
0.0
1001
ACAD
1000
DSTYLE
1002
{
1070
   287
1070
     3
1070
   287
1070
     3
1070
    40
1040
20.0
1070
   143
1040
0.039
1070
   172
1070
     1
1070
   271
1070
     0
1070
   279
1070
     0
1070
   288
1070
     1
1002
}
  0
DIMENSION
  5
7B57
  8
3
  6
CONTINUOUS
  2
*D5
 10
2041.3374389999999
 20
1546.915281
 30
0.0
 11
1891.3374389999999
 21
1596.915281
 31
0.0
 70
     0
 13
1741.3374389999999
 23
1601.866734
 33
0.0
 14
2041.3374389999999
 24
1714.3880939999999
 34
0.0
1001
ACAD
1000
DSTYLE
1002
{
1070
   287
1070
     4
1070
   287
1070
     4
1070
    40
1040
20.0
1070
    75
1070
     1
1070
   143
1040
0.039
1070
   172
1070
     1
1070
   271
1070
     0
1070
   279
1070
     1
1070
   288
1070
     1
1002
}
  0
DIMENSION
  5
7B64
  8
3
  6
CONTINUOUS
  2
*D6
 10
2453.7147190000001
 20
2314.388093999999
 30
0.0
 11
2453.7147190000001
 21
2031.8236539999989
 31
0.0
 70
   128
 13
2041.3374389999999
 23
1714.3880939999999
 33
0.0
 14
2241.0141719999988
 24
2314.388093999999
 34
0.0
 50
90.0
1001
ACAD
1000
DSTYLE
1002
{
1070
   287
1070
     3
1070
   287
1070
     3
1070
    40
1040
20.0
1070
   143
1040
0.039
1070
   172
1070
     1
1070
   271
1070
     0
1070
   279
1070
     0
1070
   288
1070
     1
1002
}
  0
DIMENSION
  5
7B70
  8
3
  6
CONTINUOUS
  2
*D7
 10
2453.7147190000001
 20
2669.3880939999999
 30
0.0
 11
2403.7147189999991
 21
2491.8880939999999
 31
0.0
 70
     0
 13
2241.0141719999988
 23
2314.388093999999
 33
0.0
 14
2051.3374389999999
 24
2669.3880939999999
 34
0.0
 50
90.0
1001
ACAD
1000
DSTYLE
1002
{
1070
   287
1070
     4
1070
   287
1070
     4
1070
    40
1040
20.0
1070
    75
1070
     1
1070
   143
1040
0.039
1070
   172
1070
     1
1070
   271
1070
     0
1070
   279
1070
     1
1070
   288
1070
     1
1002
}
  0
DIMENSION
  5
7B7D
  8
3
  6
CONTINUOUS
  2
*D8
 10
2586.4709849999999
 20
1714.3880939999999
 30
0.0
 11
2586.4709849999999
 21
2197.604284
 31
0.0
 70
   128
 13
2051.3374389999999
 23
2669.3880939999999
 33
0.0
 14
2041.3374389999999
 24
1714.3880939999999
 34
0.0
 50
90.0
1001
ACAD
1000
DSTYLE
1002
{
1070
   287
1070
     3
1070
   287
1070
     3
1070
    40
1040
20.0
1070
   143
1040
0.039
1070
   172
1070
     1
1070
   271
1070
     0
1070
   279
1070
     0
1070
   288
1070
     1
1002
}
  0
DIMENSION
  5
7BB6
  8
3
  6
CONTINUOUS
  2
*D9
 10
2096.3374389999999
 20
2822.9052769999998
 30
0.0
 11
1918.837438999999
 21
2872.9052769999998
 31
0.0
 70
     0
 13
1741.3374389999999
 23
2791.7971787031088
 33
0.0
 14
2096.3374389999999
 24
2349.3880939999999
 34
0.0
1001
ACAD
1000
DSTYLE
1002
{
1070
   287
1070
     3
1070
   287
1070
     3
1070
    40
1040
20.0
1070
   143
1040
0.039
1070
   172
1070
     1
1070
   271
1070
     0
1070
   279
1070
     0
1070
   288
1070
     1
1002
}
  0
DIMENSION
  5
7BC5
  8
3
  6
CONTINUOUS
  2
*D10
 10
3233.992831
 20
1541.803492999999
 30
0.0
 11
3121.992831
 21
1596.838530534621
 31
0.0
 70
   128
 13
3009.9928309999991
 23
1714.3880939999999
 33
0.0
 14
3233.992831
 24
1539.918981
 34
0.0
1001
ACAD
1000
DSTYLE
1002
{
1070
   288
1070
     1
1070
   172
1070
     1
1070
    40
1040
20.0
1070
   271
1070
     0
1070
   143
1040
0.039
1002
}
  0
DIMENSION
  5
7BD3
  8
3
  6
CONTINUOUS
  2
*D11
 10
3457.992831
 20
1541.803492999999
 30
0.0
 11
3361.6437460000002
 21
1541.5576550000001
 31
0.0
 70
   128
 13
3233.992831
 23
1539.918981
 33
0.0
 14
3457.992831
 24
1714.3880939999999
 34
0.0
1001
ACAD
1000
DSTYLE
1002
{
1070
   287
1070
     4
1070
   287
1070
     4
1070
    40
1040
20.0
1070
    75
1070
     1
1070
   143
1040
0.039
1070
   172
1070
     1
1070
   271
1070
     0
1070
   279
1070
     1
1070
   288
1070
     1
1002
}
  0
DIMENSION
  5
7BE0
  8
3
  6
CONTINUOUS
  2
*D12
 10
3053.992831
 20
2738.7203049999998
 30
0.0
 11
3241.7808420000001
 21
2738.7203049999998
 31
0.0
 70
   128
 13
3413.992831
 23
2668.368093999999
 33
0.0
 14
3053.992831
 24
2668.368093999999
 34
0.0
1001
ACAD
1000
DSTYLE
1002
{
1070
   287
1070
     3
1070
   287
1070
     3
1070
    40
1040
20.0
1070
   143
1040
0.039
1070
   172
1070
     1
1070
   271
1070
     0
1070
   279
1070
     0
1070
   288
1070
     1
1002
}
  0
LINE
  5
7C1D
  8
1
  6
CONTINUOUS
 10
3414.992831
 20
2564.388093999999
 30
0.0
 11
3414.992831
 21
2064.388093999999
 31
0.0
  0
DIMENSION
  5
7C2E
  8
3
  6
CONTINUOUS
  2
*D13
 10
3579.4090299999998
 20
2064.388093999999
 30
0.0
 11
3579.4090299999998
 21
2306.6068109999992
 31
0.0
 70
   128
 13
3414.992831
 23
2564.388093999999
 33
0.0
 14
3414.992831
 24
2064.388093999999
 34
0.0
 50
90.0
1001
ACAD
1000
DSTYLE
1002
{
1070
   287
1070
     3
1070
   287
1070
     3
1070
     3
1000
φ<>
1070
    40
1040
20.0
1070
   143
1040
0.039
1070
   172
1070
     1
1070
   271
1070
     0
1070
   279
1070
     0
1070
   288
1070
     1
1002
}
  0
DIMENSION
  5
7C3B
  8
3
  6
CONTINUOUS
  2
*D14
 10
2041.3374389999999
 20
4141.4674160000004
 30
0.0
 11
1423.0325680000001
 21
4141.4674160000004
 31
0.0
 70
   128
 13
921.33743900000002
 23
3973.518094
 33
0.0
 14
2041.3374389999999
 24
3973.518094
 34
0.0
1001
ACAD
1000
DSTYLE
1002
{
1070
   287
1070
     3
1070
   287
1070
     3
1070
    40
1040
20.0
1070
   143
1040
0.039
1070
   172
1070
     1
1070
   271
1070
     0
1070
   279
1070
     0
1070
   288
1070
     1
1002
}
  0
DIMENSION
  5
7C48
  8
3
  6
CONTINUOUS
  2
*D15
 10
781.92744100000061
 20
3525.5180939999991
 30
0.0
 11
781.92744100000004
 21
3713.9924019999999
 31
0.0
 70
   128
 13
921.33743900000002
 23
3973.518094
 33
0.0
 14
921.33743900000002
 24
3525.5180939999991
 34
0.0
 50
90.0
1001
ACAD
1000
DSTYLE
1002
{
1070
   287
1070
     3
1070
   287
1070
     3
1070
    40
1040
20.0
1070
   143
1040
0.039
1070
   172
1070
     1
1070
   271
1070
     0
1070
   279
1070
     0
1070
   288
1070
     1
1002
}
  0
DIMENSION
  5
7CF4
  8
3
  6
CONTINUOUS
  2
*D16
 10
3233.992831
 20
2864.665947
 30
0.0
 11
3324.492831
 21
2918.8400513302472
 31
0.0
 70
   128
 13
3414.992831
 23
2564.388093999999
 33
0.0
 14
3233.992831
 24
2825.7770340000002
 34
0.0
1001
ACAD
1000
DSTYLE
1002
{
1070
   288
1070
     1
1070
   172
1070
     1
1070
    40
1040
20.0
1070
   271
1070
     0
1070
   143
1040
0.039
1002
}
  0
DIMENSION
  5
7D00
  8
3
  6
CONTINUOUS
  2
*D17
 10
2863.992831
 20
2864.665947
 30
0.0
 11
3048.992831
 21
2964.665947
 31
0.0
 70
     0
  1
MAX\P430
 13
3233.992831
 23
2825.7770340000002
 33
0.0
 14
2863.992831
 24
2539.388093999999
 34
0.0
1001
ACAD
1000
DSTYLE
1002
{
1070
   287
1070
     4
1070
   287
1070
     4
1070
    40
1040
20.0
1070
    75
1070
     1
1070
   143
1040
0.039
1070
   172
1070
     1
1070
   271
1070
     0
1070
   279
1070
     1
1070
   288
1070
     1
1002
}
  0
DIMENSION
  5
7DF8
  8
3
  2
*D18
 10
921.33743900000024
 20
2946.967733010973
 30
0.0
 11
1541.971018828983
 21
2946.967733010973
 31
0.0
 70
   128
 13
2096.3374389999999
 23
2349.3880939999999
 33
0.0
 14
921.33743900000002
 24
1794.3880939999999
 34
0.0
1001
ACAD
1000
DSTYLE
1002
{
1070
   287
1070
     3
1070
   287
1070
     3
1070
    40
1040
20.0
1070
   143
1040
0.039
1070
   172
1070
     1
1070
   271
1070
     0
1070
   279
1070
     0
1070
   288
1070
     1
1002
}
  0
ENDSEC
  0
EOF
