  0
SECTION
  2
HEADER
  9
$ACADVER
  1
AC1009
  9
$INSBASE
 10
0.0
 20
0.0
 30
0.0
  9
$EXTMIN
 10
500.0
 20
600.0
 30
0.0
  9
$EXTMAX
 10
3700.0
 20
5573.3045229999998
 30
0.0
  9
$LIMMIN
 10
0.0
 20
0.0
  9
$LIMMAX
 10
297.0
 20
210.0
  9
$ORTHOMODE
 70
     0
  9
$REGENMODE
 70
     1
  9
$FILLMODE
 70
     0
  9
$QTEXTMODE
 70
     0
  9
$MIRRTEXT
 70
     1
  9
$DRAGMODE
 70
     2
  9
$LTSCALE
 40
100.0
  9
$OSMODE
 70
    37
  9
$ATTMODE
 70
     1
  9
$TEXTSIZE
 40
180.0
  9
$TRACEWID
 40
0.05
  9
$TEXTSTYLE
  7
STANDARD
  9
$CLAYER
  8
3
  9
$CELTYPE
  6
BYLAYER
  9
$CECOLOR
 62
   256
  9
$DIMSCALE
 40
20.0
  9
$DIMASZ
 40
2.0
  9
$DIMEXO
 40
0.5
  9
$DIMDLI
 40
10.0
  9
$DIMRND
 40
0.0
  9
$DIMDLE
 40
0.0
  9
$DIMEXE
 40
1.0
  9
$DIMTP
 40
1.0
  9
$DIMTM
 40
1.0
  9
$DIMTXT
 40
3.0
  9
$DIMCEN
 40
0.0
  9
$DIMTSZ
 40
0.0
  9
$DIMTOL
 70
     0
  9
$DIMLIM
 70
     0
  9
$DIMTIH
 70
     0
  9
$DIMTOH
 70
     0
  9
$DIMSE1
 70
     0
  9
$DIMSE2
 70
     0
  9
$DIMTAD
 70
     1
  9
$DIMZIN
 70
     8
  9
$DIMBLK
  1

  9
$DIMASO
 70
     1
  9
$DIMSHO
 70
     1
  9
$DIMPOST
  1

  9
$DIMAPOST
  1

  9
$DIMALT
 70
     0
  9
$DIMALTD
 70
     2
  9
$DIMALTF
 40
0.039
  9
$DIMLFAC
 40
1.0
  9
$DIMTOFL
 70
     1
  9
$DIMTVP
 40
0.0
  9
$DIMTIX
 70
     0
  9
$DIMSOXD
 70
     0
  9
$DIMSAH
 70
     1
  9
$DIMBLK1
  1
OPEN
  9
$DIMBLK2
  1
OPEN
  9
$DIMSTYLE
  2
IGA
  9
$DIMCLRD
 70
     0
  9
$DIMCLRE
 70
     0
  9
$DIMCLRT
 70
     0
  9
$DIMTFAC
 40
10.0
  9
$DIMGAP
 40
1.0
  9
$LUNITS
 70
     2
  9
$LUPREC
 70
     3
  9
$SKETCHINC
 40
0.1
  9
$FILLETRAD
 40
50.0
  9
$AUNITS
 70
     0
  9
$AUPREC
 70
     0
  9
$MENU
  1
acad
  9
$ELEVATION
 40
0.0
  9
$PELEVATION
 40
0.0
  9
$THICKNESS
 40
0.0
  9
$LIMCHECK
 70
     0
  9
$BLIPMODE
 70
     0
  9
$CHAMFERA
 40
0.5
  9
$CHAMFERB
 40
0.5
  9
$SKPOLY
 70
     0
  9
$TDCREATE
 40
2450730.5716370372
  9
$TDUPDATE
 40
2454953.8355275341
  9
$TDINDWG
 40
0.0035951042
  9
$TDUSRTIMER
 40
0.0035951042
  9
$USRTIMER
 70
     1
  9
$ANGBASE
 50
0.0
  9
$ANGDIR
 70
     0
  9
$PDMODE
 70
     0
  9
$PDSIZE
 40
0.0
  9
$PLINEWID
 40
0.0
  9
$COORDS
 70
     1
  9
$SPLFRAME
 70
     0
  9
$SPLINETYPE
 70
     6
  9
$SPLINESEGS
 70
     8
  9
$ATTDIA
 70
     0
  9
$ATTREQ
 70
     1
  9
$HANDLING
 70
 10241
  9
$HANDSEED
  5
7FDF
  9
$SURFTAB1
 70
     6
  9
$SURFTAB2
 70
     6
  9
$SURFTYPE
 70
     6
  9
$SURFU
 70
     6
  9
$SURFV
 70
     6
  9
$UCSNAME
  2

  9
$UCSORG
 10
0.0
 20
0.0
 30
0.0
  9
$UCSXDIR
 10
1.0
 20
0.0
 30
0.0
  9
$UCSYDIR
 10
0.0
 20
1.0
 30
0.0
  9
$PUCSNAME
  2

  9
$PUCSORG
 10
0.0
 20
0.0
 30
0.0
  9
$PUCSXDIR
 10
1.0
 20
0.0
 30
0.0
  9
$PUCSYDIR
 10
0.0
 20
1.0
 30
0.0
  9
$USERI1
 70
     0
  9
$USERI2
 70
     0
  9
$USERI3
 70
     0
  9
$USERI4
 70
     0
  9
$USERI5
 70
     0
  9
$USERR1
 40
0.0
  9
$USERR2
 40
0.0
  9
$USERR3
 40
0.0
  9
$USERR4
 40
0.0
  9
$USERR5
 40
0.0
  9
$WORLDVIEW
 70
     1
  9
$SHADEDGE
 70
     3
  9
$SHADEDIF
 70
    70
  9
$TILEMODE
 70
     1
  9
$MAXACTVP
 70
    16
  9
$PLIMCHECK
 70
     0
  9
$PEXTMIN
 10
1.0000000000000000E+020
 20
1.0000000000000000E+020
 30
1.0000000000000000E+020
  9
$PEXTMAX
 10
-1.0000000000000000E+020
 20
-1.0000000000000000E+020
 30
-1.0000000000000000E+020
  9
$PLIMMIN
 10
0.0
 20
0.0
  9
$PLIMMAX
 10
12.0
 20
9.0
  9
$UNITMODE
 70
     0
  9
$VISRETAIN
 70
     0
  9
$PLINEGEN
 70
     0
  9
$PSLTSCALE
 70
     1
  0
ENDSEC
  0
SECTION
  2
TABLES
  0
TABLE
  2
VPORT
 70
     2
  0
VPORT
  2
*ACTIVE
 70
     0
 10
0.0
 20
0.0
 11
1.0
 21
1.0
 12
5831.5648609518266
 22
3993.3922365793028
 13
0.0
 23
0.0
 14
10.0
 24
10.0
 15
10.0
 25
10.0
 16
0.0
 26
0.0
 36
1.0
 17
0.0
 27
0.0
 37
0.0
 40
7720.861765592721
 41
1.5051150895140659
 42
50.0
 43
0.0
 44
0.0
 50
0.0
 51
0.0
 71
     0
 72
   100
 73
     1
 74
     0
 75
     0
 76
     0
 77
     0
 78
     0
  0
ENDTAB
  0
TABLE
  2
LTYPE
 70
     2
  0
LTYPE
  2
CONTINUOUS
 70
     0
  3
Solid line
 72
    65
 73
     0
 40
0.0
  0
LTYPE
  2
CENTER
 70
     0
  3
____ _ ____ _ ____ _ ____ _ ____ _ ____ _ ____ 
 72
    65
 73
     4
 40
2.0
 49
1.25
 49
-0.25
 49
0.25
 49
-0.25
  0
ENDTAB
  0
TABLE
  2
LAYER
 70
     6
  0
LAYER
  2
0
 70
     0
 62
     7
  6
CONTINUOUS
  0
LAYER
  2
3
 70
     0
 62
     2
  6
CONTINUOUS
  0
LAYER
  2
2
 70
     0
 62
     3
  6
CENTER
  0
LAYER
  2
1
 70
     0
 62
     4
  6
CONTINUOUS
  0
LAYER
  2
4
 70
     0
 62
     7
  6
CONTINUOUS
  0
LAYER
  2
DEFPOINTS
 70
     0
 62
     7
  6
CONTINUOUS
  0
ENDTAB
  0
TABLE
  2
STYLE
 70
     1
  0
STYLE
  2
STANDARD
 70
     0
 40
0.0
 41
1.0
 50
0.0
 71
     0
 42
180.0
  3
simplex.shx
  4
extfont.shx
  0
ENDTAB
  0
TABLE
  2
VIEW
 70
     0
  0
ENDTAB
  0
TABLE
  2
UCS
 70
     0
  0
ENDTAB
  0
TABLE
  2
APPID
 70
     1
  0
APPID
  2
ACAD
 70
     0
  0
ENDTAB
  0
TABLE
  2
DIMSTYLE
 70
     1
  0
DIMSTYLE
  2
IGA
 70
     0
  3

  4

  5

  6
OPEN
  7
OPEN
 40
2.0
 41
2.0
 42
0.5
 43
10.0
 44
1.0
 45
0.0
 46
0.0
 47
1.0
 48
1.0
140
3.0
141
0.0
142
0.0
143
0.03937
144
1.0
145
0.0
146
10.0
147
1.0
 71
     0
 72
     0
 73
     0
 74
     0
 75
     0
 76
     0
 77
     1
 78
     8
170
     0
171
     2
172
     0
173
     1
174
     0
175
     0
176
     0
177
     0
178
     0
  0
ENDTAB
  0
ENDSEC
  0
SECTION
  2
BLOCKS
  0
BLOCK
  8
0
  2
$MODEL_SPACE
 70
     0
 10
0.0
 20
0.0
 30
0.0
  3
$MODEL_SPACE
  1

  0
ENDBLK
  5
1B
  8
0
  0
BLOCK
 67
     1
  8
0
  2
$PAPER_SPACE
 70
     0
 10
0.0
 20
0.0
 30
0.0
  3
$PAPER_SPACE
  1

  0
ENDBLK
  5
18
 67
     1
  8
0
  0
BLOCK
  8
0
  2
_OPEN
 70
     0
 10
0.0
 20
0.0
 30
0.0
  3
_OPEN
  1

  0
LINE
  5
7B87
  8
0
  6
BYBLOCK
 62
     0
 10
-1.0
 20
0.166667
 30
0.0
 11
0.0
 21
0.0
 31
0.0
  0
LINE
  5
7B88
  8
0
  6
BYBLOCK
 62
     0
 10
0.0
 20
0.0
 30
0.0
 11
-1.0
 21
-0.166667
 31
0.0
  0
LINE
  5
7B89
  8
0
  6
BYBLOCK
 62
     0
 10
0.0
 20
0.0
 30
0.0
 11
-1.0
 21
0.0
 31
0.0
  0
ENDBLK
  5
7B8A
  8
0
  0
BLOCK
  8
0
  2
*D1
 70
     1
 10
0.0
 20
0.0
 30
0.0
  3
*D1
  1

  0
LINE
  5
7F4D
  8
3
  6
CONTINUOUS
 62
     0
 10
1877.9554740000001
 20
2647.189777
 30
0.0
 11
1877.9554740000001
 21
2779.5667360000002
 31
0.0
  0
LINE
  5
7F4E
  8
3
  6
CONTINUOUS
 62
     0
 10
1397.9554740000001
 20
2647.189777
 30
0.0
 11
1397.9554740000001
 21
2779.5667360000002
 31
0.0
  0
LINE
  5
7F4F
  8
3
  6
CONTINUOUS
 62
     0
 10
1837.9554740000001
 20
2759.5667360000002
 30
0.0
 11
1437.9554740000001
 21
2759.5667360000002
 31
0.0
  0
INSERT
  5
7F50
  8
3
  6
CONTINUOUS
 62
     0
  2
_OPEN
 10
1877.9554740000001
 20
2759.5667360000002
 30
0.0
 41
40.0
 42
40.0
 43
40.0
  0
INSERT
  5
7F51
  8
3
  6
CONTINUOUS
 62
     0
  2
_OPEN
 10
1397.9554740000001
 20
2759.5667360000002
 30
0.0
 41
40.0
 42
40.0
 43
40.0
 50
180.0
  0
TEXT
  8
3
  40
60
  5
7FCF
  62
0
  72
0
  71
0
 10
1500.71
 20
2703.37
 30
0.000000
  1
480
  0
POINT
  5
7F53
  8
DEFPOINTS
  6
CONTINUOUS
 62
     0
 10
1877.9554740000001
 20
2637.189777
 30
0.0
  0
POINT
  5
7F54
  8
DEFPOINTS
  6
CONTINUOUS
 62
     0
 10
1397.9554740000001
 20
2637.189777
 30
0.0
  0
POINT
  5
7F55
  8
DEFPOINTS
  6
CONTINUOUS
 62
     0
 10
1397.9554740000001
 20
2759.5667360000002
 30
0.0
  0
ENDBLK
  5
7DA8
  8
0
  0
BLOCK
  8
0
  2
*D2
 70
     1
 10
0.0
 20
0.0
 30
0.0
  3
*D2
  1

  0
LINE
  5
7F56
  8
3
  6
CONTINUOUS
 62
     0
 10
1877.9554740000001
 20
2647.189777
 30
0.0
 11
1877.9554740000001
 21
2885.755099
 31
0.0
  0
LINE
  5
7F57
  8
3
  6
CONTINUOUS
 62
     0
 10
1415.9554740000001
 20
2839.9549039999988
 30
0.0
 11
1415.9554740000001
 21
2885.755099
 31
0.0
  0
LINE
  5
7F58
  8
3
  6
CONTINUOUS
 62
     0
 10
1837.9554740000001
 20
2865.755099
 30
0.0
 11
1455.9554740000001
 21
2865.755099
 31
0.0
  0
INSERT
  5
7F59
  8
3
  6
CONTINUOUS
 62
     0
  2
_OPEN
 10
1877.9554740000001
 20
2865.755099
 30
0.0
 41
40.0
 42
40.0
 43
40.0
  0
INSERT
  5
7F5A
  8
3
  6
CONTINUOUS
 62
     0
  2
_OPEN
 10
1415.9554740000001
 20
2865.755099
 30
0.0
 41
40.0
 42
40.0
 43
40.0
 50
180.0
  0
TEXT
  8
3
  40
60
  5
7FD0
  62
0
  72
0
  71
0
 10
1500.71
 20
2809.56
 30
0.000000
  1
462
  0
POINT
  5
7F5C
  8
DEFPOINTS
  6
CONTINUOUS
 62
     0
 10
1877.9554740000001
 20
2637.189777
 30
0.0
  0
POINT
  5
7F5D
  8
DEFPOINTS
  6
CONTINUOUS
 62
     0
 10
1415.9554740000001
 20
2829.9549040000002
 30
0.0
  0
POINT
  5
7F5E
  8
DEFPOINTS
  6
CONTINUOUS
 62
     0
 10
1415.9554740000001
 20
2865.755099
 30
0.0
  0
ENDBLK
  5
7D9D
  8
0
  0
BLOCK
  8
0
  2
*D3
 70
     1
 10
0.0
 20
0.0
 30
0.0
  3
*D3
  1

  0
LINE
  5
7F5F
  8
3
  6
CONTINUOUS
 62
     0
 10
1060.9554740000001
 20
2602.189777
 30
0.0
 11
1060.9554740000001
 21
2885.755099
 31
0.0
  0
LINE
  5
7F60
  8
3
  6
CONTINUOUS
 62
     0
 10
1375.9554740000001
 20
2865.755099
 30
0.0
 11
1100.9554740000001
 21
2865.755099
 31
0.0
  0
INSERT
  5
7F61
  8
3
  6
CONTINUOUS
 62
     0
  2
_OPEN
 10
1415.9554740000001
 20
2865.755099
 30
0.0
 41
40.0
 42
40.0
 43
40.0
  0
INSERT
  5
7F62
  8
3
  6
CONTINUOUS
 62
     0
  2
_OPEN
 10
1060.9554740000001
 20
2865.755099
 30
0.0
 41
40.0
 42
40.0
 43
40.0
 50
180.0
  0
TEXT
  8
3
  40
60
  5
7FD1
  62
0
  72
0
  71
0
 10
1118.46
 20
2809.56
 30
0.000000
  1
355
  0
POINT
  5
7F64
  8
DEFPOINTS
  6
CONTINUOUS
 62
     0
 10
1415.9554740000001
 20
2829.9549040000002
 30
0.0
  0
POINT
  5
7F65
  8
DEFPOINTS
  6
CONTINUOUS
 62
     0
 10
1060.9554740000001
 20
2592.189777
 30
0.0
  0
POINT
  5
7F66
  8
DEFPOINTS
  6
CONTINUOUS
 62
     0
 10
1060.9554740000001
 20
2865.755099
 30
0.0
  0
ENDBLK
  5
7DB2
  8
0
  0
BLOCK
  8
0
  2
*D4
 70
     1
 10
0.0
 20
0.0
 30
0.0
  3
*D4
  1

  0
LINE
  5
7F67
  8
3
  6
CONTINUOUS
 62
     0
 10
1370.9554740000001
 20
2637.189777
 30
0.0
 11
899.56451700000036
 21
2637.189777
 31
0.0
  0
LINE
  5
7F68
  8
3
  6
CONTINUOUS
 62
     0
 10
914.75630399999989
 20
2282.189777
 30
0.0
 11
939.56451700000025
 21
2282.189777
 31
0.0
  0
LINE
  5
7F69
  8
3
  6
CONTINUOUS
 62
     0
 10
919.56451700000036
 20
2597.189777
 30
0.0
 11
919.56451700000036
 21
2322.189777
 31
0.0
  0
INSERT
  5
7F6A
  8
3
  6
CONTINUOUS
 62
     0
  2
_OPEN
 10
919.56451700000036
 20
2637.189777
 30
0.0
 41
40.0
 42
40.0
 43
40.0
 50
90.0
  0
INSERT
  5
7F6B
  8
3
  6
CONTINUOUS
 62
     0
  2
_OPEN
 10
919.56451700000036
 20
2282.189777
 30
0.0
 41
40.0
 42
40.0
 43
40.0
 50
270.0
  0
TEXT
  8
3
  40
60
  5
7FD2
  62
0
  72
0
  71
0
 10
749.565
 20
2345.96
 30
0.000000
  1
355
  0
POINT
  5
7F6D
  8
DEFPOINTS
  6
CONTINUOUS
 62
     0
 10
1380.9554740000001
 20
2637.189777
 30
0.0
  0
POINT
  5
7F6E
  8
DEFPOINTS
  6
CONTINUOUS
 62
     0
 10
904.75630399999977
 20
2282.189777
 30
0.0
  0
POINT
  5
7F6F
  8
DEFPOINTS
  6
CONTINUOUS
 62
     0
 10
919.56451700000036
 20
2282.189777
 30
0.0
  0
ENDBLK
  5
7C6F
  8
0
  0
BLOCK
  8
0
  2
*D5
 70
     1
 10
0.0
 20
0.0
 30
0.0
  3
*D5
  1

  0
LINE
  5
7F70
  8
3
  6
CONTINUOUS
 62
     0
 10
1105.9554740000001
 20
1792.189777
 30
0.0
 11
899.56451700000014
 21
1792.189777
 31
0.0
  0
LINE
  5
7F71
  8
3
  6
CONTINUOUS
 62
     0
 10
919.56451700000002
 20
2242.189777
 30
0.0
 11
919.56451700000002
 21
1832.1897769999989
 31
0.0
  0
INSERT
  5
7F72
  8
3
  6
CONTINUOUS
 62
     0
  2
_OPEN
 10
919.56451700000002
 20
2282.189777
 30
0.0
 41
40.0
 42
40.0
 43
40.0
 50
90.0
  0
INSERT
  5
7F73
  8
3
  6
CONTINUOUS
 62
     0
  2
_OPEN
 10
919.56451700000002
 20
1792.189777
 30
0.0
 41
40.0
 42
40.0
 43
40.0
 50
270.0
  0
TEXT
  8
3
  40
60
  5
7FD3
  62
0
  72
0
  71
0
 10
749.565
 20
1930.99
 30
0.000000
  1
490
  0
POINT
  5
7F75
  8
DEFPOINTS
  6
CONTINUOUS
 62
     0
 10
904.75630399999977
 20
2282.189777
 30
0.0
  0
POINT
  5
7F76
  8
DEFPOINTS
  6
CONTINUOUS
 62
     0
 10
1115.9554740000001
 20
1792.189777
 30
0.0
  0
POINT
  5
7F77
  8
DEFPOINTS
  6
CONTINUOUS
 62
     0
 10
919.56451700000002
 20
1792.189777
 30
0.0
  0
ENDBLK
  5
7C7B
  8
0
  0
BLOCK
  8
0
  2
*D6
 70
     1
 10
0.0
 20
0.0
 30
0.0
  3
*D6
  1

  0
LINE
  5
7F78
  8
3
  6
CONTINUOUS
 62
     0
 10
1360.9554740000001
 20
2637.189777
 30
0.0
 11
773.58695000000046
 21
2637.189777
 31
0.0
  0
LINE
  5
7F79
  8
3
  6
CONTINUOUS
 62
     0
 10
1105.9554740000001
 20
1792.189777
 30
0.0
 11
773.58695000000034
 21
1792.189777
 31
0.0
  0
LINE
  5
7F7A
  8
3
  6
CONTINUOUS
 62
     0
 10
793.58695000000046
 20
2597.189777
 30
0.0
 11
793.58695000000034
 21
1832.1897769999989
 31
0.0
  0
INSERT
  5
7F7B
  8
3
  6
CONTINUOUS
 62
     0
  2
_OPEN
 10
793.58695000000046
 20
2637.189777
 30
0.0
 41
40.0
 42
40.0
 43
40.0
 50
90.0
  0
INSERT
  5
7F7C
  8
3
  6
CONTINUOUS
 62
     0
  2
_OPEN
 10
793.58695000000034
 20
1792.189777
 30
0.0
 41
40.0
 42
40.0
 43
40.0
 50
270.0
  0
TEXT
  8
3
  40
60
  5
7FD4
  62
0
  72
0
  71
0
 10
623.587
 20
2098.19
 30
0.000000
  1
845
  0
POINT
  5
7F7E
  8
DEFPOINTS
  6
CONTINUOUS
 62
     0
 10
1370.9554740000001
 20
2637.189777
 30
0.0
  0
POINT
  5
7F7F
  8
DEFPOINTS
  6
CONTINUOUS
 62
     0
 10
1115.9554740000001
 20
1792.189777
 30
0.0
  0
POINT
  5
7F80
  8
DEFPOINTS
  6
CONTINUOUS
 62
     0
 10
793.58695000000034
 20
1792.189777
 30
0.0
  0
ENDBLK
  5
7C88
  8
0
  0
BLOCK
  8
0
  2
*D7
 70
     1
 10
0.0
 20
0.0
 30
0.0
  3
*D7
  1

  0
LINE
  5
7F81
  8
3
  6
CONTINUOUS
 62
     0
 10
1115.9554740000001
 20
1782.189777
 30
0.0
 11
1115.9554740000001
 21
1584.965706
 31
0.0
  0
LINE
  5
7F82
  8
3
  6
CONTINUOUS
 62
     0
 10
1415.9554740000001
 20
1736.1641329999991
 30
0.0
 11
1415.9554740000001
 21
1584.965706
 31
0.0
  0
LINE
  5
7F83
  8
3
  6
CONTINUOUS
 62
     0
 10
1155.9554740000001
 20
1604.965706
 30
0.0
 11
1375.9554740000001
 21
1604.965706
 31
0.0
  0
INSERT
  5
7F84
  8
3
  6
CONTINUOUS
 62
     0
  2
_OPEN
 10
1115.9554740000001
 20
1604.965706
 30
0.0
 41
40.0
 42
40.0
 43
40.0
 50
180.0
  0
INSERT
  5
7F85
  8
3
  6
CONTINUOUS
 62
     0
  2
_OPEN
 10
1415.9554740000001
 20
1604.965706
 30
0.0
 41
40.0
 42
40.0
 43
40.0
  0
TEXT
  8
3
  40
60
  5
7FD5
  62
0
  72
0
  71
0
 10
1158.81
 20
1548.77
 30
0.000000
  1
300
  0
POINT
  5
7F87
  8
DEFPOINTS
  6
CONTINUOUS
 62
     0
 10
1115.9554740000001
 20
1792.189777
 30
0.0
  0
POINT
  5
7F88
  8
DEFPOINTS
  6
CONTINUOUS
 62
     0
 10
1415.9554740000001
 20
1746.1641329999991
 30
0.0
  0
POINT
  5
7F89
  8
DEFPOINTS
  6
CONTINUOUS
 62
     0
 10
1415.9554740000001
 20
1604.965706
 30
0.0
  0
ENDBLK
  5
7D92
  8
0
  0
BLOCK
  8
0
  2
*D8
 70
     1
 10
0.0
 20
0.0
 30
0.0
  3
*D8
  1

  0
LINE
  5
7F8A
  8
3
  6
CONTINUOUS
 62
     0
 10
2235.9554739999999
 20
1782.189777
 30
0.0
 11
2235.9554739999999
 21
1584.965706
 31
0.0
  0
LINE
  5
7F8B
  8
3
  6
CONTINUOUS
 62
     0
 10
1455.9554740000001
 20
1604.965706
 30
0.0
 11
2195.955473999999
 21
1604.965706
 31
0.0
  0
INSERT
  5
7F8C
  8
3
  6
CONTINUOUS
 62
     0
  2
_OPEN
 10
1415.9554740000001
 20
1604.965706
 30
0.0
 41
40.0
 42
40.0
 43
40.0
 50
180.0
  0
INSERT
  5
7F8D
  8
3
  6
CONTINUOUS
 62
     0
  2
_OPEN
 10
2235.9554739999999
 20
1604.965706
 30
0.0
 41
40.0
 42
40.0
 43
40.0
  0
TEXT
  8
3
  40
60
  5
7FD6
  62
0
  72
0
  71
0
 10
1705.96
 20
1548.77
 30
0.000000
  1
820
  0
POINT
  5
7F8F
  8
DEFPOINTS
  6
CONTINUOUS
 62
     0
 10
1415.9554740000001
 20
1746.1641329999991
 30
0.0
  0
POINT
  5
7F90
  8
DEFPOINTS
  6
CONTINUOUS
 62
     0
 10
2235.9554739999999
 20
1792.189777
 30
0.0
  0
POINT
  5
7F91
  8
DEFPOINTS
  6
CONTINUOUS
 62
     0
 10
2235.9554739999999
 20
1604.965706
 30
0.0
  0
ENDBLK
  5
7D87
  8
0
  0
BLOCK
  8
0
  2
*D9
 70
     1
 10
0.0
 20
0.0
 30
0.0
  3
*D9
  1

  0
LINE
  5
7F92
  8
3
  6
CONTINUOUS
 62
     0
 10
3347.0483079999999
 20
2647.189777
 30
0.0
 11
3347.0483079999999
 21
2730.0875860000001
 31
0.0
  0
LINE
  5
7F93
  8
3
  6
CONTINUOUS
 62
     0
 10
2987.0483079999999
 20
2647.189777
 30
0.0
 11
2987.0483079999999
 21
2730.0875860000001
 31
0.0
  0
LINE
  5
7F94
  8
3
  6
CONTINUOUS
 62
     0
 10
3307.0483079999999
 20
2710.0875860000001
 30
0.0
 11
3027.048307999999
 21
2710.0875860000001
 31
0.0
  0
INSERT
  5
7F95
  8
3
  6
CONTINUOUS
 62
     0
  2
_OPEN
 10
3347.0483079999999
 20
2710.0875860000001
 30
0.0
 41
40.0
 42
40.0
 43
40.0
  0
INSERT
  5
7F96
  8
3
  6
CONTINUOUS
 62
     0
  2
_OPEN
 10
2987.0483079999999
 20
2710.0875860000001
 30
0.0
 41
40.0
 42
40.0
 43
40.0
 50
180.0
  0
TEXT
  8
3
  40
60
  5
7FD7
  62
0
  72
0
  71
0
 10
3040.83
 20
2653.89
 30
0.000000
  1
360
  0
POINT
  5
7F98
  8
DEFPOINTS
  6
CONTINUOUS
 62
     0
 10
3347.0483079999999
 20
2637.189777
 30
0.0
  0
POINT
  5
7F99
  8
DEFPOINTS
  6
CONTINUOUS
 62
     0
 10
2987.0483079999999
 20
2637.189777
 30
0.0
  0
POINT
  5
7F9A
  8
DEFPOINTS
  6
CONTINUOUS
 62
     0
 10
2987.0483079999999
 20
2710.0875860000001
 30
0.0
  0
ENDBLK
  5
7E0C
  8
0
  0
BLOCK
  8
0
  2
*D10
 70
     1
 10
0.0
 20
0.0
 30
0.0
  3
*D10
  1

  0
LINE
  5
7E65
  8
0
  6
BYBLOCK
 62
     0
 10
2943.048307999999
 20
1782.189777
 30
0.0
 11
2943.048307999999
 21
1622.5441430000001
 31
0.0
  0
LINE
  5
7E66
  8
0
  6
BYBLOCK
 62
     0
 10
3167.0483079999999
 20
1629.978634999999
 30
0.0
 11
3167.0483079999999
 21
1662.5441430000001
 31
0.0
  0
LINE
  5
7E67
  8
0
  6
BYBLOCK
 62
     0
 10
2983.0483079999999
 20
1642.5441430000001
 30
0.0
 11
3127.048307999999
 21
1642.5441430000001
 31
0.0
  0
TEXT
  5
7E68
  8
3
 62
     0
 10
2976.476879428571
 20
1667.718568342352
 30
0.0
 40
60.0
  1
224
  0
INSERT
  5
7E69
  8
0
  6
BYBLOCK
 62
     0
  2
_OPEN
 10
2943.048307999999
 20
1642.5441430000001
 30
0.0
 41
40.0
 42
40.0
 43
40.0
 50
180.0
  0
INSERT
  5
7E6A
  8
0
  6
BYBLOCK
 62
     0
  2
_OPEN
 10
3167.0483079999999
 20
1642.5441430000001
 30
0.0
 41
40.0
 42
40.0
 43
40.0
  0
POINT
  5
7E6B
  8
DEFPOINTS
  6
BYBLOCK
 62
     0
 10
2943.048307999999
 20
1792.189777
 30
0.0
  0
POINT
  5
7E6C
  8
DEFPOINTS
  6
BYBLOCK
 62
     0
 10
3167.0483079999999
 20
1619.9786349999999
 30
0.0
  0
POINT
  5
7E6D
  8
DEFPOINTS
  6
BYBLOCK
 62
     0
 10
3167.0483079999999
 20
1642.5441430000001
 30
0.0
  0
ENDBLK
  5
7E6E
  8
0
  0
BLOCK
  8
0
  2
*D11
 70
     1
 10
0.0
 20
0.0
 30
0.0
  3
*D11
  1

  0
LINE
  5
7F9B
  8
3
  6
CONTINUOUS
 62
     0
 10
3391.0483079999999
 20
1782.189777
 30
0.0
 11
3391.0483079999999
 21
1622.5441430000001
 31
0.0
  0
LINE
  5
7F9C
  8
3
  6
CONTINUOUS
 62
     0
 10
3207.0483079999999
 20
1642.5441430000001
 30
0.0
 11
3351.0483079999999
 21
1642.5441430000001
 31
0.0
  0
TEXT
  8
3
  40
60
  5
7FD8
  62
0
  72
0
  71
0
 10
3173.98
 20
1586.45
 30
0.000000
  1
224
  0
INSERT
  5
7F9E
  8
3
  6
CONTINUOUS
 62
     0
  2
_OPEN
 10
3167.0483079999999
 20
1642.5441430000001
 30
0.0
 41
40.0
 42
40.0
 43
40.0
 50
180.0
  0
INSERT
  5
7F9F
  8
3
  6
CONTINUOUS
 62
     0
  2
_OPEN
 10
3391.0483079999999
 20
1642.5441430000001
 30
0.0
 41
40.0
 42
40.0
 43
40.0
  0
POINT
  5
7FA0
  8
DEFPOINTS
  6
CONTINUOUS
 62
     0
 10
3167.0483079999999
 20
1619.9786349999999
 30
0.0
  0
POINT
  5
7FA1
  8
DEFPOINTS
  6
CONTINUOUS
 62
     0
 10
3391.0483079999999
 20
1792.189777
 30
0.0
  0
POINT
  5
7FA2
  8
DEFPOINTS
  6
CONTINUOUS
 62
     0
 10
3391.0483079999999
 20
1642.5441430000001
 30
0.0
  0
ENDBLK
  5
7DEA
  8
0
  0
BLOCK
  8
0
  2
*D12
 70
     1
 10
0.0
 20
0.0
 30
0.0
  3
*D12
  1

  0
LINE
  5
7FA3
  8
3
  6
CONTINUOUS
 62
     0
 10
3358.0483079999999
 20
2532.189777
 30
0.0
 11
3566.5336149999998
 21
2532.189777
 31
0.0
  0
LINE
  5
7FA4
  8
3
  6
CONTINUOUS
 62
     0
 10
3358.0483079999999
 20
2032.189777
 30
0.0
 11
3566.5336149999998
 21
2032.189777
 31
0.0
  0
LINE
  5
7FA5
  8
3
  6
CONTINUOUS
 62
     0
 10
3546.5336149999998
 20
2492.189777
 30
0.0
 11
3546.5336149999998
 21
2072.1897769999991
 31
0.0
  0
INSERT
  5
7FA6
  8
3
  6
CONTINUOUS
 62
     0
  2
_OPEN
 10
3546.5336149999998
 20
2532.189777
 30
0.0
 41
40.0
 42
40.0
 43
40.0
 50
90.0
  0
INSERT
  5
7FA7
  8
3
  6
CONTINUOUS
 62
     0
  2
_OPEN
 10
3546.5336149999998
 20
2032.189777
 30
0.0
 41
40.0
 42
40.0
 43
40.0
 50
270.0
  0
TEXT
  8
3
  40
60
  5
7FD9
  62
0
  72
0
  71
0
 10
3376.53
 20
2181.13
 30
0.000000
  1
φ500
  0
POINT
  5
7FA9
  8
DEFPOINTS
  6
CONTINUOUS
 62
     0
 10
3348.0483079999999
 20
2532.189777
 30
0.0
  0
POINT
  5
7FAA
  8
DEFPOINTS
  6
CONTINUOUS
 62
     0
 10
3348.0483079999999
 20
2032.189777
 30
0.0
  0
POINT
  5
7FAB
  8
DEFPOINTS
  6
CONTINUOUS
 62
     0
 10
3546.5336149999998
 20
2032.189777
 30
0.0
  0
ENDBLK
  5
7E38
  8
0
  0
BLOCK
  8
0
  2
*D13
 70
     1
 10
0.0
 20
0.0
 30
0.0
  3
*D13
  1

  0
LINE
  5
7E45
  8
0
  6
BYBLOCK
 62
     0
 10
3348.0483079999999
 20
2542.189777
 30
0.0
 11
3348.0483079999999
 21
2864.238343
 31
0.0
  0
LINE
  5
7E46
  8
0
  6
BYBLOCK
 62
     0
 10
3167.0483079999999
 20
2798.3317569999999
 30
0.0
 11
3167.0483079999999
 21
2864.238343
 31
0.0
  0
LINE
  5
7E47
  8
0
  6
BYBLOCK
 62
     0
 10
3308.0483079999999
 20
2844.238343
 30
0.0
 11
3207.0483079999999
 21
2844.238343
 31
0.0
  0
TEXT
  5
7E48
  8
3
 62
     0
 10
3198.976879428571
 20
2877.195799702029
 30
0.0
 40
60.0
  1
181
  0
INSERT
  5
7E49
  8
0
  6
BYBLOCK
 62
     0
  2
_OPEN
 10
3348.0483079999999
 20
2844.238343
 30
0.0
 41
40.0
 42
40.0
 43
40.0
  0
INSERT
  5
7E4A
  8
0
  6
BYBLOCK
 62
     0
  2
_OPEN
 10
3167.0483079999999
 20
2844.238343
 30
0.0
 41
40.0
 42
40.0
 43
40.0
 50
180.0
  0
POINT
  5
7E4B
  8
DEFPOINTS
  6
BYBLOCK
 62
     0
 10
3348.0483079999999
 20
2532.189777
 30
0.0
  0
POINT
  5
7E4C
  8
DEFPOINTS
  6
BYBLOCK
 62
     0
 10
3167.0483079999999
 20
2788.331756999999
 30
0.0
  0
POINT
  5
7E4D
  8
DEFPOINTS
  6
BYBLOCK
 62
     0
 10
3167.0483079999999
 20
2844.238343
 30
0.0
  0
ENDBLK
  5
7E4E
  8
0
  0
BLOCK
  8
0
  2
*D14
 70
     1
 10
0.0
 20
0.0
 30
0.0
  3
*D14
  1

  0
LINE
  5
7FAC
  8
3
  6
CONTINUOUS
 62
     0
 10
2797.0483079999999
 20
2627.189777
 30
0.0
 11
2797.0483079999999
 21
2864.238343
 31
0.0
  0
LINE
  5
7FAD
  8
3
  6
CONTINUOUS
 62
     0
 10
3127.048307999999
 20
2844.238343
 30
0.0
 11
2837.048307999999
 21
2844.238343
 31
0.0
  0
INSERT
  5
7FAE
  8
3
  6
CONTINUOUS
 62
     0
  2
_OPEN
 10
3167.0483079999999
 20
2844.238343
 30
0.0
 41
40.0
 42
40.0
 43
40.0
  0
INSERT
  5
7FAF
  8
3
  6
CONTINUOUS
 62
     0
  2
_OPEN
 10
2797.0483079999999
 20
2844.238343
 30
0.0
 41
40.0
 42
40.0
 43
40.0
 50
180.0
  0
TEXT
  8
3
  40
60
  5
7FDA
  62
0
  72
0
  71
0
 10
2862.05
 20
2838.04
 30
0.000000
  1
MAX
  0
TEXT
  8
3
  40
60
  5
7FDB
  62
0
  72
0
  71
0
 10
2862.05
 20
2760.04
 30
0.000000
  1
430
  0
POINT
  5
7FB1
  8
DEFPOINTS
  6
CONTINUOUS
 62
     0
 10
3167.0483079999999
 20
2788.331756999999
 30
0.0
  0
POINT
  5
7FB2
  8
DEFPOINTS
  6
CONTINUOUS
 62
     0
 10
2797.0483079999999
 20
2617.189777
 30
0.0
  0
POINT
  5
7FB3
  8
DEFPOINTS
  6
CONTINUOUS
 62
     0
 10
2797.0483079999999
 20
2844.238343
 30
0.0
  0
ENDBLK
  5
7E58
  8
0
  0
BLOCK
  8
0
  2
*D15
 70
     1
 10
0.0
 20
0.0
 30
0.0
  3
*D15
  1

  0
LINE
  5
7FB4
  8
3
  6
CONTINUOUS
 62
     0
 10
2245.9554739999999
 20
4058.5897770000001
 30
0.0
 11
2438.6544359999998
 21
4058.5897770000001
 31
0.0
  0
LINE
  5
7FB5
  8
3
  6
CONTINUOUS
 62
     0
 10
2245.9554739999999
 20
3610.5897770000001
 30
0.0
 11
2438.6544359999998
 21
3610.5897770000001
 31
0.0
  0
LINE
  5
7FB6
  8
3
  6
CONTINUOUS
 62
     0
 10
2418.6544359999998
 20
4018.5897770000001
 30
0.0
 11
2418.6544359999998
 21
3650.5897770000001
 31
0.0
  0
INSERT
  5
7FB7
  8
3
  6
CONTINUOUS
 62
     0
  2
_OPEN
 10
2418.6544359999998
 20
4058.5897770000001
 30
0.0
 41
40.0
 42
40.0
 43
40.0
 50
90.0
  0
INSERT
  5
7FB8
  8
3
  6
CONTINUOUS
 62
     0
  2
_OPEN
 10
2418.6544359999998
 20
3610.5897770000001
 30
0.0
 41
40.0
 42
40.0
 43
40.0
 50
270.0
  0
TEXT
  8
3
  40
60
  5
7FDC
  62
0
  72
0
  71
0
 10
2248.65
 20
3728.73
 30
0.000000
  1
448
  0
POINT
  5
7FBA
  8
DEFPOINTS
  6
CONTINUOUS
 62
     0
 10
2235.9554739999999
 20
4058.5897770000001
 30
0.0
  0
POINT
  5
7FBB
  8
DEFPOINTS
  6
CONTINUOUS
 62
     0
 10
2235.9554739999999
 20
3610.5897770000001
 30
0.0
  0
POINT
  5
7FBC
  8
DEFPOINTS
  6
CONTINUOUS
 62
     0
 10
2418.6544359999998
 20
3610.5897770000001
 30
0.0
  0
ENDBLK
  5
7D69
  8
0
  0
BLOCK
  8
0
  2
*D16
 70
     1
 10
0.0
 20
0.0
 30
0.0
  3
*D16
  1

  0
LINE
  5
7FBD
  8
3
  6
CONTINUOUS
 62
     0
 10
1115.9554740000001
 20
4068.5897770000001
 30
0.0
 11
1115.9554740000001
 21
4252.3242200000013
 31
0.0
  0
LINE
  5
7FBE
  8
3
  6
CONTINUOUS
 62
     0
 10
2235.9554739999999
 20
4068.5897770000001
 30
0.0
 11
2235.9554739999999
 21
4252.3242200000013
 31
0.0
  0
LINE
  5
7FBF
  8
3
  6
CONTINUOUS
 62
     0
 10
1155.9554740000001
 20
4232.3242200000004
 30
0.0
 11
2195.955473999999
 21
4232.3242200000004
 31
0.0
  0
INSERT
  5
7FC0
  8
3
  6
CONTINUOUS
 62
     0
  2
_OPEN
 10
1115.9554740000001
 20
4232.3242200000004
 30
0.0
 41
40.0
 42
40.0
 43
40.0
 50
180.0
  0
INSERT
  5
7FC1
  8
3
  6
CONTINUOUS
 62
     0
  2
_OPEN
 10
2235.9554739999999
 20
4232.3242200000004
 30
0.0
 41
40.0
 42
40.0
 43
40.0
  0
TEXT
  8
3
  40
60
  5
7FDD
  62
0
  72
0
  71
0
 10
1483.58
 20
4176.12
 30
0.000000
  1
1120
  0
POINT
  5
7FC3
  8
DEFPOINTS
  6
CONTINUOUS
 62
     0
 10
1115.9554740000001
 20
4058.5897770000001
 30
0.0
  0
POINT
  5
7FC4
  8
DEFPOINTS
  6
CONTINUOUS
 62
     0
 10
2235.9554739999999
 20
4058.5897770000001
 30
0.0
  0
POINT
  5
7FC5
  8
DEFPOINTS
  6
CONTINUOUS
 62
     0
 10
2235.9554739999999
 20
4232.3242200000004
 30
0.0
  0
ENDBLK
  5
7DBD
  8
0
  0
BLOCK
  8
0
  2
*D17
 70
     1
 10
0.0
 20
0.0
 30
0.0
  3
*D17
  1

  0
LINE
  5
7FC6
  8
3
 62
     0
 10
1060.9554740000001
 20
2602.189777
 30
0.0
 11
1060.9554740000001
 21
3000.6145355240869
 31
0.0
  0
LINE
  5
7FC7
  8
3
 62
     0
 10
2235.9554739999999
 20
1882.1897769999989
 30
0.0
 11
2235.9554739999999
 21
3000.6145355240869
 31
0.0
  0
LINE
  5
7FC8
  8
3
 62
     0
 10
1100.9554740000001
 20
2980.6145355240878
 30
0.0
 11
2195.955473999999
 21
2980.6145355240878
 31
0.0
  0
INSERT
  5
7FC9
  8
3
 62
     0
  2
_OPEN
 10
1060.9554740000001
 20
2980.6145355240878
 30
0.0
 41
40.0
 42
40.0
 43
40.0
 50
180.0
  0
INSERT
  5
7FCA
  8
3
 62
     0
  2
_OPEN
 10
2235.9554739999999
 20
2980.6145355240878
 30
0.0
 41
40.0
 42
40.0
 43
40.0
  0
TEXT
  8
3
  40
60
  5
7FDE
  62
0
  72
0
  71
0
 10
1560.41
 20
2924.41
 30
0.000000
  1
1175
  0
POINT
  5
7FCC
  8
DEFPOINTS
 62
     0
 10
1060.9554740000001
 20
2592.189777
 30
0.0
  0
POINT
  5
7FCD
  8
DEFPOINTS
 62
     0
 10
2235.9554739999999
 20
1872.189777
 30
0.0
  0
POINT
  5
7FCE
  8
DEFPOINTS
 62
     0
 10
2235.9554739999999
 20
2980.6145355240878
 30
0.0
  0
ENDBLK
  5
7E7A
  8
0
  0
ENDSEC
  0
SECTION
  2
ENTITIES
  0
LINE
  5
7AB1
  8
1
  6
CONTINUOUS
 10
2026.9554740000001
 20
3610.5897770000001
 30
0.0
 11
1434.9554740000001
 21
3610.5897770000001
 31
0.0
  0
LINE
  5
7AB2
  8
1
  6
CONTINUOUS
 10
2167.9554739999999
 20
3984.8297769999999
 30
0.0
 11
1923.955473999999
 21
3984.8297769999999
 31
0.0
  0
LINE
  5
7AB3
  8
1
  6
CONTINUOUS
 10
2167.9554739999999
 20
3634.8297769999999
 30
0.0
 11
1923.955473999999
 21
3634.8297769999999
 31
0.0
  0
LINE
  5
7AB5
  8
1
  6
CONTINUOUS
 10
2235.9554739999999
 20
1872.189777
 30
0.0
 11
1060.9554740000001
 21
1872.189777
 31
0.0
  0
LINE
  5
7AB6
  8
1
  6
CONTINUOUS
 10
2235.9554739999999
 20
1792.189777
 30
0.0
 11
1115.9554740000001
 21
1792.189777
 31
0.0
  0
LINE
  5
7AB7
  8
1
  6
CONTINUOUS
 10
2095.955473999999
 20
3494.5897770000001
 30
0.0
 11
1995.955473999999
 21
3494.5897770000001
 31
0.0
  0
LINE
  5
7AB8
  8
1
  6
CONTINUOUS
 10
1995.955473999999
 20
3554.5897770000001
 30
0.0
 11
2095.955473999999
 21
3554.5897770000001
 31
0.0
  0
LINE
  5
7AB9
  8
2
  6
CENTER
 10
1955.955473999999
 20
2054.189777
 30
0.0
 11
2075.9554739999999
 21
2054.189777
 31
0.0
  0
CIRCLE
  5
7ABA
  8
1
  6
CONTINUOUS
 10
2015.9554740000001
 20
2054.189777
 30
0.0
 40
60.0
  0
ARC
  5
7ABB
  8
1
  6
CONTINUOUS
 10
2015.9554740000001
 20
2054.189777
 30
0.0
 40
122.0
 50
324.60000000000002
 51
215.39999999999989
  0
LINE
  5
7ABC
  8
1
  6
CONTINUOUS
 10
2145.955473999999
 20
1922.189777
 30
0.0
 11
1885.9554740000001
 21
1922.189777
 31
0.0
  0
LINE
  5
7AC4
  8
1
  6
CONTINUOUS
 10
2042.415473999999
 20
2108.039777
 30
0.0
 11
1468.8854739999999
 21
2389.8897769999999
 31
0.0
  0
LINE
  5
7AC5
  8
1
  6
CONTINUOUS
 10
1190.4554740000001
 20
3464.5897770000001
 30
0.0
 11
2190.455473999999
 21
3464.5897770000001
 31
0.0
  0
LINE
  5
7AC6
  8
1
  6
CONTINUOUS
 10
2190.455473999999
 20
3584.5897770000001
 30
0.0
 11
1190.4554740000001
 21
3584.5897770000001
 31
0.0
  0
CIRCLE
  5
7AC7
  8
1
  6
CONTINUOUS
 10
1415.9554740000001
 20
2282.189777
 30
0.0
 40
275.0
  0
LINE
  5
7AC8
  8
1
  6
CONTINUOUS
 10
1770.955473999999
 20
2592.189777
 30
0.0
 11
1060.9554740000001
 21
2592.189777
 31
0.0
  0
ARC
  5
7AC9
  8
1
  6
CONTINUOUS
 10
1442.9554740000001
 20
2255.189777
 30
0.0
 40
380.98000000000002
 50
171.53
 51
265.16000000000003
  0
LINE
  5
7ACA
  8
1
  6
CONTINUOUS
 10
1397.9554740000001
 20
2612.189777
 30
0.0
 11
1877.8854739999999
 21
2612.189777
 31
0.0
  0
LINE
  5
7ACB
  8
1
  6
CONTINUOUS
 10
1380.9554740000001
 20
2637.189777
 30
0.0
 11
1894.955473999999
 21
2637.189777
 31
0.0
  0
CIRCLE
  5
7ACC
  8
1
  6
CONTINUOUS
 10
1415.9554740000001
 20
2282.189777
 30
0.0
 40
120.0
  0
LINE
  5
7ACD
  8
2
  6
CENTER
 10
3387.1990549999991
 20
2282.189777
 30
0.0
 11
2694.2265320000001
 21
2282.189777
 31
0.0
  0
LINE
  5
7ACE
  8
1
  6
CONTINUOUS
 10
1384.005474
 20
2166.5197769999991
 30
0.0
 11
1999.9754740000001
 21
1996.3597769999999
 31
0.0
  0
CIRCLE
  5
7ACF
  8
1
  6
CONTINUOUS
 10
1415.9554740000001
 20
2282.189777
 30
0.0
 40
250.0
  0
LINE
  5
7AD0
  8
1
  6
CONTINUOUS
 10
1060.9554740000001
 20
2592.189777
 30
0.0
 11
1060.9554740000001
 21
1872.189777
 31
0.0
  0
ARC
  5
7AD1
  8
1
  6
CONTINUOUS
 10
1404.8264650000001
 20
2251.7286340000001
 30
0.0
 40
343.89392400000003
 50
91.140279000000007
 51
170.02361200000001
  0
LINE
  5
7AD2
  8
1
  6
CONTINUOUS
 10
1115.9554740000001
 20
1872.189777
 30
0.0
 11
1115.9554740000001
 21
1792.189777
 31
0.0
  0
LINE
  5
7AD3
  8
1
  6
CONTINUOUS
 10
1397.9554740000001
 20
2595.5597769999999
 30
0.0
 11
1397.9554740000001
 21
2637.189777
 31
0.0
  0
LINE
  5
7AD4
  8
1
  6
CONTINUOUS
 10
1770.955473999999
 20
2592.189777
 30
0.0
 11
1770.955473999999
 21
1872.189777
 31
0.0
  0
LINE
  5
7AD5
  8
1
  6
CONTINUOUS
 10
1877.9554740000001
 20
2637.189777
 30
0.0
 11
1876.9554740000001
 21
2281.8097769999999
 31
0.0
  0
LINE
  5
7AD6
  8
2
  6
CENTER
 10
1415.9554740000001
 20
1746.1641329999991
 30
0.0
 11
1415.9554740000001
 21
2829.9549040000002
 31
0.0
  0
ARC
  5
7AD7
  8
1
  6
CONTINUOUS
 10
1446.4188919999999
 20
2305.2694059999999
 30
0.0
 40
431.17249299999992
 50
265.26344499999999
 51
356.87946599999998
  0
ARC
  5
7AD8
  8
1
  6
CONTINUOUS
 10
1446.4188919999999
 20
2305.2694059999999
 30
0.0
 40
431.17249299999992
 50
265.26344499999999
 51
356.87946599999998
  0
ARC
  5
7AD9
  8
1
  6
CONTINUOUS
 10
1446.4188919999999
 20
2305.2694059999999
 30
0.0
 40
431.17249299999992
 50
265.26344499999999
 51
356.87946599999998
  0
LINE
  5
7ADA
  8
1
  6
CONTINUOUS
 10
1885.9554740000001
 20
1872.189777
 30
0.0
 11
1885.9554740000001
 21
1922.189777
 31
0.0
  0
LINE
  5
7ADB
  8
1
  6
CONTINUOUS
 10
1885.9554740000001
 20
1922.189777
 30
0.0
 11
1916.5154739999989
 21
1983.519777
 31
0.0
  0
LINE
  5
7ADC
  8
1
  6
CONTINUOUS
 10
1885.9554740000001
 20
1922.189777
 30
0.0
 11
1935.9554740000001
 21
1922.189777
 31
0.0
  0
LINE
  5
7ADD
  8
1
  6
CONTINUOUS
 10
1904.955473999999
 20
3652.5897770000001
 30
0.0
 11
1370.9554740000001
 21
4016.5897770000001
 31
0.0
  0
LINE
  5
7ADE
  8
1
  6
CONTINUOUS
 10
1370.9554740000001
 20
3652.5897770000001
 30
0.0
 11
1904.955473999999
 21
4016.5897770000001
 31
0.0
  0
LINE
  5
7ADF
  8
1
  6
CONTINUOUS
 10
1904.955473999999
 20
4016.5897770000001
 30
0.0
 11
1060.9554740000001
 21
4016.5897770000001
 31
0.0
  0
LINE
  5
7AE0
  8
1
  6
CONTINUOUS
 10
1904.955473999999
 20
3652.5897770000001
 30
0.0
 11
1060.9554740000001
 21
3652.5897770000001
 31
0.0
  0
LINE
  5
7AE1
  8
1
  6
CONTINUOUS
 10
1295.9554740000001
 20
3554.5897770000001
 30
0.0
 11
1535.9554740000001
 21
3554.5897770000001
 31
0.0
  0
LINE
  5
7AE2
  8
1
  6
CONTINUOUS
 10
1535.9554740000001
 20
3494.5897770000001
 30
0.0
 11
1295.9554740000001
 21
3494.5897770000001
 31
0.0
  0
LINE
  5
7AE3
  8
1
  6
CONTINUOUS
 10
1060.9554740000001
 20
3652.5897770000001
 30
0.0
 11
1060.9554740000001
 21
4016.5897770000001
 31
0.0
  0
LINE
  5
7AE4
  8
1
  6
CONTINUOUS
 10
1370.9554740000001
 20
3652.5897770000001
 30
0.0
 11
1370.9554740000001
 21
4016.5897770000001
 31
0.0
  0
LINE
  5
7AE5
  8
1
  6
CONTINUOUS
 10
1396.9554740000001
 20
3610.5897770000001
 30
0.0
 11
1115.9554740000001
 21
3610.5897770000001
 31
0.0
  0
LINE
  5
7AE6
  8
1
  6
CONTINUOUS
 10
1115.9554740000001
 20
3652.5897770000001
 30
0.0
 11
1115.9554740000001
 21
3610.5897770000001
 31
0.0
  0
LINE
  5
7AE7
  8
1
  6
CONTINUOUS
 10
1190.4554740000001
 20
3584.5897770000001
 30
0.0
 11
1190.4554740000001
 21
3464.5897770000001
 31
0.0
  0
LINE
  5
7AE8
  8
1
  6
CONTINUOUS
 10
1396.9554740000001
 20
3554.5897770000001
 30
0.0
 11
1396.9554740000001
 21
3652.5897770000001
 31
0.0
  0
LINE
  5
7AE9
  8
1
  6
CONTINUOUS
 10
1295.9554740000001
 20
3494.5897770000001
 30
0.0
 11
1295.9554740000001
 21
3554.5897770000001
 31
0.0
  0
LINE
  5
7AEA
  8
1
  6
CONTINUOUS
 10
1115.9554740000001
 20
4058.5897770000001
 30
0.0
 11
1115.9554740000001
 21
4016.5897770000001
 31
0.0
  0
LINE
  5
7AEB
  8
1
  6
CONTINUOUS
 10
1434.9554740000001
 20
3554.5897770000001
 30
0.0
 11
1434.9554740000001
 21
3652.5897770000001
 31
0.0
  0
LINE
  5
7AEC
  8
1
  6
CONTINUOUS
 10
1535.9554740000001
 20
3494.5897770000001
 30
0.0
 11
1535.9554740000001
 21
3554.5897770000001
 31
0.0
  0
LINE
  5
7AED
  8
1
  6
CONTINUOUS
 10
1923.955473999999
 20
3634.8297769999999
 30
0.0
 11
1923.955473999999
 21
3984.8297769999999
 31
0.0
  0
LINE
  5
7AEE
  8
1
  6
CONTINUOUS
 10
1904.955473999999
 20
4016.5897770000001
 30
0.0
 11
1904.955473999999
 21
3652.5897770000001
 31
0.0
  0
LINE
  5
7AEF
  8
1
  6
CONTINUOUS
 10
1995.955473999999
 20
3494.5897770000001
 30
0.0
 11
1995.955473999999
 21
3554.5897770000001
 31
0.0
  0
LINE
  5
7AF0
  8
1
  6
CONTINUOUS
 10
2827.0483079999999
 20
2162.189777
 30
0.0
 11
2887.0483079999999
 21
2162.189777
 31
0.0
  0
LINE
  5
7AF1
  8
1
  6
CONTINUOUS
 10
2887.0483079999999
 20
2402.189777
 30
0.0
 11
2827.0483079999999
 21
2402.189777
 31
0.0
  0
LINE
  5
7AF2
  8
1
  6
CONTINUOUS
 10
2827.0483079999999
 20
2004.189777
 30
0.0
 11
2887.0483079999999
 21
2004.189777
 31
0.0
  0
LINE
  5
7AF3
  8
1
  6
CONTINUOUS
 10
2887.0483079999999
 20
2104.189777
 30
0.0
 11
2827.0483079999999
 21
2104.189777
 31
0.0
  0
LINE
  5
7AF4
  8
1
  6
CONTINUOUS
 10
2797.0483079999999
 20
2617.189777
 30
0.0
 11
2917.0483079999999
 21
2617.189777
 31
0.0
  0
LINE
  5
7AF5
  8
1
  6
CONTINUOUS
 10
2917.0483079999999
 20
1872.189777
 30
0.0
 11
2797.0483079999999
 21
1872.189777
 31
0.0
  0
LINE
  5
7B04
  8
1
  6
CONTINUOUS
 10
2145.955473999999
 20
1872.189777
 30
0.0
 11
2145.955473999999
 21
1922.189777
 31
0.0
  0
LINE
  5
7B05
  8
1
  6
CONTINUOUS
 10
2235.9554739999999
 20
1872.189777
 30
0.0
 11
2235.9554739999999
 21
1792.189777
 31
0.0
  0
LINE
  5
7B06
  8
2
  6
CENTER
 10
2015.9554740000001
 20
1994.189777
 30
0.0
 11
2015.9554740000001
 21
2114.1897769999991
 31
0.0
  0
LINE
  5
7B07
  8
1
  6
CONTINUOUS
 10
2145.955473999999
 20
1922.189777
 30
0.0
 11
2095.955473999999
 21
1922.189777
 31
0.0
  0
LINE
  5
7B08
  8
1
  6
CONTINUOUS
 10
2145.955473999999
 20
1922.189777
 30
0.0
 11
2115.3954739999999
 21
1983.519777
 31
0.0
  0
LINE
  5
7B20
  8
1
  6
CONTINUOUS
 10
2827.0483079999999
 20
2402.189777
 30
0.0
 11
2827.0483079999999
 21
2162.189777
 31
0.0
  0
LINE
  5
7B22
  8
1
  6
CONTINUOUS
 10
2797.0483079999999
 20
1872.189777
 30
0.0
 11
2797.0483079999999
 21
2617.189777
 31
0.0
  0
LINE
  5
7B24
  8
1
  6
CONTINUOUS
 10
2827.0483079999999
 20
2104.189777
 30
0.0
 11
2827.0483079999999
 21
2004.189777
 31
0.0
  0
LINE
  5
7B25
  8
1
  6
CONTINUOUS
 10
3347.0483079999999
 20
2637.189777
 30
0.0
 11
3347.0483079999999
 21
1872.189777
 31
0.0
  0
LINE
  5
7B26
  8
1
  6
CONTINUOUS
 10
2987.0483079999999
 20
2637.189777
 30
0.0
 11
2987.0483079999999
 21
1872.189777
 31
0.0
  0
LINE
  5
7B27
  8
1
  6
CONTINUOUS
 10
2887.0483079999999
 20
2162.189777
 30
0.0
 11
2887.0483079999999
 21
2402.189777
 31
0.0
  0
LINE
  5
7B28
  8
1
  6
CONTINUOUS
 10
2917.0483079999999
 20
2617.189777
 30
0.0
 11
2917.0483079999999
 21
1872.189777
 31
0.0
  0
LINE
  5
7B29
  8
1
  6
CONTINUOUS
 10
2943.048307999999
 20
1792.189777
 30
0.0
 11
3391.0483079999999
 21
1792.189777
 31
0.0
  0
LINE
  5
7B2A
  8
1
  6
CONTINUOUS
 10
2943.048307999999
 20
1872.189777
 30
0.0
 11
3391.0483079999999
 21
1872.189777
 31
0.0
  0
LINE
  5
7B2B
  8
1
  6
CONTINUOUS
 10
2943.048307999999
 20
1872.189777
 30
0.0
 11
2943.048307999999
 21
1792.189777
 31
0.0
  0
LINE
  5
7B2C
  8
1
  6
CONTINUOUS
 10
2887.0483079999999
 20
2301.189777
 30
0.0
 11
2987.0483079999999
 21
2301.189777
 31
0.0
  0
LINE
  5
7B2D
  8
1
  6
CONTINUOUS
 10
2887.0483079999999
 20
2263.189777
 30
0.0
 11
2987.0483079999999
 21
2263.189777
 31
0.0
  0
LINE
  5
7B2E
  8
1
  6
CONTINUOUS
 10
2887.0483079999999
 20
2004.189777
 30
0.0
 11
2887.0483079999999
 21
2104.189777
 31
0.0
  0
LINE
  5
7B2F
  8
1
  6
CONTINUOUS
 10
2887.0483079999999
 20
2035.189777
 30
0.0
 11
2987.0483079999999
 21
2035.189777
 31
0.0
  0
LINE
  5
7B30
  8
1
  6
CONTINUOUS
 10
2887.0483079999999
 20
2073.189777
 30
0.0
 11
2987.0483079999999
 21
2073.189777
 31
0.0
  0
LINE
  5
7B31
  8
1
  6
CONTINUOUS
 10
3391.0483079999999
 20
1872.189777
 30
0.0
 11
3391.0483079999999
 21
1792.189777
 31
0.0
  0
LINE
  5
7B32
  8
1
  6
CONTINUOUS
 10
3372.0483079999999
 20
2637.189777
 30
0.0
 11
2962.048307999999
 21
2637.189777
 31
0.0
  0
LINE
  5
7B33
  8
1
  6
CONTINUOUS
 10
2987.0483079999999
 20
2612.189777
 30
0.0
 11
3347.0483079999999
 21
2612.189777
 31
0.0
  0
LINE
  5
7B3C
  8
1
  6
CONTINUOUS
 10
2167.9554739999999
 20
3634.8297769999999
 30
0.0
 11
2167.9554739999999
 21
3984.8297769999999
 31
0.0
  0
LINE
  5
7B3D
  8
1
  6
CONTINUOUS
 10
2235.9554739999999
 20
4058.5897770000001
 30
0.0
 11
2235.9554739999999
 21
3610.5897770000001
 31
0.0
  0
LINE
  5
7B3E
  8
1
  6
CONTINUOUS
 10
2235.9554739999999
 20
3610.5897770000001
 30
0.0
 11
2064.9554739999999
 21
3610.5897770000001
 31
0.0
  0
LINE
  5
7B3F
  8
1
  6
CONTINUOUS
 10
2026.9554740000001
 20
3554.5897770000001
 30
0.0
 11
2026.9554740000001
 21
3634.8297769999999
 31
0.0
  0
LINE
  5
7B40
  8
1
  6
CONTINUOUS
 10
2064.9554739999999
 20
3554.5897770000001
 30
0.0
 11
2064.9554739999999
 21
3634.8297769999999
 31
0.0
  0
LINE
  5
7B41
  8
1
  6
CONTINUOUS
 10
2095.955473999999
 20
3554.5897770000001
 30
0.0
 11
2095.955473999999
 21
3494.5897770000001
 31
0.0
  0
LINE
  5
7B42
  8
1
  6
CONTINUOUS
 10
2190.455473999999
 20
3464.5897770000001
 30
0.0
 11
2190.455473999999
 21
3584.5897770000001
 31
0.0
  0
LINE
  5
7B5D
  8
1
  6
CONTINUOUS
 10
2235.9554739999999
 20
4058.5897770000001
 30
0.0
 11
1115.9554740000001
 21
4058.5897770000001
 31
0.0
  0
LINE
  5
7B5E
  8
2
  6
CENTER
 10
3167.0483079999999
 20
2690.8059170123588
 30
0.0
 11
3167.0483079999999
 21
1619.9786349999999
 31
0.0
  0
LINE
  5
7B5F
  8
2
  6
CENTER
 10
896.90420800000015
 20
3834.5897770000001
 30
0.0
 11
2308.3162000000002
 21
3834.5897770000001
 31
0.0
  0
LINE
  5
7B60
  8
2
  6
CENTER
 10
1415.9554740000001
 20
3309.2948710000001
 30
0.0
 11
1415.9554740000001
 21
4109.075304
 31
0.0
  0
LINE
  5
7B61
  8
2
  6
CENTER
 10
2051.6778713172171
 20
2282.189777
 30
0.0
 11
904.75630399999977
 21
2282.189777
 31
0.0
  0
LINE
  5
7BF9
  8
4
  6
CONTINUOUS
 10
3700.0
 20
1000.0
 30
0.0
 11
3700.0
 21
600.0
 31
0.0
  0
LINE
  5
7BFA
  8
4
  6
CONTINUOUS
 10
2300.0
 20
1000.0
 30
0.0
 11
2300.0
 21
600.0
 31
0.0
  0
LINE
  5
7BFB
  8
4
  6
CONTINUOUS
 10
1300.0
 20
1000.0
 30
0.0
 11
1300.0
 21
600.0
 31
0.0
  0
LINE
  5
7BFE
  8
4
  6
CONTINUOUS
 10
1300.0
 20
600.0
 30
0.0
 11
3700.0
 21
600.0
 31
0.0
  0
LINE
  5
7BFF
  8
4
  6
CONTINUOUS
 10
1300.0
 20
800.0
 30
0.0
 11
3700.0
 21
800.0
 31
0.0
  0
TEXT
  5
7C00
  8
4
  6
CONTINUOUS
 10
1377.004162
 20
863.086052
 30
0.0
 40
100.0
  1
機器名称
  0
TEXT
  5
7C01
  8
4
  6
CONTINUOUS
 10
1372.516212
 20
643.29031299999986
 30
0.0
 40
100.0
  1
機器型番
  0
TEXT
  5
7C02
  8
4
  6
CONTINUOUS
 10
2355.3574910000002
 20
845.14353800000015
 30
0.0
 40
100.0
  1
ミツヤ多翼送風機
  0
TEXT
  5
7C03
  8
4
  6
CONTINUOUS
 10
2373.3089909999999
 20
634.31916899999999
 30
0.0
 40
100.0
  1
MFE#3-4
  0
TEXT
  5
7C05
  8
4
  6
CONTINUOUS
 10
1809.5715309999989
 20
4766.8576830000002
 30
0.0
 40
108.0
  1
床置ベット
  0
TEXT
  5
7C06
  8
4
  6
CONTINUOUS
 10
632.33518700000002
 20
5067.7619520000007
 30
0.0
 40
144.0
  1
ベルト駆動式片吸込両持排煙ファン
  0
LINE
  5
7C07
  8
4
  6
CONTINUOUS
 10
500.0
 20
4938.8175090000004
 30
0.0
 11
3700.0
 21
4938.8175090000004
 31
0.0
  0
LINE
  5
7C08
  8
4
  6
CONTINUOUS
 10
500.0
 20
5338.8175090000004
 30
0.0
 11
3700.0
 21
5338.8175090000004
 31
0.0
  0
LINE
  5
7C09
  8
4
  6
CONTINUOUS
 10
1300.0
 20
1000.0
 30
0.0
 11
3700.0
 21
1000.0
 31
0.0
  0
LINE
  5
7C0A
  8
4
  6
CONTINUOUS
 10
500.0
 20
5338.8175090000004
 30
0.0
 11
500.0
 21
4938.8175090000004
 31
0.0
  0
TEXT
  5
7C0B
  8
4
  6
CONTINUOUS
 10
937.85386600000004
 20
4764.6389549999994
 30
0.0
 40
108.0
  1
左回転上向
  0
TEXT
  5
7C0C
  8
4
  6
CONTINUOUS
 10
2937.9391179999998
 20
5412.122163
 30
0.0
 40
112.0
  1
No.
  0
TEXT
  5
7C0D
  8
4
  6
CONTINUOUS
 10
2622.5921250000001
 20
4766.8576830000002
 30
0.0
 40
108.0
  1
縮尺：1/20
  0
LINE
  5
7C0E
  8
4
  6
CONTINUOUS
 10
3700.0
 20
5338.8175090000004
 30
0.0
 11
3700.0
 21
4938.8175090000004
 31
0.0
  0
LINE
  5
7C10
  8
4
  6
CONTINUOUS
 10
2881.234845
 20
5362.5271659999999
 30
0.0
 11
2881.234845
 21
5573.3045229999998
 31
0.0
  0
LINE
  5
7C11
  8
4
  6
CONTINUOUS
 10
2881.234845
 20
5573.3045229999998
 30
0.0
 11
3700.0
 21
5573.3045229999998
 31
0.0
  0
LINE
  5
7C12
  8
4
  6
CONTINUOUS
 10
3700.0
 20
5573.3045229999998
 30
0.0
 11
3700.0
 21
5362.5271659999999
 31
0.0
  0
LINE
  5
7C13
  8
4
  6
CONTINUOUS
 10
3700.0
 20
5362.5271659999999
 30
0.0
 11
2881.234845
 21
5362.5271659999999
 31
0.0
  0
LINE
  5
7C18
  8
1
  6
CONTINUOUS
 10
1190.4554740000001
 20
1872.189777
 30
0.0
 11
1190.4554740000001
 21
2542.189777
 31
0.0
  0
LINE
  5
7C19
  8
1
  6
CONTINUOUS
 10
1190.4554740000001
 20
2542.189777
 30
0.0
 11
1440.4554740000001
 21
2617.189777
 31
0.0
  0
LINE
  5
7C1A
  8
1
  6
CONTINUOUS
 10
1440.4554740000001
 20
2617.189777
 30
0.0
 11
2190.455473999999
 21
2107.1897769999991
 31
0.0
  0
LINE
  5
7C1B
  8
1
  6
CONTINUOUS
 10
2190.455473999999
 20
2107.1897769999991
 30
0.0
 11
2190.455473999999
 21
1872.189777
 31
0.0
  0
DIMENSION
  5
7C29
  8
3
  6
CONTINUOUS
  2
*D1
 10
1397.9554740000001
 20
2759.5667360000002
 30
0.0
 11
1620.708408
 21
2759.5667360000002
 31
0.0
 70
   128
 13
1877.9554740000001
 23
2637.189777
 33
0.0
 14
1397.9554740000001
 24
2637.189777
 34
0.0
1001
ACAD
1000
DSTYLE
1002
{
1070
   287
1070
     3
1070
   287
1070
     3
1070
    40
1040
20.0
1070
   143
1040
0.039
1070
   172
1070
     1
1070
   271
1070
     0
1070
   279
1070
     0
1070
   288
1070
     1
1002
}
  0
DIMENSION
  5
7C36
  8
3
  6
CONTINUOUS
  2
*D2
 10
1415.9554740000001
 20
2865.755099
 30
0.0
 11
1620.708408
 21
2865.755099
 31
0.0
 70
   128
 13
1877.9554740000001
 23
2637.189777
 33
0.0
 14
1415.9554740000001
 24
2829.9549040000002
 34
0.0
1001
ACAD
1000
DSTYLE
1002
{
1070
   287
1070
     3
1070
   287
1070
     3
1070
    40
1040
20.0
1070
   143
1040
0.039
1070
   172
1070
     1
1070
   271
1070
     0
1070
   279
1070
     0
1070
   288
1070
     1
1002
}
  0
DIMENSION
  5
7C63
  8
3
  6
CONTINUOUS
  2
*D3
 10
1060.9554740000001
 20
2865.755099
 30
0.0
 11
1238.4554740000001
 21
2915.755099
 31
0.0
 70
     0
 13
1415.9554740000001
 23
2829.9549040000002
 33
0.0
 14
1060.9554740000001
 24
2592.189777
 34
0.0
1001
ACAD
1000
DSTYLE
1002
{
1070
   287
1070
     4
1070
   287
1070
     4
1070
    40
1040
20.0
1070
    75
1070
     1
1070
   143
1040
0.039
1070
   172
1070
     1
1070
   271
1070
     0
1070
   279
1070
     1
1070
   288
1070
     1
1002
}
  0
DIMENSION
  5
7C70
  8
3
  6
CONTINUOUS
  2
*D4
 10
919.56451700000036
 20
2282.189777
 30
0.0
 11
919.56451700000002
 21
2452.1646150000001
 31
0.0
 70
   128
 13
1380.9554740000001
 23
2637.189777
 33
0.0
 14
904.75630399999977
 24
2282.189777
 34
0.0
 50
90.0
1001
ACAD
1000
DSTYLE
1002
{
1070
   287
1070
     3
1070
   287
1070
     3
1070
    40
1040
20.0
1070
   143
1040
0.039
1070
   172
1070
     1
1070
   271
1070
     0
1070
   279
1070
     0
1070
   288
1070
     1
1002
}
  0
DIMENSION
  5
7C7C
  8
3
  6
CONTINUOUS
  2
*D5
 10
919.56451700000002
 20
1792.189777
 30
0.0
 11
869.56451699999968
 21
2037.189777
 31
0.0
 70
     0
 13
904.75630399999977
 23
2282.189777
 33
0.0
 14
1115.9554740000001
 24
1792.189777
 34
0.0
 50
90.0
1001
ACAD
1000
DSTYLE
1002
{
1070
   287
1070
     4
1070
   287
1070
     4
1070
    40
1040
20.0
1070
    75
1070
     1
1070
   143
1040
0.039
1070
   172
1070
     1
1070
   271
1070
     0
1070
   279
1070
     1
1070
   288
1070
     1
1002
}
  0
DIMENSION
  5
7C89
  8
3
  6
CONTINUOUS
  2
*D6
 10
793.58695000000034
 20
1792.189777
 30
0.0
 11
793.58694999999989
 21
2204.3917539999989
 31
0.0
 70
   128
 13
1370.9554740000001
 23
2637.189777
 33
0.0
 14
1115.9554740000001
 24
1792.189777
 34
0.0
 50
90.0
1001
ACAD
1000
DSTYLE
1002
{
1070
   287
1070
     3
1070
   287
1070
     3
1070
    40
1040
20.0
1070
   143
1040
0.039
1070
   172
1070
     1
1070
   271
1070
     0
1070
   279
1070
     0
1070
   288
1070
     1
1002
}
  0
DIMENSION
  5
7C96
  8
3
  6
CONTINUOUS
  2
*D7
 10
1415.9554740000001
 20
1604.965706
 30
0.0
 11
1278.812615999999
 21
1604.965706
 31
0.0
 70
   128
 13
1115.9554740000001
 23
1792.189777
 33
0.0
 14
1415.9554740000001
 24
1746.1641329999991
 34
0.0
1001
ACAD
1000
DSTYLE
1002
{
1070
   287
1070
     3
1070
   287
1070
     3
1070
    40
1040
20.0
1070
   143
1040
0.039
1070
   172
1070
     1
1070
   271
1070
     0
1070
   279
1070
     0
1070
   288
1070
     1
1002
}
  0
DIMENSION
  5
7CA2
  8
3
  6
CONTINUOUS
  2
*D8
 10
2235.9554739999999
 20
1604.965706
 30
0.0
 11
1825.955473999999
 21
1654.965706
 31
0.0
 70
     0
 13
1415.9554740000001
 23
1746.1641329999991
 33
0.0
 14
2235.9554739999999
 24
1792.189777
 34
0.0
1001
ACAD
1000
DSTYLE
1002
{
1070
   287
1070
     4
1070
   287
1070
     4
1070
    40
1040
20.0
1070
    75
1070
     1
1070
   143
1040
0.039
1070
   172
1070
     1
1070
   271
1070
     0
1070
   279
1070
     1
1070
   288
1070
     1
1002
}
  0
DIMENSION
  5
7CAF
  8
3
  6
CONTINUOUS
  2
*D9
 10
2987.0483079999999
 20
2710.0875860000001
 30
0.0
 11
3160.8289
 21
2710.0875860000001
 31
0.0
 70
   128
 13
3347.0483079999999
 23
2637.189777
 33
0.0
 14
2987.0483079999999
 24
2637.189777
 34
0.0
1001
ACAD
1000
DSTYLE
1002
{
1070
   287
1070
     3
1070
   287
1070
     3
1070
    40
1040
20.0
1070
   143
1040
0.039
1070
   172
1070
     1
1070
   271
1070
     0
1070
   279
1070
     0
1070
   288
1070
     1
1002
}
  0
DIMENSION
  5
7CE6
  8
3
  6
CONTINUOUS
  2
*D10
 10
3167.0483079999999
 20
1642.5441430000001
 30
0.0
 11
3055.048307999999
 21
1697.718568342352
 31
0.0
 70
   128
 13
2943.048307999999
 23
1792.189777
 33
0.0
 14
3167.0483079999999
 24
1619.9786349999999
 34
0.0
1001
ACAD
1000
DSTYLE
1002
{
1070
   288
1070
     1
1070
   172
1070
     1
1070
    40
1040
20.0
1070
   271
1070
     0
1070
   143
1040
0.039
1002
}
  0
DIMENSION
  5
7CF4
  8
3
  6
CONTINUOUS
  2
*D11
 10
3391.0483079999999
 20
1642.5441430000001
 30
0.0
 11
3293.9778259999998
 21
1642.646786
 31
0.0
 70
   128
 13
3167.0483079999999
 23
1619.9786349999999
 33
0.0
 14
3391.0483079999999
 24
1792.189777
 34
0.0
1001
ACAD
1000
DSTYLE
1002
{
1070
   287
1070
     4
1070
   287
1070
     4
1070
    40
1040
20.0
1070
    75
1070
     1
1070
   143
1040
0.039
1070
   172
1070
     1
1070
   271
1070
     0
1070
   279
1070
     1
1070
   288
1070
     1
1002
}
  0
LINE
  5
7D19
  8
1
  6
CONTINUOUS
 10
3348.0483079999999
 20
2532.189777
 30
0.0
 11
3348.0483079999999
 21
2032.189777
 31
0.0
  0
DIMENSION
  5
7D35
  8
3
  6
CONTINUOUS
  2
*D12
 10
3546.5336149999998
 20
2032.189777
 30
0.0
 11
3546.5336149999989
 21
2287.33133
 31
0.0
 70
   128
 13
3348.0483079999999
 23
2532.189777
 33
0.0
 14
3348.0483079999999
 24
2032.189777
 34
0.0
 50
90.0
1001
ACAD
1000
DSTYLE
1002
{
1070
   287
1070
     3
1070
   287
1070
     3
1070
     3
1000
φ<>
1070
    40
1040
20.0
1070
   143
1040
0.039
1070
   172
1070
     1
1070
   271
1070
     0
1070
   279
1070
     0
1070
   288
1070
     1
1002
}
  0
DIMENSION
  5
7D44
  8
3
  6
CONTINUOUS
  2
*D13
 10
3167.0483079999999
 20
2844.238343
 30
0.0
 11
3257.5483079999999
 21
2907.195799702029
 31
0.0
 70
   128
 13
3348.0483079999999
 23
2532.189777
 33
0.0
 14
3167.0483079999999
 24
2788.331756999999
 34
0.0
1001
ACAD
1000
DSTYLE
1002
{
1070
   288
1070
     1
1070
   172
1070
     1
1070
    40
1040
20.0
1070
   271
1070
     0
1070
   143
1040
0.039
1002
}
  0
DIMENSION
  5
7D50
  8
3
  6
CONTINUOUS
  2
*D14
 10
2797.0483079999999
 20
2844.238343
 30
0.0
 11
2982.048307999999
 21
2944.238343
 31
0.0
 70
     0
  1
MAX\P430
 13
3167.0483079999999
 23
2788.331756999999
 33
0.0
 14
2797.0483079999999
 24
2617.189777
 34
0.0
1001
ACAD
1000
DSTYLE
1002
{
1070
   287
1070
     4
1070
   287
1070
     4
1070
    40
1040
20.0
1070
    75
1070
     1
1070
   143
1040
0.039
1070
   172
1070
     1
1070
   271
1070
     0
1070
   279
1070
     1
1070
   288
1070
     1
1002
}
  0
DIMENSION
  5
7D6A
  8
3
  6
CONTINUOUS
  2
*D15
 10
2418.6544359999998
 20
3610.5897770000001
 30
0.0
 11
2418.6544359999998
 21
3834.9303960000002
 31
0.0
 70
   128
 13
2235.9554739999999
 23
4058.5897770000001
 33
0.0
 14
2235.9554739999999
 24
3610.5897770000001
 34
0.0
 50
90.0
1001
ACAD
1000
DSTYLE
1002
{
1070
   287
1070
     3
1070
   287
1070
     3
1070
    40
1040
20.0
1070
   143
1040
0.039
1070
   172
1070
     1
1070
   271
1070
     0
1070
   279
1070
     0
1070
   288
1070
     1
1002
}
  0
DIMENSION
  5
7D77
  8
3
  6
CONTINUOUS
  2
*D16
 10
2235.9554739999999
 20
4232.3242200000004
 30
0.0
 11
1603.5752539999989
 21
4232.3242200000004
 31
0.0
 70
   128
 13
1115.9554740000001
 23
4058.5897770000001
 33
0.0
 14
2235.9554739999999
 24
4058.5897770000001
 34
0.0
1001
ACAD
1000
DSTYLE
1002
{
1070
   287
1070
     3
1070
   287
1070
     3
1070
    40
1040
20.0
1070
   143
1040
0.039
1070
   172
1070
     1
1070
   271
1070
     0
1070
   279
1070
     0
1070
   288
1070
     1
1002
}
  0
DIMENSION
  5
7E7B
  8
3
  2
*D17
 10
2235.9554739999999
 20
2980.6145355240878
 30
0.0
 11
1680.4136212860681
 21
2980.6145355240878
 31
0.0
 70
   128
 13
1060.9554740000001
 23
2592.189777
 33
0.0
 14
2235.9554739999999
 24
1872.189777
 34
0.0
1001
ACAD
1000
DSTYLE
1002
{
1070
   287
1070
     3
1070
   287
1070
     3
1070
    40
1040
20.0
1070
   143
1040
0.039
1070
   172
1070
     1
1070
   271
1070
     0
1070
   279
1070
     0
1070
   288
1070
     1
1002
}
  0
ENDSEC
  0
EOF
