  0
SECTION
  2
HEADER
  9
$ACADVER
  1
AC1009
  9
$INSBASE
 10
0.0
 20
0.0
 30
0.0
  9
$EXTMIN
 10
500.0
 20
600.0
 30
0.0
  9
$EXTMAX
 10
3700.0
 20
5573.3045229999998
 30
0.0
  9
$LIMMIN
 10
0.0
 20
0.0
  9
$LIMMAX
 10
297.0
 20
210.0
  9
$ORTHOMODE
 70
     0
  9
$REGENMODE
 70
     1
  9
$FILLMODE
 70
     0
  9
$QTEXTMODE
 70
     0
  9
$MIRRTEXT
 70
     1
  9
$DRAGMODE
 70
     2
  9
$LTSCALE
 40
100.0
  9
$OSMODE
 70
    37
  9
$ATTMODE
 70
     1
  9
$TEXTSIZE
 40
180.0
  9
$TRACEWID
 40
0.05
  9
$TEXTSTYLE
  7
STANDARD
  9
$CLAYER
  8
3
  9
$CELTYPE
  6
BYLAYER
  9
$CECOLOR
 62
   256
  9
$DIMSCALE
 40
20.0
  9
$DIMASZ
 40
2.0
  9
$DIMEXO
 40
0.5
  9
$DIMDLI
 40
10.0
  9
$DIMRND
 40
0.0
  9
$DIMDLE
 40
0.0
  9
$DIMEXE
 40
1.0
  9
$DIMTP
 40
1.0
  9
$DIMTM
 40
1.0
  9
$DIMTXT
 40
3.0
  9
$DIMCEN
 40
0.0
  9
$DIMTSZ
 40
0.0
  9
$DIMTOL
 70
     0
  9
$DIMLIM
 70
     0
  9
$DIMTIH
 70
     0
  9
$DIMTOH
 70
     0
  9
$DIMSE1
 70
     0
  9
$DIMSE2
 70
     0
  9
$DIMTAD
 70
     1
  9
$DIMZIN
 70
     8
  9
$DIMBLK
  1

  9
$DIMASO
 70
     1
  9
$DIMSHO
 70
     1
  9
$DIMPOST
  1
(<>)
  9
$DIMAPOST
  1

  9
$DIMALT
 70
     0
  9
$DIMALTD
 70
     2
  9
$DIMALTF
 40
0.039
  9
$DIMLFAC
 40
1.0
  9
$DIMTOFL
 70
     1
  9
$DIMTVP
 40
0.0
  9
$DIMTIX
 70
     0
  9
$DIMSOXD
 70
     0
  9
$DIMSAH
 70
     1
  9
$DIMBLK1
  1
DOT
  9
$DIMBLK2
  1
OPEN
  9
$DIMSTYLE
  2
IGA
  9
$DIMCLRD
 70
     0
  9
$DIMCLRE
 70
     0
  9
$DIMCLRT
 70
     0
  9
$DIMTFAC
 40
10.0
  9
$DIMGAP
 40
1.0
  9
$LUNITS
 70
     2
  9
$LUPREC
 70
     3
  9
$SKETCHINC
 40
0.1
  9
$FILLETRAD
 40
50.0
  9
$AUNITS
 70
     0
  9
$AUPREC
 70
     0
  9
$MENU
  1
acad
  9
$ELEVATION
 40
0.0
  9
$PELEVATION
 40
0.0
  9
$THICKNESS
 40
0.0
  9
$LIMCHECK
 70
     0
  9
$BLIPMODE
 70
     0
  9
$CHAMFERA
 40
0.5
  9
$CHAMFERB
 40
0.5
  9
$SKPOLY
 70
     0
  9
$TDCREATE
 40
2450724.6079444438
  9
$TDUPDATE
 40
2454953.8352629622
  9
$TDINDWG
 40
0.0066190394
  9
$TDUSRTIMER
 40
0.0066190394
  9
$USRTIMER
 70
     1
  9
$ANGBASE
 50
0.0
  9
$ANGDIR
 70
     0
  9
$PDMODE
 70
     0
  9
$PDSIZE
 40
0.0
  9
$PLINEWID
 40
0.0
  9
$COORDS
 70
     1
  9
$SPLFRAME
 70
     0
  9
$SPLINETYPE
 70
     6
  9
$SPLINESEGS
 70
     8
  9
$ATTDIA
 70
     0
  9
$ATTREQ
 70
     1
  9
$HANDLING
 70
 10241
  9
$HANDSEED
  5
801B
  9
$SURFTAB1
 70
     6
  9
$SURFTAB2
 70
     6
  9
$SURFTYPE
 70
     6
  9
$SURFU
 70
     6
  9
$SURFV
 70
     6
  9
$UCSNAME
  2

  9
$UCSORG
 10
0.0
 20
0.0
 30
0.0
  9
$UCSXDIR
 10
1.0
 20
0.0
 30
0.0
  9
$UCSYDIR
 10
0.0
 20
1.0
 30
0.0
  9
$PUCSNAME
  2

  9
$PUCSORG
 10
0.0
 20
0.0
 30
0.0
  9
$PUCSXDIR
 10
1.0
 20
0.0
 30
0.0
  9
$PUCSYDIR
 10
0.0
 20
1.0
 30
0.0
  9
$USERI1
 70
     0
  9
$USERI2
 70
     0
  9
$USERI3
 70
     0
  9
$USERI4
 70
     0
  9
$USERI5
 70
     0
  9
$USERR1
 40
0.0
  9
$USERR2
 40
0.0
  9
$USERR3
 40
0.0
  9
$USERR4
 40
0.0
  9
$USERR5
 40
0.0
  9
$WORLDVIEW
 70
     1
  9
$SHADEDGE
 70
     3
  9
$SHADEDIF
 70
    70
  9
$TILEMODE
 70
     1
  9
$MAXACTVP
 70
    16
  9
$PLIMCHECK
 70
     0
  9
$PEXTMIN
 10
1.0000000000000000E+020
 20
1.0000000000000000E+020
 30
1.0000000000000000E+020
  9
$PEXTMAX
 10
-1.0000000000000000E+020
 20
-1.0000000000000000E+020
 30
-1.0000000000000000E+020
  9
$PLIMMIN
 10
0.0
 20
0.0
  9
$PLIMMAX
 10
12.0
 20
9.0
  9
$UNITMODE
 70
     0
  9
$VISRETAIN
 70
     0
  9
$PLINEGEN
 70
     0
  9
$PSLTSCALE
 70
     1
  0
ENDSEC
  0
SECTION
  2
TABLES
  0
TABLE
  2
VPORT
 70
     2
  0
VPORT
  2
*ACTIVE
 70
     0
 10
0.0
 20
0.0
 11
1.0
 21
1.0
 12
5803.9401777944568
 22
3689.520672365682
 13
0.0
 23
0.0
 14
10.0
 24
10.0
 15
10.0
 25
10.0
 16
0.0
 26
0.0
 36
1.0
 17
0.0
 27
0.0
 37
0.0
 40
7720.861765592721
 41
1.5051150895140659
 42
50.0
 43
0.0
 44
0.0
 50
0.0
 51
0.0
 71
     0
 72
   100
 73
     1
 74
     0
 75
     0
 76
     0
 77
     0
 78
     0
  0
ENDTAB
  0
TABLE
  2
LTYPE
 70
     2
  0
LTYPE
  2
CONTINUOUS
 70
     0
  3
Solid line
 72
    65
 73
     0
 40
0.0
  0
LTYPE
  2
CENTER
 70
     0
  3
____ _ ____ _ ____ _ ____ _ ____ _ ____ _ ____ 
 72
    65
 73
     4
 40
2.0
 49
1.25
 49
-0.25
 49
0.25
 49
-0.25
  0
ENDTAB
  0
TABLE
  2
LAYER
 70
     6
  0
LAYER
  2
0
 70
     0
 62
     7
  6
CONTINUOUS
  0
LAYER
  2
3
 70
     0
 62
     2
  6
CONTINUOUS
  0
LAYER
  2
2
 70
     0
 62
     3
  6
CENTER
  0
LAYER
  2
1
 70
     0
 62
     4
  6
CONTINUOUS
  0
LAYER
  2
4
 70
     0
 62
     7
  6
CONTINUOUS
  0
LAYER
  2
DEFPOINTS
 70
     0
 62
     7
  6
CONTINUOUS
  0
ENDTAB
  0
TABLE
  2
STYLE
 70
     1
  0
STYLE
  2
STANDARD
 70
     0
 40
0.0
 41
1.0
 50
0.0
 71
     0
 42
180.0
  3
simplex.shx
  4
extfont.shx
  0
ENDTAB
  0
TABLE
  2
VIEW
 70
     0
  0
ENDTAB
  0
TABLE
  2
UCS
 70
     0
  0
ENDTAB
  0
TABLE
  2
APPID
 70
     1
  0
APPID
  2
ACAD
 70
     0
  0
ENDTAB
  0
TABLE
  2
DIMSTYLE
 70
     1
  0
DIMSTYLE
  2
IGA
 70
     0
  3

  4

  5

  6
OPEN
  7
OPEN
 40
2.0
 41
2.0
 42
0.5
 43
10.0
 44
1.0
 45
0.0
 46
0.0
 47
1.0
 48
1.0
140
3.0
141
0.0
142
0.0
143
0.03937
144
1.0
145
0.0
146
10.0
147
1.0
 71
     0
 72
     0
 73
     0
 74
     0
 75
     0
 76
     0
 77
     1
 78
     8
170
     0
171
     2
172
     0
173
     1
174
     0
175
     0
176
     0
177
     0
178
     0
  0
ENDTAB
  0
ENDSEC
  0
SECTION
  2
BLOCKS
  0
BLOCK
  8
0
  2
$MODEL_SPACE
 70
     0
 10
0.0
 20
0.0
 30
0.0
  3
$MODEL_SPACE
  1

  0
ENDBLK
  5
1B
  8
0
  0
BLOCK
 67
     1
  8
0
  2
$PAPER_SPACE
 70
     0
 10
0.0
 20
0.0
 30
0.0
  3
$PAPER_SPACE
  1

  0
ENDBLK
  5
18
 67
     1
  8
0
  0
BLOCK
  8
0
  2
_OPEN
 70
     0
 10
0.0
 20
0.0
 30
0.0
  3
_OPEN
  1

  0
LINE
  5
7AF6
  8
0
  6
BYBLOCK
 62
     0
 10
-1.0
 20
0.166667
 30
0.0
 11
0.0
 21
0.0
 31
0.0
  0
LINE
  5
7AF7
  8
0
  6
BYBLOCK
 62
     0
 10
0.0
 20
0.0
 30
0.0
 11
-1.0
 21
-0.166667
 31
0.0
  0
LINE
  5
7AF8
  8
0
  6
BYBLOCK
 62
     0
 10
0.0
 20
0.0
 30
0.0
 11
-1.0
 21
0.0
 31
0.0
  0
ENDBLK
  5
7AF9
  8
0
  0
BLOCK
  8
0
  2
*D1
 70
     1
 10
0.0
 20
0.0
 30
0.0
  3
*D1
  1

  0
LINE
  5
7F76
  8
3
  6
CONTINUOUS
 62
     0
 10
1986.916453
 20
2819.4884689999999
 30
0.0
 11
2126.8554130000002
 21
2819.4884689999999
 31
0.0
  0
LINE
  5
7F77
  8
3
  6
CONTINUOUS
 62
     0
 10
1986.916453
 20
2419.4884689999999
 30
0.0
 11
2126.8554130000002
 21
2419.4884689999999
 31
0.0
  0
LINE
  5
7F78
  8
3
  6
CONTINUOUS
 62
     0
 10
2106.8554130000002
 20
2779.4884689999999
 30
0.0
 11
2106.8554130000002
 21
2459.4884689999999
 31
0.0
  0
INSERT
  5
7F79
  8
3
  6
CONTINUOUS
 62
     0
  2
_OPEN
 10
2106.8554130000002
 20
2819.4884689999999
 30
0.0
 41
40.0
 42
40.0
 43
40.0
 50
90.0
  0
INSERT
  5
7F7A
  8
3
  6
CONTINUOUS
 62
     0
  2
_OPEN
 10
2106.8554130000002
 20
2419.4884689999999
 30
0.0
 41
40.0
 42
40.0
 43
40.0
 50
270.0
  0
TEXT
  8
3
  40
60
  5
800A
  62
0
  72
0
  71
0
 10
1936.86
 20
2510.41
 30
0.000000
  1
400
  0
POINT
  5
7F7C
  8
DEFPOINTS
  6
CONTINUOUS
 62
     0
 10
1976.916453
 20
2819.4884689999999
 30
0.0
  0
POINT
  5
7F7D
  8
DEFPOINTS
  6
CONTINUOUS
 62
     0
 10
1976.916453
 20
2419.4884689999999
 30
0.0
  0
POINT
  5
7F7E
  8
DEFPOINTS
  6
CONTINUOUS
 62
     0
 10
2106.8554130000002
 20
2419.4884689999999
 30
0.0
  0
ENDBLK
  5
7C42
  8
0
  0
BLOCK
  8
0
  2
*D2
 70
     1
 10
0.0
 20
0.0
 30
0.0
  3
*D2
  1

  0
LINE
  5
7F7F
  8
3
  6
CONTINUOUS
 62
     0
 10
2151.537910999999
 20
2431.4884689999999
 30
0.0
 11
2233.0625829999999
 21
2431.4884689999999
 31
0.0
  0
LINE
  5
7F80
  8
3
  6
CONTINUOUS
 62
     0
 10
1986.916453
 20
2819.4884689999999
 30
0.0
 11
2233.0625829999999
 21
2819.4884689999999
 31
0.0
  0
LINE
  5
7F81
  8
3
  6
CONTINUOUS
 62
     0
 10
2213.0625829999999
 20
2471.4884689999999
 30
0.0
 11
2213.0625829999999
 21
2779.4884689999999
 31
0.0
  0
INSERT
  5
7F82
  8
3
  6
CONTINUOUS
 62
     0
  2
_OPEN
 10
2213.0625829999999
 20
2431.4884689999999
 30
0.0
 41
40.0
 42
40.0
 43
40.0
 50
270.0
  0
INSERT
  5
7F83
  8
3
  6
CONTINUOUS
 62
     0
  2
_OPEN
 10
2213.0625829999999
 20
2819.4884689999999
 30
0.0
 41
40.0
 42
40.0
 43
40.0
 50
90.0
  0
TEXT
  8
3
  40
60
  5
800B
  62
0
  72
0
  71
0
 10
2043.06
 20
2502.55
 30
0.000000
  1
388
  0
POINT
  5
7F85
  8
DEFPOINTS
  6
CONTINUOUS
 62
     0
 10
2141.537910999999
 20
2431.4884689999999
 30
0.0
  0
POINT
  5
7F86
  8
DEFPOINTS
  6
CONTINUOUS
 62
     0
 10
1976.916453
 20
2819.4884689999999
 30
0.0
  0
POINT
  5
7F87
  8
DEFPOINTS
  6
CONTINUOUS
 62
     0
 10
2213.0625829999999
 20
2819.4884689999999
 30
0.0
  0
ENDBLK
  5
7C37
  8
0
  0
BLOCK
  8
0
  2
*D3
 70
     1
 10
0.0
 20
0.0
 30
0.0
  3
*D3
  1

  0
LINE
  5
7F88
  8
3
  6
CONTINUOUS
 62
     0
 10
1946.916453
 20
2051.4884689999999
 30
0.0
 11
2233.0625829999999
 21
2051.4884689999999
 31
0.0
  0
LINE
  5
7F89
  8
3
  6
CONTINUOUS
 62
     0
 10
2213.0625829999999
 20
2391.4884689999999
 30
0.0
 11
2213.0625829999999
 21
2091.4884689999999
 31
0.0
  0
INSERT
  5
7F8A
  8
3
  6
CONTINUOUS
 62
     0
  2
_OPEN
 10
2213.0625829999999
 20
2431.4884689999999
 30
0.0
 41
40.0
 42
40.0
 43
40.0
 50
90.0
  0
INSERT
  5
7F8B
  8
3
  6
CONTINUOUS
 62
     0
  2
_OPEN
 10
2213.0625829999999
 20
2051.4884689999999
 30
0.0
 41
40.0
 42
40.0
 43
40.0
 50
270.0
  0
TEXT
  8
3
  40
60
  5
800C
  62
0
  72
0
  71
0
 10
2043.06
 20
2135.29
 30
0.000000
  1
380
  0
POINT
  5
7F8D
  8
DEFPOINTS
  6
CONTINUOUS
 62
     0
 10
2141.537910999999
 20
2431.4884689999999
 30
0.0
  0
POINT
  5
7F8E
  8
DEFPOINTS
  6
CONTINUOUS
 62
     0
 10
1936.916453
 20
2051.4884689999999
 30
0.0
  0
POINT
  5
7F8F
  8
DEFPOINTS
  6
CONTINUOUS
 62
     0
 10
2213.0625829999999
 20
2051.4884689999999
 30
0.0
  0
ENDBLK
  5
7C2C
  8
0
  0
BLOCK
  8
0
  2
*D4
 70
     1
 10
0.0
 20
0.0
 30
0.0
  3
*D4
  1

  0
LINE
  5
7F90
  8
3
  6
CONTINUOUS
 62
     0
 10
1976.916453
 20
2856.4884689999999
 30
0.0
 11
1976.916453
 21
2936.5106329999999
 31
0.0
  0
LINE
  5
7F91
  8
3
  6
CONTINUOUS
 62
     0
 10
1676.9164529999989
 20
2896.9584491697842
 30
0.0
 11
1676.9164529999989
 21
2936.5106329999999
 31
0.0
  0
LINE
  5
7F92
  8
3
  6
CONTINUOUS
 62
     0
 10
1936.916453
 20
2916.5106329999999
 30
0.0
 11
1716.916453
 21
2916.5106329999999
 31
0.0
  0
INSERT
  5
7F93
  8
3
  6
CONTINUOUS
 62
     0
  2
_OPEN
 10
1976.916453
 20
2916.5106329999999
 30
0.0
 41
40.0
 42
40.0
 43
40.0
  0
INSERT
  5
7F94
  8
3
  6
CONTINUOUS
 62
     0
  2
_OPEN
 10
1676.9164529999989
 20
2916.5106329999999
 30
0.0
 41
40.0
 42
40.0
 43
40.0
 50
180.0
  0
TEXT
  8
3
  40
60
  5
800D
  62
0
  72
0
  71
0
 10
1694.06
 20
2860.31
 30
0.000000
  1
300
  0
POINT
  5
7F96
  8
DEFPOINTS
  6
CONTINUOUS
 62
     0
 10
1976.916453
 20
2846.4884689999999
 30
0.0
  0
POINT
  5
7F97
  8
DEFPOINTS
  6
CONTINUOUS
 62
     0
 10
1676.9164529999989
 20
2886.9584491697842
 30
0.0
  0
POINT
  5
7F98
  8
DEFPOINTS
  6
CONTINUOUS
 62
     0
 10
1676.9164529999989
 20
2916.5106329999999
 30
0.0
  0
ENDBLK
  5
7E10
  8
0
  0
BLOCK
  8
0
  2
*D5
 70
     1
 10
0.0
 20
0.0
 30
0.0
  3
*D5
  1

  0
LINE
  5
7F99
  8
3
  6
CONTINUOUS
 62
     0
 10
1336.9164529999989
 20
2741.4884689999999
 30
0.0
 11
1336.9164529999989
 21
2936.5106329999999
 31
0.0
  0
LINE
  5
7F9A
  8
3
  6
CONTINUOUS
 62
     0
 10
1636.9164529999989
 20
2916.5106329999999
 30
0.0
 11
1376.9164529999989
 21
2916.5106329999999
 31
0.0
  0
INSERT
  5
7F9B
  8
3
  6
CONTINUOUS
 62
     0
  2
_OPEN
 10
1676.9164529999989
 20
2916.5106329999999
 30
0.0
 41
40.0
 42
40.0
 43
40.0
  0
INSERT
  5
7F9C
  8
3
  6
CONTINUOUS
 62
     0
  2
_OPEN
 10
1336.9164529999989
 20
2916.5106329999999
 30
0.0
 41
40.0
 42
40.0
 43
40.0
 50
180.0
  0
TEXT
  8
3
  40
60
  5
800E
  62
0
  72
0
  71
0
 10
1386.92
 20
2860.31
 30
0.000000
  1
340
  0
POINT
  5
7F9E
  8
DEFPOINTS
  6
CONTINUOUS
 62
     0
 10
1676.9164529999989
 20
2886.9584491697842
 30
0.0
  0
POINT
  5
7F9F
  8
DEFPOINTS
  6
CONTINUOUS
 62
     0
 10
1336.9164529999989
 20
2731.4884689999999
 30
0.0
  0
POINT
  5
7FA0
  8
DEFPOINTS
  6
CONTINUOUS
 62
     0
 10
1336.9164529999989
 20
2916.5106329999999
 30
0.0
  0
ENDBLK
  5
7E1A
  8
0
  0
BLOCK
  8
0
  2
*D6
 70
     1
 10
0.0
 20
0.0
 30
0.0
  3
*D6
  1

  0
LINE
  5
7FA1
  8
3
  6
CONTINUOUS
 62
     0
 10
3257.3564780000002
 20
2646.4884689999999
 30
0.0
 11
3400.7315670000012
 21
2646.4884689999999
 31
0.0
  0
LINE
  5
7FA2
  8
3
  6
CONTINUOUS
 62
     0
 10
3257.3564780000002
 20
2216.4884689999999
 30
0.0
 11
3400.7315670000012
 21
2216.4884689999999
 31
0.0
  0
LINE
  5
7FA3
  8
3
  6
CONTINUOUS
 62
     0
 10
3380.7315670000012
 20
2606.4884689999999
 30
0.0
 11
3380.7315670000012
 21
2256.4884689999999
 31
0.0
  0
INSERT
  5
7FA4
  8
3
  6
CONTINUOUS
 62
     0
  2
_OPEN
 10
3380.7315670000012
 20
2646.4884689999999
 30
0.0
 41
40.0
 42
40.0
 43
40.0
 50
90.0
  0
INSERT
  5
7FA5
  8
3
  6
CONTINUOUS
 62
     0
  2
_OPEN
 10
3380.7315670000012
 20
2216.4884689999999
 30
0.0
 41
40.0
 42
40.0
 43
40.0
 50
270.0
  0
TEXT
  8
3
  40
60
  5
800F
  62
0
  72
0
  71
0
 10
3210.73
 20
2317.81
 30
0.000000
  1
φ430
  0
POINT
  5
7FA7
  8
DEFPOINTS
  6
CONTINUOUS
 62
     0
 10
3247.3564780000002
 20
2646.4884689999999
 30
0.0
  0
POINT
  5
7FA8
  8
DEFPOINTS
  6
CONTINUOUS
 62
     0
 10
3247.3564780000002
 20
2216.4884689999999
 30
0.0
  0
POINT
  5
7FA9
  8
DEFPOINTS
  6
CONTINUOUS
 62
     0
 10
3380.7315670000012
 20
2216.4884689999999
 30
0.0
  0
ENDBLK
  5
7D5A
  8
0
  0
BLOCK
  8
0
  2
*D7
 70
     1
 10
0.0
 20
0.0
 30
0.0
  3
*D7
  1

  0
LINE
  5
7FAA
  8
3
  6
CONTINUOUS
 62
     0
 10
936.91645299999993
 20
4040.2584689999999
 30
0.0
 11
936.91645299999993
 21
4162.1255380000002
 31
0.0
  0
LINE
  5
7FAB
  8
3
  6
CONTINUOUS
 62
     0
 10
1936.916453
 20
4040.2584689999999
 30
0.0
 11
1936.916453
 21
4162.1255380000002
 31
0.0
  0
LINE
  5
7FAC
  8
3
  6
CONTINUOUS
 62
     0
 10
976.91645299999993
 20
4142.1255380000011
 30
0.0
 11
1896.916453
 21
4142.1255380000011
 31
0.0
  0
INSERT
  5
7FAD
  8
3
  6
CONTINUOUS
 62
     0
  2
_OPEN
 10
936.91645299999993
 20
4142.1255380000011
 30
0.0
 41
40.0
 42
40.0
 43
40.0
 50
180.0
  0
INSERT
  5
7FAE
  8
3
  6
CONTINUOUS
 62
     0
  2
_OPEN
 10
1936.916453
 20
4142.1255380000011
 30
0.0
 41
40.0
 42
40.0
 43
40.0
  0
TEXT
  8
3
  40
60
  5
8010
  62
0
  72
0
  71
0
 10
1322.54
 20
4085.93
 30
0.000000
  1
1000
  0
POINT
  5
7FB0
  8
DEFPOINTS
  6
CONTINUOUS
 62
     0
 10
936.91645299999993
 20
4030.258468999999
 30
0.0
  0
POINT
  5
7FB1
  8
DEFPOINTS
  6
CONTINUOUS
 62
     0
 10
1936.916453
 20
4030.258468999999
 30
0.0
  0
POINT
  5
7FB2
  8
DEFPOINTS
  6
CONTINUOUS
 62
     0
 10
1936.916453
 20
4142.1255380000011
 30
0.0
  0
ENDBLK
  5
7C4D
  8
0
  0
BLOCK
  8
0
  2
*D8
 70
     1
 10
0.0
 20
0.0
 30
0.0
  3
*D8
  1

  0
LINE
  5
7FB3
  8
3
  6
CONTINUOUS
 62
     0
 10
926.91645299999993
 20
4030.258468999999
 30
0.0
 11
787.48162400000069
 21
4030.258468999999
 31
0.0
  0
LINE
  5
7FB4
  8
3
  6
CONTINUOUS
 62
     0
 10
926.91645299999993
 20
3642.2584689999999
 30
0.0
 11
787.48162400000047
 21
3642.2584689999999
 31
0.0
  0
LINE
  5
7FB5
  8
3
  6
CONTINUOUS
 62
     0
 10
807.48162400000069
 20
3990.2584689999999
 30
0.0
 11
807.48162400000047
 21
3682.2584689999999
 31
0.0
  0
INSERT
  5
7FB6
  8
3
  6
CONTINUOUS
 62
     0
  2
_OPEN
 10
807.48162400000069
 20
4030.258468999999
 30
0.0
 41
40.0
 42
40.0
 43
40.0
 50
90.0
  0
INSERT
  5
7FB7
  8
3
  6
CONTINUOUS
 62
     0
  2
_OPEN
 10
807.48162400000047
 20
3642.2584689999999
 30
0.0
 41
40.0
 42
40.0
 43
40.0
 50
270.0
  0
TEXT
  8
3
  40
60
  5
8011
  62
0
  72
0
  71
0
 10
637.482
 20
3727.35
 30
0.000000
  1
388
  0
POINT
  5
7FB9
  8
DEFPOINTS
  6
CONTINUOUS
 62
     0
 10
936.91645299999993
 20
4030.258468999999
 30
0.0
  0
POINT
  5
7FBA
  8
DEFPOINTS
  6
CONTINUOUS
 62
     0
 10
936.91645299999993
 20
3642.2584689999999
 30
0.0
  0
POINT
  5
7FBB
  8
DEFPOINTS
  6
CONTINUOUS
 62
     0
 10
807.48162400000047
 20
3642.2584689999999
 30
0.0
  0
ENDBLK
  5
7C64
  8
0
  0
BLOCK
  8
0
  2
*D9
 70
     1
 10
0.0
 20
0.0
 30
0.0
  3
*D9
  1

  0
LINE
  5
7FBC
  8
3
  6
CONTINUOUS
 62
     0
 10
2947.3564780000002
 20
2829.4884689999999
 30
0.0
 11
2947.3564780000002
 21
2956.520266
 31
0.0
  0
LINE
  5
7FBD
  8
3
  6
CONTINUOUS
 62
     0
 10
3247.3564780000002
 20
2829.4884689999999
 30
0.0
 11
3247.3564780000002
 21
2956.520266
 31
0.0
  0
LINE
  5
7FBE
  8
3
  6
CONTINUOUS
 62
     0
 10
2907.3564780000002
 20
2936.520266
 30
0.0
 11
2867.3564780000002
 21
2936.520266
 31
0.0
  0
LINE
  5
7FBF
  8
3
  6
CONTINUOUS
 62
     0
 10
3287.3564780000002
 20
2936.520266
 30
0.0
 11
3327.3564780000002
 21
2936.520266
 31
0.0
  0
LINE
  5
7FC0
  8
3
  6
CONTINUOUS
 62
     0
 10
2947.3564780000002
 20
2936.520266
 30
0.0
 11
3247.3564780000002
 21
2936.520266
 31
0.0
  0
INSERT
  5
7FC1
  8
3
  6
CONTINUOUS
 62
     0
  2
_OPEN
 10
2947.3564780000002
 20
2936.520266
 30
0.0
 41
40.0
 42
40.0
 43
40.0
  0
INSERT
  5
7FC2
  8
3
  6
CONTINUOUS
 62
     0
  2
_OPEN
 10
3247.3564780000002
 20
2936.520266
 30
0.0
 41
40.0
 42
40.0
 43
40.0
 50
180.0
  0
TEXT
  8
3
  40
60
  5
8012
  62
0
  72
0
  71
0
 10
2964.50
 20
2880.32
 30
0.000000
  1
300
  0
POINT
  5
7FC4
  8
DEFPOINTS
  6
CONTINUOUS
 62
     0
 10
2947.3564780000002
 20
2819.4884689999999
 30
0.0
  0
POINT
  5
7FC5
  8
DEFPOINTS
  6
CONTINUOUS
 62
     0
 10
3247.3564780000002
 20
2819.4884689999999
 30
0.0
  0
POINT
  5
7FC6
  8
DEFPOINTS
  6
CONTINUOUS
 62
     0
 10
3247.3564780000002
 20
2936.520266
 30
0.0
  0
ENDBLK
  5
7C9E
  8
0
  0
BLOCK
  8
0
  2
*D10
 70
     1
 10
0.0
 20
0.0
 30
0.0
  3
*D10
  1

  0
LINE
  5
7FC7
  8
3
  6
CONTINUOUS
 62
     0
 10
2767.3564780000002
 20
2796.4884689999999
 30
0.0
 11
2767.3564780000002
 21
3088.1281716637741
 31
0.0
  0
LINE
  5
7FC8
  8
3
  6
CONTINUOUS
 62
     0
 10
3097.3564780000002
 20
3042.3668854332191
 30
0.0
 11
3097.3564780000002
 21
3088.1281716637741
 31
0.0
  0
LINE
  5
7FC9
  8
3
  6
CONTINUOUS
 62
     0
 10
2807.3564780000002
 20
3068.1281716637741
 30
0.0
 11
3057.3564780000002
 21
3068.1281716637741
 31
0.0
  0
INSERT
  5
7FCA
  8
3
  6
CONTINUOUS
 62
     0
  2
_OPEN
 10
2767.3564780000002
 20
3068.1281716637741
 30
0.0
 41
40.0
 42
40.0
 43
40.0
 50
180.0
  0
INSERT
  5
7FCB
  8
3
  6
CONTINUOUS
 62
     0
  2
_OPEN
 10
3097.3564780000002
 20
3068.1281716637741
 30
0.0
 41
40.0
 42
40.0
 43
40.0
  0
TEXT
  8
3
  40
60
  5
8013
  62
0
  72
0
  71
0
 10
2831.64
 20
3061.93
 30
0.000000
  1
MAX
  0
TEXT
  8
3
  40
60
  5
8014
  62
0
  72
0
  71
0
 10
2831.64
 20
2983.93
 30
0.000000
  1
380
  0
POINT
  5
7FCD
  8
DEFPOINTS
  6
CONTINUOUS
 62
     0
 10
2767.3564780000002
 20
2786.4884689999999
 30
0.0
  0
POINT
  5
7FCE
  8
DEFPOINTS
  6
CONTINUOUS
 62
     0
 10
3097.3564780000002
 20
3032.3668854332191
 30
0.0
  0
POINT
  5
7FCF
  8
DEFPOINTS
  6
CONTINUOUS
 62
     0
 10
3097.3564780000002
 20
3068.1281716637741
 30
0.0
  0
ENDBLK
  5
7DA4
  8
0
  0
BLOCK
  8
0
  2
*D11
 70
     1
 10
0.0
 20
0.0
 30
0.0
  3
*D11
  1

  0
LINE
  5
7FD0
  8
3
  6
CONTINUOUS
 62
     0
 10
3248.3564780000002
 20
2656.4884689999999
 30
0.0
 11
3248.3564780000002
 21
3088.1281716637741
 31
0.0
  0
LINE
  5
7FD1
  8
3
  6
CONTINUOUS
 62
     0
 10
3137.3564780000002
 20
3068.1281716637741
 30
0.0
 11
3208.3564780000002
 21
3068.1281716637741
 31
0.0
  0
TEXT
  8
3
  40
60
  5
8015
  62
0
  72
0
  71
0
 10
3045.70
 20
3012.21
 30
0.000000
  1
151
  0
INSERT
  5
7FD3
  8
3
  6
CONTINUOUS
 62
     0
  2
_OPEN
 10
3097.3564780000002
 20
3068.1281716637741
 30
0.0
 41
40.0
 42
40.0
 43
40.0
 50
180.0
  0
INSERT
  5
7FD4
  8
3
  6
CONTINUOUS
 62
     0
  2
_OPEN
 10
3248.3564780000002
 20
3068.1281716637741
 30
0.0
 41
40.0
 42
40.0
 43
40.0
  0
POINT
  5
7FD5
  8
DEFPOINTS
  6
CONTINUOUS
 62
     0
 10
3097.3564780000002
 20
3035.0864382549321
 30
0.0
  0
POINT
  5
7FD6
  8
DEFPOINTS
  6
CONTINUOUS
 62
     0
 10
3248.3564780000002
 20
2646.4884689999999
 30
0.0
  0
POINT
  5
7FD7
  8
DEFPOINTS
  6
CONTINUOUS
 62
     0
 10
3248.3564780000002
 20
3068.1281716637741
 30
0.0
  0
ENDBLK
  5
7D99
  8
0
  0
BLOCK
  8
0
  2
*D12
 70
     1
 10
0.0
 20
0.0
 30
0.0
  3
*D12
  1

  0
LINE
  5
7FD8
  8
3
 62
     0
 10
936.91645299999993
 20
1881.4884689999999
 30
0.0
 11
936.91645299999993
 21
1739.0518668758921
 31
0.0
  0
LINE
  5
7FD9
  8
3
 62
     0
 10
1676.9164529999989
 20
1881.488468999999
 30
0.0
 11
1676.9164529999989
 21
1739.0518668758921
 31
0.0
  0
LINE
  5
7FDA
  8
3
 62
     0
 10
976.91645299999971
 20
1759.0518668758921
 30
0.0
 11
1636.9164529999989
 21
1759.0518668758921
 31
0.0
  0
INSERT
  5
7FDB
  8
3
 62
     0
  2
_OPEN
 10
936.91645299999993
 20
1759.0518668758921
 30
0.0
 41
40.0
 42
40.0
 43
40.0
 50
180.0
  0
INSERT
  5
7FDC
  8
3
 62
     0
  2
_OPEN
 10
1676.9164529999989
 20
1759.0518668758921
 30
0.0
 41
40.0
 42
40.0
 43
40.0
  0
TEXT
  8
3
  40
60
  5
8016
  62
0
  72
0
  71
0
 10
1186.92
 20
1702.85
 30
0.000000
  1
740
  0
POINT
  5
7FDE
  8
DEFPOINTS
 62
     0
 10
936.91645299999993
 20
1891.4884689999999
 30
0.0
  0
POINT
  5
7FDF
  8
DEFPOINTS
 62
     0
 10
1676.9164529999989
 20
1891.4884689999999
 30
0.0
  0
POINT
  5
7FE0
  8
DEFPOINTS
 62
     0
 10
1676.9164529999989
 20
1759.0518668758921
 30
0.0
  0
ENDBLK
  5
7E43
  8
0
  0
BLOCK
  8
0
  2
*D13
 70
     1
 10
0.0
 20
0.0
 30
0.0
  3
*D13
  1

  0
LINE
  5
7FE1
  8
3
 62
     0
 10
1676.9164529999989
 20
1881.488468999999
 30
0.0
 11
1676.9164529999989
 21
1739.0518668758921
 31
0.0
  0
LINE
  5
7FE2
  8
3
 62
     0
 10
1936.916453
 20
1881.4884689999999
 30
0.0
 11
1936.916453
 21
1739.0518668758921
 31
0.0
  0
LINE
  5
7FE3
  8
3
 62
     0
 10
1716.9164529999989
 20
1759.0518668758921
 30
0.0
 11
1896.916453
 21
1759.0518668758921
 31
0.0
  0
INSERT
  5
7FE4
  8
3
 62
     0
  2
_OPEN
 10
1676.9164529999989
 20
1759.0518668758921
 30
0.0
 41
40.0
 42
40.0
 43
40.0
 50
180.0
  0
INSERT
  5
7FE5
  8
3
 62
     0
  2
_OPEN
 10
1936.916453
 20
1759.0518668758921
 30
0.0
 41
40.0
 42
40.0
 43
40.0
  0
TEXT
  8
3
  40
60
  5
8017
  62
0
  72
0
  71
0
 10
1686.92
 20
1702.85
 30
0.000000
  1
260
  0
POINT
  5
7FE7
  8
DEFPOINTS
 62
     0
 10
1676.9164529999989
 20
1891.4884689999999
 30
0.0
  0
POINT
  5
7FE8
  8
DEFPOINTS
 62
     0
 10
1936.916453
 20
1891.4884689999999
 30
0.0
  0
POINT
  5
7FE9
  8
DEFPOINTS
 62
     0
 10
1936.916453
 20
1759.0518668758921
 30
0.0
  0
ENDBLK
  5
7E52
  8
0
  0
BLOCK
  8
0
  2
*D14
 70
     1
 10
0.0
 20
0.0
 30
0.0
  3
*D14
  1

  0
LINE
  5
7FEA
  8
3
 62
     0
 10
2903.3564780000002
 20
1881.4884689999999
 30
0.0
 11
2903.3564780000002
 21
1739.0518668758921
 31
0.0
  0
LINE
  5
7FEB
  8
3
 62
     0
 10
3097.3564780000002
 20
1881.4884689999999
 30
0.0
 11
3097.3564780000002
 21
1739.0518668758921
 31
0.0
  0
LINE
  5
7FEC
  8
3
 62
     0
 10
2943.3564780000002
 20
1759.0518668758921
 30
0.0
 11
3057.3564779999988
 21
1759.0518668758921
 31
0.0
  0
INSERT
  5
7FED
  8
3
 62
     0
  2
_OPEN
 10
2903.3564780000002
 20
1759.0518668758921
 30
0.0
 41
40.0
 42
40.0
 43
40.0
 50
180.0
  0
INSERT
  5
7FEE
  8
3
 62
     0
  2
_OPEN
 10
3097.3564780000002
 20
1759.0518668758921
 30
0.0
 41
40.0
 42
40.0
 43
40.0
  0
TEXT
  8
3
  40
60
  5
8018
  62
0
  72
0
  71
0
 10
2880.36
 20
1702.85
 30
0.000000
  1
194
  0
POINT
  5
7FF0
  8
DEFPOINTS
 62
     0
 10
2903.3564780000002
 20
1891.4884689999999
 30
0.0
  0
POINT
  5
7FF1
  8
DEFPOINTS
 62
     0
 10
3097.3564780000002
 20
1891.4884689999999
 30
0.0
  0
POINT
  5
7FF2
  8
DEFPOINTS
 62
     0
 10
3097.3564780000002
 20
1759.0518668758921
 30
0.0
  0
ENDBLK
  5
7E61
  8
0
  0
BLOCK
  8
0
  2
*D15
 70
     1
 10
0.0
 20
0.0
 30
0.0
  3
*D15
  1

  0
LINE
  5
7FF3
  8
3
 62
     0
 10
3097.3564780000002
 20
1881.4884689999999
 30
0.0
 11
3097.3564780000002
 21
1739.0518668758921
 31
0.0
  0
LINE
  5
7FF4
  8
3
 62
     0
 10
3291.3564780000002
 20
1881.4884689999999
 30
0.0
 11
3291.3564780000002
 21
1739.0518668758921
 31
0.0
  0
LINE
  5
7FF5
  8
3
 62
     0
 10
3137.3564780000002
 20
1759.0518668758921
 30
0.0
 11
3251.3564780000002
 21
1759.0518668758921
 31
0.0
  0
INSERT
  5
7FF6
  8
3
 62
     0
  2
_OPEN
 10
3097.3564780000002
 20
1759.0518668758921
 30
0.0
 41
40.0
 42
40.0
 43
40.0
 50
180.0
  0
INSERT
  5
7FF7
  8
3
 62
     0
  2
_OPEN
 10
3291.3564780000002
 20
1759.0518668758921
 30
0.0
 41
40.0
 42
40.0
 43
40.0
  0
TEXT
  8
3
  40
60
  5
8019
  62
0
  72
0
  71
0
 10
3074.36
 20
1702.85
 30
0.000000
  1
194
  0
POINT
  5
7FF9
  8
DEFPOINTS
 62
     0
 10
3097.3564780000002
 20
1891.4884689999999
 30
0.0
  0
POINT
  5
7FFA
  8
DEFPOINTS
 62
     0
 10
3291.3564780000002
 20
1891.4884689999999
 30
0.0
  0
POINT
  5
7FFB
  8
DEFPOINTS
 62
     0
 10
3291.3564780000002
 20
1759.0518668758921
 30
0.0
  0
ENDBLK
  5
7E70
  8
0
  0
BLOCK
  8
0
  2
_DOT
 70
     0
 10
0.0
 20
0.0
 30
0.0
  3
_DOT
  1

  0
POLYLINE
  5
7E74
  8
0
  6
BYBLOCK
 62
     0
 66
     1
 10
0.0
 20
0.0
 30
0.0
 70
     1
 40
0.5
 41
0.5
  0
VERTEX
  5
7FFC
  8
0
  6
BYBLOCK
 62
     0
 10
-0.25
 20
0.0
 30
0.0
 42
1.0
  0
VERTEX
  5
7FFD
  8
0
  6
BYBLOCK
 62
     0
 10
0.25
 20
0.0
 30
0.0
 42
1.0
  0
SEQEND
  5
7FFE
  8
0
  6
BYBLOCK
 62
     0
  0
LINE
  5
7E78
  8
0
  6
BYBLOCK
 62
     0
 10
-0.5
 20
0.0
 30
0.0
 11
-1.0
 21
0.0
 31
0.0
  0
ENDBLK
  5
7E79
  8
0
  0
BLOCK
  8
0
  2
*D17
 70
     1
 10
0.0
 20
0.0
 30
0.0
  3
*D17
  1

  0
LINE
  5
7FFF
  8
3
 62
     0
 10
1946.916453
 20
1956.4884689999999
 30
0.0
 11
2235.2033355367598
 21
1956.4884689999999
 31
0.0
  0
LINE
  5
8000
  8
3
 62
     0
 10
1946.916453
 20
1891.4884689999999
 30
0.0
 11
2235.2033355367598
 21
1891.4884689999999
 31
0.0
  0
LINE
  5
8001
  8
3
 62
     0
 10
2215.2033355367598
 20
1996.4884689999999
 30
0.0
 11
2215.2033355367598
 21
2036.4884689999999
 31
0.0
  0
LINE
  5
8002
  8
3
 62
     0
 10
2215.2033355367598
 20
1851.4884689999999
 30
0.0
 11
2215.2033355367598
 21
1674.3456118571421
 31
0.0
  0
LINE
  5
8003
  8
3
 62
     0
 10
2215.2033355367598
 20
1956.4884689999999
 30
0.0
 11
2215.2033355367598
 21
1891.4884689999999
 31
0.0
  0
INSERT
  5
8004
  8
3
 62
     0
  2
_DOT
 10
2215.2033355367598
 20
1956.4884689999999
 30
0.0
 41
40.0
 42
40.0
 43
40.0
 50
270.0
  0
INSERT
  5
8005
  8
3
 62
     0
  2
_OPEN
 10
2215.2033355367598
 20
1891.4884689999999
 30
0.0
 41
40.0
 42
40.0
 43
40.0
 50
90.0
  0
TEXT
  8
3
  40
60
  5
801A
  62
0
  72
0
  71
0
 10
2045.20
 20
1636.72
 30
0.000000
  1
65
  0
POINT
  5
8007
  8
DEFPOINTS
 62
     0
 10
1936.916453
 20
1956.4884689999999
 30
0.0
  0
POINT
  5
8008
  8
DEFPOINTS
 62
     0
 10
1936.916453
 20
1891.4884689999999
 30
0.0
  0
POINT
  5
8009
  8
DEFPOINTS
 62
     0
 10
2215.2033355367598
 20
1891.4884689999999
 30
0.0
  0
ENDBLK
  5
7E87
  8
0
  0
BLOCK
  8
0
  2
*D18
 70
     1
 10
0.0
 20
0.0
 30
0.0
  3
*D18
  1

  0
LINE
  5
7E8B
  8
0
  6
BYBLOCK
 62
     0
 10
1946.916453
 20
1956.4884689999999
 30
0.0
 11
2235.2033355367598
 21
1956.4884689999999
 31
0.0
  0
LINE
  5
7E8C
  8
0
  6
BYBLOCK
 62
     0
 10
1946.916453
 20
2051.4884689999999
 30
0.0
 11
2235.2033355367598
 21
2051.4884689999999
 31
0.0
  0
LINE
  5
7E8D
  8
0
  6
BYBLOCK
 62
     0
 10
2215.2033355367598
 20
1916.4884689999999
 30
0.0
 11
2215.2033355367598
 21
1876.4884689999999
 31
0.0
  0
LINE
  5
7E8E
  8
0
  6
BYBLOCK
 62
     0
 10
2215.2033355367598
 20
2091.4884689999999
 30
0.0
 11
2215.2033355367598
 21
2131.4884689999999
 31
0.0
  0
TEXT
  5
7E8F
  8
3
 62
     0
 10
2330.9176212510461
 20
1916.845611857143
 30
0.0
 40
60.0
  1
(95)
 50
90.0
  0
LINE
  5
7E90
  8
0
  6
BYBLOCK
 62
     0
 10
2215.2033355367598
 20
1956.4884689999999
 30
0.0
 11
2215.2033355367598
 21
2051.4884689999999
 31
0.0
  0
INSERT
  5
7E91
  8
0
  6
BYBLOCK
 62
     0
  2
_DOT
 10
2215.2033355367598
 20
1956.4884689999999
 30
0.0
 41
40.0
 42
40.0
 43
40.0
 50
90.0
  0
INSERT
  5
7E92
  8
0
  6
BYBLOCK
 62
     0
  2
_OPEN
 10
2215.2033355367598
 20
2051.4884689999999
 30
0.0
 41
40.0
 42
40.0
 43
40.0
 50
270.0
  0
POINT
  5
7E93
  8
DEFPOINTS
  6
BYBLOCK
 62
     0
 10
1936.916453
 20
1956.4884689999999
 30
0.0
  0
POINT
  5
7E94
  8
DEFPOINTS
  6
BYBLOCK
 62
     0
 10
1936.916453
 20
2051.4884689999999
 30
0.0
  0
POINT
  5
7E95
  8
DEFPOINTS
  6
BYBLOCK
 62
     0
 10
2215.2033355367598
 20
2051.4884689999999
 30
0.0
  0
ENDBLK
  5
7E96
  8
0
  0
ENDSEC
  0
SECTION
  2
ENTITIES
  0
LINE
  5
7A6D
  8
1
  6
CONTINUOUS
 10
1936.916453
 20
2051.4884689999999
 30
0.0
 11
936.91645299999993
 21
2051.4884689999999
 31
0.0
  0
LINE
  5
7A6E
  8
1
  6
CONTINUOUS
 10
1946.916453
 20
2131.4884689999999
 30
0.0
 11
936.91645299999993
 21
2131.4884689999999
 31
0.0
  0
LINE
  5
7A6F
  8
1
  6
CONTINUOUS
 10
936.91645299999993
 20
1956.4884689999999
 30
0.0
 11
1936.916453
 21
1956.4884689999999
 31
0.0
  0
LINE
  5
7A70
  8
1
  6
CONTINUOUS
 10
936.91645299999993
 20
1891.4884689999999
 30
0.0
 11
1936.916453
 21
1891.4884689999999
 31
0.0
  0
LINE
  5
7A71
  8
1
  6
CONTINUOUS
 10
936.91645299999993
 20
1956.4884689999999
 30
0.0
 11
936.91645299999993
 21
1891.4884689999999
 31
0.0
  0
LINE
  5
7A72
  8
1
  6
CONTINUOUS
 10
936.91645299999993
 20
2131.4884689999999
 30
0.0
 11
936.91645299999993
 21
2051.4884689999999
 31
0.0
  0
CIRCLE
  5
7A73
  8
1
  6
CONTINUOUS
 10
1676.9164529999989
 20
2431.4884689999999
 30
0.0
 40
240.0
  0
LINE
  5
7A74
  8
1
  6
CONTINUOUS
 10
1701.3064529999999
 20
2334.5084689999999
 30
0.0
 11
1159.686453
 21
2198.2984689999998
 31
0.0
  0
LINE
  5
7A75
  8
1
  6
CONTINUOUS
 10
1122.2764529999999
 20
2311.9984690000001
 30
0.0
 11
1638.956453
 21
2523.9984690000001
 31
0.0
  0
LINE
  5
7A76
  8
1
  6
CONTINUOUS
 10
1662.4164529999989
 20
2786.4884689999999
 30
0.0
 11
982.41645299999993
 21
2381.4884689999999
 31
0.0
  0
ARC
  5
7A77
  8
1
  6
CONTINUOUS
 10
1703.916453
 20
2458.4884689999999
 30
0.0
 40
360.00999999999988
 50
94.299999999999969
 51
185.83000000000001
  0
ARC
  5
7A78
  8
1
  6
CONTINUOUS
 10
1654.916453
 20
2453.4884689999999
 30
0.0
 40
310.75999999999999
 50
185.83000000000001
 51
277.30999999999989
  0
LINE
  5
7A79
  8
1
  6
CONTINUOUS
 10
1946.916453
 20
2731.4884689999999
 30
0.0
 11
1336.9164529999989
 21
2731.4884689999999
 31
0.0
  0
CIRCLE
  5
7A7A
  8
1
  6
CONTINUOUS
 10
1676.9164529999989
 20
2431.4884689999999
 30
0.0
 40
215.0
  0
LINE
  5
7A7B
  8
1
  6
CONTINUOUS
 10
1336.9164529999989
 20
2731.4884689999999
 30
0.0
 11
1336.9164529999989
 21
2131.4884689999999
 31
0.0
  0
CIRCLE
  5
7A7C
  8
1
  6
CONTINUOUS
 10
1145.046452999999
 20
2256.4884689999999
 30
0.0
 40
60.0
  0
ARC
  5
7A7D
  8
1
  6
CONTINUOUS
 10
1145.046452999999
 20
2256.4884689999999
 30
0.0
 40
101.0
 50
322.88
 51
217.12
  0
LINE
  5
7A7E
  8
2
  6
CENTER
 10
1085.0464529999999
 20
2256.4884689999999
 30
0.0
 11
1205.0464529999999
 21
2256.4884689999999
 31
0.0
  0
LINE
  5
7A7F
  8
1
  6
CONTINUOUS
 10
982.41645299999993
 20
2131.4884689999999
 30
0.0
 11
982.41645299999993
 21
2381.4884689999999
 31
0.0
  0
LINE
  5
7A80
  8
1
  6
CONTINUOUS
 10
1045.0464529999999
 20
2131.4884689999999
 30
0.0
 11
1045.0464529999999
 21
2168.4884689999999
 31
0.0
  0
LINE
  5
7A81
  8
1
  6
CONTINUOUS
 10
1045.0464529999999
 20
2168.4884689999999
 30
0.0
 11
1064.516453
 21
2195.5284689999999
 31
0.0
  0
LINE
  5
7A82
  8
1
  6
CONTINUOUS
 10
1245.0464529999999
 20
2168.4884689999999
 30
0.0
 11
1225.5864529999999
 21
2195.5284689999999
 31
0.0
  0
LINE
  5
7A83
  8
1
  6
CONTINUOUS
 10
1245.0464529999999
 20
2131.4884689999999
 30
0.0
 11
1245.0464529999999
 21
2168.4884689999999
 31
0.0
  0
LINE
  5
7A84
  8
2
  6
CENTER
 10
1145.046452999999
 20
2196.4884689999999
 30
0.0
 11
1145.046452999999
 21
2316.4884689999999
 31
0.0
  0
LINE
  5
7A85
  8
1
  6
CONTINUOUS
 10
1852.416453
 20
2131.4884689999999
 30
0.0
 11
1852.416453
 21
2671.4884689999999
 31
0.0
  0
CIRCLE
  5
7A86
  8
1
  6
CONTINUOUS
 10
1676.9164529999989
 20
2431.4884689999999
 30
0.0
 40
100.0
  0
LINE
  5
7A87
  8
1
  6
CONTINUOUS
 10
1976.916453
 20
2392.4884689999999
 30
0.0
 11
1976.916453
 21
2846.4884689999999
 31
0.0
  0
LINE
  5
7A88
  8
2
  6
CENTER
 10
1676.9164529999989
 20
4078.454209072253
 30
0.0
 11
1676.9164529999989
 21
3435.617540978777
 31
0.0
  0
LINE
  5
7A89
  8
1
  6
CONTINUOUS
 10
1946.916453
 20
2731.4884689999999
 30
0.0
 11
1946.916453
 21
2131.4884689999999
 31
0.0
  0
LINE
  5
7A8A
  8
1
  6
CONTINUOUS
 10
1956.916453
 20
2419.4884689999999
 30
0.0
 11
1956.916453
 21
2819.348469
 31
0.0
  0
ARC
  5
7A8B
  8
1
  6
CONTINUOUS
 10
1659.916453
 20
2414.4884689999999
 30
0.0
 40
271.43999999999988
 50
277.30999999999989
 51
1.0600000000000001
  0
LINE
  5
7A8C
  8
2
  6
CENTER
 10
3273.0817685082179
 20
2431.4884689999999
 30
0.0
 11
2700.7256159343119
 21
2431.4884689999999
 31
0.0
  0
LINE
  5
7A8D
  8
1
  6
CONTINUOUS
 10
1936.916453
 20
1956.4884689999999
 30
0.0
 11
1936.916453
 21
1891.4884689999999
 31
0.0
  0
LINE
  5
7A8F
  8
1
  6
CONTINUOUS
 10
1936.916453
 20
2131.4884689999999
 30
0.0
 11
1936.916453
 21
2051.4884689999999
 31
0.0
  0
LINE
  5
7A90
  8
1
  6
CONTINUOUS
 10
1931.3164529999999
 20
2419.4884689999999
 30
0.0
 11
1976.916453
 21
2419.4884689999999
 31
0.0
  0
LINE
  5
7A91
  8
1
  6
CONTINUOUS
 10
1976.916453
 20
2819.4884689999999
 30
0.0
 11
1676.9164529999989
 21
2817.4884689999999
 31
0.0
  0
LINE
  5
7A92
  8
1
  6
CONTINUOUS
 10
1852.416453
 20
2671.4884689999999
 30
0.0
 11
1662.4164529999989
 21
2786.4884689999999
 31
0.0
  0
LINE
  5
7A93
  8
1
  6
CONTINUOUS
 10
1131.046452999999
 20
3642.2584689999999
 30
0.0
 11
936.91645299999993
 21
3642.2584689999999
 31
0.0
  0
LINE
  5
7A94
  8
1
  6
CONTINUOUS
 10
1936.916453
 20
4030.258468999999
 30
0.0
 11
936.91645299999993
 21
4030.258468999999
 31
0.0
  0
LINE
  5
7A95
  8
1
  6
CONTINUOUS
 10
936.91645299999993
 20
4030.258468999999
 30
0.0
 11
936.91645299999993
 21
3642.2584689999999
 31
0.0
  0
LINE
  5
7A96
  8
1
  6
CONTINUOUS
 10
1662.9164529999989
 20
3642.2584689999999
 30
0.0
 11
1159.046452999999
 21
3642.2584689999999
 31
0.0
  0
LINE
  5
7A97
  8
1
  6
CONTINUOUS
 10
982.41645299999993
 20
3606.2584689999999
 30
0.0
 11
1852.416453
 21
3606.2584689999999
 31
0.0
  0
LINE
  5
7A98
  8
1
  6
CONTINUOUS
 10
982.41645299999993
 20
3506.2584689999999
 30
0.0
 11
1852.416453
 21
3506.2584689999999
 31
0.0
  0
LINE
  5
7A99
  8
1
  6
CONTINUOUS
 10
1336.9164529999989
 20
3986.2584689999999
 30
0.0
 11
1976.916453
 21
3986.2584689999999
 31
0.0
  0
LINE
  5
7A9A
  8
1
  6
CONTINUOUS
 10
1336.9164529999989
 20
3686.2584689999999
 30
0.0
 11
1976.916453
 21
3686.2584689999999
 31
0.0
  0
LINE
  5
7A9B
  8
1
  6
CONTINUOUS
 10
1044.046452999999
 20
3673.7784689999999
 30
0.0
 11
1044.046452999999
 21
3916.4584690000002
 31
0.0
  0
LINE
  5
7A9C
  8
1
  6
CONTINUOUS
 10
1246.046452999999
 20
3673.7784689999999
 30
0.0
 11
1246.046452999999
 21
3916.4584690000002
 31
0.0
  0
LINE
  5
7A9D
  8
1
  6
CONTINUOUS
 10
1085.0464529999999
 20
3581.2584689999999
 30
0.0
 11
1205.0464529999999
 21
3581.2584689999999
 31
0.0
  0
LINE
  5
7A9E
  8
1
  6
CONTINUOUS
 10
1085.0464529999999
 20
3531.2584689999999
 30
0.0
 11
1205.0464529999999
 21
3531.2584689999999
 31
0.0
  0
LINE
  5
7A9F
  8
1
  6
CONTINUOUS
 10
1246.046452999999
 20
3673.7784689999999
 30
0.0
 11
1044.046452999999
 21
3673.7784689999999
 31
0.0
  0
LINE
  5
7AA0
  8
1
  6
CONTINUOUS
 10
1085.0464529999999
 20
3531.2584689999999
 30
0.0
 11
1085.0464529999999
 21
3581.2584689999999
 31
0.0
  0
LINE
  5
7AA1
  8
1
  6
CONTINUOUS
 10
982.41645299999993
 20
3506.2584689999999
 30
0.0
 11
982.41645299999993
 21
3606.2584689999999
 31
0.0
  0
LINE
  5
7AA2
  8
1
  6
CONTINUOUS
 10
1205.0464529999999
 20
3531.2584689999999
 30
0.0
 11
1205.0464529999999
 21
3581.2584689999999
 31
0.0
  0
LINE
  5
7AA3
  8
1
  6
CONTINUOUS
 10
1159.046452999999
 20
3581.2584689999999
 30
0.0
 11
1159.046452999999
 21
3673.7784689999999
 31
0.0
  0
LINE
  5
7AA4
  8
1
  6
CONTINUOUS
 10
1131.046452999999
 20
3581.2584689999999
 30
0.0
 11
1131.046452999999
 21
3673.7784689999999
 31
0.0
  0
LINE
  5
7AA5
  8
1
  6
CONTINUOUS
 10
1246.046452999999
 20
3916.4584690000002
 30
0.0
 11
1044.046452999999
 21
3916.4584690000002
 31
0.0
  0
LINE
  5
7AA6
  8
1
  6
CONTINUOUS
 10
1336.9164529999989
 20
3686.2584689999999
 30
0.0
 11
1336.9164529999989
 21
3986.2584689999999
 31
0.0
  0
LINE
  5
7AA7
  8
1
  6
CONTINUOUS
 10
1936.916453
 20
3642.2584689999999
 30
0.0
 11
1690.916453
 21
3642.2584689999999
 31
0.0
  0
LINE
  5
7AA8
  8
1
  6
CONTINUOUS
 10
1573.3964529999989
 20
3581.2584689999999
 30
0.0
 11
1776.916453
 21
3581.2584689999999
 31
0.0
  0
LINE
  5
7AA9
  8
1
  6
CONTINUOUS
 10
1573.3964529999989
 20
3531.2584689999999
 30
0.0
 11
1776.916453
 21
3531.2584689999999
 31
0.0
  0
LINE
  5
7AAA
  8
1
  6
CONTINUOUS
 10
1690.916453
 20
3581.2584689999999
 30
0.0
 11
1690.916453
 21
3686.2584689999999
 31
0.0
  0
LINE
  5
7AAB
  8
1
  6
CONTINUOUS
 10
1662.9164529999989
 20
3581.2584689999999
 30
0.0
 11
1662.9164529999989
 21
3686.2584689999999
 31
0.0
  0
LINE
  5
7AAC
  8
1
  6
CONTINUOUS
 10
1573.3964529999989
 20
3531.2584689999999
 30
0.0
 11
1573.3964529999989
 21
3581.2584689999999
 31
0.0
  0
LINE
  5
7AAD
  8
1
  6
CONTINUOUS
 10
1776.916453
 20
3531.2584689999999
 30
0.0
 11
1776.916453
 21
3581.2584689999999
 31
0.0
  0
LINE
  5
7AAE
  8
1
  6
CONTINUOUS
 10
1852.416453
 20
3506.2584689999999
 30
0.0
 11
1852.416453
 21
3606.2584689999999
 31
0.0
  0
LINE
  5
7AAF
  8
1
  6
CONTINUOUS
 10
1956.916453
 20
3686.2584689999999
 30
0.0
 11
1956.916453
 21
3986.2584689999999
 31
0.0
  0
LINE
  5
7AB0
  8
1
  6
CONTINUOUS
 10
1976.916453
 20
3659.2584689999999
 30
0.0
 11
1976.916453
 21
4013.2584689999999
 31
0.0
  0
LINE
  5
7AB1
  8
1
  6
CONTINUOUS
 10
1936.916453
 20
3686.2584689999999
 30
0.0
 11
1936.916453
 21
3642.2584689999999
 31
0.0
  0
LINE
  5
7AB2
  8
1
  6
CONTINUOUS
 10
1936.916453
 20
4030.258468999999
 30
0.0
 11
1936.916453
 21
3986.2584689999999
 31
0.0
  0
LINE
  5
7AB3
  8
1
  6
CONTINUOUS
 10
3291.3564780000002
 20
2131.4884689999999
 30
0.0
 11
2767.3564780000002
 21
2131.4884689999999
 31
0.0
  0
LINE
  5
7AB4
  8
1
  6
CONTINUOUS
 10
3291.3564780000002
 20
2051.4884689999999
 30
0.0
 11
2903.3564780000002
 21
2051.4884689999999
 31
0.0
  0
LINE
  5
7AB5
  8
1
  6
CONTINUOUS
 10
2903.3564780000002
 20
1956.4884689999999
 30
0.0
 11
3291.3564780000002
 21
1956.4884689999999
 31
0.0
  0
LINE
  5
7AB6
  8
1
  6
CONTINUOUS
 10
2903.3564780000002
 20
1891.4884689999999
 30
0.0
 11
3291.3564780000002
 21
1891.4884689999999
 31
0.0
  0
LINE
  5
7AB7
  8
1
  6
CONTINUOUS
 10
2947.3564780000002
 20
2419.4884689999999
 30
0.0
 11
3247.3564780000002
 21
2819.4884689999999
 31
0.0
  0
LINE
  5
7AB8
  8
1
  6
CONTINUOUS
 10
3247.3564780000002
 20
2419.4884689999999
 30
0.0
 11
2947.3564780000002
 21
2819.4884689999999
 31
0.0
  0
LINE
  5
7AB9
  8
1
  6
CONTINUOUS
 10
2792.3564780000002
 20
2329.718468999999
 30
0.0
 11
2792.3564780000002
 21
2533.2484690000001
 31
0.0
  0
LINE
  5
7ABA
  8
1
  6
CONTINUOUS
 10
2842.3564780000002
 20
2329.718468999999
 30
0.0
 11
2842.3564780000002
 21
2533.2484690000001
 31
0.0
  0
LINE
  5
7ABB
  8
1
  6
CONTINUOUS
 10
2867.3564780000002
 20
2131.4884689999999
 30
0.0
 11
2867.3564780000002
 21
2786.4884689999999
 31
0.0
  0
LINE
  5
7ABC
  8
1
  6
CONTINUOUS
 10
2767.3564780000002
 20
2131.4884689999999
 30
0.0
 11
2767.3564780000002
 21
2786.4884689999999
 31
0.0
  0
LINE
  5
7ABD
  8
1
  6
CONTINUOUS
 10
3247.3564780000002
 20
2819.4884689999999
 30
0.0
 11
3247.3564780000002
 21
2131.4884689999999
 31
0.0
  0
LINE
  5
7ABE
  8
1
  6
CONTINUOUS
 10
2947.3564780000002
 20
2819.4884689999999
 30
0.0
 11
2947.3564780000002
 21
2131.4884689999999
 31
0.0
  0
LINE
  5
7ABF
  8
1
  6
CONTINUOUS
 10
2947.3564780000002
 20
2419.4884689999999
 30
0.0
 11
3247.3564780000002
 21
2419.4884689999999
 31
0.0
  0
LINE
  5
7AC0
  8
1
  6
CONTINUOUS
 10
2903.3564780000002
 20
1956.4884689999999
 30
0.0
 11
2903.3564780000002
 21
1891.4884689999999
 31
0.0
  0
LINE
  5
7AC2
  8
1
  6
CONTINUOUS
 10
2792.3564780000002
 20
2329.718468999999
 30
0.0
 11
2842.3564780000002
 21
2329.718468999999
 31
0.0
  0
LINE
  5
7AC3
  8
1
  6
CONTINUOUS
 10
2792.3564780000002
 20
2196.4884689999999
 30
0.0
 11
2842.3564780000002
 21
2196.4884689999999
 31
0.0
  0
LINE
  5
7AC4
  8
1
  6
CONTINUOUS
 10
2792.3564780000002
 20
2316.4884689999999
 30
0.0
 11
2842.3564780000002
 21
2316.4884689999999
 31
0.0
  0
LINE
  5
7AC5
  8
1
  6
CONTINUOUS
 10
2792.3564780000002
 20
2196.4884689999999
 30
0.0
 11
2792.3564780000002
 21
2316.4884689999999
 31
0.0
  0
LINE
  5
7AC6
  8
1
  6
CONTINUOUS
 10
2842.3564780000002
 20
2419.2484690000001
 30
0.0
 11
2948.1564779999999
 21
2419.2484690000001
 31
0.0
  0
LINE
  5
7AC7
  8
1
  6
CONTINUOUS
 10
2842.3564780000002
 20
2447.2484690000001
 30
0.0
 11
2948.1564779999999
 21
2447.2484690000001
 31
0.0
  0
LINE
  5
7AC8
  8
1
  6
CONTINUOUS
 10
2842.3564780000002
 20
2242.4884689999999
 30
0.0
 11
2947.3564780000002
 21
2242.4884689999999
 31
0.0
  0
LINE
  5
7AC9
  8
1
  6
CONTINUOUS
 10
2842.3564780000002
 20
2270.4884689999999
 30
0.0
 11
2947.3564780000002
 21
2270.4884689999999
 31
0.0
  0
LINE
  5
7ACA
  8
1
  6
CONTINUOUS
 10
2842.3564780000002
 20
2196.4884689999999
 30
0.0
 11
2842.3564780000002
 21
2316.4884689999999
 31
0.0
  0
LINE
  5
7ACB
  8
1
  6
CONTINUOUS
 10
2903.3564780000002
 20
2131.4884689999999
 30
0.0
 11
2903.3564780000002
 21
2051.4884689999999
 31
0.0
  0
LINE
  5
7ACC
  8
1
  6
CONTINUOUS
 10
2947.3564780000002
 20
2819.4884689999999
 30
0.0
 11
3247.3564780000002
 21
2819.4884689999999
 31
0.0
  0
LINE
  5
7ACD
  8
1
  6
CONTINUOUS
 10
2792.3564780000002
 20
2533.2484690000001
 30
0.0
 11
2842.3564780000002
 21
2533.2484690000001
 31
0.0
  0
LINE
  5
7ACE
  8
1
  6
CONTINUOUS
 10
2767.3564780000002
 20
2786.4884689999999
 30
0.0
 11
2867.3564780000002
 21
2786.4884689999999
 31
0.0
  0
LINE
  5
7ACF
  8
1
  6
CONTINUOUS
 10
3291.3564780000002
 20
1956.4884689999999
 30
0.0
 11
3291.3564780000002
 21
1891.4884689999999
 31
0.0
  0
LINE
  5
7AD0
  8
1
  6
CONTINUOUS
 10
3291.3564780000002
 20
2131.4884689999999
 30
0.0
 11
3291.3564780000002
 21
2051.4884689999999
 31
0.0
  0
LINE
  5
7AD1
  8
2
  6
CENTER
 10
3097.3564780000002
 20
2873.9077390000002
 30
0.0
 11
3097.3564780000002
 21
1891.4884689999999
 31
0.0
  0
LINE
  5
7AD2
  8
2
  6
CENTER
 10
897.60480299999995
 20
3836.2584689999999
 30
0.0
 11
2047.145852365443
 21
3836.2584689999999
 31
0.0
  0
LINE
  5
7AD3
  8
2
  6
CENTER
 10
1676.9164529999989
 20
2886.9584491697842
 30
0.0
 11
1676.9164529999989
 21
1891.4884689999999
 31
0.0
  0
LINE
  5
7AD4
  8
2
  6
CENTER
 10
2141.537910999999
 20
2431.4884689999999
 30
0.0
 11
944.22999745988636
 21
2431.4884689999999
 31
0.0
  0
LINE
  5
7AD5
  8
4
  6
CONTINUOUS
 10
3700.0
 20
1000.0
 30
0.0
 11
3700.0
 21
600.0
 31
0.0
  0
LINE
  5
7AD6
  8
4
  6
CONTINUOUS
 10
2300.0
 20
1000.0
 30
0.0
 11
2300.0
 21
600.0
 31
0.0
  0
LINE
  5
7AD7
  8
4
  6
CONTINUOUS
 10
1300.0
 20
1000.0
 30
0.0
 11
1300.0
 21
600.0
 31
0.0
  0
LINE
  5
7ADA
  8
4
  6
CONTINUOUS
 10
1300.0
 20
600.0
 30
0.0
 11
3700.0
 21
600.0
 31
0.0
  0
LINE
  5
7ADB
  8
4
  6
CONTINUOUS
 10
1300.0
 20
800.0
 30
0.0
 11
3700.0
 21
800.0
 31
0.0
  0
TEXT
  5
7ADC
  8
4
  6
CONTINUOUS
 10
1377.004162
 20
863.086052
 30
0.0
 40
100.0
  1
機器名称
  0
TEXT
  5
7ADD
  8
4
  6
CONTINUOUS
 10
1372.516212
 20
643.29031299999986
 30
0.0
 40
100.0
  1
機器型番
  0
TEXT
  5
7ADE
  8
4
  6
CONTINUOUS
 10
2355.3574910000002
 20
845.14353800000015
 30
0.0
 40
100.0
  1
ミツヤ多翼送風機
  0
TEXT
  5
7ADF
  8
4
  6
CONTINUOUS
 10
2373.3089909999999
 20
634.31916899999999
 30
0.0
 40
100.0
  1
MFE#2 1/2-4
  0
TEXT
  5
7AE1
  8
4
  6
CONTINUOUS
 10
1599.098604
 20
4766.8576830000002
 30
0.0
 40
108.0
  1
床置防振ベット
  0
TEXT
  5
7AE2
  8
4
  6
CONTINUOUS
 10
632.33518700000002
 20
5067.7619520000007
 30
0.0
 40
144.0
  1
ベルト駆動式片吸込両持排煙ファン
  0
LINE
  5
7AE3
  8
4
  6
CONTINUOUS
 10
500.0
 20
4938.8175090000004
 30
0.0
 11
3700.0
 21
4938.8175090000004
 31
0.0
  0
LINE
  5
7AE4
  8
4
  6
CONTINUOUS
 10
500.0
 20
5338.8175090000004
 30
0.0
 11
3700.0
 21
5338.8175090000004
 31
0.0
  0
LINE
  5
7AE5
  8
4
  6
CONTINUOUS
 10
1300.0
 20
1000.0
 30
0.0
 11
3700.0
 21
1000.0
 31
0.0
  0
LINE
  5
7AE6
  8
4
  6
CONTINUOUS
 10
500.0
 20
5338.8175090000004
 30
0.0
 11
500.0
 21
4938.8175090000004
 31
0.0
  0
TEXT
  5
7AE7
  8
4
  6
CONTINUOUS
 10
638.76077299999997
 20
4764.6389549999994
 30
0.0
 40
108.0
  1
右回転右横向
  0
TEXT
  5
7AE8
  8
4
  6
CONTINUOUS
 10
2937.9391179999998
 20
5412.122163
 30
0.0
 40
112.0
  1
No.
  0
TEXT
  5
7AE9
  8
4
  6
CONTINUOUS
 10
2622.5921250000001
 20
4766.8576830000002
 30
0.0
 40
108.0
  1
縮尺：1/20
  0
LINE
  5
7AEA
  8
4
  6
CONTINUOUS
 10
3700.0
 20
5338.8175090000004
 30
0.0
 11
3700.0
 21
4938.8175090000004
 31
0.0
  0
LINE
  5
7AEC
  8
4
  6
CONTINUOUS
 10
2881.234845
 20
5362.5271659999999
 30
0.0
 11
2881.234845
 21
5573.3045229999998
 31
0.0
  0
LINE
  5
7AED
  8
4
  6
CONTINUOUS
 10
2881.234845
 20
5573.3045229999998
 30
0.0
 11
3700.0
 21
5573.3045229999998
 31
0.0
  0
LINE
  5
7AEE
  8
4
  6
CONTINUOUS
 10
3700.0
 20
5573.3045229999998
 30
0.0
 11
3700.0
 21
5362.5271659999999
 31
0.0
  0
LINE
  5
7AEF
  8
4
  6
CONTINUOUS
 10
3700.0
 20
5362.5271659999999
 30
0.0
 11
2881.234845
 21
5362.5271659999999
 31
0.0
  0
DIMENSION
  5
7B07
  8
3
  6
CONTINUOUS
  2
*D1
 10
2106.8554130000002
 20
2419.4884689999999
 30
0.0
 11
2106.8554129999989
 21
2616.6114349999998
 31
0.0
 70
   128
 13
1976.916453
 23
2819.4884689999999
 33
0.0
 14
1976.916453
 24
2419.4884689999999
 34
0.0
 50
90.0
1001
ACAD
1000
DSTYLE
1002
{
1070
   287
1070
     3
1070
   287
1070
     3
1070
    40
1040
20.0
1070
   143
1040
0.039
1070
   172
1070
     1
1070
   271
1070
     0
1070
   279
1070
     0
1070
   288
1070
     1
1002
}
  0
DIMENSION
  5
7B14
  8
3
  6
CONTINUOUS
  2
*D2
 10
2213.0625829999999
 20
2819.4884689999999
 30
0.0
 11
2213.0625829999999
 21
2608.7499939999998
 31
0.0
 70
   128
 13
2141.537910999999
 23
2431.4884689999999
 33
0.0
 14
1976.916453
 24
2819.4884689999999
 34
0.0
 50
90.0
1001
ACAD
1000
DSTYLE
1002
{
1070
   287
1070
     3
1070
   287
1070
     3
1070
    40
1040
20.0
1070
   143
1040
0.039
1070
   172
1070
     1
1070
   271
1070
     0
1070
   279
1070
     0
1070
   288
1070
     1
1002
}
  0
DIMENSION
  5
7B2C
  8
3
  6
CONTINUOUS
  2
*D3
 10
2213.0625829999999
 20
2051.4884689999999
 30
0.0
 11
2163.062582999999
 21
2241.4884689999999
 31
0.0
 70
     0
 13
2141.537910999999
 23
2431.4884689999999
 33
0.0
 14
1936.916453
 24
2051.4884689999999
 34
0.0
 50
90.0
1001
ACAD
1000
DSTYLE
1002
{
1070
   287
1070
     4
1070
   287
1070
     4
1070
    40
1040
20.0
1070
    75
1070
     1
1070
   143
1040
0.039
1070
   172
1070
     1
1070
   271
1070
     0
1070
   279
1070
     1
1070
   288
1070
     1
1002
}
  0
DIMENSION
  5
7B46
  8
3
  6
CONTINUOUS
  2
*D4
 10
1676.9164529999989
 20
2916.5106329999999
 30
0.0
 11
1814.0593101428569
 21
2916.5106329999999
 31
0.0
 70
   128
 13
1976.916453
 23
2846.4884689999999
 33
0.0
 14
1676.9164529999989
 24
2886.9584491697842
 34
0.0
1001
ACAD
1000
DSTYLE
1002
{
1070
   287
1070
     3
1070
   287
1070
     3
1070
    40
1040
20.0
1070
   143
1040
0.039
1070
   172
1070
     1
1070
   271
1070
     0
1070
   279
1070
     0
1070
   288
1070
     1
1002
}
  0
DIMENSION
  5
7B52
  8
3
  6
CONTINUOUS
  2
*D5
 10
1336.9164529999989
 20
2916.5106329999999
 30
0.0
 11
1506.9164529999989
 21
2966.5106329999999
 31
0.0
 70
     0
 13
1676.9164529999989
 23
2886.9584491697842
 33
0.0
 14
1336.9164529999989
 24
2731.4884689999999
 34
0.0
1001
ACAD
1000
DSTYLE
1002
{
1070
   287
1070
     4
1070
   287
1070
     4
1070
    40
1040
20.0
1070
    75
1070
     1
1070
   143
1040
0.039
1070
   172
1070
     1
1070
   271
1070
     0
1070
   279
1070
     1
1070
   288
1070
     1
1002
}
  0
DIMENSION
  5
7BB3
  8
3
  6
CONTINUOUS
  2
*D6
 10
3380.7315670000012
 20
2216.4884689999999
 30
0.0
 11
3380.7315669999998
 21
2424.0060910000002
 31
0.0
 70
   128
 13
3247.3564780000002
 23
2646.4884689999999
 33
0.0
 14
3247.3564780000002
 24
2216.4884689999999
 34
0.0
 50
90.0
1001
ACAD
1000
DSTYLE
1002
{
1070
   287
1070
     3
1070
   287
1070
     3
1070
     3
1000
φ<>
1070
    40
1040
20.0
1070
   143
1040
0.039
1070
   172
1070
     1
1070
   271
1070
     0
1070
   279
1070
     0
1070
   288
1070
     1
1002
}
  0
DIMENSION
  5
7BC0
  8
3
  6
CONTINUOUS
  2
*D7
 10
1936.916453
 20
4142.1255380000011
 30
0.0
 11
1442.5362500000001
 21
4142.1255380000011
 31
0.0
 70
   128
 13
936.91645299999993
 23
4030.258468999999
 33
0.0
 14
1936.916453
 24
4030.258468999999
 34
0.0
1001
ACAD
1000
DSTYLE
1002
{
1070
   287
1070
     3
1070
   287
1070
     3
1070
    40
1040
20.0
1070
   143
1040
0.039
1070
   172
1070
     1
1070
   271
1070
     0
1070
   279
1070
     0
1070
   288
1070
     1
1002
}
  0
DIMENSION
  5
7BCD
  8
3
  6
CONTINUOUS
  2
*D8
 10
807.48162400000047
 20
3642.2584689999999
 30
0.0
 11
807.48162400000001
 21
3833.553864
 31
0.0
 70
   128
 13
936.91645299999993
 23
4030.258468999999
 33
0.0
 14
936.91645299999993
 24
3642.2584689999999
 34
0.0
 50
90.0
1001
ACAD
1000
DSTYLE
1002
{
1070
   287
1070
     3
1070
   287
1070
     3
1070
    40
1040
20.0
1070
   143
1040
0.039
1070
   172
1070
     1
1070
   271
1070
     0
1070
   279
1070
     0
1070
   288
1070
     1
1002
}
  0
LINE
  5
7C92
  8
1
  6
CONTINUOUS
 10
3248.3564780000002
 20
2646.4884689999999
 30
0.0
 11
3248.3564780000002
 21
2216.4884689999999
 31
0.0
  0
DIMENSION
  5
7C9F
  8
3
  6
CONTINUOUS
  2
*D9
 10
3247.3564780000002
 20
2936.520266
 30
0.0
 11
3084.499335
 21
2936.520266
 31
0.0
 70
   128
 13
2947.3564780000002
 23
2819.4884689999999
 33
0.0
 14
3247.3564780000002
 24
2819.4884689999999
 34
0.0
1001
ACAD
1000
DSTYLE
1002
{
1070
   287
1070
     3
1070
   287
1070
     3
1070
    40
1040
20.0
1070
   143
1040
0.039
1070
   172
1070
     1
1070
   271
1070
     0
1070
   279
1070
     0
1070
   288
1070
     1
1002
}
  0
DIMENSION
  5
7CAD
  8
3
  6
CONTINUOUS
  2
*D10
 10
3097.3564780000002
 20
3068.1281716637741
 30
0.0
 11
2951.6421922857139
 21
3068.1281716637741
 31
0.0
 70
   128
  1
MAX\P380
 13
2767.3564780000002
 23
2786.4884689999999
 33
0.0
 14
3097.3564780000002
 24
3032.3668854332191
 34
0.0
1001
ACAD
1000
DSTYLE
1002
{
1070
   287
1070
     3
1070
   287
1070
     3
1070
    40
1040
20.0
1070
   143
1040
0.039
1070
   172
1070
     1
1070
   271
1070
     0
1070
   279
1070
     0
1070
   288
1070
     1
1002
}
  0
DIMENSION
  5
7CBD
  8
3
  6
CONTINUOUS
  2
*D11
 10
3248.3564780000002
 20
3068.1281716637741
 30
0.0
 11
3165.7021030000001
 21
3068.412689663774
 31
0.0
 70
   128
 13
3097.3564780000002
 23
3035.0864382549321
 33
0.0
 14
3248.3564780000002
 24
2646.4884689999999
 34
0.0
1001
ACAD
1000
DSTYLE
1002
{
1070
   287
1070
     4
1070
   287
1070
     4
1070
    40
1040
20.0
1070
    75
1070
     1
1070
   143
1040
0.039
1070
   172
1070
     1
1070
   271
1070
     0
1070
   279
1070
     1
1070
   288
1070
     1
1002
}
  0
DIMENSION
  5
7E44
  8
3
  2
*D12
 10
1676.9164529999989
 20
1759.0518668758921
 30
0.0
 11
1306.9164529999989
 21
1809.0518668758921
 31
0.0
 70
     0
 13
936.91645299999993
 23
1891.4884689999999
 33
0.0
 14
1676.9164529999989
 24
1891.4884689999999
 34
0.0
1001
ACAD
1000
DSTYLE
1002
{
1070
   287
1070
     3
1070
   287
1070
     3
1070
    40
1040
20.0
1070
   143
1040
0.039
1070
   172
1070
     1
1070
   271
1070
     0
1070
   279
1070
     0
1002
}
  0
DIMENSION
  5
7E53
  8
3
  2
*D13
 10
1936.916453
 20
1759.0518668758921
 30
0.0
 11
1806.9164529999989
 21
1809.0518668758921
 31
0.0
 70
     0
 13
1676.9164529999989
 23
1891.4884689999999
 33
0.0
 14
1936.916453
 24
1891.4884689999999
 34
0.0
1001
ACAD
1000
DSTYLE
1002
{
1070
   287
1070
     3
1070
   287
1070
     3
1070
    40
1040
20.0
1070
   143
1040
0.039
1070
   172
1070
     1
1070
   271
1070
     0
1070
   279
1070
     0
1002
}
  0
DIMENSION
  5
7E62
  8
3
  2
*D14
 10
3097.3564780000002
 20
1759.0518668758921
 30
0.0
 11
3000.3564780000002
 21
1809.0518668758921
 31
0.0
 70
     0
 13
2903.3564780000002
 23
1891.4884689999999
 33
0.0
 14
3097.3564780000002
 24
1891.4884689999999
 34
0.0
1001
ACAD
1000
DSTYLE
1002
{
1070
   287
1070
     3
1070
   287
1070
     3
1070
    40
1040
20.0
1070
   143
1040
0.039
1070
   172
1070
     1
1070
   271
1070
     0
1070
   279
1070
     0
1002
}
  0
DIMENSION
  5
7E71
  8
3
  2
*D15
 10
3291.3564780000002
 20
1759.0518668758921
 30
0.0
 11
3194.3564779999988
 21
1809.0518668758921
 31
0.0
 70
     0
 13
3097.3564780000002
 23
1891.4884689999999
 33
0.0
 14
3291.3564780000002
 24
1891.4884689999999
 34
0.0
1001
ACAD
1000
DSTYLE
1002
{
1070
   287
1070
     3
1070
   287
1070
     3
1070
    40
1040
20.0
1070
   143
1040
0.039
1070
   172
1070
     1
1070
   271
1070
     0
1070
   279
1070
     0
1002
}
  0
DIMENSION
  5
7E88
  8
3
  2
*D17
 10
2215.2033355367598
 20
1891.4884689999999
 30
0.0
 11
2165.2033355367598
 21
1742.917040428571
 31
0.0
 70
     0
 13
1936.916453
 23
1956.4884689999999
 33
0.0
 14
1936.916453
 24
1891.4884689999999
 34
0.0
 50
90.0
1001
ACAD
1000
DSTYLE
1002
{
1070
   287
1070
     3
1070
   287
1070
     3
1070
    40
1040
20.0
1070
   143
1040
0.039
1070
   172
1070
     1
1070
   271
1070
     0
1070
   279
1070
     0
1070
     6
1000
DOT
1002
}
  0
DIMENSION
  5
7E97
  8
3
  2
*D18
 10
2215.2033355367598
 20
2051.4884689999999
 30
0.0
 11
2310.9176212510461
 21
2003.9884689999999
 31
0.0
 70
     0
 13
1936.916453
 23
1956.4884689999999
 33
0.0
 14
1936.916453
 24
2051.4884689999999
 34
0.0
 50
90.0
1001
ACAD
1000
DSTYLE
1002
{
1070
   172
1070
     1
1070
    40
1040
20.0
1070
     3
1000
(<>)
1070
   271
1070
     0
1070
     6
1000
_DOT
1070
   143
1040
0.039
1002
}
  0
ENDSEC
  0
EOF
