  0
SECTION
  2
HEADER
  9
$ACADVER
  1
AC1009
  9
$INSBASE
 10
0.0
 20
0.0
 30
0.0
  9
$EXTMIN
 10
500.0
 20
600.0
 30
0.0
  9
$EXTMAX
 10
3700.0
 20
5573.3045229999998
 30
0.0
  9
$LIMMIN
 10
0.0
 20
0.0
  9
$LIMMAX
 10
297.0
 20
210.0
  9
$ORTHOMODE
 70
     0
  9
$REGENMODE
 70
     1
  9
$FILLMODE
 70
     0
  9
$QTEXTMODE
 70
     0
  9
$MIRRTEXT
 70
     1
  9
$DRAGMODE
 70
     2
  9
$LTSCALE
 40
100.0
  9
$OSMODE
 70
    37
  9
$ATTMODE
 70
     1
  9
$TEXTSIZE
 40
180.0
  9
$TRACEWID
 40
0.05
  9
$TEXTSTYLE
  7
STANDARD
  9
$CLAYER
  8
3
  9
$CELTYPE
  6
BYLAYER
  9
$CECOLOR
 62
   256
  9
$DIMSCALE
 40
20.0
  9
$DIMASZ
 40
2.0
  9
$DIMEXO
 40
0.5
  9
$DIMDLI
 40
10.0
  9
$DIMRND
 40
0.0
  9
$DIMDLE
 40
0.0
  9
$DIMEXE
 40
1.0
  9
$DIMTP
 40
1.0
  9
$DIMTM
 40
1.0
  9
$DIMTXT
 40
3.0
  9
$DIMCEN
 40
0.0
  9
$DIMTSZ
 40
0.0
  9
$DIMTOL
 70
     0
  9
$DIMLIM
 70
     0
  9
$DIMTIH
 70
     0
  9
$DIMTOH
 70
     0
  9
$DIMSE1
 70
     0
  9
$DIMSE2
 70
     0
  9
$DIMTAD
 70
     1
  9
$DIMZIN
 70
     8
  9
$DIMBLK
  1

  9
$DIMASO
 70
     1
  9
$DIMSHO
 70
     1
  9
$DIMPOST
  1
(<>)
  9
$DIMAPOST
  1

  9
$DIMALT
 70
     0
  9
$DIMALTD
 70
     2
  9
$DIMALTF
 40
0.039
  9
$DIMLFAC
 40
1.0
  9
$DIMTOFL
 70
     1
  9
$DIMTVP
 40
0.0
  9
$DIMTIX
 70
     0
  9
$DIMSOXD
 70
     0
  9
$DIMSAH
 70
     1
  9
$DIMBLK1
  1
DOT
  9
$DIMBLK2
  1
OPEN
  9
$DIMSTYLE
  2
IGA
  9
$DIMCLRD
 70
     0
  9
$DIMCLRE
 70
     0
  9
$DIMCLRT
 70
     0
  9
$DIMTFAC
 40
10.0
  9
$DIMGAP
 40
1.0
  9
$LUNITS
 70
     2
  9
$LUPREC
 70
     3
  9
$SKETCHINC
 40
0.1
  9
$FILLETRAD
 40
50.0
  9
$AUNITS
 70
     0
  9
$AUPREC
 70
     0
  9
$MENU
  1
acad
  9
$ELEVATION
 40
0.0
  9
$PELEVATION
 40
0.0
  9
$THICKNESS
 40
0.0
  9
$LIMCHECK
 70
     0
  9
$BLIPMODE
 70
     0
  9
$CHAMFERA
 40
0.5
  9
$CHAMFERB
 40
0.5
  9
$SKPOLY
 70
     0
  9
$TDCREATE
 40
2450725.3811796289
  9
$TDUPDATE
 40
2454953.8351392699
  9
$TDINDWG
 40
0.0061585301
  9
$TDUSRTIMER
 40
0.0061585301
  9
$USRTIMER
 70
     1
  9
$ANGBASE
 50
0.0
  9
$ANGDIR
 70
     0
  9
$PDMODE
 70
     0
  9
$PDSIZE
 40
0.0
  9
$PLINEWID
 40
0.0
  9
$COORDS
 70
     1
  9
$SPLFRAME
 70
     0
  9
$SPLINETYPE
 70
     6
  9
$SPLINESEGS
 70
     8
  9
$ATTDIA
 70
     0
  9
$ATTREQ
 70
     1
  9
$HANDLING
 70
 10241
  9
$HANDSEED
  5
8023
  9
$SURFTAB1
 70
     6
  9
$SURFTAB2
 70
     6
  9
$SURFTYPE
 70
     6
  9
$SURFU
 70
     6
  9
$SURFV
 70
     6
  9
$UCSNAME
  2

  9
$UCSORG
 10
0.0
 20
0.0
 30
0.0
  9
$UCSXDIR
 10
1.0
 20
0.0
 30
0.0
  9
$UCSYDIR
 10
0.0
 20
1.0
 30
0.0
  9
$PUCSNAME
  2

  9
$PUCSORG
 10
0.0
 20
0.0
 30
0.0
  9
$PUCSXDIR
 10
1.0
 20
0.0
 30
0.0
  9
$PUCSYDIR
 10
0.0
 20
1.0
 30
0.0
  9
$USERI1
 70
     0
  9
$USERI2
 70
     0
  9
$USERI3
 70
     0
  9
$USERI4
 70
     0
  9
$USERI5
 70
     0
  9
$USERR1
 40
0.0
  9
$USERR2
 40
0.0
  9
$USERR3
 40
0.0
  9
$USERR4
 40
0.0
  9
$USERR5
 40
0.0
  9
$WORLDVIEW
 70
     1
  9
$SHADEDGE
 70
     3
  9
$SHADEDIF
 70
    70
  9
$TILEMODE
 70
     1
  9
$MAXACTVP
 70
    16
  9
$PLIMCHECK
 70
     0
  9
$PEXTMIN
 10
1.0000000000000000E+020
 20
1.0000000000000000E+020
 30
1.0000000000000000E+020
  9
$PEXTMAX
 10
-1.0000000000000000E+020
 20
-1.0000000000000000E+020
 30
-1.0000000000000000E+020
  9
$PLIMMIN
 10
0.0
 20
0.0
  9
$PLIMMAX
 10
12.0
 20
9.0
  9
$UNITMODE
 70
     0
  9
$VISRETAIN
 70
     0
  9
$PLINEGEN
 70
     0
  9
$PSLTSCALE
 70
     1
  0
ENDSEC
  0
SECTION
  2
TABLES
  0
TABLE
  2
VPORT
 70
     2
  0
VPORT
  2
*ACTIVE
 70
     0
 10
0.0
 20
0.0
 11
1.0
 21
1.0
 12
5849.9813286963918
 22
3790.811196579511
 13
0.0
 23
0.0
 14
10.0
 24
10.0
 15
10.0
 25
10.0
 16
0.0
 26
0.0
 36
1.0
 17
0.0
 27
0.0
 37
0.0
 40
7720.8617819453802
 41
1.5051150895140659
 42
50.0
 43
0.0
 44
0.0
 50
0.0
 51
0.0
 71
     0
 72
   100
 73
     1
 74
     0
 75
     0
 76
     0
 77
     0
 78
     0
  0
ENDTAB
  0
TABLE
  2
LTYPE
 70
     2
  0
LTYPE
  2
CONTINUOUS
 70
     0
  3
Solid line
 72
    65
 73
     0
 40
0.0
  0
LTYPE
  2
CENTER
 70
     0
  3
____ _ ____ _ ____ _ ____ _ ____ _ ____ _ ____ 
 72
    65
 73
     4
 40
2.0
 49
1.25
 49
-0.25
 49
0.25
 49
-0.25
  0
ENDTAB
  0
TABLE
  2
LAYER
 70
     6
  0
LAYER
  2
0
 70
     0
 62
     7
  6
CONTINUOUS
  0
LAYER
  2
3
 70
     0
 62
     2
  6
CONTINUOUS
  0
LAYER
  2
2
 70
     0
 62
     3
  6
CENTER
  0
LAYER
  2
1
 70
     0
 62
     4
  6
CONTINUOUS
  0
LAYER
  2
4
 70
     0
 62
     7
  6
CONTINUOUS
  0
LAYER
  2
DEFPOINTS
 70
     0
 62
     7
  6
CONTINUOUS
  0
ENDTAB
  0
TABLE
  2
STYLE
 70
     1
  0
STYLE
  2
STANDARD
 70
     0
 40
0.0
 41
1.0
 50
0.0
 71
     0
 42
180.0
  3
simplex.shx
  4
extfont.shx
  0
ENDTAB
  0
TABLE
  2
VIEW
 70
     0
  0
ENDTAB
  0
TABLE
  2
UCS
 70
     0
  0
ENDTAB
  0
TABLE
  2
APPID
 70
     1
  0
APPID
  2
ACAD
 70
     0
  0
ENDTAB
  0
TABLE
  2
DIMSTYLE
 70
     1
  0
DIMSTYLE
  2
IGA
 70
     0
  3

  4

  5

  6
OPEN
  7
OPEN
 40
2.0
 41
2.0
 42
0.5
 43
10.0
 44
1.0
 45
0.0
 46
0.0
 47
1.0
 48
1.0
140
3.0
141
0.0
142
0.0
143
0.03937
144
1.0
145
0.0
146
10.0
147
1.0
 71
     0
 72
     0
 73
     0
 74
     0
 75
     0
 76
     0
 77
     1
 78
     8
170
     0
171
     2
172
     0
173
     1
174
     0
175
     0
176
     0
177
     0
178
     0
  0
ENDTAB
  0
ENDSEC
  0
SECTION
  2
BLOCKS
  0
BLOCK
  8
0
  2
$MODEL_SPACE
 70
     0
 10
0.0
 20
0.0
 30
0.0
  3
$MODEL_SPACE
  1

  0
ENDBLK
  5
1B
  8
0
  0
BLOCK
 67
     1
  8
0
  2
$PAPER_SPACE
 70
     0
 10
0.0
 20
0.0
 30
0.0
  3
$PAPER_SPACE
  1

  0
ENDBLK
  5
18
 67
     1
  8
0
  0
BLOCK
  8
0
  2
_OPEN
 70
     0
 10
0.0
 20
0.0
 30
0.0
  3
_OPEN
  1

  0
LINE
  5
7B86
  8
0
  6
BYBLOCK
 62
     0
 10
-1.0
 20
0.166667
 30
0.0
 11
0.0
 21
0.0
 31
0.0
  0
LINE
  5
7B87
  8
0
  6
BYBLOCK
 62
     0
 10
0.0
 20
0.0
 30
0.0
 11
-1.0
 21
-0.166667
 31
0.0
  0
LINE
  5
7B88
  8
0
  6
BYBLOCK
 62
     0
 10
0.0
 20
0.0
 30
0.0
 11
-1.0
 21
0.0
 31
0.0
  0
ENDBLK
  5
7B89
  8
0
  0
BLOCK
  8
0
  2
*D1
 70
     1
 10
0.0
 20
0.0
 30
0.0
  3
*D1
  1

  0
LINE
  5
7F88
  8
3
  6
CONTINUOUS
 62
     0
 10
1148.940108
 20
2910.7386069999998
 30
0.0
 11
1148.940108
 21
2994.3935270000002
 31
0.0
  0
LINE
  5
7F89
  8
3
  6
CONTINUOUS
 62
     0
 10
1548.940108
 20
2910.7386069999998
 30
0.0
 11
1548.940108
 21
2994.3935270000002
 31
0.0
  0
LINE
  5
7F8A
  8
3
  6
CONTINUOUS
 62
     0
 10
1188.940108
 20
2974.3935270000002
 30
0.0
 11
1508.940108
 21
2974.3935270000002
 31
0.0
  0
INSERT
  5
7F8B
  8
3
  6
CONTINUOUS
 62
     0
  2
_OPEN
 10
1148.940108
 20
2974.3935270000002
 30
0.0
 41
40.0
 42
40.0
 43
40.0
 50
180.0
  0
INSERT
  5
7F8C
  8
3
  6
CONTINUOUS
 62
     0
  2
_OPEN
 10
1548.940108
 20
2974.3935270000002
 30
0.0
 41
40.0
 42
40.0
 43
40.0
  0
TEXT
  8
3
  40
60
  5
8013
  62
0
  72
0
  71
0
 10
1207.74
 20
2918.19
 30
0.000000
  1
400
  0
POINT
  5
7F8E
  8
DEFPOINTS
  6
CONTINUOUS
 62
     0
 10
1148.940108
 20
2900.7386069999998
 30
0.0
  0
POINT
  5
7F8F
  8
DEFPOINTS
  6
CONTINUOUS
 62
     0
 10
1548.940108
 20
2900.7386069999998
 30
0.0
  0
POINT
  5
7F90
  8
DEFPOINTS
  6
CONTINUOUS
 62
     0
 10
1548.940108
 20
2974.3935270000002
 30
0.0
  0
ENDBLK
  5
7CCB
  8
0
  0
BLOCK
  8
0
  2
*D2
 70
     1
 10
0.0
 20
0.0
 30
0.0
  3
*D2
  1

  0
LINE
  5
7F91
  8
3
  6
CONTINUOUS
 62
     0
 10
1548.940108
 20
2984.3935270000002
 30
0.0
 11
1548.940108
 21
3127.4112960000002
 31
0.0
  0
LINE
  5
7F92
  8
3
  6
CONTINUOUS
 62
     0
 10
1160.9401079999991
 20
3078.5602740190589
 30
0.0
 11
1160.9401079999991
 21
3127.4112960000002
 31
0.0
  0
LINE
  5
7F93
  8
3
  6
CONTINUOUS
 62
     0
 10
1508.940108
 20
3107.4112960000002
 30
0.0
 11
1200.940108
 21
3107.4112960000002
 31
0.0
  0
INSERT
  5
7F94
  8
3
  6
CONTINUOUS
 62
     0
  2
_OPEN
 10
1548.940108
 20
3107.4112960000002
 30
0.0
 41
40.0
 42
40.0
 43
40.0
  0
INSERT
  5
7F95
  8
3
  6
CONTINUOUS
 62
     0
  2
_OPEN
 10
1160.9401079999991
 20
3107.4112960000002
 30
0.0
 41
40.0
 42
40.0
 43
40.0
 50
180.0
  0
TEXT
  8
3
  40
60
  5
8014
  62
0
  72
0
  71
0
 10
1207.74
 20
3051.21
 30
0.000000
  1
388
  0
POINT
  5
7F97
  8
DEFPOINTS
  6
CONTINUOUS
 62
     0
 10
1548.940108
 20
2974.3935270000002
 30
0.0
  0
POINT
  5
7F98
  8
DEFPOINTS
  6
CONTINUOUS
 62
     0
 10
1160.9401079999991
 20
3068.5602740190589
 30
0.0
  0
POINT
  5
7F99
  8
DEFPOINTS
  6
CONTINUOUS
 62
     0
 10
1160.9401079999991
 20
3107.4112960000002
 30
0.0
  0
ENDBLK
  5
7DBB
  8
0
  0
BLOCK
  8
0
  2
*D3
 70
     1
 10
0.0
 20
0.0
 30
0.0
  3
*D3
  1

  0
LINE
  5
7F9A
  8
3
  6
CONTINUOUS
 62
     0
 10
860.9401079999999
 20
2880.7386069999998
 30
0.0
 11
860.9401079999999
 21
3127.4112960000002
 31
0.0
  0
LINE
  5
7F9B
  8
3
  6
CONTINUOUS
 62
     0
 10
1120.940108
 20
3107.4112960000002
 30
0.0
 11
900.9401079999999
 21
3107.4112960000002
 31
0.0
  0
INSERT
  5
7F9C
  8
3
  6
CONTINUOUS
 62
     0
  2
_OPEN
 10
1160.9401079999991
 20
3107.4112960000002
 30
0.0
 41
40.0
 42
40.0
 43
40.0
  0
INSERT
  5
7F9D
  8
3
  6
CONTINUOUS
 62
     0
  2
_OPEN
 10
860.9401079999999
 20
3107.4112960000002
 30
0.0
 41
40.0
 42
40.0
 43
40.0
 50
180.0
  0
TEXT
  8
3
  40
60
  5
8015
  62
0
  72
0
  71
0
 10
890.940
 20
3051.21
 30
0.000000
  1
300
  0
POINT
  5
7F9F
  8
DEFPOINTS
  6
CONTINUOUS
 62
     0
 10
1160.9401079999991
 20
3112.2919790000001
 30
0.0
  0
POINT
  5
7FA0
  8
DEFPOINTS
  6
CONTINUOUS
 62
     0
 10
860.9401079999999
 20
2870.7386069999998
 30
0.0
  0
POINT
  5
7FA1
  8
DEFPOINTS
  6
CONTINUOUS
 62
     0
 10
860.9401079999999
 20
3107.4112960000002
 30
0.0
  0
ENDBLK
  5
7CD5
  8
0
  0
BLOCK
  8
0
  2
*D4
 70
     1
 10
0.0
 20
0.0
 30
0.0
  3
*D4
  1

  0
LINE
  5
7FA2
  8
3
  6
CONTINUOUS
 62
     0
 10
1111.940108
 20
2900.7386069999998
 30
0.0
 11
747.38802400000054
 21
2900.7386069999998
 31
0.0
  0
LINE
  5
7FA3
  8
3
  6
CONTINUOUS
 62
     0
 10
786.354618249552
 20
2600.7386069999998
 30
0.0
 11
747.38802400000043
 21
2600.7386069999998
 31
0.0
  0
LINE
  5
7FA4
  8
3
  6
CONTINUOUS
 62
     0
 10
767.38802400000054
 20
2860.7386069999998
 30
0.0
 11
767.38802400000043
 21
2640.7386069999998
 31
0.0
  0
INSERT
  5
7FA5
  8
3
  6
CONTINUOUS
 62
     0
  2
_OPEN
 10
767.38802400000054
 20
2900.7386069999998
 30
0.0
 41
40.0
 42
40.0
 43
40.0
 50
90.0
  0
INSERT
  5
7FA6
  8
3
  6
CONTINUOUS
 62
     0
  2
_OPEN
 10
767.38802400000043
 20
2600.7386069999998
 30
0.0
 41
40.0
 42
40.0
 43
40.0
 50
270.0
  0
TEXT
  8
3
  40
60
  5
8016
  62
0
  72
0
  71
0
 10
597.388
 20
2631.68
 30
0.000000
  1
300
  0
POINT
  5
7FA8
  8
DEFPOINTS
  6
CONTINUOUS
 62
     0
 10
1121.940108
 20
2900.7386069999998
 30
0.0
  0
POINT
  5
7FA9
  8
DEFPOINTS
  6
CONTINUOUS
 62
     0
 10
796.354618249552
 20
2600.7386069999998
 30
0.0
  0
POINT
  5
7FAA
  8
DEFPOINTS
  6
CONTINUOUS
 62
     0
 10
767.38802400000043
 20
2600.7386069999998
 30
0.0
  0
ENDBLK
  5
7DA6
  8
0
  0
BLOCK
  8
0
  2
*D5
 70
     1
 10
0.0
 20
0.0
 30
0.0
  3
*D5
  1

  0
LINE
  5
7FAB
  8
3
  6
CONTINUOUS
 62
     0
 10
890.94010800000001
 20
2180.7386069999998
 30
0.0
 11
747.38802399999986
 21
2180.7386069999998
 31
0.0
  0
LINE
  5
7FAC
  8
3
  6
CONTINUOUS
 62
     0
 10
767.38802399999997
 20
2560.7386069999998
 30
0.0
 11
767.38802399999986
 21
2220.7386069999998
 31
0.0
  0
INSERT
  5
7FAD
  8
3
  6
CONTINUOUS
 62
     0
  2
_OPEN
 10
767.38802399999997
 20
2600.7386069999998
 30
0.0
 41
40.0
 42
40.0
 43
40.0
 50
90.0
  0
INSERT
  5
7FAE
  8
3
  6
CONTINUOUS
 62
     0
  2
_OPEN
 10
767.38802399999986
 20
2180.7386069999998
 30
0.0
 41
40.0
 42
40.0
 43
40.0
 50
270.0
  0
TEXT
  8
3
  40
60
  5
8017
  62
0
  72
0
  71
0
 10
597.388
 20
2284.54
 30
0.000000
  1
420
  0
POINT
  5
7FB0
  8
DEFPOINTS
  6
CONTINUOUS
 62
     0
 10
796.354618249552
 20
2600.7386069999998
 30
0.0
  0
POINT
  5
7FB1
  8
DEFPOINTS
  6
CONTINUOUS
 62
     0
 10
900.9401079999999
 20
2180.7386069999998
 30
0.0
  0
POINT
  5
7FB2
  8
DEFPOINTS
  6
CONTINUOUS
 62
     0
 10
767.38802399999986
 20
2180.7386069999998
 30
0.0
  0
ENDBLK
  5
7DB0
  8
0
  0
BLOCK
  8
0
  2
*D6
 70
     1
 10
0.0
 20
0.0
 30
0.0
  3
*D6
  1

  0
LINE
  5
7FB3
  8
3
  6
CONTINUOUS
 62
     0
 10
3172.1977299999999
 20
2910.7386069999998
 30
0.0
 11
3172.1977299999999
 21
2966.3736020000001
 31
0.0
  0
LINE
  5
7FB4
  8
3
  6
CONTINUOUS
 62
     0
 10
3472.197729999999
 20
2910.7386069999998
 30
0.0
 11
3472.197729999999
 21
2966.3736020000001
 31
0.0
  0
LINE
  5
7FB5
  8
3
  6
CONTINUOUS
 62
     0
 10
3132.1977299999999
 20
2946.3736020000001
 30
0.0
 11
3092.1977299999999
 21
2946.3736020000001
 31
0.0
  0
LINE
  5
7FB6
  8
3
  6
CONTINUOUS
 62
     0
 10
3512.1977299999999
 20
2946.3736020000001
 30
0.0
 11
3552.197729999999
 21
2946.3736020000001
 31
0.0
  0
LINE
  5
7FB7
  8
3
  6
CONTINUOUS
 62
     0
 10
3172.1977299999999
 20
2946.3736020000001
 30
0.0
 11
3472.197729999999
 21
2946.3736020000001
 31
0.0
  0
INSERT
  5
7FB8
  8
3
  6
CONTINUOUS
 62
     0
  2
_OPEN
 10
3172.1977299999999
 20
2946.3736020000001
 30
0.0
 41
40.0
 42
40.0
 43
40.0
  0
INSERT
  5
7FB9
  8
3
  6
CONTINUOUS
 62
     0
  2
_OPEN
 10
3472.197729999999
 20
2946.3736020000001
 30
0.0
 41
40.0
 42
40.0
 43
40.0
 50
180.0
  0
TEXT
  8
3
  40
60
  5
8018
  62
0
  72
0
  71
0
 10
3189.34
 20
2890.17
 30
0.000000
  1
300
  0
POINT
  5
7FBB
  8
DEFPOINTS
  6
CONTINUOUS
 62
     0
 10
3172.1977299999999
 20
2900.7386069999998
 30
0.0
  0
POINT
  5
7FBC
  8
DEFPOINTS
  6
CONTINUOUS
 62
     0
 10
3472.197729999999
 20
2900.7386069999998
 30
0.0
  0
POINT
  5
7FBD
  8
DEFPOINTS
  6
CONTINUOUS
 62
     0
 10
3472.197729999999
 20
2946.3736020000001
 30
0.0
  0
ENDBLK
  5
7C28
  8
0
  0
BLOCK
  8
0
  2
*D7
 70
     1
 10
0.0
 20
0.0
 30
0.0
  3
*D7
  1

  0
LINE
  5
7FBE
  8
3
  6
CONTINUOUS
 62
     0
 10
2992.197729999999
 20
2925.7386069999998
 30
0.0
 11
2992.197729999999
 21
3100.2717210000001
 31
0.0
  0
LINE
  5
7FBF
  8
3
  6
CONTINUOUS
 62
     0
 10
3282.1977299999999
 20
3080.2717210000001
 30
0.0
 11
3032.1977299999999
 21
3080.2717210000001
 31
0.0
  0
INSERT
  5
7FC0
  8
3
  6
CONTINUOUS
 62
     0
  2
_OPEN
 10
3322.1977299999999
 20
3080.2717210000001
 30
0.0
 41
40.0
 42
40.0
 43
40.0
  0
INSERT
  5
7FC1
  8
3
  6
CONTINUOUS
 62
     0
  2
_OPEN
 10
2992.197729999999
 20
3080.2717210000001
 30
0.0
 41
40.0
 42
40.0
 43
40.0
 50
180.0
  0
TEXT
  8
3
  40
60
  5
8019
  62
0
  72
0
  71
0
 10
3037.20
 20
3074.07
 30
0.000000
  1
MAX
  0
TEXT
  8
3
  40
60
  5
801A
  62
0
  72
0
  71
0
 10
3037.20
 20
2996.07
 30
0.000000
  1
380
  0
POINT
  5
7FC3
  8
DEFPOINTS
  6
CONTINUOUS
 62
     0
 10
3322.1977299999999
 20
3062.9800700000001
 30
0.0
  0
POINT
  5
7FC4
  8
DEFPOINTS
  6
CONTINUOUS
 62
     0
 10
2992.197729999999
 20
2915.7386069999998
 30
0.0
  0
POINT
  5
7FC5
  8
DEFPOINTS
  6
CONTINUOUS
 62
     0
 10
2992.197729999999
 20
3080.2717210000001
 30
0.0
  0
ENDBLK
  5
7E49
  8
0
  0
BLOCK
  8
0
  2
*D8
 70
     1
 10
0.0
 20
0.0
 30
0.0
  3
*D8
  1

  0
LINE
  5
7FC6
  8
3
  6
CONTINUOUS
 62
     0
 10
3482.1977299999999
 20
2815.7386069999998
 30
0.0
 11
3629.7304600000011
 21
2815.7386069999998
 31
0.0
  0
LINE
  5
7FC7
  8
3
  6
CONTINUOUS
 62
     0
 10
3482.1977299999999
 20
2385.7386069999998
 30
0.0
 11
3629.7304600000011
 21
2385.7386069999998
 31
0.0
  0
LINE
  5
7FC8
  8
3
  6
CONTINUOUS
 62
     0
 10
3609.7304600000011
 20
2775.7386069999998
 30
0.0
 11
3609.7304600000011
 21
2425.7386069999998
 31
0.0
  0
INSERT
  5
7FC9
  8
3
  6
CONTINUOUS
 62
     0
  2
_OPEN
 10
3609.7304600000011
 20
2815.7386069999998
 30
0.0
 41
40.0
 42
40.0
 43
40.0
 50
90.0
  0
INSERT
  5
7FCA
  8
3
  6
CONTINUOUS
 62
     0
  2
_OPEN
 10
3609.7304600000011
 20
2385.7386069999998
 30
0.0
 41
40.0
 42
40.0
 43
40.0
 50
270.0
  0
TEXT
  8
3
  40
60
  5
801B
  62
0
  72
0
  71
0
 10
3439.73
 20
2491.23
 30
0.000000
  1
φ430
  0
POINT
  5
7FCC
  8
DEFPOINTS
  6
CONTINUOUS
 62
     0
 10
3472.197729999999
 20
2815.7386069999998
 30
0.0
  0
POINT
  5
7FCD
  8
DEFPOINTS
  6
CONTINUOUS
 62
     0
 10
3472.197729999999
 20
2385.7386069999998
 30
0.0
  0
POINT
  5
7FCE
  8
DEFPOINTS
  6
CONTINUOUS
 62
     0
 10
3609.7304600000011
 20
2385.7386069999998
 30
0.0
  0
ENDBLK
  5
7D59
  8
0
  0
BLOCK
  8
0
  2
*D9
 70
     1
 10
0.0
 20
0.0
 30
0.0
  3
*D9
  1

  0
LINE
  5
7FCF
  8
3
  6
CONTINUOUS
 62
     0
 10
900.9401079999999
 20
4169.5086069999998
 30
0.0
 11
900.9401079999999
 21
4321.7473499999987
 31
0.0
  0
LINE
  5
7FD0
  8
3
  6
CONTINUOUS
 62
     0
 10
1900.940108
 20
4169.5086069999998
 30
0.0
 11
1900.940108
 21
4321.7473499999987
 31
0.0
  0
LINE
  5
7FD1
  8
3
  6
CONTINUOUS
 62
     0
 10
940.94010800000001
 20
4301.7473499999987
 30
0.0
 11
1860.9401079999991
 21
4301.7473499999987
 31
0.0
  0
INSERT
  5
7FD2
  8
3
  6
CONTINUOUS
 62
     0
  2
_OPEN
 10
900.9401079999999
 20
4301.7473499999987
 30
0.0
 41
40.0
 42
40.0
 43
40.0
 50
180.0
  0
INSERT
  5
7FD3
  8
3
  6
CONTINUOUS
 62
     0
  2
_OPEN
 10
1900.940108
 20
4301.7473499999987
 30
0.0
 41
40.0
 42
40.0
 43
40.0
  0
TEXT
  8
3
  40
60
  5
801C
  62
0
  72
0
  71
0
 10
1252.40
 20
4245.55
 30
0.000000
  1
1000
  0
POINT
  5
7FD5
  8
DEFPOINTS
  6
CONTINUOUS
 62
     0
 10
900.9401079999999
 20
4159.5086069999998
 30
0.0
  0
POINT
  5
7FD6
  8
DEFPOINTS
  6
CONTINUOUS
 62
     0
 10
1900.940108
 20
4159.5086069999998
 30
0.0
  0
POINT
  5
7FD7
  8
DEFPOINTS
  6
CONTINUOUS
 62
     0
 10
1900.940108
 20
4301.7473499999987
 30
0.0
  0
ENDBLK
  5
7D02
  8
0
  0
BLOCK
  8
0
  2
*D10
 70
     1
 10
0.0
 20
0.0
 30
0.0
  3
*D10
  1

  0
LINE
  5
7FD8
  8
3
  6
CONTINUOUS
 62
     0
 10
1910.9401079999991
 20
4159.5086069999998
 30
0.0
 11
2077.2435850000011
 21
4159.5086069999979
 31
0.0
  0
LINE
  5
7FD9
  8
3
  6
CONTINUOUS
 62
     0
 10
1910.9401079999991
 20
3771.5086070000002
 30
0.0
 11
2077.2435850000011
 21
3771.5086070000002
 31
0.0
  0
LINE
  5
7FDA
  8
3
  6
CONTINUOUS
 62
     0
 10
2057.2435850000002
 20
4119.5086069999988
 30
0.0
 11
2057.2435850000002
 21
3811.5086070000002
 31
0.0
  0
INSERT
  5
7FDB
  8
3
  6
CONTINUOUS
 62
     0
  2
_OPEN
 10
2057.2435850000002
 20
4159.5086069999979
 30
0.0
 41
40.0
 42
40.0
 43
40.0
 50
90.0
  0
INSERT
  5
7FDC
  8
3
  6
CONTINUOUS
 62
     0
  2
_OPEN
 10
2057.2435850000002
 20
3771.5086070000002
 30
0.0
 41
40.0
 42
40.0
 43
40.0
 50
270.0
  0
TEXT
  8
3
  40
60
  5
801D
  62
0
  72
0
  71
0
 10
1887.24
 20
3864.29
 30
0.000000
  1
388
  0
POINT
  5
7FDE
  8
DEFPOINTS
  6
CONTINUOUS
 62
     0
 10
1900.940108
 20
4159.5086069999998
 30
0.0
  0
POINT
  5
7FDF
  8
DEFPOINTS
  6
CONTINUOUS
 62
     0
 10
1900.940108
 20
3771.5086070000002
 30
0.0
  0
POINT
  5
7FE0
  8
DEFPOINTS
  6
CONTINUOUS
 62
     0
 10
2057.2435850000002
 20
3771.5086070000002
 30
0.0
  0
ENDBLK
  5
7CB6
  8
0
  0
BLOCK
  8
0
  2
*D11
 70
     1
 10
0.0
 20
0.0
 30
0.0
  3
*D11
  1

  0
LINE
  5
7D7C
  8
0
  6
BYBLOCK
 62
     0
 10
3322.1977299999999
 20
3043.9222612198969
 30
0.0
 11
3322.1977299999999
 21
3100.2717210000001
 31
0.0
  0
LINE
  5
7D7D
  8
0
  6
BYBLOCK
 62
     0
 10
3473.197729999999
 20
2825.7386069999998
 30
0.0
 11
3473.197729999999
 21
3100.2717210000001
 31
0.0
  0
LINE
  5
7D7E
  8
0
  6
BYBLOCK
 62
     0
 10
3362.1977299999999
 20
3080.2717210000001
 30
0.0
 11
3433.197729999999
 21
3080.2717210000001
 31
0.0
  0
TEXT
  5
7D7F
  8
3
 62
     0
 10
3336.4301490612138
 20
3101.3380135371749
 30
0.0
 40
60.0
  1
151
  0
INSERT
  5
7D80
  8
0
  6
BYBLOCK
 62
     0
  2
_OPEN
 10
3322.1977299999999
 20
3080.2717210000001
 30
0.0
 41
40.0
 42
40.0
 43
40.0
 50
180.0
  0
INSERT
  5
7D81
  8
0
  6
BYBLOCK
 62
     0
  2
_OPEN
 10
3473.197729999999
 20
3080.2717210000001
 30
0.0
 41
40.0
 42
40.0
 43
40.0
  0
POINT
  5
7D82
  8
DEFPOINTS
  6
BYBLOCK
 62
     0
 10
3322.1977299999999
 20
3033.9222612198969
 30
0.0
  0
POINT
  5
7D83
  8
DEFPOINTS
  6
BYBLOCK
 62
     0
 10
3473.197729999999
 20
2815.7386069999998
 30
0.0
  0
POINT
  5
7D84
  8
DEFPOINTS
  6
BYBLOCK
 62
     0
 10
3473.197729999999
 20
3080.2717210000001
 30
0.0
  0
ENDBLK
  5
7D85
  8
0
  0
BLOCK
  8
0
  2
*D12
 70
     1
 10
0.0
 20
0.0
 30
0.0
  3
*D12
  1

  0
LINE
  5
7FE1
  8
3
 62
     0
 10
900.9401079999999
 20
2010.738607
 30
0.0
 11
900.9401079999999
 21
1869.9249652999581
 31
0.0
  0
LINE
  5
7FE2
  8
3
 62
     0
 10
1160.9401079999991
 20
2010.738607
 30
0.0
 11
1160.9401079999991
 21
1869.9249652999581
 31
0.0
  0
LINE
  5
7FE3
  8
3
 62
     0
 10
940.94010800000001
 20
1889.9249652999581
 30
0.0
 11
1120.940108
 21
1889.9249652999581
 31
0.0
  0
INSERT
  5
7FE4
  8
3
 62
     0
  2
_OPEN
 10
900.9401079999999
 20
1889.9249652999581
 30
0.0
 41
40.0
 42
40.0
 43
40.0
 50
180.0
  0
INSERT
  5
7FE5
  8
3
 62
     0
  2
_OPEN
 10
1160.9401079999991
 20
1889.9249652999581
 30
0.0
 41
40.0
 42
40.0
 43
40.0
  0
TEXT
  8
3
  40
60
  5
801E
  62
0
  72
0
  71
0
 10
910.940
 20
1833.72
 30
0.000000
  1
260
  0
POINT
  5
7FE7
  8
DEFPOINTS
 62
     0
 10
900.9401079999999
 20
2020.738607
 30
0.0
  0
POINT
  5
7FE8
  8
DEFPOINTS
 62
     0
 10
1160.9401079999991
 20
2020.738607
 30
0.0
  0
POINT
  5
7FE9
  8
DEFPOINTS
 62
     0
 10
1160.9401079999991
 20
1889.9249652999581
 30
0.0
  0
ENDBLK
  5
7E5F
  8
0
  0
BLOCK
  8
0
  2
*D13
 70
     1
 10
0.0
 20
0.0
 30
0.0
  3
*D13
  1

  0
LINE
  5
7FEA
  8
3
 62
     0
 10
1160.9401079999991
 20
2010.738607
 30
0.0
 11
1160.9401079999991
 21
1869.9249652999581
 31
0.0
  0
LINE
  5
7FEB
  8
3
 62
     0
 10
1900.940108
 20
2010.738607
 30
0.0
 11
1900.940108
 21
1869.9249652999581
 31
0.0
  0
LINE
  5
7FEC
  8
3
 62
     0
 10
1200.940108
 20
1889.9249652999581
 30
0.0
 11
1860.9401079999991
 21
1889.9249652999581
 31
0.0
  0
INSERT
  5
7FED
  8
3
 62
     0
  2
_OPEN
 10
1160.9401079999991
 20
1889.9249652999581
 30
0.0
 41
40.0
 42
40.0
 43
40.0
 50
180.0
  0
INSERT
  5
7FEE
  8
3
 62
     0
  2
_OPEN
 10
1900.940108
 20
1889.9249652999581
 30
0.0
 41
40.0
 42
40.0
 43
40.0
  0
TEXT
  8
3
  40
60
  5
801F
  62
0
  72
0
  71
0
 10
1410.94
 20
1833.72
 30
0.000000
  1
740
  0
POINT
  5
7FF0
  8
DEFPOINTS
 62
     0
 10
1160.9401079999991
 20
2020.738607
 30
0.0
  0
POINT
  5
7FF1
  8
DEFPOINTS
 62
     0
 10
1900.940108
 20
2020.738607
 30
0.0
  0
POINT
  5
7FF2
  8
DEFPOINTS
 62
     0
 10
1900.940108
 20
1889.9249652999581
 30
0.0
  0
ENDBLK
  5
7E6C
  8
0
  0
BLOCK
  8
0
  2
*D14
 70
     1
 10
0.0
 20
0.0
 30
0.0
  3
*D14
  1

  0
LINE
  5
7FF3
  8
3
 62
     0
 10
3128.1977299999999
 20
2010.738607
 30
0.0
 11
3128.1977299999999
 21
1869.9249652999581
 31
0.0
  0
LINE
  5
7FF4
  8
3
 62
     0
 10
3322.1977299999999
 20
2010.7386069999991
 30
0.0
 11
3322.1977299999999
 21
1869.9249652999581
 31
0.0
  0
LINE
  5
7FF5
  8
3
 62
     0
 10
3168.1977299999999
 20
1889.9249652999581
 30
0.0
 11
3282.1977299999999
 21
1889.9249652999581
 31
0.0
  0
INSERT
  5
7FF6
  8
3
 62
     0
  2
_OPEN
 10
3128.1977299999999
 20
1889.9249652999581
 30
0.0
 41
40.0
 42
40.0
 43
40.0
 50
180.0
  0
INSERT
  5
7FF7
  8
3
 62
     0
  2
_OPEN
 10
3322.1977299999999
 20
1889.9249652999581
 30
0.0
 41
40.0
 42
40.0
 43
40.0
  0
TEXT
  8
3
  40
60
  5
8020
  62
0
  72
0
  71
0
 10
3105.20
 20
1833.72
 30
0.000000
  1
194
  0
POINT
  5
7FF9
  8
DEFPOINTS
 62
     0
 10
3128.1977299999999
 20
2020.738607
 30
0.0
  0
POINT
  5
7FFA
  8
DEFPOINTS
 62
     0
 10
3322.1977299999999
 20
2020.738607
 30
0.0
  0
POINT
  5
7FFB
  8
DEFPOINTS
 62
     0
 10
3322.1977299999999
 20
1889.9249652999581
 30
0.0
  0
ENDBLK
  5
7E7B
  8
0
  0
BLOCK
  8
0
  2
*D15
 70
     1
 10
0.0
 20
0.0
 30
0.0
  3
*D15
  1

  0
LINE
  5
7FFC
  8
3
 62
     0
 10
3322.1977299999999
 20
2010.7386069999991
 30
0.0
 11
3322.1977299999999
 21
1869.9249652999581
 31
0.0
  0
LINE
  5
7FFD
  8
3
 62
     0
 10
3516.1977299999999
 20
2010.738607
 30
0.0
 11
3516.1977299999999
 21
1869.9249652999581
 31
0.0
  0
LINE
  5
7FFE
  8
3
 62
     0
 10
3362.1977299999999
 20
1889.9249652999581
 30
0.0
 11
3476.197729999999
 21
1889.9249652999581
 31
0.0
  0
INSERT
  5
7FFF
  8
3
 62
     0
  2
_OPEN
 10
3322.1977299999999
 20
1889.9249652999581
 30
0.0
 41
40.0
 42
40.0
 43
40.0
 50
180.0
  0
INSERT
  5
8000
  8
3
 62
     0
  2
_OPEN
 10
3516.1977299999999
 20
1889.9249652999581
 30
0.0
 41
40.0
 42
40.0
 43
40.0
  0
TEXT
  8
3
  40
60
  5
8021
  62
0
  72
0
  71
0
 10
3299.20
 20
1833.72
 30
0.000000
  1
194
  0
POINT
  5
8002
  8
DEFPOINTS
 62
     0
 10
3322.1977299999999
 20
2020.738607
 30
0.0
  0
POINT
  5
8003
  8
DEFPOINTS
 62
     0
 10
3516.1977299999999
 20
2020.738607
 30
0.0
  0
POINT
  5
8004
  8
DEFPOINTS
 62
     0
 10
3516.1977299999999
 20
1889.9249652999581
 30
0.0
  0
ENDBLK
  5
7E8A
  8
0
  0
BLOCK
  8
0
  2
_DOT
 70
     0
 10
0.0
 20
0.0
 30
0.0
  3
_DOT
  1

  0
POLYLINE
  5
7E8E
  8
0
  6
BYBLOCK
 62
     0
 66
     1
 10
0.0
 20
0.0
 30
0.0
 70
     1
 40
0.5
 41
0.5
  0
VERTEX
  5
8005
  8
0
  6
BYBLOCK
 62
     0
 10
-0.25
 20
0.0
 30
0.0
 42
1.0
  0
VERTEX
  5
8006
  8
0
  6
BYBLOCK
 62
     0
 10
0.25
 20
0.0
 30
0.0
 42
1.0
  0
SEQEND
  5
8007
  8
0
  6
BYBLOCK
 62
     0
  0
LINE
  5
7E92
  8
0
  6
BYBLOCK
 62
     0
 10
-0.5
 20
0.0
 30
0.0
 11
-1.0
 21
0.0
 31
0.0
  0
ENDBLK
  5
7E93
  8
0
  0
BLOCK
  8
0
  2
*D17
 70
     1
 10
0.0
 20
0.0
 30
0.0
  3
*D17
  1

  0
LINE
  5
8008
  8
3
 62
     0
 10
890.94010800000001
 20
2085.7386069999998
 30
0.0
 11
747.3848353854446
 21
2085.7386069999998
 31
0.0
  0
LINE
  5
8009
  8
3
 62
     0
 10
890.94010800000001
 20
2020.738607
 30
0.0
 11
747.3848353854446
 21
2020.738607
 31
0.0
  0
LINE
  5
800A
  8
3
 62
     0
 10
767.38483538544449
 20
2125.7386069999998
 30
0.0
 11
767.38483538544449
 21
2165.7386069999998
 31
0.0
  0
LINE
  5
800B
  8
3
 62
     0
 10
767.38483538544449
 20
1980.738607
 30
0.0
 11
767.38483538544449
 21
1803.5957498571429
 31
0.0
  0
LINE
  5
800C
  8
3
 62
     0
 10
767.38483538544449
 20
2085.7386069999998
 30
0.0
 11
767.38483538544449
 21
2020.738607
 31
0.0
  0
INSERT
  5
800D
  8
3
 62
     0
  2
_DOT
 10
767.38483538544449
 20
2085.7386069999998
 30
0.0
 41
40.0
 42
40.0
 43
40.0
 50
270.0
  0
INSERT
  5
800E
  8
3
 62
     0
  2
_OPEN
 10
767.38483538544449
 20
2020.738607
 30
0.0
 41
40.0
 42
40.0
 43
40.0
 50
90.0
  0
TEXT
  8
3
  40
60
  5
8022
  62
0
  72
0
  71
0
 10
597.385
 20
1765.97
 30
0.000000
  1
65
  0
POINT
  5
8010
  8
DEFPOINTS
 62
     0
 10
900.9401079999999
 20
2085.7386069999998
 30
0.0
  0
POINT
  5
8011
  8
DEFPOINTS
 62
     0
 10
900.9401079999999
 20
2020.738607
 30
0.0
  0
POINT
  5
8012
  8
DEFPOINTS
 62
     0
 10
767.38483538544449
 20
2020.738607
 30
0.0
  0
ENDBLK
  5
7EA1
  8
0
  0
BLOCK
  8
0
  2
*D18
 70
     1
 10
0.0
 20
0.0
 30
0.0
  3
*D18
  1

  0
LINE
  5
7EA5
  8
0
  6
BYBLOCK
 62
     0
 10
890.94010800000001
 20
2085.7386069999998
 30
0.0
 11
747.3848353854446
 21
2085.7386069999998
 31
0.0
  0
LINE
  5
7EA6
  8
0
  6
BYBLOCK
 62
     0
 10
890.94010800000001
 20
2180.7386069999998
 30
0.0
 11
747.3848353854446
 21
2180.7386069999998
 31
0.0
  0
LINE
  5
7EA7
  8
0
  6
BYBLOCK
 62
     0
 10
767.38483538544449
 20
2045.738607
 30
0.0
 11
767.38483538544449
 21
2005.738607
 31
0.0
  0
LINE
  5
7EA8
  8
0
  6
BYBLOCK
 62
     0
 10
767.38483538544449
 20
2220.7386069999998
 30
0.0
 11
767.38483538544449
 21
2260.7386069999998
 31
0.0
  0
TEXT
  5
7EA9
  8
3
 62
     0
 10
691.67054967115894
 20
2046.0957498571429
 30
0.0
 40
60.0
  1
(95)
 50
90.0
  0
LINE
  5
7EAA
  8
0
  6
BYBLOCK
 62
     0
 10
767.38483538544449
 20
2085.7386069999998
 30
0.0
 11
767.38483538544449
 21
2180.7386069999998
 31
0.0
  0
INSERT
  5
7EAB
  8
0
  6
BYBLOCK
 62
     0
  2
_DOT
 10
767.38483538544449
 20
2085.7386069999998
 30
0.0
 41
40.0
 42
40.0
 43
40.0
 50
90.0
  0
INSERT
  5
7EAC
  8
0
  6
BYBLOCK
 62
     0
  2
_OPEN
 10
767.38483538544449
 20
2180.7386069999998
 30
0.0
 41
40.0
 42
40.0
 43
40.0
 50
270.0
  0
POINT
  5
7EAD
  8
DEFPOINTS
  6
BYBLOCK
 62
     0
 10
900.9401079999999
 20
2085.7386069999998
 30
0.0
  0
POINT
  5
7EAE
  8
DEFPOINTS
  6
BYBLOCK
 62
     0
 10
900.9401079999999
 20
2180.7386069999998
 30
0.0
  0
POINT
  5
7EAF
  8
DEFPOINTS
  6
BYBLOCK
 62
     0
 10
767.38483538544449
 20
2180.7386069999998
 30
0.0
  0
ENDBLK
  5
7EB0
  8
0
  0
ENDSEC
  0
SECTION
  2
ENTITIES
  0
LINE
  5
7AB3
  8
1
  6
CONTINUOUS
 10
1900.940108
 20
2260.7386069999998
 30
0.0
 11
860.9401079999999
 21
2260.7386069999998
 31
0.0
  0
LINE
  5
7AB4
  8
1
  6
CONTINUOUS
 10
1752.8101079999999
 20
3710.5086070000002
 30
0.0
 11
1632.8101079999999
 21
3710.5086070000002
 31
0.0
  0
LINE
  5
7AB5
  8
1
  6
CONTINUOUS
 10
1752.8101079999999
 20
3660.5086070000002
 30
0.0
 11
1632.8101079999999
 21
3660.5086070000002
 31
0.0
  0
LINE
  5
7AB6
  8
1
  6
CONTINUOUS
 10
1855.4401079999991
 20
3735.5086070000002
 30
0.0
 11
985.44010800000001
 21
3735.5086070000002
 31
0.0
  0
LINE
  5
7AB7
  8
1
  6
CONTINUOUS
 10
1855.4401079999991
 20
3635.5086070000002
 30
0.0
 11
985.44010800000001
 21
3635.5086070000002
 31
0.0
  0
LINE
  5
7AB8
  8
1
  6
CONTINUOUS
 10
900.9401079999999
 20
4159.5086069999998
 30
0.0
 11
1900.940108
 21
4159.5086069999998
 31
0.0
  0
LINE
  5
7AB9
  8
1
  6
CONTINUOUS
 10
1591.810107999999
 20
3802.2286069999991
 30
0.0
 11
1793.810107999999
 21
3802.2286069999991
 31
0.0
  0
LINE
  5
7ABA
  8
1
  6
CONTINUOUS
 10
1591.810107999999
 20
4044.9086069999989
 30
0.0
 11
1793.810107999999
 21
4044.9086069999989
 31
0.0
  0
LINE
  5
7ABB
  8
1
  6
CONTINUOUS
 10
1175.440108
 20
2915.7386069999998
 30
0.0
 11
1855.4401079999991
 21
2510.7386069999998
 31
0.0
  0
CIRCLE
  5
7ABC
  8
1
  6
CONTINUOUS
 10
1692.810107999999
 20
2385.7386069999998
 30
0.0
 40
60.0
  0
ARC
  5
7ABD
  8
1
  6
CONTINUOUS
 10
1692.810107999999
 20
2385.7386069999998
 30
0.0
 40
101.0
 50
322.88
 51
217.12
  0
LINE
  5
7ABE
  8
2
  6
CENTER
 10
1752.8101079999999
 20
2385.7386069999998
 30
0.0
 11
1632.8101079999999
 21
2385.7386069999998
 31
0.0
  0
LINE
  5
7ABF
  8
1
  6
CONTINUOUS
 10
900.9401079999999
 20
2180.7386069999998
 30
0.0
 11
1900.940108
 21
2180.7386069999998
 31
0.0
  0
LINE
  5
7AC0
  8
1
  6
CONTINUOUS
 10
1174.940108
 20
3771.5086070000002
 30
0.0
 11
1678.8101079999999
 21
3771.5086070000002
 31
0.0
  0
LINE
  5
7AC1
  8
1
  6
CONTINUOUS
 10
1719.1201080000001
 20
2439.6586069999998
 30
0.0
 11
1204.7901079999999
 21
2690.6086070000001
 31
0.0
  0
LINE
  5
7AC2
  8
1
  6
CONTINUOUS
 10
1130.020107999999
 20
2505.638606999999
 30
0.0
 11
1674.250108
 21
2328.6786069999998
 31
0.0
  0
LINE
  5
7AC3
  8
1
  6
CONTINUOUS
 10
900.9401079999999
 20
2085.7386069999998
 30
0.0
 11
1900.940108
 21
2085.7386069999998
 31
0.0
  0
LINE
  5
7AC4
  8
1
  6
CONTINUOUS
 10
900.9401079999999
 20
2020.738607
 30
0.0
 11
1900.940108
 21
2020.738607
 31
0.0
  0
CIRCLE
  5
7AC5
  8
1
  6
CONTINUOUS
 10
1160.9401079999991
 20
2600.7386069999998
 30
0.0
 40
240.0
  0
ARC
  5
7AC6
  8
1
  6
CONTINUOUS
 10
1182.940108
 20
2578.7386069999998
 30
0.0
 40
310.75999999999999
 50
172.69
 51
264.17000000000002
  0
ARC
  5
7AC7
  8
1
  6
CONTINUOUS
 10
1143.940108
 20
2583.7386069999998
 30
0.0
 40
271.43999999999988
 50
88.939999999999998
 51
172.69
  0
LINE
  5
7AC8
  8
1
  6
CONTINUOUS
 10
1460.9401079999991
 20
2870.7386069999998
 30
0.0
 11
860.9401079999999
 21
2870.7386069999998
 31
0.0
  0
LINE
  5
7AC9
  8
1
  6
CONTINUOUS
 10
985.44010800000001
 20
2800.7386069999998
 30
0.0
 11
1175.440108
 21
2915.7386069999998
 31
0.0
  0
CIRCLE
  5
7ACA
  8
1
  6
CONTINUOUS
 10
1160.9401079999991
 20
2600.7386069999998
 30
0.0
 40
215.0
  0
LINE
  5
7ACB
  8
1
  6
CONTINUOUS
 10
860.9401079999999
 20
2870.7386069999998
 30
0.0
 11
860.9401079999999
 21
2260.7386069999998
 31
0.0
  0
LINE
  5
7ACC
  8
1
  6
CONTINUOUS
 10
985.44010800000001
 20
2260.7386069999998
 30
0.0
 11
985.44010800000001
 21
2800.7386069999998
 31
0.0
  0
LINE
  5
7ACD
  8
1
  6
CONTINUOUS
 10
900.9401079999999
 20
2085.7386069999998
 30
0.0
 11
900.9401079999999
 21
2020.738607
 31
0.0
  0
LINE
  5
7ACE
  8
1
  6
CONTINUOUS
 10
900.9401079999999
 20
2260.7386069999998
 30
0.0
 11
900.9401079999999
 21
2180.7386069999998
 31
0.0
  0
LINE
  5
7ACF
  8
2
  6
CENTER
 10
1160.9401079999991
 20
4223.7420263228514
 30
0.0
 11
1160.9401079999991
 21
3582.1732791786849
 31
0.0
  0
ARC
  5
7AD0
  8
1
  6
CONTINUOUS
 10
1187.940108
 20
2627.7386069999998
 30
0.0
 40
360.00999999999988
 50
264.17000000000002
 51
355.69999999999987
  0
LINE
  5
7AD1
  8
1
  6
CONTINUOUS
 10
1460.9401079999991
 20
2870.7386069999998
 30
0.0
 11
1460.9401079999991
 21
2260.7386069999998
 31
0.0
  0
CIRCLE
  5
7AD2
  8
1
  6
CONTINUOUS
 10
1160.9401079999991
 20
2600.7386069999998
 30
0.0
 40
100.0
  0
LINE
  5
7AD3
  8
1
  6
CONTINUOUS
 10
1592.8101079999999
 20
2297.7386069999998
 30
0.0
 11
1612.270107999999
 21
2324.7786070000002
 31
0.0
  0
LINE
  5
7AD4
  8
1
  6
CONTINUOUS
 10
1592.8101079999999
 20
2260.7386069999998
 30
0.0
 11
1592.8101079999999
 21
2297.7386069999998
 31
0.0
  0
LINE
  5
7AD5
  8
1
  6
CONTINUOUS
 10
1121.940108
 20
2900.7386069999998
 30
0.0
 11
1575.940108
 21
2900.7386069999998
 31
0.0
  0
LINE
  5
7AD6
  8
1
  6
CONTINUOUS
 10
1148.940108
 20
2880.7386069999998
 30
0.0
 11
1548.8101079999999
 21
2880.7386069999998
 31
0.0
  0
LINE
  5
7AD7
  8
2
  6
CENTER
 10
3495.7557560741661
 20
2600.7386069999998
 30
0.0
 11
2944.2670744965972
 21
2600.7386069999998
 31
0.0
  0
LINE
  5
7AD8
  8
1
  6
CONTINUOUS
 10
1148.940108
 20
2855.1286070000001
 30
0.0
 11
1148.940108
 21
2900.7386069999998
 31
0.0
  0
LINE
  5
7AD9
  8
1
  6
CONTINUOUS
 10
1548.940108
 20
2900.7386069999998
 30
0.0
 11
1546.940108
 21
2600.7386069999998
 31
0.0
  0
LINE
  5
7ADA
  8
1
  6
CONTINUOUS
 10
900.9401079999999
 20
3771.5086070000002
 30
0.0
 11
1146.940108
 21
3771.5086070000002
 31
0.0
  0
LINE
  5
7ADB
  8
1
  6
CONTINUOUS
 10
1550.0101079999999
 20
4115.5086069999988
 30
0.0
 11
860.9401079999999
 21
4115.5086069999988
 31
0.0
  0
LINE
  5
7ADC
  8
1
  6
CONTINUOUS
 10
1550.0101079999999
 20
3815.5086070000002
 30
0.0
 11
860.9401079999999
 21
3815.5086070000002
 31
0.0
  0
LINE
  5
7ADD
  8
1
  6
CONTINUOUS
 10
860.9401079999999
 20
3815.5086070000002
 30
0.0
 11
860.9401079999999
 21
4115.5086069999988
 31
0.0
  0
LINE
  5
7ADE
  8
1
  6
CONTINUOUS
 10
985.44010800000001
 20
3635.5086070000002
 30
0.0
 11
985.44010800000001
 21
3735.5086070000002
 31
0.0
  0
LINE
  5
7ADF
  8
1
  6
CONTINUOUS
 10
900.9401079999999
 20
3815.5086070000002
 30
0.0
 11
900.9401079999999
 21
3771.5086070000002
 31
0.0
  0
LINE
  5
7AE0
  8
1
  6
CONTINUOUS
 10
900.9401079999999
 20
4159.5086069999998
 30
0.0
 11
900.9401079999999
 21
4115.5086069999988
 31
0.0
  0
LINE
  5
7AE1
  8
1
  6
CONTINUOUS
 10
1550.0101079999999
 20
3815.5086070000002
 30
0.0
 11
1150.0101079999999
 21
4115.5086069999988
 31
0.0
  0
LINE
  5
7AE2
  8
1
  6
CONTINUOUS
 10
1150.0101079999999
 20
3815.5086070000002
 30
0.0
 11
1550.0101079999999
 21
4115.5086069999988
 31
0.0
  0
LINE
  5
7AE3
  8
1
  6
CONTINUOUS
 10
1150.0101079999999
 20
3815.5086070000002
 30
0.0
 11
1150.0101079999999
 21
4115.5086069999988
 31
0.0
  0
LINE
  5
7AE4
  8
1
  6
CONTINUOUS
 10
1262.7001079999991
 20
3710.5086070000002
 30
0.0
 11
1059.180108
 21
3710.5086070000002
 31
0.0
  0
LINE
  5
7AE5
  8
1
  6
CONTINUOUS
 10
1262.7001079999991
 20
3660.5086070000002
 30
0.0
 11
1059.180108
 21
3660.5086070000002
 31
0.0
  0
LINE
  5
7AE6
  8
1
  6
CONTINUOUS
 10
1145.170108
 20
3710.5086070000002
 30
0.0
 11
1145.170108
 21
3815.5086070000002
 31
0.0
  0
LINE
  5
7AE7
  8
1
  6
CONTINUOUS
 10
1173.170108
 20
3710.5086070000002
 30
0.0
 11
1173.170108
 21
3815.5086070000002
 31
0.0
  0
LINE
  5
7AE8
  8
1
  6
CONTINUOUS
 10
1059.180108
 20
3660.5086070000002
 30
0.0
 11
1059.180108
 21
3710.5086070000002
 31
0.0
  0
LINE
  5
7AE9
  8
1
  6
CONTINUOUS
 10
1262.7001079999991
 20
3660.5086070000002
 30
0.0
 11
1262.7001079999991
 21
3710.5086070000002
 31
0.0
  0
LINE
  5
7AEA
  8
1
  6
CONTINUOUS
 10
1591.810107999999
 20
3802.2286069999991
 30
0.0
 11
1591.810107999999
 21
4044.9086069999989
 31
0.0
  0
LINE
  5
7AEB
  8
1
  6
CONTINUOUS
 10
1550.0101079999999
 20
3815.5086070000002
 30
0.0
 11
1550.0101079999999
 21
4115.5086069999988
 31
0.0
  0
LINE
  5
7AEC
  8
1
  6
CONTINUOUS
 10
1632.8101079999999
 20
3660.5086070000002
 30
0.0
 11
1632.8101079999999
 21
3710.5086070000002
 31
0.0
  0
LINE
  5
7AED
  8
1
  6
CONTINUOUS
 10
3516.1977299999999
 20
2180.7386069999998
 30
0.0
 11
3128.1977299999999
 21
2180.7386069999998
 31
0.0
  0
LINE
  5
7AEE
  8
1
  6
CONTINUOUS
 10
3516.1977299999999
 20
2260.7386069999998
 30
0.0
 11
2992.197729999999
 21
2260.7386069999998
 31
0.0
  0
LINE
  5
7AEF
  8
1
  6
CONTINUOUS
 10
3499.1977299999999
 20
2900.7386069999998
 30
0.0
 11
3145.1977299999999
 21
2900.7386069999998
 31
0.0
  0
LINE
  5
7AF0
  8
1
  6
CONTINUOUS
 10
3472.197729999999
 20
2260.7386069999998
 30
0.0
 11
3172.1977299999999
 21
2260.7386069999998
 31
0.0
  0
LINE
  5
7AF1
  8
1
  6
CONTINUOUS
 10
3472.197729999999
 20
2880.7386069999998
 30
0.0
 11
3172.1977299999999
 21
2880.7386069999998
 31
0.0
  0
LINE
  5
7AF2
  8
1
  6
CONTINUOUS
 10
3128.1977299999999
 20
2020.738607
 30
0.0
 11
3516.1977299999999
 21
2020.738607
 31
0.0
  0
LINE
  5
7AF3
  8
1
  6
CONTINUOUS
 10
3128.1977299999999
 20
2085.7386069999998
 30
0.0
 11
3516.1977299999999
 21
2085.7386069999998
 31
0.0
  0
LINE
  5
7AFE
  8
1
  6
CONTINUOUS
 10
1900.940108
 20
2085.7386069999998
 30
0.0
 11
1900.940108
 21
2020.738607
 31
0.0
  0
LINE
  5
7AFF
  8
1
  6
CONTINUOUS
 10
1792.8101079999999
 20
2260.7386069999998
 30
0.0
 11
1792.8101079999999
 21
2297.7386069999998
 31
0.0
  0
LINE
  5
7B00
  8
1
  6
CONTINUOUS
 10
1792.8101079999999
 20
2297.7386069999998
 30
0.0
 11
1773.3401080000001
 21
2324.7786070000002
 31
0.0
  0
LINE
  5
7B01
  8
2
  6
CENTER
 10
1692.810107999999
 20
2325.7386069999998
 30
0.0
 11
1692.810107999999
 21
2445.7386069999998
 31
0.0
  0
LINE
  5
7B02
  8
1
  6
CONTINUOUS
 10
1855.4401079999991
 20
2260.7386069999998
 30
0.0
 11
1855.4401079999991
 21
2510.7386069999998
 31
0.0
  0
LINE
  5
7B03
  8
1
  6
CONTINUOUS
 10
1900.940108
 20
2260.7386069999998
 30
0.0
 11
1900.940108
 21
2180.7386069999998
 31
0.0
  0
LINE
  5
7B1D
  8
1
  6
CONTINUOUS
 10
2992.197729999999
 20
2260.7386069999998
 30
0.0
 11
2992.197729999999
 21
2915.7386069999998
 31
0.0
  0
LINE
  5
7B1E
  8
1
  6
CONTINUOUS
 10
3092.1977299999999
 20
2260.7386069999998
 30
0.0
 11
3092.1977299999999
 21
2915.7386069999998
 31
0.0
  0
LINE
  5
7B1F
  8
1
  6
CONTINUOUS
 10
3067.1977299999999
 20
2498.9686069999998
 30
0.0
 11
3067.1977299999999
 21
2702.498607
 31
0.0
  0
LINE
  5
7B20
  8
1
  6
CONTINUOUS
 10
3017.197729999999
 20
2498.9686069999998
 30
0.0
 11
3017.197729999999
 21
2702.498607
 31
0.0
  0
LINE
  5
7B21
  8
1
  6
CONTINUOUS
 10
3172.1977299999999
 20
2260.7386069999998
 30
0.0
 11
3172.1977299999999
 21
2900.7386069999998
 31
0.0
  0
LINE
  5
7B28
  8
1
  6
CONTINUOUS
 10
3128.1977299999999
 20
2085.7386069999998
 30
0.0
 11
3128.1977299999999
 21
2020.738607
 31
0.0
  0
LINE
  5
7B29
  8
1
  6
CONTINUOUS
 10
3067.1977299999999
 20
2399.7386069999998
 30
0.0
 11
3172.1977299999999
 21
2399.7386069999998
 31
0.0
  0
LINE
  5
7B2A
  8
1
  6
CONTINUOUS
 10
3067.1977299999999
 20
2371.7386069999998
 30
0.0
 11
3172.1977299999999
 21
2371.7386069999998
 31
0.0
  0
LINE
  5
7B2B
  8
1
  6
CONTINUOUS
 10
3067.1977299999999
 20
2588.498607
 30
0.0
 11
3172.1977299999999
 21
2588.498607
 31
0.0
  0
LINE
  5
7B2C
  8
1
  6
CONTINUOUS
 10
3067.1977299999999
 20
2325.7386069999998
 30
0.0
 11
3067.1977299999999
 21
2445.7386069999998
 31
0.0
  0
LINE
  5
7B2D
  8
1
  6
CONTINUOUS
 10
3017.197729999999
 20
2325.7386069999998
 30
0.0
 11
3017.197729999999
 21
2445.7386069999998
 31
0.0
  0
LINE
  5
7B2E
  8
1
  6
CONTINUOUS
 10
3017.197729999999
 20
2445.7386069999998
 30
0.0
 11
3067.1977299999999
 21
2445.7386069999998
 31
0.0
  0
LINE
  5
7B2F
  8
1
  6
CONTINUOUS
 10
3017.197729999999
 20
2325.7386069999998
 30
0.0
 11
3067.1977299999999
 21
2325.7386069999998
 31
0.0
  0
LINE
  5
7B30
  8
1
  6
CONTINUOUS
 10
3017.197729999999
 20
2498.9686069999998
 30
0.0
 11
3067.1977299999999
 21
2498.9686069999998
 31
0.0
  0
LINE
  5
7B31
  8
1
  6
CONTINUOUS
 10
3128.1977299999999
 20
2260.7386069999998
 30
0.0
 11
3128.1977299999999
 21
2180.7386069999998
 31
0.0
  0
LINE
  5
7B32
  8
1
  6
CONTINUOUS
 10
2992.197729999999
 20
2915.7386069999998
 30
0.0
 11
3092.1977299999999
 21
2915.7386069999998
 31
0.0
  0
LINE
  5
7B33
  8
1
  6
CONTINUOUS
 10
3067.1977299999999
 20
2616.498607
 30
0.0
 11
3172.1977299999999
 21
2616.498607
 31
0.0
  0
LINE
  5
7B34
  8
1
  6
CONTINUOUS
 10
3017.197729999999
 20
2702.498607
 30
0.0
 11
3067.1977299999999
 21
2702.498607
 31
0.0
  0
LINE
  5
7B3D
  8
1
  6
CONTINUOUS
 10
1900.940108
 20
4159.5086069999998
 30
0.0
 11
1900.940108
 21
3771.5086070000002
 31
0.0
  0
LINE
  5
7B3E
  8
1
  6
CONTINUOUS
 10
1793.810107999999
 20
3802.2286069999991
 30
0.0
 11
1793.810107999999
 21
4044.9086069999989
 31
0.0
  0
LINE
  5
7B3F
  8
1
  6
CONTINUOUS
 10
1706.810107999999
 20
3771.5086070000002
 30
0.0
 11
1900.940108
 21
3771.5086070000002
 31
0.0
  0
LINE
  5
7B40
  8
1
  6
CONTINUOUS
 10
1752.8101079999999
 20
3660.5086070000002
 30
0.0
 11
1752.8101079999999
 21
3710.5086070000002
 31
0.0
  0
LINE
  5
7B41
  8
1
  6
CONTINUOUS
 10
1678.8101079999999
 20
3710.5086070000002
 30
0.0
 11
1678.8101079999999
 21
3802.2286069999991
 31
0.0
  0
LINE
  5
7B42
  8
1
  6
CONTINUOUS
 10
1706.810107999999
 20
3710.5086070000002
 30
0.0
 11
1706.810107999999
 21
3802.2286069999991
 31
0.0
  0
LINE
  5
7B43
  8
1
  6
CONTINUOUS
 10
1855.4401079999991
 20
3635.5086070000002
 30
0.0
 11
1855.4401079999991
 21
3735.5086070000002
 31
0.0
  0
LINE
  5
7B5E
  8
1
  6
CONTINUOUS
 10
3472.197729999999
 20
2260.7386069999998
 30
0.0
 11
3472.197729999999
 21
2900.7386069999998
 31
0.0
  0
LINE
  5
7B5F
  8
1
  6
CONTINUOUS
 10
3516.1977299999999
 20
2085.7386069999998
 30
0.0
 11
3516.1977299999999
 21
2020.738607
 31
0.0
  0
LINE
  5
7B60
  8
1
  6
CONTINUOUS
 10
3516.1977299999999
 20
2260.7386069999998
 30
0.0
 11
3516.1977299999999
 21
2180.7386069999998
 31
0.0
  0
LINE
  5
7B61
  8
2
  6
CENTER
 10
3322.1977299999999
 20
2923.9816204393078
 30
0.0
 11
3322.1977299999999
 21
2020.738607
 31
0.0
  0
LINE
  5
7B62
  8
2
  6
CENTER
 10
810.42418507732884
 20
3965.5086070000002
 30
0.0
 11
1945.446994191868
 21
3965.5086070000011
 31
0.0
  0
LINE
  5
7B63
  8
2
  6
CENTER
 10
1757.357500701738
 20
2600.7386069999998
 30
0.0
 11
796.354618249552
 21
2600.7386069999998
 31
0.0
  0
LINE
  5
7B64
  8
2
  6
CENTER
 10
1160.9401079999991
 20
3059.4372295680132
 30
0.0
 11
1160.9401079999991
 21
2020.738607
 31
0.0
  0
LINE
  5
7B65
  8
4
  6
CONTINUOUS
 10
3700.0
 20
1000.0
 30
0.0
 11
3700.0
 21
600.0
 31
0.0
  0
LINE
  5
7B66
  8
4
  6
CONTINUOUS
 10
2300.0
 20
1000.0
 30
0.0
 11
2300.0
 21
600.0
 31
0.0
  0
LINE
  5
7B67
  8
4
  6
CONTINUOUS
 10
1300.0
 20
1000.0
 30
0.0
 11
1300.0
 21
600.0
 31
0.0
  0
LINE
  5
7B6A
  8
4
  6
CONTINUOUS
 10
1300.0
 20
600.0
 30
0.0
 11
3700.0
 21
600.0
 31
0.0
  0
LINE
  5
7B6B
  8
4
  6
CONTINUOUS
 10
1300.0
 20
800.0
 30
0.0
 11
3700.0
 21
800.0
 31
0.0
  0
TEXT
  5
7B6C
  8
4
  6
CONTINUOUS
 10
1377.004162
 20
863.086052
 30
0.0
 40
100.0
  1
機器名称
  0
TEXT
  5
7B6D
  8
4
  6
CONTINUOUS
 10
1372.516212
 20
643.29031299999986
 30
0.0
 40
100.0
  1
機器型番
  0
TEXT
  5
7B6E
  8
4
  6
CONTINUOUS
 10
2355.3574910000002
 20
845.14353800000015
 30
0.0
 40
100.0
  1
ミツヤ多翼送風機
  0
TEXT
  5
7B6F
  8
4
  6
CONTINUOUS
 10
2373.3089909999999
 20
634.31916899999999
 30
0.0
 40
100.0
  1
MFE#2 1/2-4
  0
TEXT
  5
7B71
  8
4
  6
CONTINUOUS
 10
1543.711008
 20
4766.8576830000002
 30
0.0
 40
108.0
  1
床置防振ベット
  0
TEXT
  5
7B72
  8
4
  6
CONTINUOUS
 10
632.33518700000002
 20
5067.7619520000007
 30
0.0
 40
144.0
  1
ベルト駆動式片吸込両持排煙ファン
  0
LINE
  5
7B73
  8
4
  6
CONTINUOUS
 10
500.0
 20
4938.8175090000004
 30
0.0
 11
3700.0
 21
4938.8175090000004
 31
0.0
  0
LINE
  5
7B74
  8
4
  6
CONTINUOUS
 10
500.0
 20
5338.8175090000004
 30
0.0
 11
3700.0
 21
5338.8175090000004
 31
0.0
  0
LINE
  5
7B75
  8
4
  6
CONTINUOUS
 10
1300.0
 20
1000.0
 30
0.0
 11
3700.0
 21
1000.0
 31
0.0
  0
LINE
  5
7B76
  8
4
  6
CONTINUOUS
 10
500.0
 20
5338.8175090000004
 30
0.0
 11
500.0
 21
4938.8175090000004
 31
0.0
  0
TEXT
  5
7B77
  8
4
  6
CONTINUOUS
 10
716.30341599999986
 20
4764.6389549999994
 30
0.0
 40
108.0
  1
左回転上向
  0
TEXT
  5
7B78
  8
4
  6
CONTINUOUS
 10
2937.9391179999998
 20
5412.122163
 30
0.0
 40
112.0
  1
No.
  0
TEXT
  5
7B79
  8
4
  6
CONTINUOUS
 10
2622.5921250000001
 20
4766.8576830000002
 30
0.0
 40
108.0
  1
縮尺：1/20
  0
LINE
  5
7B7A
  8
4
  6
CONTINUOUS
 10
3700.0
 20
5338.8175090000004
 30
0.0
 11
3700.0
 21
4938.8175090000004
 31
0.0
  0
LINE
  5
7B7C
  8
4
  6
CONTINUOUS
 10
2881.234845
 20
5362.5271659999999
 30
0.0
 11
2881.234845
 21
5573.3045229999998
 31
0.0
  0
LINE
  5
7B7D
  8
4
  6
CONTINUOUS
 10
2881.234845
 20
5573.3045229999998
 30
0.0
 11
3700.0
 21
5573.3045229999998
 31
0.0
  0
LINE
  5
7B7E
  8
4
  6
CONTINUOUS
 10
3700.0
 20
5573.3045229999998
 30
0.0
 11
3700.0
 21
5362.5271659999999
 31
0.0
  0
LINE
  5
7B7F
  8
4
  6
CONTINUOUS
 10
3700.0
 20
5362.5271659999999
 30
0.0
 11
2881.234845
 21
5362.5271659999999
 31
0.0
  0
DIMENSION
  5
7B97
  8
3
  6
CONTINUOUS
  2
*D1
 10
1548.940108
 20
2974.3935270000002
 30
0.0
 11
1327.735549
 21
2974.3935270000002
 31
0.0
 70
   128
 13
1148.940108
 23
2900.7386069999998
 33
0.0
 14
1548.940108
 24
2900.7386069999998
 34
0.0
1001
ACAD
1000
DSTYLE
1002
{
1070
   287
1070
     3
1070
   287
1070
     3
1070
    40
1040
20.0
1070
   143
1040
0.039
1070
   172
1070
     1
1070
   271
1070
     0
1070
   279
1070
     0
1070
   288
1070
     1
1002
}
  0
DIMENSION
  5
7BA4
  8
3
  6
CONTINUOUS
  2
*D2
 10
1160.9401079999991
 20
3107.4112960000002
 30
0.0
 11
1327.735549
 21
3107.4112960000002
 31
0.0
 70
   128
 13
1548.940108
 23
2974.3935270000002
 33
0.0
 14
1160.9401079999991
 24
3068.5602740190589
 34
0.0
1001
ACAD
1000
DSTYLE
1002
{
1070
   287
1070
     3
1070
   287
1070
     3
1070
    40
1040
20.0
1070
   143
1040
0.039
1070
   172
1070
     1
1070
   271
1070
     0
1070
   279
1070
     0
1070
   288
1070
     1
1002
}
  0
DIMENSION
  5
7BB0
  8
3
  6
CONTINUOUS
  2
*D3
 10
860.9401079999999
 20
3107.4112960000002
 30
0.0
 11
1010.940108
 21
3157.4112960000002
 31
0.0
 70
     0
 13
1160.9401079999991
 23
3112.2919790000001
 33
0.0
 14
860.9401079999999
 24
2870.7386069999998
 34
0.0
1001
ACAD
1000
DSTYLE
1002
{
1070
   287
1070
     4
1070
   287
1070
     4
1070
    40
1040
20.0
1070
    75
1070
     1
1070
   143
1040
0.039
1070
   172
1070
     1
1070
   271
1070
     0
1070
   279
1070
     1
1070
   288
1070
     1
1002
}
  0
DIMENSION
  5
7BBD
  8
3
  6
CONTINUOUS
  2
*D4
 10
767.38802400000043
 20
2600.7386069999998
 30
0.0
 11
767.38802399999986
 21
2737.8814641428571
 31
0.0
 70
   128
 13
1121.940108
 23
2900.7386069999998
 33
0.0
 14
796.354618249552
 24
2600.7386069999998
 34
0.0
 50
90.0
1001
ACAD
1000
DSTYLE
1002
{
1070
   287
1070
     3
1070
   287
1070
     3
1070
    40
1040
20.0
1070
   143
1040
0.039
1070
   172
1070
     1
1070
   271
1070
     0
1070
   279
1070
     0
1070
   288
1070
     1
1002
}
  0
DIMENSION
  5
7BD7
  8
3
  6
CONTINUOUS
  2
*D5
 10
767.38802399999986
 20
2180.7386069999998
 30
0.0
 11
717.38802399999963
 21
2390.7386069999998
 31
0.0
 70
     0
 13
796.354618249552
 23
2600.7386069999998
 33
0.0
 14
900.9401079999999
 24
2180.7386069999998
 34
0.0
 50
90.0
1001
ACAD
1000
DSTYLE
1002
{
1070
   287
1070
     4
1070
   287
1070
     4
1070
    40
1040
20.0
1070
    75
1070
     1
1070
   143
1040
0.039
1070
   172
1070
     1
1070
   271
1070
     0
1070
   279
1070
     1
1070
   288
1070
     1
1002
}
  0
DIMENSION
  5
7C29
  8
3
  6
CONTINUOUS
  2
*D6
 10
3472.197729999999
 20
2946.3736020000001
 30
0.0
 11
3309.3405870000001
 21
2946.3736020000001
 31
0.0
 70
   128
 13
3172.1977299999999
 23
2900.7386069999998
 33
0.0
 14
3472.197729999999
 24
2900.7386069999998
 34
0.0
1001
ACAD
1000
DSTYLE
1002
{
1070
   287
1070
     3
1070
   287
1070
     3
1070
    40
1040
20.0
1070
   143
1040
0.039
1070
   172
1070
     1
1070
   271
1070
     0
1070
   279
1070
     0
1070
   288
1070
     1
1002
}
  0
DIMENSION
  5
7C43
  8
3
  6
CONTINUOUS
  2
*D7
 10
2992.197729999999
 20
3080.2717210000001
 30
0.0
 11
3157.1977299999999
 21
3180.2717210000001
 31
0.0
 70
     0
  1
MAX\P380
 13
3322.1977299999999
 23
3062.9800700000001
 33
0.0
 14
2992.197729999999
 24
2915.7386069999998
 34
0.0
1001
ACAD
1000
DSTYLE
1002
{
1070
   287
1070
     4
1070
   287
1070
     4
1070
    40
1040
20.0
1070
    75
1070
     1
1070
   143
1040
0.039
1070
   172
1070
     1
1070
   271
1070
     0
1070
   279
1070
     1
1070
   288
1070
     1
1002
}
  0
DIMENSION
  5
7C52
  8
3
  6
CONTINUOUS
  2
*D8
 10
3609.7304600000011
 20
2385.7386069999998
 30
0.0
 11
3609.7304600000002
 21
2597.4269760000002
 31
0.0
 70
   128
 13
3472.197729999999
 23
2815.7386069999998
 33
0.0
 14
3472.197729999999
 24
2385.7386069999998
 34
0.0
 50
90.0
1001
ACAD
1000
DSTYLE
1002
{
1070
   287
1070
     3
1070
   287
1070
     3
1070
     3
1000
φ<>
1070
    40
1040
20.0
1070
   143
1040
0.039
1070
   172
1070
     1
1070
   271
1070
     0
1070
   279
1070
     0
1070
   288
1070
     1
1002
}
  0
DIMENSION
  5
7C5F
  8
3
  6
CONTINUOUS
  2
*D9
 10
1900.940108
 20
4301.7473499999987
 30
0.0
 11
1372.4009060000001
 21
4301.7473499999987
 31
0.0
 70
   128
 13
900.9401079999999
 23
4159.5086069999998
 33
0.0
 14
1900.940108
 24
4159.5086069999998
 34
0.0
1001
ACAD
1000
DSTYLE
1002
{
1070
   287
1070
     3
1070
   287
1070
     3
1070
    40
1040
20.0
1070
   143
1040
0.039
1070
   172
1070
     1
1070
   271
1070
     0
1070
   279
1070
     0
1070
   288
1070
     1
1002
}
  0
DIMENSION
  5
7C6C
  8
3
  6
CONTINUOUS
  2
*D10
 10
2057.2435850000002
 20
3771.5086070000002
 30
0.0
 11
2057.2435850000002
 21
3970.4852270000001
 31
0.0
 70
   128
 13
1900.940108
 23
4159.5086069999998
 33
0.0
 14
1900.940108
 24
3771.5086070000002
 34
0.0
 50
90.0
1001
ACAD
1000
DSTYLE
1002
{
1070
   287
1070
     3
1070
   287
1070
     3
1070
    40
1040
20.0
1070
   143
1040
0.039
1070
   172
1070
     1
1070
   271
1070
     0
1070
   279
1070
     0
1070
   288
1070
     1
1002
}
  0
LINE
  5
7D19
  8
1
  6
CONTINUOUS
 10
3473.197729999999
 20
2385.7386069999998
 30
0.0
 11
3473.197729999999
 21
2815.7386069999998
 31
0.0
  0
DIMENSION
  5
7D29
  8
3
  6
CONTINUOUS
  2
*D11
 10
3473.197729999999
 20
3080.2717210000001
 30
0.0
 11
3395.0015776326441
 21
3131.3380135371749
 31
0.0
 70
   128
 13
3322.1977299999999
 23
3033.9222612198969
 33
0.0
 14
3473.197729999999
 24
2815.7386069999998
 34
0.0
1001
ACAD
1000
DSTYLE
1002
{
1070
   288
1070
     1
1070
   172
1070
     1
1070
    40
1040
20.0
1070
   271
1070
     0
1070
   143
1040
0.039
1002
}
  0
DIMENSION
  5
7E60
  8
3
  2
*D12
 10
1160.9401079999991
 20
1889.9249652999581
 30
0.0
 11
1030.940108
 21
1939.9249652999581
 31
0.0
 70
     0
 13
900.9401079999999
 23
2020.738607
 33
0.0
 14
1160.9401079999991
 24
2020.738607
 34
0.0
1001
ACAD
1000
DSTYLE
1002
{
1070
   287
1070
     3
1070
   287
1070
     3
1070
    40
1040
20.0
1070
   143
1040
0.039
1070
   172
1070
     1
1070
   271
1070
     0
1070
   279
1070
     0
1002
}
  0
DIMENSION
  5
7E6D
  8
3
  2
*D13
 10
1900.940108
 20
1889.9249652999581
 30
0.0
 11
1530.940108
 21
1939.9249652999581
 31
0.0
 70
     0
 13
1160.9401079999991
 23
2020.738607
 33
0.0
 14
1900.940108
 24
2020.738607
 34
0.0
1001
ACAD
1000
DSTYLE
1002
{
1070
   287
1070
     3
1070
   287
1070
     3
1070
    40
1040
20.0
1070
   143
1040
0.039
1070
   172
1070
     1
1070
   271
1070
     0
1070
   279
1070
     0
1002
}
  0
DIMENSION
  5
7E7C
  8
3
  2
*D14
 10
3322.1977299999999
 20
1889.9249652999581
 30
0.0
 11
3225.1977299999999
 21
1939.9249652999581
 31
0.0
 70
     0
 13
3128.1977299999999
 23
2020.738607
 33
0.0
 14
3322.1977299999999
 24
2020.738607
 34
0.0
1001
ACAD
1000
DSTYLE
1002
{
1070
   287
1070
     3
1070
   287
1070
     3
1070
    40
1040
20.0
1070
   143
1040
0.039
1070
   172
1070
     1
1070
   271
1070
     0
1070
   279
1070
     0
1002
}
  0
DIMENSION
  5
7E8B
  8
3
  2
*D15
 10
3516.1977299999999
 20
1889.9249652999581
 30
0.0
 11
3419.1977299999999
 21
1939.9249652999581
 31
0.0
 70
     0
 13
3322.1977299999999
 23
2020.738607
 33
0.0
 14
3516.1977299999999
 24
2020.738607
 34
0.0
1001
ACAD
1000
DSTYLE
1002
{
1070
   287
1070
     3
1070
   287
1070
     3
1070
    40
1040
20.0
1070
   143
1040
0.039
1070
   172
1070
     1
1070
   271
1070
     0
1070
   279
1070
     0
1002
}
  0
DIMENSION
  5
7EA2
  8
3
  2
*D17
 10
767.38483538544449
 20
2020.738607
 30
0.0
 11
717.38483538544426
 21
1872.1671784285711
 31
0.0
 70
     0
 13
900.9401079999999
 23
2085.7386069999998
 33
0.0
 14
900.9401079999999
 24
2020.738607
 34
0.0
 50
90.0
1001
ACAD
1000
DSTYLE
1002
{
1070
   287
1070
     3
1070
   287
1070
     3
1070
    40
1040
20.0
1070
   143
1040
0.039
1070
   172
1070
     1
1070
   271
1070
     0
1070
   279
1070
     0
1070
     6
1000
DOT
1002
}
  0
DIMENSION
  5
7EB1
  8
3
  2
*D18
 10
767.38483538544449
 20
2180.7386069999998
 30
0.0
 11
671.67054967115894
 21
2133.2386069999998
 31
0.0
 70
     0
 13
900.9401079999999
 23
2085.7386069999998
 33
0.0
 14
900.9401079999999
 24
2180.7386069999998
 34
0.0
 50
90.0
1001
ACAD
1000
DSTYLE
1002
{
1070
   172
1070
     1
1070
    40
1040
20.0
1070
     3
1000
(<>)
1070
   271
1070
     0
1070
     6
1000
_DOT
1070
   143
1040
0.039
1002
}
  0
ENDSEC
  0
EOF
