  0
SECTION
  2
HEADER
  9
$ACADVER
  1
AC1009
  9
$INSBASE
 10
0.0
 20
0.0
 30
0.0
  9
$EXTMIN
 10
500.0
 20
600.0
 30
0.0
  9
$EXTMAX
 10
3700.0
 20
5573.3045229999998
 30
0.0
  9
$LIMMIN
 10
0.0
 20
0.0
  9
$LIMMAX
 10
297.0
 20
210.0
  9
$ORTHOMODE
 70
     0
  9
$REGENMODE
 70
     1
  9
$FILLMODE
 70
     0
  9
$QTEXTMODE
 70
     0
  9
$MIRRTEXT
 70
     1
  9
$DRAGMODE
 70
     2
  9
$LTSCALE
 40
100.0
  9
$OSMODE
 70
    37
  9
$ATTMODE
 70
     1
  9
$TEXTSIZE
 40
180.0
  9
$TRACEWID
 40
0.05
  9
$TEXTSTYLE
  7
STANDARD
  9
$CLAYER
  8
3
  9
$CELTYPE
  6
BYLAYER
  9
$CECOLOR
 62
   256
  9
$DIMSCALE
 40
20.0
  9
$DIMASZ
 40
2.0
  9
$DIMEXO
 40
0.5
  9
$DIMDLI
 40
10.0
  9
$DIMRND
 40
0.0
  9
$DIMDLE
 40
0.0
  9
$DIMEXE
 40
1.0
  9
$DIMTP
 40
1.0
  9
$DIMTM
 40
1.0
  9
$DIMTXT
 40
3.0
  9
$DIMCEN
 40
0.0
  9
$DIMTSZ
 40
0.0
  9
$DIMTOL
 70
     0
  9
$DIMLIM
 70
     0
  9
$DIMTIH
 70
     0
  9
$DIMTOH
 70
     0
  9
$DIMSE1
 70
     0
  9
$DIMSE2
 70
     0
  9
$DIMTAD
 70
     1
  9
$DIMZIN
 70
     8
  9
$DIMBLK
  1

  9
$DIMASO
 70
     1
  9
$DIMSHO
 70
     1
  9
$DIMPOST
  1

  9
$DIMAPOST
  1

  9
$DIMALT
 70
     0
  9
$DIMALTD
 70
     2
  9
$DIMALTF
 40
0.039
  9
$DIMLFAC
 40
1.0
  9
$DIMTOFL
 70
     1
  9
$DIMTVP
 40
0.0
  9
$DIMTIX
 70
     0
  9
$DIMSOXD
 70
     0
  9
$DIMSAH
 70
     1
  9
$DIMBLK1
  1
OPEN
  9
$DIMBLK2
  1
OPEN
  9
$DIMSTYLE
  2
IGA
  9
$DIMCLRD
 70
     0
  9
$DIMCLRE
 70
     0
  9
$DIMCLRT
 70
     0
  9
$DIMTFAC
 40
10.0
  9
$DIMGAP
 40
1.0
  9
$LUNITS
 70
     2
  9
$LUPREC
 70
     3
  9
$SKETCHINC
 40
0.1
  9
$FILLETRAD
 40
50.0
  9
$AUNITS
 70
     0
  9
$AUPREC
 70
     0
  9
$MENU
  1
acad
  9
$ELEVATION
 40
0.0
  9
$PELEVATION
 40
0.0
  9
$THICKNESS
 40
0.0
  9
$LIMCHECK
 70
     0
  9
$BLIPMODE
 70
     0
  9
$CHAMFERA
 40
0.5
  9
$CHAMFERB
 40
0.5
  9
$SKPOLY
 70
     0
  9
$TDCREATE
 40
2450725.4253699072
  9
$TDUPDATE
 40
2454953.835020463
  9
$TDINDWG
 40
0.0052343519
  9
$TDUSRTIMER
 40
0.0052343519
  9
$USRTIMER
 70
     1
  9
$ANGBASE
 50
0.0
  9
$ANGDIR
 70
     0
  9
$PDMODE
 70
     0
  9
$PDSIZE
 40
0.0
  9
$PLINEWID
 40
0.0
  9
$COORDS
 70
     1
  9
$SPLFRAME
 70
     0
  9
$SPLINETYPE
 70
     6
  9
$SPLINESEGS
 70
     8
  9
$ATTDIA
 70
     0
  9
$ATTREQ
 70
     1
  9
$HANDLING
 70
 10241
  9
$HANDSEED
  5
8049
  9
$SURFTAB1
 70
     6
  9
$SURFTAB2
 70
     6
  9
$SURFTYPE
 70
     6
  9
$SURFU
 70
     6
  9
$SURFV
 70
     6
  9
$UCSNAME
  2

  9
$UCSORG
 10
0.0
 20
0.0
 30
0.0
  9
$UCSXDIR
 10
1.0
 20
0.0
 30
0.0
  9
$UCSYDIR
 10
0.0
 20
1.0
 30
0.0
  9
$PUCSNAME
  2

  9
$PUCSORG
 10
0.0
 20
0.0
 30
0.0
  9
$PUCSXDIR
 10
1.0
 20
0.0
 30
0.0
  9
$PUCSYDIR
 10
0.0
 20
1.0
 30
0.0
  9
$USERI1
 70
     0
  9
$USERI2
 70
     0
  9
$USERI3
 70
     0
  9
$USERI4
 70
     0
  9
$USERI5
 70
     0
  9
$USERR1
 40
0.0
  9
$USERR2
 40
0.0
  9
$USERR3
 40
0.0
  9
$USERR4
 40
0.0
  9
$USERR5
 40
0.0
  9
$WORLDVIEW
 70
     1
  9
$SHADEDGE
 70
     3
  9
$SHADEDIF
 70
    70
  9
$TILEMODE
 70
     1
  9
$MAXACTVP
 70
    16
  9
$PLIMCHECK
 70
     0
  9
$PEXTMIN
 10
1.0000000000000000E+020
 20
1.0000000000000000E+020
 30
1.0000000000000000E+020
  9
$PEXTMAX
 10
-1.0000000000000000E+020
 20
-1.0000000000000000E+020
 30
-1.0000000000000000E+020
  9
$PLIMMIN
 10
0.0
 20
0.0
  9
$PLIMMAX
 10
12.0
 20
9.0
  9
$UNITMODE
 70
     0
  9
$VISRETAIN
 70
     0
  9
$PLINEGEN
 70
     0
  9
$PSLTSCALE
 70
     1
  0
ENDSEC
  0
SECTION
  2
TABLES
  0
TABLE
  2
VPORT
 70
     2
  0
VPORT
  2
*ACTIVE
 70
     0
 10
0.0
 20
0.0
 11
1.0
 21
1.0
 12
5840.7730763646296
 22
3864.4770293524421
 13
0.0
 23
0.0
 14
10.0
 24
10.0
 15
10.0
 25
10.0
 16
0.0
 26
0.0
 36
1.0
 17
0.0
 27
0.0
 37
0.0
 40
7720.8617819453802
 41
1.5051150895140659
 42
50.0
 43
0.0
 44
0.0
 50
0.0
 51
0.0
 71
     0
 72
   100
 73
     1
 74
     0
 75
     0
 76
     0
 77
     0
 78
     0
  0
ENDTAB
  0
TABLE
  2
LTYPE
 70
     2
  0
LTYPE
  2
CONTINUOUS
 70
     0
  3
Solid line
 72
    65
 73
     0
 40
0.0
  0
LTYPE
  2
CENTER
 70
     0
  3
____ _ ____ _ ____ _ ____ _ ____ _ ____ _ ____ 
 72
    65
 73
     4
 40
2.0
 49
1.25
 49
-0.25
 49
0.25
 49
-0.25
  0
ENDTAB
  0
TABLE
  2
LAYER
 70
     6
  0
LAYER
  2
0
 70
     0
 62
     7
  6
CONTINUOUS
  0
LAYER
  2
3
 70
     0
 62
     2
  6
CONTINUOUS
  0
LAYER
  2
2
 70
     0
 62
     3
  6
CENTER
  0
LAYER
  2
1
 70
     0
 62
     4
  6
CONTINUOUS
  0
LAYER
  2
4
 70
     0
 62
     7
  6
CONTINUOUS
  0
LAYER
  2
DEFPOINTS
 70
     0
 62
     7
  6
CONTINUOUS
  0
ENDTAB
  0
TABLE
  2
STYLE
 70
     1
  0
STYLE
  2
STANDARD
 70
     0
 40
0.0
 41
1.0
 50
0.0
 71
     0
 42
180.0
  3
simplex.shx
  4
extfont.shx
  0
ENDTAB
  0
TABLE
  2
VIEW
 70
     0
  0
ENDTAB
  0
TABLE
  2
UCS
 70
     0
  0
ENDTAB
  0
TABLE
  2
APPID
 70
     1
  0
APPID
  2
ACAD
 70
     0
  0
ENDTAB
  0
TABLE
  2
DIMSTYLE
 70
     1
  0
DIMSTYLE
  2
IGA
 70
     0
  3

  4

  5

  6
OPEN
  7
OPEN
 40
2.0
 41
2.0
 42
0.5
 43
10.0
 44
1.0
 45
0.0
 46
0.0
 47
1.0
 48
1.0
140
3.0
141
0.0
142
0.0
143
0.03937
144
1.0
145
0.0
146
10.0
147
1.0
 71
     0
 72
     0
 73
     0
 74
     0
 75
     0
 76
     0
 77
     1
 78
     8
170
     0
171
     2
172
     0
173
     1
174
     0
175
     0
176
     0
177
     0
178
     0
  0
ENDTAB
  0
ENDSEC
  0
SECTION
  2
BLOCKS
  0
BLOCK
  8
0
  2
$MODEL_SPACE
 70
     0
 10
0.0
 20
0.0
 30
0.0
  3
$MODEL_SPACE
  1

  0
ENDBLK
  5
1B
  8
0
  0
BLOCK
 67
     1
  8
0
  2
$PAPER_SPACE
 70
     0
 10
0.0
 20
0.0
 30
0.0
  3
$PAPER_SPACE
  1

  0
ENDBLK
  5
18
 67
     1
  8
0
  0
BLOCK
  8
0
  2
_OPEN
 70
     0
 10
0.0
 20
0.0
 30
0.0
  3
_OPEN
  1

  0
LINE
  5
7B82
  8
0
  6
BYBLOCK
 62
     0
 10
-1.0
 20
0.166667
 30
0.0
 11
0.0
 21
0.0
 31
0.0
  0
LINE
  5
7B83
  8
0
  6
BYBLOCK
 62
     0
 10
0.0
 20
0.0
 30
0.0
 11
-1.0
 21
-0.166667
 31
0.0
  0
LINE
  5
7B84
  8
0
  6
BYBLOCK
 62
     0
 10
0.0
 20
0.0
 30
0.0
 11
-1.0
 21
0.0
 31
0.0
  0
ENDBLK
  5
7B85
  8
0
  0
BLOCK
  8
0
  2
*D1
 70
     1
 10
0.0
 20
0.0
 30
0.0
  3
*D1
  1

  0
LINE
  5
7FAB
  8
3
  6
CONTINUOUS
 62
     0
 10
1117.9458400000001
 20
2570.0769140000002
 30
0.0
 11
1052.8810980000001
 21
2570.0769140000002
 31
0.0
  0
LINE
  5
7FAC
  8
3
  6
CONTINUOUS
 62
     0
 10
1117.9458400000001
 20
2170.0769140000002
 30
0.0
 11
1052.8810980000001
 21
2170.0769140000002
 31
0.0
  0
LINE
  5
7FAD
  8
3
  6
CONTINUOUS
 62
     0
 10
1072.8810980000001
 20
2530.0769140000002
 30
0.0
 11
1072.8810980000001
 21
2210.0769140000002
 31
0.0
  0
INSERT
  5
7FAE
  8
3
  6
CONTINUOUS
 62
     0
  2
_OPEN
 10
1072.8810980000001
 20
2570.0769140000002
 30
0.0
 41
40.0
 42
40.0
 43
40.0
 50
90.0
  0
INSERT
  5
7FAF
  8
3
  6
CONTINUOUS
 62
     0
  2
_OPEN
 10
1072.8810980000001
 20
2170.0769140000002
 30
0.0
 41
40.0
 42
40.0
 43
40.0
 50
270.0
  0
TEXT
  8
3
  40
60
  5
8038
  62
0
  72
0
  71
0
 10
902.881
 20
2250.97
 30
0.000000
  1
400
  0
POINT
  5
7FB1
  8
DEFPOINTS
  6
CONTINUOUS
 62
     0
 10
1127.9458400000001
 20
2570.0769140000002
 30
0.0
  0
POINT
  5
7FB2
  8
DEFPOINTS
  6
CONTINUOUS
 62
     0
 10
1127.9458400000001
 20
2170.0769140000002
 30
0.0
  0
POINT
  5
7FB3
  8
DEFPOINTS
  6
CONTINUOUS
 62
     0
 10
1072.8810980000001
 20
2170.0769140000002
 30
0.0
  0
ENDBLK
  5
7B92
  8
0
  0
BLOCK
  8
0
  2
*D2
 70
     1
 10
0.0
 20
0.0
 30
0.0
  3
*D2
  1

  0
LINE
  5
7FB4
  8
3
  6
CONTINUOUS
 62
     0
 10
1062.8810980000001
 20
2170.0769140000002
 30
0.0
 11
933.35571400000026
 21
2170.0769140000002
 31
0.0
  0
LINE
  5
7FB5
  8
3
  6
CONTINUOUS
 62
     0
 10
941.70215229705138
 20
2558.0769140000002
 30
0.0
 11
973.35571400000049
 21
2558.0769140000002
 31
0.0
  0
LINE
  5
7FB6
  8
3
  6
CONTINUOUS
 62
     0
 10
953.35571400000038
 20
2210.0769140000002
 30
0.0
 11
953.35571400000038
 21
2518.0769140000002
 31
0.0
  0
INSERT
  5
7FB7
  8
3
  6
CONTINUOUS
 62
     0
  2
_OPEN
 10
953.35571400000038
 20
2170.0769140000002
 30
0.0
 41
40.0
 42
40.0
 43
40.0
 50
270.0
  0
INSERT
  5
7FB8
  8
3
  6
CONTINUOUS
 62
     0
  2
_OPEN
 10
953.35571400000038
 20
2558.0769140000002
 30
0.0
 41
40.0
 42
40.0
 43
40.0
 50
90.0
  0
TEXT
  8
3
  40
60
  5
8039
  62
0
  72
0
  71
0
 10
783.356
 20
2250.97
 30
0.000000
  1
388
  0
POINT
  5
7FBA
  8
DEFPOINTS
  6
CONTINUOUS
 62
     0
 10
1072.8810980000001
 20
2170.0769140000002
 30
0.0
  0
POINT
  5
7FBB
  8
DEFPOINTS
  6
CONTINUOUS
 62
     0
 10
931.7021522970515
 20
2558.0769140000002
 30
0.0
  0
POINT
  5
7FBC
  8
DEFPOINTS
  6
CONTINUOUS
 62
     0
 10
953.35571400000038
 20
2558.0769140000002
 30
0.0
  0
ENDBLK
  5
7E71
  8
0
  0
BLOCK
  8
0
  2
*D3
 70
     1
 10
0.0
 20
0.0
 30
0.0
  3
*D3
  1

  0
LINE
  5
7FBD
  8
3
  6
CONTINUOUS
 62
     0
 10
1127.9458400000001
 20
2607.0769140000002
 30
0.0
 11
1127.9458400000001
 21
2974.3206110000001
 31
0.0
  0
LINE
  5
7FBE
  8
3
  6
CONTINUOUS
 62
     0
 10
1427.9458400000001
 20
2919.4497636159881
 30
0.0
 11
1427.9458400000001
 21
2974.3206110000001
 31
0.0
  0
LINE
  5
7FBF
  8
3
  6
CONTINUOUS
 62
     0
 10
1167.9458400000001
 20
2954.3206109999992
 30
0.0
 11
1387.9458400000001
 21
2954.3206109999992
 31
0.0
  0
INSERT
  5
7FC0
  8
3
  6
CONTINUOUS
 62
     0
  2
_OPEN
 10
1127.9458400000001
 20
2954.3206109999992
 30
0.0
 41
40.0
 42
40.0
 43
40.0
 50
180.0
  0
INSERT
  5
7FC1
  8
3
  6
CONTINUOUS
 62
     0
  2
_OPEN
 10
1427.9458400000001
 20
2954.3206109999992
 30
0.0
 41
40.0
 42
40.0
 43
40.0
  0
TEXT
  8
3
  40
60
  5
803A
  62
0
  72
0
  71
0
 10
1170.80
 20
2898.12
 30
0.000000
  1
300
  0
POINT
  5
7FC3
  8
DEFPOINTS
  6
CONTINUOUS
 62
     0
 10
1127.9458400000001
 20
2597.0769140000002
 30
0.0
  0
POINT
  5
7FC4
  8
DEFPOINTS
  6
CONTINUOUS
 62
     0
 10
1427.9458400000001
 20
2909.4497636159881
 30
0.0
  0
POINT
  5
7FC5
  8
DEFPOINTS
  6
CONTINUOUS
 62
     0
 10
1427.9458400000001
 20
2954.3206109999992
 30
0.0
  0
ENDBLK
  5
7E86
  8
0
  0
BLOCK
  8
0
  2
*D4
 70
     1
 10
0.0
 20
0.0
 30
0.0
  3
*D4
  1

  0
LINE
  5
7FC6
  8
3
  6
CONTINUOUS
 62
     0
 10
1759.9458400000001
 20
2541.0769140000002
 30
0.0
 11
1759.9458400000001
 21
2974.3206110000001
 31
0.0
  0
LINE
  5
7FC7
  8
3
  6
CONTINUOUS
 62
     0
 10
1467.9458400000001
 20
2954.3206109999992
 30
0.0
 11
1719.9458400000001
 21
2954.3206109999992
 31
0.0
  0
INSERT
  5
7FC8
  8
3
  6
CONTINUOUS
 62
     0
  2
_OPEN
 10
1427.9458400000001
 20
2954.3206109999992
 30
0.0
 41
40.0
 42
40.0
 43
40.0
 50
180.0
  0
INSERT
  5
7FC9
  8
3
  6
CONTINUOUS
 62
     0
  2
_OPEN
 10
1759.9458400000001
 20
2954.3206109999992
 30
0.0
 41
40.0
 42
40.0
 43
40.0
  0
TEXT
  8
3
  40
60
  5
803B
  62
0
  72
0
  71
0
 10
1473.95
 20
2898.12
 30
0.000000
  1
332
  0
POINT
  5
7FCB
  8
DEFPOINTS
  6
CONTINUOUS
 62
     0
 10
1427.9458400000001
 20
2909.4497636159881
 30
0.0
  0
POINT
  5
7FCC
  8
DEFPOINTS
  6
CONTINUOUS
 62
     0
 10
1759.9458400000001
 20
2531.0769140000002
 30
0.0
  0
POINT
  5
7FCD
  8
DEFPOINTS
  6
CONTINUOUS
 62
     0
 10
1759.9458400000001
 20
2954.3206109999992
 30
0.0
  0
ENDBLK
  5
7ECE
  8
0
  0
BLOCK
  8
0
  2
*D5
 70
     1
 10
0.0
 20
0.0
 30
0.0
  3
*D5
  1

  0
LINE
  5
7DF1
  8
0
  6
BYBLOCK
 62
     0
 10
2901.0653649999999
 20
1946.076914
 30
0.0
 11
2901.0653649999999
 21
1769.330747
 31
0.0
  0
LINE
  5
7DF2
  8
0
  6
BYBLOCK
 62
     0
 10
3095.065364999999
 20
1811.7559509852299
 30
0.0
 11
3095.065364999999
 21
1769.330747
 31
0.0
  0
LINE
  5
7DF3
  8
0
  6
BYBLOCK
 62
     0
 10
2941.0653649999999
 20
1789.330747
 30
0.0
 11
3055.0653649999999
 21
1789.330747
 31
0.0
  0
TEXT
  5
7DF4
  8
3
 62
     0
 10
2925.2082221428568
 20
1816.1258698190211
 30
0.0
 40
60.0
  1
194
  0
INSERT
  5
7DF5
  8
0
  6
BYBLOCK
 62
     0
  2
_OPEN
 10
2901.0653649999999
 20
1789.330747
 30
0.0
 41
40.0
 42
40.0
 43
40.0
 50
180.0
  0
INSERT
  5
7DF6
  8
0
  6
BYBLOCK
 62
     0
  2
_OPEN
 10
3095.065364999999
 20
1789.330747
 30
0.0
 41
40.0
 42
40.0
 43
40.0
  0
POINT
  5
7DF7
  8
DEFPOINTS
  6
BYBLOCK
 62
     0
 10
2901.0653649999999
 20
1956.076914
 30
0.0
  0
POINT
  5
7DF8
  8
DEFPOINTS
  6
BYBLOCK
 62
     0
 10
3095.065364999999
 20
1821.7559509852299
 30
0.0
  0
POINT
  5
7DF9
  8
DEFPOINTS
  6
BYBLOCK
 62
     0
 10
3095.065364999999
 20
1789.330747
 30
0.0
  0
ENDBLK
  5
7DFA
  8
0
  0
BLOCK
  8
0
  2
*D6
 70
     1
 10
0.0
 20
0.0
 30
0.0
  3
*D6
  1

  0
LINE
  5
7FCE
  8
3
  6
CONTINUOUS
 62
     0
 10
3289.065364999999
 20
1946.076914
 30
0.0
 11
3289.065364999999
 21
1769.330747
 31
0.0
  0
LINE
  5
7FCF
  8
3
  6
CONTINUOUS
 62
     0
 10
3135.0653649999999
 20
1789.330747
 30
0.0
 11
3249.065364999999
 21
1789.330747
 31
0.0
  0
TEXT
  8
3
  40
60
  5
803C
  62
0
  72
0
  71
0
 10
3079.82
 20
1734.11
 30
0.000000
  1
194
  0
INSERT
  5
7FD1
  8
3
  6
CONTINUOUS
 62
     0
  2
_OPEN
 10
3095.065364999999
 20
1789.330747
 30
0.0
 41
40.0
 42
40.0
 43
40.0
 50
180.0
  0
INSERT
  5
7FD2
  8
3
  6
CONTINUOUS
 62
     0
  2
_OPEN
 10
3289.065364999999
 20
1789.330747
 30
0.0
 41
40.0
 42
40.0
 43
40.0
  0
POINT
  5
7FD3
  8
DEFPOINTS
  6
CONTINUOUS
 62
     0
 10
3095.065364999999
 20
1821.7559509852299
 30
0.0
  0
POINT
  5
7FD4
  8
DEFPOINTS
  6
CONTINUOUS
 62
     0
 10
3289.065364999999
 20
1956.076914
 30
0.0
  0
POINT
  5
7FD5
  8
DEFPOINTS
  6
CONTINUOUS
 62
     0
 10
3289.065364999999
 20
1789.330747
 30
0.0
  0
ENDBLK
  5
7DEF
  8
0
  0
BLOCK
  8
0
  2
*D7
 70
     1
 10
0.0
 20
0.0
 30
0.0
  3
*D7
  1

  0
LINE
  5
7FD6
  8
3
  6
CONTINUOUS
 62
     0
 10
2945.065364999999
 20
2868.0769140000002
 30
0.0
 11
2945.065364999999
 21
2932.7508629284971
 31
0.0
  0
LINE
  5
7FD7
  8
3
  6
CONTINUOUS
 62
     0
 10
3245.0653649999999
 20
2868.0769140000002
 30
0.0
 11
3245.0653649999999
 21
2932.7508629284971
 31
0.0
  0
LINE
  5
7FD8
  8
3
  6
CONTINUOUS
 62
     0
 10
2985.0653649999999
 20
2912.7508629284971
 30
0.0
 11
3205.0653649999999
 21
2912.7508629284971
 31
0.0
  0
INSERT
  5
7FD9
  8
3
  6
CONTINUOUS
 62
     0
  2
_OPEN
 10
2945.065364999999
 20
2912.7508629284971
 30
0.0
 41
40.0
 42
40.0
 43
40.0
 50
180.0
  0
INSERT
  5
7FDA
  8
3
  6
CONTINUOUS
 62
     0
  2
_OPEN
 10
3245.0653649999999
 20
2912.7508629284971
 30
0.0
 41
40.0
 42
40.0
 43
40.0
  0
TEXT
  8
3
  40
60
  5
803D
  62
0
  72
0
  71
0
 10
2962.21
 20
2856.55
 30
0.000000
  1
300
  0
POINT
  5
7FDC
  8
DEFPOINTS
  6
CONTINUOUS
 62
     0
 10
2945.065364999999
 20
2858.0769140000002
 30
0.0
  0
POINT
  5
7FDD
  8
DEFPOINTS
  6
CONTINUOUS
 62
     0
 10
3245.0653649999999
 20
2858.0769140000002
 30
0.0
  0
POINT
  5
7FDE
  8
DEFPOINTS
  6
CONTINUOUS
 62
     0
 10
3245.0653649999999
 20
2912.7508629284971
 30
0.0
  0
ENDBLK
  5
7E3C
  8
0
  0
BLOCK
  8
0
  2
*D8
 70
     1
 10
0.0
 20
0.0
 30
0.0
  3
*D8
  1

  0
LINE
  5
7FDF
  8
3
  6
CONTINUOUS
 62
     0
 10
2765.065364999999
 20
2788.0769140000002
 30
0.0
 11
2765.065364999999
 21
3094.9832514454142
 31
0.0
  0
LINE
  5
7FE0
  8
3
  6
CONTINUOUS
 62
     0
 10
3055.0653649999999
 20
3074.9832514454151
 30
0.0
 11
2805.0653649999999
 21
3074.9832514454151
 31
0.0
  0
INSERT
  5
7FE1
  8
3
  6
CONTINUOUS
 62
     0
  2
_OPEN
 10
3095.065364999999
 20
3074.9832514454151
 30
0.0
 41
40.0
 42
40.0
 43
40.0
  0
INSERT
  5
7FE2
  8
3
  6
CONTINUOUS
 62
     0
  2
_OPEN
 10
2765.065364999999
 20
3074.9832514454151
 30
0.0
 41
40.0
 42
40.0
 43
40.0
 50
180.0
  0
TEXT
  8
3
  40
60
  5
803E
  62
0
  72
0
  71
0
 10
2810.07
 20
3068.78
 30
0.000000
  1
MAX
  0
TEXT
  8
3
  40
60
  5
803F
  62
0
  72
0
  71
0
 10
2810.07
 20
2990.78
 30
0.000000
  1
380
  0
POINT
  5
7FE4
  8
DEFPOINTS
  6
CONTINUOUS
 62
     0
 10
3095.065364999999
 20
2998.4483280577688
 30
0.0
  0
POINT
  5
7FE5
  8
DEFPOINTS
  6
CONTINUOUS
 62
     0
 10
2765.065364999999
 20
2778.0769140000002
 30
0.0
  0
POINT
  5
7FE6
  8
DEFPOINTS
  6
CONTINUOUS
 62
     0
 10
2765.065364999999
 20
3074.9832514454151
 30
0.0
  0
ENDBLK
  5
7EB2
  8
0
  0
BLOCK
  8
0
  2
*D9
 70
     1
 10
0.0
 20
0.0
 30
0.0
  3
*D9
  1

  0
LINE
  5
7FE7
  8
3
  6
CONTINUOUS
 62
     0
 10
3255.0653649999999
 20
2773.0769140000002
 30
0.0
 11
3420.5328570000001
 21
2773.0769140000002
 31
0.0
  0
LINE
  5
7FE8
  8
3
  6
CONTINUOUS
 62
     0
 10
3255.0653649999999
 20
2343.0769140000002
 30
0.0
 11
3420.5328570000001
 21
2343.0769140000002
 31
0.0
  0
LINE
  5
7FE9
  8
3
  6
CONTINUOUS
 62
     0
 10
3400.5328570000001
 20
2733.0769140000002
 30
0.0
 11
3400.5328570000001
 21
2383.0769140000002
 31
0.0
  0
INSERT
  5
7FEA
  8
3
  6
CONTINUOUS
 62
     0
  2
_OPEN
 10
3400.5328570000001
 20
2773.0769140000002
 30
0.0
 41
40.0
 42
40.0
 43
40.0
 50
90.0
  0
INSERT
  5
7FEB
  8
3
  6
CONTINUOUS
 62
     0
  2
_OPEN
 10
3400.5328570000001
 20
2343.0769140000002
 30
0.0
 41
40.0
 42
40.0
 43
40.0
 50
270.0
  0
TEXT
  8
3
  40
60
  5
8040
  62
0
  72
0
  71
0
 10
3230.53
 20
2439.30
 30
0.000000
  1
φ430
  0
POINT
  5
7FED
  8
DEFPOINTS
  6
CONTINUOUS
 62
     0
 10
3245.0653649999999
 20
2773.0769140000002
 30
0.0
  0
POINT
  5
7FEE
  8
DEFPOINTS
  6
CONTINUOUS
 62
     0
 10
3245.0653649999999
 20
2343.0769140000002
 30
0.0
  0
POINT
  5
7FEF
  8
DEFPOINTS
  6
CONTINUOUS
 62
     0
 10
3400.5328570000001
 20
2343.0769140000002
 30
0.0
  0
ENDBLK
  5
7DE5
  8
0
  0
BLOCK
  8
0
  2
*D10
 70
     1
 10
0.0
 20
0.0
 30
0.0
  3
*D10
  1

  0
LINE
  5
7FF0
  8
3
  6
CONTINUOUS
 62
     0
 10
1147.945839999999
 20
2858.0769140000002
 30
0.0
 11
712.21111700000051
 21
2858.0769140000011
 31
0.0
  0
LINE
  5
7FF1
  8
3
  6
CONTINUOUS
 62
     0
 10
1157.9458400000001
 20
1956.076914
 30
0.0
 11
712.21111700000017
 21
1956.076914
 31
0.0
  0
LINE
  5
7FF2
  8
3
  6
CONTINUOUS
 62
     0
 10
732.21111700000051
 20
2818.0769140000002
 30
0.0
 11
732.21111700000017
 21
1996.076914
 31
0.0
  0
INSERT
  5
7FF3
  8
3
  6
CONTINUOUS
 62
     0
  2
_OPEN
 10
732.21111700000051
 20
2858.0769140000011
 30
0.0
 41
40.0
 42
40.0
 43
40.0
 50
90.0
  0
INSERT
  5
7FF4
  8
3
  6
CONTINUOUS
 62
     0
  2
_OPEN
 10
732.21111700000017
 20
1956.076914
 30
0.0
 41
40.0
 42
40.0
 43
40.0
 50
270.0
  0
TEXT
  8
3
  40
60
  5
8041
  62
0
  72
0
  71
0
 10
562.211
 20
2311.60
 30
0.000000
  1
902
  0
POINT
  5
7FF6
  8
DEFPOINTS
  6
CONTINUOUS
 62
     0
 10
1157.9458400000001
 20
2858.0769140000002
 30
0.0
  0
POINT
  5
7FF7
  8
DEFPOINTS
  6
CONTINUOUS
 62
     0
 10
1167.9458400000001
 20
1956.076914
 30
0.0
  0
POINT
  5
7FF8
  8
DEFPOINTS
  6
CONTINUOUS
 62
     0
 10
732.21111700000017
 20
1956.076914
 30
0.0
  0
ENDBLK
  5
7C81
  8
0
  0
BLOCK
  8
0
  2
*D11
 70
     1
 10
0.0
 20
0.0
 30
0.0
  3
*D11
  1

  0
LINE
  5
7FF9
  8
3
  6
CONTINUOUS
 62
     0
 10
1167.9458400000001
 20
4223.9425039999996
 30
0.0
 11
1167.9458400000001
 21
4374.7385049999984
 31
0.0
  0
LINE
  5
7FFA
  8
3
  6
CONTINUOUS
 62
     0
 10
2167.945839999999
 20
4223.9425039999996
 30
0.0
 11
2167.945839999999
 21
4374.7385049999984
 31
0.0
  0
LINE
  5
7FFB
  8
3
  6
CONTINUOUS
 62
     0
 10
1207.9458400000001
 20
4354.7385049999993
 30
0.0
 11
2127.9458399999999
 21
4354.7385049999993
 31
0.0
  0
INSERT
  5
7FFC
  8
3
  6
CONTINUOUS
 62
     0
  2
_OPEN
 10
1167.9458400000001
 20
4354.7385049999993
 30
0.0
 41
40.0
 42
40.0
 43
40.0
 50
180.0
  0
INSERT
  5
7FFD
  8
3
  6
CONTINUOUS
 62
     0
  2
_OPEN
 10
2167.945839999999
 20
4354.7385049999993
 30
0.0
 41
40.0
 42
40.0
 43
40.0
  0
TEXT
  8
3
  40
60
  5
8042
  62
0
  72
0
  71
0
 10
1499.94
 20
4298.54
 30
0.000000
  1
1000
  0
POINT
  5
7FFF
  8
DEFPOINTS
  6
CONTINUOUS
 62
     0
 10
1167.9458400000001
 20
4213.9425039999996
 30
0.0
  0
POINT
  5
8000
  8
DEFPOINTS
  6
CONTINUOUS
 62
     0
 10
2167.945839999999
 20
4213.9425039999996
 30
0.0
  0
POINT
  5
8001
  8
DEFPOINTS
  6
CONTINUOUS
 62
     0
 10
2167.945839999999
 20
4354.7385049999993
 30
0.0
  0
ENDBLK
  5
7CEA
  8
0
  0
BLOCK
  8
0
  2
*D12
 70
     1
 10
0.0
 20
0.0
 30
0.0
  3
*D12
  1

  0
LINE
  5
8002
  8
3
  6
CONTINUOUS
 62
     0
 10
2177.9458399999999
 20
4213.9425039999996
 30
0.0
 11
2371.4709309999998
 21
4213.9425039999996
 31
0.0
  0
LINE
  5
8003
  8
3
  6
CONTINUOUS
 62
     0
 10
2177.9458399999999
 20
3825.9425040000001
 30
0.0
 11
2371.4709309999998
 21
3825.9425040000001
 31
0.0
  0
LINE
  5
8004
  8
3
  6
CONTINUOUS
 62
     0
 10
2351.4709309999998
 20
4173.9425039999996
 30
0.0
 11
2351.4709309999998
 21
3865.9425040000001
 31
0.0
  0
INSERT
  5
8005
  8
3
  6
CONTINUOUS
 62
     0
  2
_OPEN
 10
2351.4709309999998
 20
4213.9425039999996
 30
0.0
 41
40.0
 42
40.0
 43
40.0
 50
90.0
  0
INSERT
  5
8006
  8
3
  6
CONTINUOUS
 62
     0
  2
_OPEN
 10
2351.4709309999998
 20
3825.9425040000001
 30
0.0
 41
40.0
 42
40.0
 43
40.0
 50
270.0
  0
TEXT
  8
3
  40
60
  5
8043
  62
0
  72
0
  71
0
 10
2181.47
 20
3923.99
 30
0.000000
  1
388
  0
POINT
  5
8008
  8
DEFPOINTS
  6
CONTINUOUS
 62
     0
 10
2167.945839999999
 20
4213.9425039999996
 30
0.0
  0
POINT
  5
8009
  8
DEFPOINTS
  6
CONTINUOUS
 62
     0
 10
2167.945839999999
 20
3825.9425040000001
 30
0.0
  0
POINT
  5
800A
  8
DEFPOINTS
  6
CONTINUOUS
 62
     0
 10
2351.4709309999998
 20
3825.9425040000001
 30
0.0
  0
ENDBLK
  5
7CF5
  8
0
  0
BLOCK
  8
0
  2
*D13
 70
     1
 10
0.0
 20
0.0
 30
0.0
  3
*D13
  1

  0
LINE
  5
800B
  8
3
  6
CONTINUOUS
 62
     0
 10
1147.945839999999
 20
2858.0769140000002
 30
0.0
 11
834.05383700000039
 21
2858.0769140000011
 31
0.0
  0
LINE
  5
800C
  8
3
  6
CONTINUOUS
 62
     0
 10
921.7021522970515
 20
2558.0769140000002
 30
0.0
 11
834.05383700000039
 21
2558.0769140000002
 31
0.0
  0
LINE
  5
800D
  8
3
  6
CONTINUOUS
 62
     0
 10
854.0538370000005
 20
2818.0769140000002
 30
0.0
 11
854.05383700000027
 21
2598.0769140000002
 31
0.0
  0
INSERT
  5
800E
  8
3
  6
CONTINUOUS
 62
     0
  2
_OPEN
 10
854.0538370000005
 20
2858.0769140000011
 30
0.0
 41
40.0
 42
40.0
 43
40.0
 50
90.0
  0
INSERT
  5
800F
  8
3
  6
CONTINUOUS
 62
     0
  2
_OPEN
 10
854.05383700000027
 20
2558.0769140000002
 30
0.0
 41
40.0
 42
40.0
 43
40.0
 50
270.0
  0
TEXT
  8
3
  40
60
  5
8044
  62
0
  72
0
  71
0
 10
684.054
 20
2589.02
 30
0.000000
  1
300
  0
POINT
  5
8011
  8
DEFPOINTS
  6
CONTINUOUS
 62
     0
 10
1157.9458400000001
 20
2858.0769140000002
 30
0.0
  0
POINT
  5
8012
  8
DEFPOINTS
  6
CONTINUOUS
 62
     0
 10
931.7021522970515
 20
2558.0769140000002
 30
0.0
  0
POINT
  5
8013
  8
DEFPOINTS
  6
CONTINUOUS
 62
     0
 10
854.05383700000027
 20
2558.0769140000002
 30
0.0
  0
ENDBLK
  5
7E5C
  8
0
  0
BLOCK
  8
0
  2
*D14
 70
     1
 10
0.0
 20
0.0
 30
0.0
  3
*D14
  1

  0
LINE
  5
8014
  8
3
  6
CONTINUOUS
 62
     0
 10
1157.9458400000001
 20
2043.0769139999991
 30
0.0
 11
834.05383699999993
 21
2043.0769139999991
 31
0.0
  0
LINE
  5
8015
  8
3
  6
CONTINUOUS
 62
     0
 10
854.05383700000004
 20
2518.0769140000002
 30
0.0
 11
854.05383700000004
 21
2083.0769140000002
 31
0.0
  0
INSERT
  5
8016
  8
3
  6
CONTINUOUS
 62
     0
  2
_OPEN
 10
854.05383700000004
 20
2558.0769140000002
 30
0.0
 41
40.0
 42
40.0
 43
40.0
 50
90.0
  0
INSERT
  5
8017
  8
3
  6
CONTINUOUS
 62
     0
  2
_OPEN
 10
854.05383700000004
 20
2043.0769139999991
 30
0.0
 41
40.0
 42
40.0
 43
40.0
 50
270.0
  0
TEXT
  8
3
  40
60
  5
8045
  62
0
  72
0
  71
0
 10
684.054
 20
2194.38
 30
0.000000
  1
515
  0
POINT
  5
8019
  8
DEFPOINTS
  6
CONTINUOUS
 62
     0
 10
931.7021522970515
 20
2558.0769140000002
 30
0.0
  0
POINT
  5
801A
  8
DEFPOINTS
  6
CONTINUOUS
 62
     0
 10
1167.9458400000001
 20
2043.0769139999991
 30
0.0
  0
POINT
  5
801B
  8
DEFPOINTS
  6
CONTINUOUS
 62
     0
 10
854.05383700000004
 20
2043.0769139999991
 30
0.0
  0
ENDBLK
  5
7E66
  8
0
  0
BLOCK
  8
0
  2
*D15
 70
     1
 10
0.0
 20
0.0
 30
0.0
  3
*D15
  1

  0
LINE
  5
801C
  8
3
  6
CONTINUOUS
 62
     0
 10
1157.9458400000001
 20
2043.0769139999991
 30
0.0
 11
834.05383700000016
 21
2043.0769139999991
 31
0.0
  0
LINE
  5
801D
  8
3
  6
CONTINUOUS
 62
     0
 10
1157.9458400000001
 20
1956.076914
 30
0.0
 11
834.05383700000016
 21
1956.076914
 31
0.0
  0
LINE
  5
801E
  8
3
  6
CONTINUOUS
 62
     0
 10
854.05383700000027
 20
2083.0769140000002
 30
0.0
 11
854.05383700000027
 21
2123.0769140000002
 31
0.0
  0
LINE
  5
801F
  8
3
  6
CONTINUOUS
 62
     0
 10
854.05383700000027
 20
1916.0769139999991
 30
0.0
 11
854.05383700000004
 21
1738.9340568571431
 31
0.0
  0
LINE
  5
8020
  8
3
  6
CONTINUOUS
 62
     0
 10
854.05383700000027
 20
2043.0769139999991
 30
0.0
 11
854.05383700000027
 21
1956.076914
 31
0.0
  0
INSERT
  5
8021
  8
3
  6
CONTINUOUS
 62
     0
  2
_OPEN
 10
854.05383700000027
 20
2043.0769139999991
 30
0.0
 41
40.0
 42
40.0
 43
40.0
 50
270.0
  0
INSERT
  5
8022
  8
3
  6
CONTINUOUS
 62
     0
  2
_OPEN
 10
854.05383700000027
 20
1956.076914
 30
0.0
 41
40.0
 42
40.0
 43
40.0
 50
90.0
  0
TEXT
  8
3
  40
60
  5
8046
  62
0
  72
0
  71
0
 10
684.054
 20
1701.31
 30
0.000000
  1
87
  0
POINT
  5
8024
  8
DEFPOINTS
  6
CONTINUOUS
 62
     0
 10
1167.9458400000001
 20
2043.0769139999991
 30
0.0
  0
POINT
  5
8025
  8
DEFPOINTS
  6
CONTINUOUS
 62
     0
 10
1167.9458400000001
 20
1956.076914
 30
0.0
  0
POINT
  5
8026
  8
DEFPOINTS
  6
CONTINUOUS
 62
     0
 10
854.05383700000027
 20
1956.076914
 30
0.0
  0
ENDBLK
  5
7EBF
  8
0
  0
BLOCK
  8
0
  2
*D16
 70
     1
 10
0.0
 20
0.0
 30
0.0
  3
*D16
  1

  0
LINE
  5
7E9F
  8
0
  6
BYBLOCK
 62
     0
 10
1167.9458400000001
 20
1946.076914
 30
0.0
 11
1167.9458400000001
 21
1780.2522579999991
 31
0.0
  0
LINE
  5
7EA0
  8
0
  6
BYBLOCK
 62
     0
 10
1427.9458400000001
 20
1825.634211342388
 30
0.0
 11
1427.9458400000001
 21
1780.2522579999991
 31
0.0
  0
LINE
  5
7EA1
  8
0
  6
BYBLOCK
 62
     0
 10
1207.9458400000001
 20
1800.2522579999991
 30
0.0
 11
1387.9458400000001
 21
1800.2522579999991
 31
0.0
  0
TEXT
  5
7EA2
  8
3
 62
     0
 10
1220.802982857143
 20
1832.427720920206
 30
0.0
 40
60.0
  1
260
  0
INSERT
  5
7EA3
  8
0
  6
BYBLOCK
 62
     0
  2
_OPEN
 10
1167.9458400000001
 20
1800.2522579999991
 30
0.0
 41
40.0
 42
40.0
 43
40.0
 50
180.0
  0
INSERT
  5
7EA4
  8
0
  6
BYBLOCK
 62
     0
  2
_OPEN
 10
1427.9458400000001
 20
1800.2522579999991
 30
0.0
 41
40.0
 42
40.0
 43
40.0
  0
POINT
  5
7EA5
  8
DEFPOINTS
  6
BYBLOCK
 62
     0
 10
1167.9458400000001
 20
1956.076914
 30
0.0
  0
POINT
  5
7EA6
  8
DEFPOINTS
  6
BYBLOCK
 62
     0
 10
1427.9458400000001
 20
1835.634211342388
 30
0.0
  0
POINT
  5
7EA7
  8
DEFPOINTS
  6
BYBLOCK
 62
     0
 10
1427.9458400000001
 20
1800.2522579999991
 30
0.0
  0
ENDBLK
  5
7EA8
  8
0
  0
BLOCK
  8
0
  2
*D17
 70
     1
 10
0.0
 20
0.0
 30
0.0
  3
*D17
  1

  0
LINE
  5
8027
  8
3
  6
CONTINUOUS
 62
     0
 10
2167.945839999999
 20
1946.076914
 30
0.0
 11
2167.945839999999
 21
1780.2522579999991
 31
0.0
  0
LINE
  5
8028
  8
3
  6
CONTINUOUS
 62
     0
 10
1467.9458400000001
 20
1800.2522579999991
 30
0.0
 11
2127.9458399999999
 21
1800.2522579999991
 31
0.0
  0
INSERT
  5
8029
  8
3
  6
CONTINUOUS
 62
     0
  2
_OPEN
 10
1427.9458400000001
 20
1800.2522579999991
 30
0.0
 41
40.0
 42
40.0
 43
40.0
 50
180.0
  0
INSERT
  5
802A
  8
3
  6
CONTINUOUS
 62
     0
  2
_OPEN
 10
2167.945839999999
 20
1800.2522579999991
 30
0.0
 41
40.0
 42
40.0
 43
40.0
  0
TEXT
  8
3
  40
60
  5
8047
  62
0
  72
0
  71
0
 10
1677.95
 20
1744.05
 30
0.000000
  1
740
  0
POINT
  5
802C
  8
DEFPOINTS
  6
CONTINUOUS
 62
     0
 10
1427.9458400000001
 20
1835.634211342388
 30
0.0
  0
POINT
  5
802D
  8
DEFPOINTS
  6
CONTINUOUS
 62
     0
 10
2167.945839999999
 20
1956.076914
 30
0.0
  0
POINT
  5
802E
  8
DEFPOINTS
  6
CONTINUOUS
 62
     0
 10
2167.945839999999
 20
1800.2522579999991
 30
0.0
  0
ENDBLK
  5
7E9D
  8
0
  0
BLOCK
  8
0
  2
*D18
 70
     1
 10
0.0
 20
0.0
 30
0.0
  3
*D18
  1

  0
LINE
  5
7E48
  8
0
  6
BYBLOCK
 62
     0
 10
3095.065364999999
 20
3008.4483280577688
 30
0.0
 11
3095.065364999999
 21
3094.9832514454142
 31
0.0
  0
LINE
  5
7E49
  8
0
  6
BYBLOCK
 62
     0
 10
3246.065364999999
 20
2783.0769140000002
 30
0.0
 11
3246.065364999999
 21
3094.9832514454142
 31
0.0
  0
LINE
  5
7E4A
  8
0
  6
BYBLOCK
 62
     0
 10
3135.0653649999999
 20
3074.9832514454151
 30
0.0
 11
3206.0653649999999
 21
3074.9832514454151
 31
0.0
  0
TEXT
  5
7E4B
  8
3
 62
     0
 10
3103.7476923778472
 20
3101.63092477686
 30
0.0
 40
60.0
  1
151
  0
INSERT
  5
7E4C
  8
0
  6
BYBLOCK
 62
     0
  2
_OPEN
 10
3095.065364999999
 20
3074.9832514454151
 30
0.0
 41
40.0
 42
40.0
 43
40.0
 50
180.0
  0
INSERT
  5
7E4D
  8
0
  6
BYBLOCK
 62
     0
  2
_OPEN
 10
3246.065364999999
 20
3074.9832514454151
 30
0.0
 41
40.0
 42
40.0
 43
40.0
  0
POINT
  5
7E4E
  8
DEFPOINTS
  6
BYBLOCK
 62
     0
 10
3095.065364999999
 20
2998.4483280577688
 30
0.0
  0
POINT
  5
7E4F
  8
DEFPOINTS
  6
BYBLOCK
 62
     0
 10
3246.065364999999
 20
2773.0769140000002
 30
0.0
  0
POINT
  5
7E50
  8
DEFPOINTS
  6
BYBLOCK
 62
     0
 10
3246.065364999999
 20
3074.9832514454151
 30
0.0
  0
ENDBLK
  5
7E51
  8
0
  0
BLOCK
  8
0
  2
*D19
 70
     1
 10
0.0
 20
0.0
 30
0.0
  3
*D19
  1

  0
LINE
  5
802F
  8
3
 62
     0
 10
1127.9458400000001
 20
2607.0769140000002
 30
0.0
 11
1127.9458400000001
 21
3106.7070274908619
 31
0.0
  0
LINE
  5
8030
  8
3
 62
     0
 10
2167.945839999999
 20
2133.0769140000002
 30
0.0
 11
2167.945839999999
 21
3106.7070274908619
 31
0.0
  0
LINE
  5
8031
  8
3
 62
     0
 10
1167.9458400000001
 20
3086.7070274908619
 30
0.0
 11
2127.9458399999999
 21
3086.7070274908619
 31
0.0
  0
INSERT
  5
8032
  8
3
 62
     0
  2
_OPEN
 10
1127.9458400000001
 20
3086.7070274908619
 30
0.0
 41
40.0
 42
40.0
 43
40.0
 50
180.0
  0
INSERT
  5
8033
  8
3
 62
     0
  2
_OPEN
 10
2167.945839999999
 20
3086.7070274908619
 30
0.0
 41
40.0
 42
40.0
 43
40.0
  0
TEXT
  8
3
  40
60
  5
8048
  62
0
  72
0
  71
0
 10
1563.57
 20
3030.51
 30
0.000000
  1
1040
  0
POINT
  5
8035
  8
DEFPOINTS
 62
     0
 10
1127.9458400000001
 20
2597.0769140000002
 30
0.0
  0
POINT
  5
8036
  8
DEFPOINTS
 62
     0
 10
2167.945839999999
 20
2123.0769140000002
 30
0.0
  0
POINT
  5
8037
  8
DEFPOINTS
 62
     0
 10
2167.945839999999
 20
3086.7070274908619
 30
0.0
  0
ENDBLK
  5
7E92
  8
0
  0
ENDSEC
  0
SECTION
  2
ENTITIES
  0
CIRCLE
  5
7AB1
  8
1
  6
CONTINUOUS
 10
1427.9458400000001
 20
2558.0769140000002
 30
0.0
 40
240.0
  0
LINE
  5
7AB2
  8
1
  6
CONTINUOUS
 10
1157.9458400000001
 20
2858.0769140000002
 30
0.0
 11
1697.9458400000001
 21
2858.0769140000002
 31
0.0
  0
ARC
  5
7AB3
  8
1
  6
CONTINUOUS
 10
1449.9458400000001
 20
2536.0769140000002
 30
0.0
 40
310.75999999999999
 50
5.8300000000000001
 51
97.310000000000016
  0
ARC
  5
7AB4
  8
1
  6
CONTINUOUS
 10
1400.9458400000001
 20
2531.0769140000002
 30
0.0
 40
360.00999999999988
 50
274.30000000000001
 51
5.8300000000000001
  0
LINE
  5
7AB5
  8
1
  6
CONTINUOUS
 10
1157.9458400000001
 20
2123.0769140000002
 30
0.0
 11
2167.945839999999
 21
2123.0769140000002
 31
0.0
  0
LINE
  5
7AB6
  8
1
  6
CONTINUOUS
 10
1442.4458400000001
 20
2778.0769140000002
 30
0.0
 11
2122.4458399999999
 21
2373.0769140000002
 31
0.0
  0
LINE
  5
7AB7
  8
1
  6
CONTINUOUS
 10
1167.9458400000001
 20
2043.0769139999991
 30
0.0
 11
2167.945839999999
 21
2043.0769139999991
 31
0.0
  0
LINE
  5
7AB8
  8
1
  6
CONTINUOUS
 10
1993.3258399999991
 20
2297.8469140000002
 30
0.0
 11
1483.80584
 21
2641.0169139999998
 31
0.0
  0
LINE
  5
7AB9
  8
1
  6
CONTINUOUS
 10
1383.30584
 20
2468.586914
 30
0.0
 11
1933.0358399999991
 21
2194.3869140000002
 31
0.0
  0
LINE
  5
7ABA
  8
1
  6
CONTINUOUS
 10
1167.9458400000001
 20
2021.076914
 30
0.0
 11
2167.945839999999
 21
2021.076914
 31
0.0
  0
LINE
  5
7ABB
  8
1
  6
CONTINUOUS
 10
1167.9458400000001
 20
1956.076914
 30
0.0
 11
2167.945839999999
 21
1956.076914
 31
0.0
  0
LINE
  5
7ABC
  8
1
  6
CONTINUOUS
 10
1147.945839999999
 20
2570.0769140000002
 30
0.0
 11
1147.945839999999
 21
2170.206913999999
 31
0.0
  0
LINE
  5
7ABD
  8
1
  6
CONTINUOUS
 10
1157.9458400000001
 20
2123.0769140000002
 30
0.0
 11
1157.9458400000001
 21
2858.0769140000002
 31
0.0
  0
LINE
  5
7ABE
  8
1
  6
CONTINUOUS
 10
1127.9458400000001
 20
2597.0769140000002
 30
0.0
 11
1127.9458400000001
 21
2143.0769140000002
 31
0.0
  0
LINE
  5
7ABF
  8
1
  6
CONTINUOUS
 10
1252.4458400000001
 20
2123.0769140000002
 30
0.0
 11
1252.4458400000001
 21
2663.0769140000002
 31
0.0
  0
CIRCLE
  5
7AC0
  8
1
  6
CONTINUOUS
 10
1427.9458400000001
 20
2558.0769140000002
 30
0.0
 40
215.0
  0
LINE
  5
7AC1
  8
1
  6
CONTINUOUS
 10
1127.9458400000001
 20
2170.0769140000002
 30
0.0
 11
1427.9458400000001
 21
2172.0769140000002
 31
0.0
  0
LINE
  5
7AC2
  8
1
  6
CONTINUOUS
 10
1167.9458400000001
 20
2021.076914
 30
0.0
 11
1167.9458400000001
 21
1956.076914
 31
0.0
  0
LINE
  5
7AC3
  8
1
  6
CONTINUOUS
 10
1167.9458400000001
 20
2123.0769140000002
 30
0.0
 11
1167.9458400000001
 21
2043.0769139999991
 31
0.0
  0
ARC
  5
7AC4
  8
1
  6
CONTINUOUS
 10
1444.9458400000001
 20
2575.0769140000002
 30
0.0
 40
271.43999999999988
 50
97.310000000000016
 51
181.06
  0
LINE
  5
7AC5
  8
2
  6
CENTER
 10
931.7021522970515
 20
2558.0769140000002
 30
0.0
 11
1947.8036506739411
 21
2558.0769140000002
 31
0.0
  0
CIRCLE
  5
7AC6
  8
1
  6
CONTINUOUS
 10
1427.9458400000001
 20
2558.0769140000002
 30
0.0
 40
100.0
  0
LINE
  5
7AC7
  8
1
  6
CONTINUOUS
 10
1252.4458400000001
 20
2663.0769140000002
 30
0.0
 11
1442.4458400000001
 21
2778.0769140000002
 31
0.0
  0
LINE
  5
7AC8
  8
1
  6
CONTINUOUS
 10
1173.54584
 20
2570.0769140000002
 30
0.0
 11
1127.9458400000001
 21
2570.0769140000002
 31
0.0
  0
LINE
  5
7AC9
  8
2
  6
CENTER
 10
1427.9458400000001
 20
1835.634211342388
 30
0.0
 11
1427.9458400000001
 21
2918.8278858416361
 31
0.0
  0
LINE
  5
7ACA
  8
1
  6
CONTINUOUS
 10
1697.9458400000001
 20
2123.0769140000002
 30
0.0
 11
1697.9458400000001
 21
2858.0769140000002
 31
0.0
  0
CIRCLE
  5
7ACB
  8
1
  6
CONTINUOUS
 10
1959.81584
 20
2248.0769140000002
 30
0.0
 40
60.0
  0
ARC
  5
7ACC
  8
1
  6
CONTINUOUS
 10
1959.81584
 20
2248.0769140000002
 30
0.0
 40
101.0
 50
322.88
 51
217.12
  0
LINE
  5
7ACD
  8
2
  6
CENTER
 10
2019.8158399999991
 20
2248.0769140000002
 30
0.0
 11
1899.8158399999991
 21
2248.0769140000002
 31
0.0
  0
LINE
  5
7ACE
  8
1
  6
CONTINUOUS
 10
1859.8158399999991
 20
2160.0769140000002
 30
0.0
 11
1879.2758399999991
 21
2187.126913999999
 31
0.0
  0
LINE
  5
7ACF
  8
1
  6
CONTINUOUS
 10
1859.8158399999991
 20
2123.0769140000002
 30
0.0
 11
1859.8158399999991
 21
2160.0769140000002
 31
0.0
  0
LINE
  5
7AD0
  8
1
  6
CONTINUOUS
 10
2167.945839999999
 20
2021.076914
 30
0.0
 11
2167.945839999999
 21
1956.076914
 31
0.0
  0
LINE
  5
7AD1
  8
1
  6
CONTINUOUS
 10
2059.8158400000002
 20
2123.0769140000002
 30
0.0
 11
2059.8158400000002
 21
2160.0769140000002
 31
0.0
  0
LINE
  5
7AD2
  8
1
  6
CONTINUOUS
 10
2059.8158400000002
 20
2160.0769140000002
 30
0.0
 11
2040.34584
 21
2187.126913999999
 31
0.0
  0
LINE
  5
7AD3
  8
2
  6
CENTER
 10
1959.81584
 20
2188.0769140000002
 30
0.0
 11
1959.81584
 21
2308.0769140000002
 31
0.0
  0
LINE
  5
7AD4
  8
1
  6
CONTINUOUS
 10
2122.4458399999999
 20
2123.0769140000002
 30
0.0
 11
2122.4458399999999
 21
2373.0769140000002
 31
0.0
  0
LINE
  5
7AD5
  8
1
  6
CONTINUOUS
 10
2167.945839999999
 20
2123.0769140000002
 30
0.0
 11
2167.945839999999
 21
2043.0769139999991
 31
0.0
  0
LINE
  5
7AD6
  8
1
  6
CONTINUOUS
 10
2122.4458399999999
 20
3789.9425040000001
 30
0.0
 11
1252.4458400000001
 21
3789.9425040000001
 31
0.0
  0
LINE
  5
7AD7
  8
1
  6
CONTINUOUS
 10
2122.4458399999999
 20
3689.9425040000001
 30
0.0
 11
1252.4458400000001
 21
3689.9425040000001
 31
0.0
  0
LINE
  5
7AD8
  8
1
  6
CONTINUOUS
 10
1767.945839999999
 20
4169.9425039999987
 30
0.0
 11
1127.9458400000001
 21
4169.9425039999987
 31
0.0
  0
LINE
  5
7AD9
  8
1
  6
CONTINUOUS
 10
1767.945839999999
 20
3869.9425040000001
 30
0.0
 11
1127.9458400000001
 21
3869.9425040000001
 31
0.0
  0
LINE
  5
7ADA
  8
1
  6
CONTINUOUS
 10
1167.9458400000001
 20
4213.9425039999996
 30
0.0
 11
2167.945839999999
 21
4213.9425039999996
 31
0.0
  0
LINE
  5
7ADB
  8
1
  6
CONTINUOUS
 10
1441.9458400000001
 20
3825.9425040000001
 30
0.0
 11
1945.8158399999991
 21
3825.9425040000001
 31
0.0
  0
LINE
  5
7ADC
  8
1
  6
CONTINUOUS
 10
1531.4758400000001
 20
3764.9425040000001
 30
0.0
 11
1327.9458400000001
 21
3764.9425040000001
 31
0.0
  0
LINE
  5
7ADD
  8
1
  6
CONTINUOUS
 10
1531.4758400000001
 20
3714.9425040000001
 30
0.0
 11
1327.9458400000001
 21
3714.9425040000001
 31
0.0
  0
LINE
  5
7ADE
  8
1
  6
CONTINUOUS
 10
1167.9458400000001
 20
3825.9425040000001
 30
0.0
 11
1413.9458400000001
 21
3825.9425040000001
 31
0.0
  0
LINE
  5
7ADF
  8
1
  6
CONTINUOUS
 10
1147.945839999999
 20
3869.9425040000001
 30
0.0
 11
1147.945839999999
 21
4169.9425039999987
 31
0.0
  0
LINE
  5
7AE0
  8
1
  6
CONTINUOUS
 10
1127.9458400000001
 20
3842.9425040000001
 30
0.0
 11
1127.9458400000001
 21
4196.9425039999987
 31
0.0
  0
LINE
  5
7AE1
  8
1
  6
CONTINUOUS
 10
1167.9458400000001
 20
3869.9425040000001
 30
0.0
 11
1167.9458400000001
 21
3825.9425040000001
 31
0.0
  0
LINE
  5
7AE2
  8
1
  6
CONTINUOUS
 10
1327.9458400000001
 20
3714.9425040000001
 30
0.0
 11
1327.9458400000001
 21
3764.9425040000001
 31
0.0
  0
LINE
  5
7AE3
  8
1
  6
CONTINUOUS
 10
1252.4458400000001
 20
3689.9425040000001
 30
0.0
 11
1252.4458400000001
 21
3789.9425040000001
 31
0.0
  0
LINE
  5
7AE4
  8
1
  6
CONTINUOUS
 10
1167.9458400000001
 20
4213.9425039999996
 30
0.0
 11
1167.9458400000001
 21
4169.9425039999987
 31
0.0
  0
LINE
  5
7AE5
  8
1
  6
CONTINUOUS
 10
1413.9458400000001
 20
3764.9425040000001
 30
0.0
 11
1413.9458400000001
 21
3869.9425040000001
 31
0.0
  0
LINE
  5
7AE6
  8
1
  6
CONTINUOUS
 10
1441.9458400000001
 20
3764.9425040000001
 30
0.0
 11
1441.9458400000001
 21
3869.9425040000001
 31
0.0
  0
LINE
  5
7AE7
  8
1
  6
CONTINUOUS
 10
1531.4758400000001
 20
3714.9425040000001
 30
0.0
 11
1531.4758400000001
 21
3764.9425040000001
 31
0.0
  0
LINE
  5
7AE8
  8
1
  6
CONTINUOUS
 10
2019.8158399999991
 20
3764.9425040000001
 30
0.0
 11
1899.8158399999991
 21
3764.9425040000001
 31
0.0
  0
LINE
  5
7AE9
  8
1
  6
CONTINUOUS
 10
2019.8158399999991
 20
3714.9425040000001
 30
0.0
 11
1899.8158399999991
 21
3714.9425040000001
 31
0.0
  0
LINE
  5
7AEA
  8
1
  6
CONTINUOUS
 10
1858.8158399999991
 20
3857.4725039999998
 30
0.0
 11
2060.8158399999988
 21
3857.4725039999998
 31
0.0
  0
LINE
  5
7AEB
  8
1
  6
CONTINUOUS
 10
1858.8158399999991
 20
4100.1525039999988
 30
0.0
 11
2060.8158399999988
 21
4100.1525039999988
 31
0.0
  0
LINE
  5
7AEC
  8
1
  6
CONTINUOUS
 10
1767.945839999999
 20
3869.9425040000001
 30
0.0
 11
1767.945839999999
 21
4169.9425039999987
 31
0.0
  0
LINE
  5
7AED
  8
1
  6
CONTINUOUS
 10
1858.8158399999991
 20
3857.4725039999998
 30
0.0
 11
1858.8158399999991
 21
4100.1525039999988
 31
0.0
  0
LINE
  5
7AEE
  8
1
  6
CONTINUOUS
 10
1899.8158399999991
 20
3714.9425040000001
 30
0.0
 11
1899.8158399999991
 21
3764.9425040000001
 31
0.0
  0
LINE
  5
7AEF
  8
1
  6
CONTINUOUS
 10
1945.8158399999991
 20
3764.9425040000001
 30
0.0
 11
1945.8158399999991
 21
3857.4725039999998
 31
0.0
  0
LINE
  5
7AF0
  8
1
  6
CONTINUOUS
 10
2167.945839999999
 20
4213.9425039999996
 30
0.0
 11
2167.945839999999
 21
3825.9425040000001
 31
0.0
  0
LINE
  5
7AF1
  8
1
  6
CONTINUOUS
 10
2060.8158399999988
 20
3857.4725039999998
 30
0.0
 11
2060.8158399999988
 21
4100.1525039999988
 31
0.0
  0
LINE
  5
7AF2
  8
1
  6
CONTINUOUS
 10
1973.81584
 20
3825.9425040000001
 30
0.0
 11
2167.945839999999
 21
3825.9425040000001
 31
0.0
  0
LINE
  5
7AF3
  8
1
  6
CONTINUOUS
 10
2019.8158399999991
 20
3714.9425040000001
 30
0.0
 11
2019.8158399999991
 21
3764.9425040000001
 31
0.0
  0
LINE
  5
7AF4
  8
1
  6
CONTINUOUS
 10
1973.81584
 20
3764.9425040000001
 30
0.0
 11
1973.81584
 21
3857.4725039999998
 31
0.0
  0
LINE
  5
7AF5
  8
1
  6
CONTINUOUS
 10
2122.4458399999999
 20
3689.9425040000001
 30
0.0
 11
2122.4458399999999
 21
3789.9425040000001
 31
0.0
  0
LINE
  5
7B1F
  8
1
  6
CONTINUOUS
 10
2945.065364999999
 20
2170.0769140000002
 30
0.0
 11
3245.0653649999999
 21
2570.0769140000002
 31
0.0
  0
LINE
  5
7B20
  8
1
  6
CONTINUOUS
 10
3245.0653649999999
 20
2170.0769140000002
 30
0.0
 11
2945.065364999999
 21
2570.0769140000002
 31
0.0
  0
LINE
  5
7B21
  8
1
  6
CONTINUOUS
 10
2945.065364999999
 20
2858.0769140000002
 30
0.0
 11
2945.065364999999
 21
2123.0769140000002
 31
0.0
  0
LINE
  5
7B22
  8
1
  6
CONTINUOUS
 10
3245.0653649999999
 20
2858.0769140000002
 30
0.0
 11
3245.0653649999999
 21
2123.0769140000002
 31
0.0
  0
LINE
  5
7B23
  8
1
  6
CONTINUOUS
 10
2765.065364999999
 20
2123.0769140000002
 30
0.0
 11
2765.065364999999
 21
2778.0769140000002
 31
0.0
  0
LINE
  5
7B24
  8
1
  6
CONTINUOUS
 10
2865.065364999999
 20
2123.0769140000002
 30
0.0
 11
2865.065364999999
 21
2778.0769140000002
 31
0.0
  0
LINE
  5
7B25
  8
1
  6
CONTINUOUS
 10
2945.065364999999
 20
2170.0769140000002
 30
0.0
 11
3245.0653649999999
 21
2170.0769140000002
 31
0.0
  0
LINE
  5
7B26
  8
1
  6
CONTINUOUS
 10
3289.065364999999
 20
2043.0769139999991
 30
0.0
 11
2901.0653649999999
 21
2043.0769139999991
 31
0.0
  0
LINE
  5
7B27
  8
1
  6
CONTINUOUS
 10
3289.065364999999
 20
2123.0769140000002
 30
0.0
 11
2765.065364999999
 21
2123.0769140000002
 31
0.0
  0
LINE
  5
7B28
  8
1
  6
CONTINUOUS
 10
2901.0653649999999
 20
2021.076914
 30
0.0
 11
3289.065364999999
 21
2021.076914
 31
0.0
  0
LINE
  5
7B29
  8
1
  6
CONTINUOUS
 10
2901.0653649999999
 20
1956.076914
 30
0.0
 11
3289.065364999999
 21
1956.076914
 31
0.0
  0
LINE
  5
7B2A
  8
1
  6
CONTINUOUS
 10
2901.0653649999999
 20
2021.076914
 30
0.0
 11
2901.0653649999999
 21
1956.076914
 31
0.0
  0
LINE
  5
7B2B
  8
1
  6
CONTINUOUS
 10
2840.0653649999999
 20
2262.0769140000002
 30
0.0
 11
2945.065364999999
 21
2262.0769140000002
 31
0.0
  0
LINE
  5
7B2C
  8
1
  6
CONTINUOUS
 10
2840.0653649999999
 20
2234.0769140000002
 30
0.0
 11
2945.065364999999
 21
2234.0769140000002
 31
0.0
  0
LINE
  5
7B2D
  8
1
  6
CONTINUOUS
 10
2901.0653649999999
 20
2123.0769140000002
 30
0.0
 11
2901.0653649999999
 21
2043.0769139999991
 31
0.0
  0
LINE
  5
7B2E
  8
1
  6
CONTINUOUS
 10
2840.0653649999999
 20
2188.0769140000002
 30
0.0
 11
2840.0653649999999
 21
2308.0769140000002
 31
0.0
  0
LINE
  5
7B2F
  8
1
  6
CONTINUOUS
 10
2790.0653649999999
 20
2188.0769140000002
 30
0.0
 11
2790.0653649999999
 21
2308.0769140000002
 31
0.0
  0
LINE
  5
7B30
  8
1
  6
CONTINUOUS
 10
2790.0653649999999
 20
2308.0769140000002
 30
0.0
 11
2840.0653649999999
 21
2308.0769140000002
 31
0.0
  0
LINE
  5
7B31
  8
1
  6
CONTINUOUS
 10
2790.0653649999999
 20
2188.0769140000002
 30
0.0
 11
2840.0653649999999
 21
2188.0769140000002
 31
0.0
  0
LINE
  5
7B32
  8
1
  6
CONTINUOUS
 10
3289.065364999999
 20
2021.076914
 30
0.0
 11
3289.065364999999
 21
1956.076914
 31
0.0
  0
LINE
  5
7B33
  8
1
  6
CONTINUOUS
 10
3289.065364999999
 20
2123.0769140000002
 30
0.0
 11
3289.065364999999
 21
2043.0769139999991
 31
0.0
  0
LINE
  5
7B34
  8
1
  6
CONTINUOUS
 10
2945.065364999999
 20
2570.0769140000002
 30
0.0
 11
3245.0653649999999
 21
2570.0769140000002
 31
0.0
  0
LINE
  5
7B35
  8
1
  6
CONTINUOUS
 10
2945.065364999999
 20
2858.0769140000002
 30
0.0
 11
3245.0653649999999
 21
2858.0769140000002
 31
0.0
  0
LINE
  5
7B36
  8
1
  6
CONTINUOUS
 10
2840.0653649999999
 20
2573.836914
 30
0.0
 11
2945.065364999999
 21
2573.836914
 31
0.0
  0
LINE
  5
7B37
  8
1
  6
CONTINUOUS
 10
2840.0653649999999
 20
2545.836914
 30
0.0
 11
2945.065364999999
 21
2545.836914
 31
0.0
  0
LINE
  5
7B38
  8
1
  6
CONTINUOUS
 10
2765.065364999999
 20
2778.0769140000002
 30
0.0
 11
2865.065364999999
 21
2778.0769140000002
 31
0.0
  0
LINE
  5
7B39
  8
1
  6
CONTINUOUS
 10
2840.0653649999999
 20
2456.3069139999998
 30
0.0
 11
2840.0653649999999
 21
2659.8369139999991
 31
0.0
  0
LINE
  5
7B3A
  8
1
  6
CONTINUOUS
 10
2790.0653649999999
 20
2456.3069139999998
 30
0.0
 11
2790.0653649999999
 21
2659.8369139999991
 31
0.0
  0
LINE
  5
7B3B
  8
1
  6
CONTINUOUS
 10
2790.0653649999999
 20
2659.8369139999991
 30
0.0
 11
2840.0653649999999
 21
2659.8369139999991
 31
0.0
  0
LINE
  5
7B3C
  8
1
  6
CONTINUOUS
 10
2790.0653649999999
 20
2456.3069139999998
 30
0.0
 11
2840.0653649999999
 21
2456.3069139999998
 31
0.0
  0
LINE
  5
7B5D
  8
2
  6
CENTER
 10
3095.065364999999
 20
2886.2278449999999
 30
0.0
 11
3095.065364999999
 21
1821.7559509852299
 31
0.0
  0
LINE
  5
7B5E
  8
2
  6
CENTER
 10
2210.9652059999999
 20
4019.9425040000001
 30
0.0
 11
1025.4428949999999
 21
4019.9425040000001
 31
0.0
  0
LINE
  5
7B5F
  8
2
  6
CENTER
 10
1427.9458400000001
 20
3609.0814007385939
 30
0.0
 11
1427.9458400000001
 21
4282.5293289905394
 31
0.0
  0
LINE
  5
7B60
  8
2
  6
CENTER
 10
2726.2086908303272
 20
2558.0769140000002
 30
0.0
 11
3292.2221519999998
 21
2558.0769140000002
 31
0.0
  0
LINE
  5
7B61
  8
4
  6
CONTINUOUS
 10
3700.0
 20
1000.0
 30
0.0
 11
3700.0
 21
600.0
 31
0.0
  0
LINE
  5
7B62
  8
4
  6
CONTINUOUS
 10
2300.0
 20
1000.0
 30
0.0
 11
2300.0
 21
600.0
 31
0.0
  0
LINE
  5
7B63
  8
4
  6
CONTINUOUS
 10
1300.0
 20
1000.0
 30
0.0
 11
1300.0
 21
600.0
 31
0.0
  0
LINE
  5
7B66
  8
4
  6
CONTINUOUS
 10
1300.0
 20
600.0
 30
0.0
 11
3700.0
 21
600.0
 31
0.0
  0
LINE
  5
7B67
  8
4
  6
CONTINUOUS
 10
1300.0
 20
800.0
 30
0.0
 11
3700.0
 21
800.0
 31
0.0
  0
TEXT
  5
7B68
  8
4
  6
CONTINUOUS
 10
1377.004162
 20
863.086052
 30
0.0
 40
100.0
  1
機器名称
  0
TEXT
  5
7B69
  8
4
  6
CONTINUOUS
 10
1372.516212
 20
643.29031299999986
 30
0.0
 40
100.0
  1
機器型番
  0
TEXT
  5
7B6A
  8
4
  6
CONTINUOUS
 10
2355.3574910000002
 20
845.14353800000015
 30
0.0
 40
100.0
  1
ミツヤ多翼送風機
  0
TEXT
  5
7B6B
  8
4
  6
CONTINUOUS
 10
2373.3089909999999
 20
634.31916899999999
 30
0.0
 40
100.0
  1
MFE#2 1/2-4
  0
TEXT
  5
7B6D
  8
4
  6
CONTINUOUS
 10
1594.5553339999999
 20
4766.8576830000002
 30
0.0
 40
108.0
  1
床置防振ベット
  0
TEXT
  5
7B6E
  8
4
  6
CONTINUOUS
 10
632.33518700000002
 20
5067.7619520000007
 30
0.0
 40
144.0
  1
ベルト駆動式片吸込両持排煙ファン
  0
LINE
  5
7B6F
  8
4
  6
CONTINUOUS
 10
500.0
 20
4938.8175090000004
 30
0.0
 11
3700.0
 21
4938.8175090000004
 31
0.0
  0
LINE
  5
7B70
  8
4
  6
CONTINUOUS
 10
500.0
 20
5338.8175090000004
 30
0.0
 11
3700.0
 21
5338.8175090000004
 31
0.0
  0
LINE
  5
7B71
  8
4
  6
CONTINUOUS
 10
1300.0
 20
1000.0
 30
0.0
 11
3700.0
 21
1000.0
 31
0.0
  0
LINE
  5
7B72
  8
4
  6
CONTINUOUS
 10
500.0
 20
5338.8175090000004
 30
0.0
 11
500.0
 21
4938.8175090000004
 31
0.0
  0
TEXT
  5
7B73
  8
4
  6
CONTINUOUS
 10
615.32958299999984
 20
4764.6389549999994
 30
0.0
 40
108.0
  1
右回転左横向
  0
TEXT
  5
7B74
  8
4
  6
CONTINUOUS
 10
2937.9391179999998
 20
5412.122163
 30
0.0
 40
112.0
  1
No.
  0
TEXT
  5
7B75
  8
4
  6
CONTINUOUS
 10
2622.5921250000001
 20
4766.8576830000002
 30
0.0
 40
108.0
  1
縮尺：1/20
  0
LINE
  5
7B76
  8
4
  6
CONTINUOUS
 10
3700.0
 20
5338.8175090000004
 30
0.0
 11
3700.0
 21
4938.8175090000004
 31
0.0
  0
LINE
  5
7B78
  8
4
  6
CONTINUOUS
 10
2881.234845
 20
5362.5271659999999
 30
0.0
 11
2881.234845
 21
5573.3045229999998
 31
0.0
  0
LINE
  5
7B79
  8
4
  6
CONTINUOUS
 10
2881.234845
 20
5573.3045229999998
 30
0.0
 11
3700.0
 21
5573.3045229999998
 31
0.0
  0
LINE
  5
7B7A
  8
4
  6
CONTINUOUS
 10
3700.0
 20
5573.3045229999998
 30
0.0
 11
3700.0
 21
5362.5271659999999
 31
0.0
  0
LINE
  5
7B7B
  8
4
  6
CONTINUOUS
 10
3700.0
 20
5362.5271659999999
 30
0.0
 11
2881.234845
 21
5362.5271659999999
 31
0.0
  0
DIMENSION
  5
7B93
  8
3
  6
CONTINUOUS
  2
*D1
 10
1072.8810980000001
 20
2170.0769140000002
 30
0.0
 11
1072.8810980000001
 21
2357.1728870000002
 31
0.0
 70
   128
 13
1127.9458400000001
 23
2570.0769140000002
 33
0.0
 14
1127.9458400000001
 24
2170.0769140000002
 34
0.0
 50
90.0
1001
ACAD
1000
DSTYLE
1002
{
1070
   287
1070
     3
1070
   287
1070
     3
1070
    40
1040
20.0
1070
   143
1040
0.039
1070
   172
1070
     1
1070
   271
1070
     0
1070
   279
1070
     0
1070
   288
1070
     1
1002
}
  0
DIMENSION
  5
7BA0
  8
3
  6
CONTINUOUS
  2
*D2
 10
953.35571400000038
 20
2558.0769140000002
 30
0.0
 11
953.35571400000003
 21
2357.1728870000002
 31
0.0
 70
   128
 13
1072.8810980000001
 23
2170.0769140000002
 33
0.0
 14
931.7021522970515
 24
2558.0769140000002
 34
0.0
 50
90.0
1001
ACAD
1000
DSTYLE
1002
{
1070
   287
1070
     3
1070
   287
1070
     3
1070
    40
1040
20.0
1070
   143
1040
0.039
1070
   172
1070
     1
1070
   271
1070
     0
1070
   279
1070
     0
1070
   288
1070
     1
1002
}
  0
DIMENSION
  5
7BC8
  8
3
  6
CONTINUOUS
  2
*D3
 10
1427.9458400000001
 20
2954.3206109999992
 30
0.0
 11
1290.802982857143
 21
2954.3206109999992
 31
0.0
 70
   128
 13
1127.9458400000001
 23
2597.0769140000002
 33
0.0
 14
1427.9458400000001
 24
2909.4497636159881
 34
0.0
1001
ACAD
1000
DSTYLE
1002
{
1070
   287
1070
     3
1070
   287
1070
     3
1070
    40
1040
20.0
1070
   143
1040
0.039
1070
   172
1070
     1
1070
   271
1070
     0
1070
   279
1070
     0
1070
   288
1070
     1
1002
}
  0
DIMENSION
  5
7BF2
  8
3
  6
CONTINUOUS
  2
*D4
 10
1759.9458400000001
 20
2954.3206109999992
 30
0.0
 11
1593.9458400000001
 21
3004.3206110000001
 31
0.0
 70
     0
 13
1427.9458400000001
 23
2909.4497636159881
 33
0.0
 14
1759.9458400000001
 24
2531.0769140000002
 34
0.0
1001
ACAD
1000
DSTYLE
1002
{
1070
   287
1070
     4
1070
   287
1070
     4
1070
    40
1040
20.0
1070
    75
1070
     1
1070
   143
1040
0.039
1070
   172
1070
     1
1070
   271
1070
     0
1070
   279
1070
     1
1070
   288
1070
     1
1002
}
  0
DIMENSION
  5
7C01
  8
3
  6
CONTINUOUS
  2
*D5
 10
3095.065364999999
 20
1789.330747
 30
0.0
 11
2998.0653649999999
 21
1846.1258698190211
 31
0.0
 70
   128
 13
2901.0653649999999
 23
1956.076914
 33
0.0
 14
3095.065364999999
 24
1821.7559509852299
 34
0.0
1001
ACAD
1000
DSTYLE
1002
{
1070
   288
1070
     1
1070
   172
1070
     1
1070
    40
1040
20.0
1070
   271
1070
     0
1070
   143
1040
0.039
1002
}
  0
DIMENSION
  5
7C0F
  8
3
  6
CONTINUOUS
  2
*D6
 10
3289.065364999999
 20
1789.330747
 30
0.0
 11
3199.8199589999999
 21
1790.3141250000001
 31
0.0
 70
   128
 13
3095.065364999999
 23
1821.7559509852299
 33
0.0
 14
3289.065364999999
 24
1956.076914
 34
0.0
1001
ACAD
1000
DSTYLE
1002
{
1070
   287
1070
     4
1070
   287
1070
     4
1070
    40
1040
20.0
1070
    75
1070
     1
1070
   143
1040
0.039
1070
   172
1070
     1
1070
   271
1070
     0
1070
   279
1070
     1
1070
   288
1070
     1
1002
}
  0
DIMENSION
  5
7C1C
  8
3
  6
CONTINUOUS
  2
*D7
 10
3245.0653649999999
 20
2912.7508629284971
 30
0.0
 11
3082.2082221428568
 21
2912.7508629284971
 31
0.0
 70
   128
 13
2945.065364999999
 23
2858.0769140000002
 33
0.0
 14
3245.0653649999999
 24
2858.0769140000002
 34
0.0
1001
ACAD
1000
DSTYLE
1002
{
1070
   287
1070
     3
1070
   287
1070
     3
1070
    40
1040
20.0
1070
   143
1040
0.039
1070
   172
1070
     1
1070
   271
1070
     0
1070
   279
1070
     0
1070
   288
1070
     1
1002
}
  0
DIMENSION
  5
7C36
  8
3
  6
CONTINUOUS
  2
*D8
 10
2765.065364999999
 20
3074.9832514454151
 30
0.0
 11
2930.0653649999999
 21
3174.9832514454142
 31
0.0
 70
     0
  1
MAX\P380
 13
3095.065364999999
 23
2998.4483280577688
 33
0.0
 14
2765.065364999999
 24
2778.0769140000002
 34
0.0
1001
ACAD
1000
DSTYLE
1002
{
1070
   287
1070
     4
1070
   287
1070
     4
1070
    40
1040
20.0
1070
    75
1070
     1
1070
   143
1040
0.039
1070
   172
1070
     1
1070
   271
1070
     0
1070
   279
1070
     1
1070
   288
1070
     1
1002
}
  0
DIMENSION
  5
7C45
  8
3
  6
CONTINUOUS
  2
*D9
 10
3400.5328570000001
 20
2343.0769140000002
 30
0.0
 11
3400.5328570000001
 21
2545.5040929999991
 31
0.0
 70
   128
 13
3245.0653649999999
 23
2773.0769140000002
 33
0.0
 14
3245.0653649999999
 24
2343.0769140000002
 34
0.0
 50
90.0
1001
ACAD
1000
DSTYLE
1002
{
1070
   287
1070
     3
1070
   287
1070
     3
1070
     3
1000
φ<>
1070
    40
1040
20.0
1070
   143
1040
0.039
1070
   172
1070
     1
1070
   271
1070
     0
1070
   279
1070
     0
1070
   288
1070
     1
1002
}
  0
DIMENSION
  5
7C52
  8
3
  6
CONTINUOUS
  2
*D10
 10
732.21111700000017
 20
1956.076914
 30
0.0
 11
732.21111699999994
 21
2417.8045329999991
 31
0.0
 70
   128
 13
1157.9458400000001
 23
2858.0769140000002
 33
0.0
 14
1167.9458400000001
 24
1956.076914
 34
0.0
 50
90.0
1001
ACAD
1000
DSTYLE
1002
{
1070
   287
1070
     3
1070
   287
1070
     3
1070
    40
1040
20.0
1070
   143
1040
0.039
1070
   172
1070
     1
1070
   271
1070
     0
1070
   279
1070
     0
1070
   288
1070
     1
1002
}
  0
DIMENSION
  5
7C5F
  8
3
  6
CONTINUOUS
  2
*D11
 10
2167.945839999999
 20
4354.7385049999993
 30
0.0
 11
1619.939678
 21
4354.7385049999993
 31
0.0
 70
   128
 13
1167.9458400000001
 23
4213.9425039999996
 33
0.0
 14
2167.945839999999
 24
4213.9425039999996
 34
0.0
1001
ACAD
1000
DSTYLE
1002
{
1070
   287
1070
     3
1070
   287
1070
     3
1070
    40
1040
20.0
1070
   143
1040
0.039
1070
   172
1070
     1
1070
   271
1070
     0
1070
   279
1070
     0
1070
   288
1070
     1
1002
}
  0
DIMENSION
  5
7C6C
  8
3
  6
CONTINUOUS
  2
*D12
 10
2351.4709309999998
 20
3825.9425040000001
 30
0.0
 11
2351.4709309999989
 21
4030.191190999999
 31
0.0
 70
   128
 13
2167.945839999999
 23
4213.9425039999996
 33
0.0
 14
2167.945839999999
 24
3825.9425040000001
 34
0.0
 50
90.0
1001
ACAD
1000
DSTYLE
1002
{
1070
   287
1070
     3
1070
   287
1070
     3
1070
    40
1040
20.0
1070
   143
1040
0.039
1070
   172
1070
     1
1070
   271
1070
     0
1070
   279
1070
     0
1070
   288
1070
     1
1002
}
  0
DIMENSION
  5
7C8E
  8
3
  6
CONTINUOUS
  2
*D13
 10
854.05383700000027
 20
2558.0769140000002
 30
0.0
 11
854.05383700000004
 21
2695.2197711428571
 31
0.0
 70
   128
 13
1157.9458400000001
 23
2858.0769140000002
 33
0.0
 14
931.7021522970515
 24
2558.0769140000002
 34
0.0
 50
90.0
1001
ACAD
1000
DSTYLE
1002
{
1070
   287
1070
     3
1070
   287
1070
     3
1070
    40
1040
20.0
1070
   143
1040
0.039
1070
   172
1070
     1
1070
   271
1070
     0
1070
   279
1070
     0
1070
   288
1070
     1
1002
}
  0
DIMENSION
  5
7C9A
  8
3
  6
CONTINUOUS
  2
*D14
 10
854.05383700000004
 20
2043.0769139999991
 30
0.0
 11
804.05383699999959
 21
2300.5769140000002
 31
0.0
 70
     0
 13
931.7021522970515
 23
2558.0769140000002
 33
0.0
 14
1167.9458400000001
 24
2043.0769139999991
 34
0.0
 50
90.0
1001
ACAD
1000
DSTYLE
1002
{
1070
   287
1070
     4
1070
   287
1070
     4
1070
    40
1040
20.0
1070
    75
1070
     1
1070
   143
1040
0.039
1070
   172
1070
     1
1070
   271
1070
     0
1070
   279
1070
     1
1070
   288
1070
     1
1002
}
  0
DIMENSION
  5
7CAA
  8
3
  6
CONTINUOUS
  2
*D15
 10
854.05383700000027
 20
1956.076914
 30
0.0
 11
854.05383700000004
 21
1807.5054854285711
 31
0.0
 70
   128
 13
1167.9458400000001
 23
2043.0769139999991
 33
0.0
 14
1167.9458400000001
 24
1956.076914
 34
0.0
 50
90.0
1001
ACAD
1000
DSTYLE
1002
{
1070
   287
1070
     3
1070
   287
1070
     3
1070
    40
1040
20.0
1070
   143
1040
0.039
1070
   172
1070
     1
1070
   271
1070
     0
1070
   279
1070
     0
1070
   288
1070
     1
1002
}
  0
DIMENSION
  5
7CD3
  8
3
  6
CONTINUOUS
  2
*D16
 10
1427.9458400000001
 20
1800.2522579999991
 30
0.0
 11
1297.9458400000001
 21
1862.427720920206
 31
0.0
 70
   128
 13
1167.9458400000001
 23
1956.076914
 33
0.0
 14
1427.9458400000001
 24
1835.634211342388
 34
0.0
1001
ACAD
1000
DSTYLE
1002
{
1070
   288
1070
     1
1070
   172
1070
     1
1070
    40
1040
20.0
1070
   271
1070
     0
1070
   143
1040
0.039
1002
}
  0
DIMENSION
  5
7CDF
  8
3
  6
CONTINUOUS
  2
*D17
 10
2167.945839999999
 20
1800.2522579999991
 30
0.0
 11
1797.945839999999
 21
1850.2522579999991
 31
0.0
 70
     0
 13
1427.9458400000001
 23
1835.634211342388
 33
0.0
 14
2167.945839999999
 24
1956.076914
 34
0.0
1001
ACAD
1000
DSTYLE
1002
{
1070
   287
1070
     4
1070
   287
1070
     4
1070
    40
1040
20.0
1070
    75
1070
     1
1070
   143
1040
0.039
1070
   172
1070
     1
1070
   271
1070
     0
1070
   279
1070
     1
1070
   288
1070
     1
1002
}
  0
LINE
  5
7D3B
  8
1
  6
CONTINUOUS
 10
3246.065364999999
 20
2773.0769140000002
 30
0.0
 11
3246.065364999999
 21
2343.0769140000002
 31
0.0
  0
DIMENSION
  5
7D4B
  8
3
  6
CONTINUOUS
  2
*D18
 10
3246.065364999999
 20
3074.9832514454151
 30
0.0
 11
3162.3191209492761
 21
3131.63092477686
 31
0.0
 70
   128
 13
3095.065364999999
 23
2998.4483280577688
 33
0.0
 14
3246.065364999999
 24
2773.0769140000002
 34
0.0
1001
ACAD
1000
DSTYLE
1002
{
1070
   288
1070
     1
1070
   172
1070
     1
1070
    40
1040
20.0
1070
   271
1070
     0
1070
   143
1040
0.039
1002
}
  0
DIMENSION
  5
7E93
  8
3
  2
*D19
 10
2167.945839999999
 20
3086.7070274908619
 30
0.0
 11
1683.572618712554
 21
3086.7070274908619
 31
0.0
 70
   128
 13
1127.9458400000001
 23
2597.0769140000002
 33
0.0
 14
2167.945839999999
 24
2123.0769140000002
 34
0.0
1001
ACAD
1000
DSTYLE
1002
{
1070
   287
1070
     3
1070
   287
1070
     3
1070
    40
1040
20.0
1070
   143
1040
0.039
1070
   172
1070
     1
1070
   271
1070
     0
1070
   279
1070
     0
1070
   288
1070
     1
1002
}
  0
ENDSEC
  0
EOF
