  0
SECTION
  2
HEADER
  9
$ACADVER
  1
AC1009
  9
$INSBASE
 10
0.0
 20
0.0
 30
0.0
  9
$EXTMIN
 10
500.0
 20
600.0
 30
0.0
  9
$EXTMAX
 10
3700.0
 20
5573.3045229999998
 30
0.0
  9
$LIMMIN
 10
0.0
 20
0.0
  9
$LIMMAX
 10
297.0
 20
210.0
  9
$ORTHOMODE
 70
     0
  9
$REGENMODE
 70
     1
  9
$FILLMODE
 70
     0
  9
$QTEXTMODE
 70
     0
  9
$MIRRTEXT
 70
     1
  9
$DRAGMODE
 70
     2
  9
$LTSCALE
 40
100.0
  9
$OSMODE
 70
    37
  9
$ATTMODE
 70
     1
  9
$TEXTSIZE
 40
180.0
  9
$TRACEWID
 40
0.05
  9
$TEXTSTYLE
  7
STANDARD
  9
$CLAYER
  8
3
  9
$CELTYPE
  6
BYLAYER
  9
$CECOLOR
 62
   256
  9
$DIMSCALE
 40
20.0
  9
$DIMASZ
 40
2.0
  9
$DIMEXO
 40
0.5
  9
$DIMDLI
 40
10.0
  9
$DIMRND
 40
0.0
  9
$DIMDLE
 40
0.0
  9
$DIMEXE
 40
1.0
  9
$DIMTP
 40
1.0
  9
$DIMTM
 40
1.0
  9
$DIMTXT
 40
3.0
  9
$DIMCEN
 40
0.0
  9
$DIMTSZ
 40
0.0
  9
$DIMTOL
 70
     0
  9
$DIMLIM
 70
     0
  9
$DIMTIH
 70
     0
  9
$DIMTOH
 70
     0
  9
$DIMSE1
 70
     0
  9
$DIMSE2
 70
     0
  9
$DIMTAD
 70
     1
  9
$DIMZIN
 70
     8
  9
$DIMBLK
  1

  9
$DIMASO
 70
     1
  9
$DIMSHO
 70
     1
  9
$DIMPOST
  1

  9
$DIMAPOST
  1

  9
$DIMALT
 70
     0
  9
$DIMALTD
 70
     2
  9
$DIMALTF
 40
0.039
  9
$DIMLFAC
 40
1.0
  9
$DIMTOFL
 70
     1
  9
$DIMTVP
 40
0.0
  9
$DIMTIX
 70
     0
  9
$DIMSOXD
 70
     0
  9
$DIMSAH
 70
     1
  9
$DIMBLK1
  1
OPEN
  9
$DIMBLK2
  1
OPEN
  9
$DIMSTYLE
  2
IGA
  9
$DIMCLRD
 70
     0
  9
$DIMCLRE
 70
     0
  9
$DIMCLRT
 70
     0
  9
$DIMTFAC
 40
10.0
  9
$DIMGAP
 40
1.0
  9
$LUNITS
 70
     2
  9
$LUPREC
 70
     3
  9
$SKETCHINC
 40
0.1
  9
$FILLETRAD
 40
50.0
  9
$AUNITS
 70
     0
  9
$AUPREC
 70
     0
  9
$MENU
  1
acad
  9
$ELEVATION
 40
0.0
  9
$PELEVATION
 40
0.0
  9
$THICKNESS
 40
0.0
  9
$LIMCHECK
 70
     0
  9
$BLIPMODE
 70
     0
  9
$CHAMFERA
 40
0.5
  9
$CHAMFERB
 40
0.5
  9
$SKPOLY
 70
     0
  9
$TDCREATE
 40
2450725.4021912031
  9
$TDUPDATE
 40
2454953.8349598842
  9
$TDINDWG
 40
0.0099682407
  9
$TDUSRTIMER
 40
0.0099682407
  9
$USRTIMER
 70
     1
  9
$ANGBASE
 50
0.0
  9
$ANGDIR
 70
     0
  9
$PDMODE
 70
     0
  9
$PDSIZE
 40
0.0
  9
$PLINEWID
 40
0.0
  9
$COORDS
 70
     1
  9
$SPLFRAME
 70
     0
  9
$SPLINETYPE
 70
     6
  9
$SPLINESEGS
 70
     8
  9
$ATTDIA
 70
     0
  9
$ATTREQ
 70
     1
  9
$HANDLING
 70
 10241
  9
$HANDSEED
  5
7F7F
  9
$SURFTAB1
 70
     6
  9
$SURFTAB2
 70
     6
  9
$SURFTYPE
 70
     6
  9
$SURFU
 70
     6
  9
$SURFV
 70
     6
  9
$UCSNAME
  2

  9
$UCSORG
 10
0.0
 20
0.0
 30
0.0
  9
$UCSXDIR
 10
1.0
 20
0.0
 30
0.0
  9
$UCSYDIR
 10
0.0
 20
1.0
 30
0.0
  9
$PUCSNAME
  2

  9
$PUCSORG
 10
0.0
 20
0.0
 30
0.0
  9
$PUCSXDIR
 10
1.0
 20
0.0
 30
0.0
  9
$PUCSYDIR
 10
0.0
 20
1.0
 30
0.0
  9
$USERI1
 70
     0
  9
$USERI2
 70
     0
  9
$USERI3
 70
     0
  9
$USERI4
 70
     0
  9
$USERI5
 70
     0
  9
$USERR1
 40
0.0
  9
$USERR2
 40
0.0
  9
$USERR3
 40
0.0
  9
$USERR4
 40
0.0
  9
$USERR5
 40
0.0
  9
$WORLDVIEW
 70
     1
  9
$SHADEDGE
 70
     3
  9
$SHADEDIF
 70
    70
  9
$TILEMODE
 70
     1
  9
$MAXACTVP
 70
    16
  9
$PLIMCHECK
 70
     0
  9
$PEXTMIN
 10
1.0000000000000000E+020
 20
1.0000000000000000E+020
 30
1.0000000000000000E+020
  9
$PEXTMAX
 10
-1.0000000000000000E+020
 20
-1.0000000000000000E+020
 30
-1.0000000000000000E+020
  9
$PLIMMIN
 10
0.0
 20
0.0
  9
$PLIMMAX
 10
12.0
 20
9.0
  9
$UNITMODE
 70
     0
  9
$VISRETAIN
 70
     0
  9
$PLINEGEN
 70
     0
  9
$PSLTSCALE
 70
     1
  0
ENDSEC
  0
SECTION
  2
TABLES
  0
TABLE
  2
VPORT
 70
     2
  0
VPORT
  2
*ACTIVE
 70
     0
 10
0.0
 20
0.0
 11
1.0
 21
1.0
 12
5813.1484055135797
 22
3753.9782720167141
 13
0.0
 23
0.0
 14
10.0
 24
10.0
 15
10.0
 25
10.0
 16
0.0
 26
0.0
 36
1.0
 17
0.0
 27
0.0
 37
0.0
 40
7720.8617655927192
 41
1.5051150895140659
 42
50.0
 43
0.0
 44
0.0
 50
0.0
 51
0.0
 71
     0
 72
   100
 73
     1
 74
     0
 75
     0
 76
     0
 77
     0
 78
     0
  0
ENDTAB
  0
TABLE
  2
LTYPE
 70
     2
  0
LTYPE
  2
CONTINUOUS
 70
     0
  3
Solid line
 72
    65
 73
     0
 40
0.0
  0
LTYPE
  2
CENTER
 70
     0
  3
____ _ ____ _ ____ _ ____ _ ____ _ ____ _ ____ 
 72
    65
 73
     4
 40
2.0
 49
1.25
 49
-0.25
 49
0.25
 49
-0.25
  0
ENDTAB
  0
TABLE
  2
LAYER
 70
     6
  0
LAYER
  2
0
 70
     0
 62
     7
  6
CONTINUOUS
  0
LAYER
  2
3
 70
     0
 62
     2
  6
CONTINUOUS
  0
LAYER
  2
2
 70
     0
 62
     3
  6
CENTER
  0
LAYER
  2
1
 70
     0
 62
     4
  6
CONTINUOUS
  0
LAYER
  2
4
 70
     0
 62
     7
  6
CONTINUOUS
  0
LAYER
  2
DEFPOINTS
 70
     0
 62
     7
  6
CONTINUOUS
  0
ENDTAB
  0
TABLE
  2
STYLE
 70
     1
  0
STYLE
  2
STANDARD
 70
     0
 40
0.0
 41
1.0
 50
0.0
 71
     0
 42
180.0
  3
simplex.shx
  4
extfont.shx
  0
ENDTAB
  0
TABLE
  2
VIEW
 70
     0
  0
ENDTAB
  0
TABLE
  2
UCS
 70
     0
  0
ENDTAB
  0
TABLE
  2
APPID
 70
     1
  0
APPID
  2
ACAD
 70
     0
  0
ENDTAB
  0
TABLE
  2
DIMSTYLE
 70
     1
  0
DIMSTYLE
  2
IGA
 70
     0
  3

  4

  5

  6
OPEN
  7
OPEN
 40
2.0
 41
2.0
 42
0.5
 43
10.0
 44
1.0
 45
0.0
 46
0.0
 47
1.0
 48
1.0
140
3.0
141
0.0
142
0.0
143
0.03937
144
1.0
145
0.0
146
10.0
147
1.0
 71
     0
 72
     0
 73
     0
 74
     0
 75
     0
 76
     0
 77
     1
 78
     8
170
     0
171
     2
172
     0
173
     1
174
     0
175
     0
176
     0
177
     0
178
     0
  0
ENDTAB
  0
ENDSEC
  0
SECTION
  2
BLOCKS
  0
BLOCK
  8
0
  2
$MODEL_SPACE
 70
     0
 10
0.0
 20
0.0
 30
0.0
  3
$MODEL_SPACE
  1

  0
ENDBLK
  5
1B
  8
0
  0
BLOCK
 67
     1
  8
0
  2
$PAPER_SPACE
 70
     0
 10
0.0
 20
0.0
 30
0.0
  3
$PAPER_SPACE
  1

  0
ENDBLK
  5
18
 67
     1
  8
0
  0
BLOCK
  8
0
  2
_OPEN
 70
     0
 10
0.0
 20
0.0
 30
0.0
  3
_OPEN
  1

  0
LINE
  5
7AF8
  8
0
  6
BYBLOCK
 62
     0
 10
-1.0
 20
0.166667
 30
0.0
 11
0.0
 21
0.0
 31
0.0
  0
LINE
  5
7AF9
  8
0
  6
BYBLOCK
 62
     0
 10
0.0
 20
0.0
 30
0.0
 11
-1.0
 21
-0.166667
 31
0.0
  0
LINE
  5
7AFA
  8
0
  6
BYBLOCK
 62
     0
 10
0.0
 20
0.0
 30
0.0
 11
-1.0
 21
0.0
 31
0.0
  0
ENDBLK
  5
7AFB
  8
0
  0
BLOCK
  8
0
  2
*D1
 70
     1
 10
0.0
 20
0.0
 30
0.0
  3
*D1
  1

  0
LINE
  5
7EDF
  8
3
  6
CONTINUOUS
 62
     0
 10
1518.1345510000001
 20
2897.338197999999
 30
0.0
 11
1518.1345510000001
 21
2986.4559949999998
 31
0.0
  0
LINE
  5
7EE0
  8
3
  6
CONTINUOUS
 62
     0
 10
1918.134550999999
 20
2897.338197999999
 30
0.0
 11
1918.134550999999
 21
2986.4559949999998
 31
0.0
  0
LINE
  5
7EE1
  8
3
  6
CONTINUOUS
 62
     0
 10
1558.1345510000001
 20
2966.4559949999998
 30
0.0
 11
1878.1345510000001
 21
2966.4559949999998
 31
0.0
  0
INSERT
  5
7EE2
  8
3
  6
CONTINUOUS
 62
     0
  2
_OPEN
 10
1518.1345510000001
 20
2966.4559949999998
 30
0.0
 41
40.0
 42
40.0
 43
40.0
 50
180.0
  0
INSERT
  5
7EE3
  8
3
  6
CONTINUOUS
 62
     0
  2
_OPEN
 10
1918.134550999999
 20
2966.4559949999998
 30
0.0
 41
40.0
 42
40.0
 43
40.0
  0
TEXT
  8
3
  40
60
  5
7F6E
  62
0
  72
0
  71
0
 10
1610.43
 20
2910.26
 30
0.000000
  1
400
  0
POINT
  5
7EE5
  8
DEFPOINTS
  6
CONTINUOUS
 62
     0
 10
1518.1345510000001
 20
2887.3381979999999
 30
0.0
  0
POINT
  5
7EE6
  8
DEFPOINTS
  6
CONTINUOUS
 62
     0
 10
1918.134550999999
 20
2887.3381979999999
 30
0.0
  0
POINT
  5
7EE7
  8
DEFPOINTS
  6
CONTINUOUS
 62
     0
 10
1918.134550999999
 20
2966.4559949999998
 30
0.0
  0
ENDBLK
  5
7C71
  8
0
  0
BLOCK
  8
0
  2
*D2
 70
     1
 10
0.0
 20
0.0
 30
0.0
  3
*D2
  1

  0
LINE
  5
7EE8
  8
3
  6
CONTINUOUS
 62
     0
 10
1518.1345510000001
 20
2976.4559949999998
 30
0.0
 11
1518.1345510000001
 21
3101.9431169999998
 31
0.0
  0
LINE
  5
7EE9
  8
3
  6
CONTINUOUS
 62
     0
 10
1906.1345510000001
 20
3051.4453150626591
 30
0.0
 11
1906.1345510000001
 21
3101.9431169999998
 31
0.0
  0
LINE
  5
7EEA
  8
3
  6
CONTINUOUS
 62
     0
 10
1558.1345510000001
 20
3081.9431169999998
 30
0.0
 11
1866.1345510000001
 21
3081.9431169999998
 31
0.0
  0
INSERT
  5
7EEB
  8
3
  6
CONTINUOUS
 62
     0
  2
_OPEN
 10
1518.1345510000001
 20
3081.9431169999998
 30
0.0
 41
40.0
 42
40.0
 43
40.0
 50
180.0
  0
INSERT
  5
7EEC
  8
3
  6
CONTINUOUS
 62
     0
  2
_OPEN
 10
1906.1345510000001
 20
3081.9431169999998
 30
0.0
 41
40.0
 42
40.0
 43
40.0
  0
TEXT
  8
3
  40
60
  5
7F6F
  62
0
  72
0
  71
0
 10
1605.41
 20
3025.74
 30
0.000000
  1
388
  0
POINT
  5
7EEE
  8
DEFPOINTS
  6
CONTINUOUS
 62
     0
 10
1518.1345510000001
 20
2966.4559949999998
 30
0.0
  0
POINT
  5
7EEF
  8
DEFPOINTS
  6
CONTINUOUS
 62
     0
 10
1906.1345510000001
 20
3041.4453150626591
 30
0.0
  0
POINT
  5
7EF0
  8
DEFPOINTS
  6
CONTINUOUS
 62
     0
 10
1906.1345510000001
 20
3081.9431169999998
 30
0.0
  0
ENDBLK
  5
7DD1
  8
0
  0
BLOCK
  8
0
  2
*D3
 70
     1
 10
0.0
 20
0.0
 30
0.0
  3
*D3
  1

  0
LINE
  5
7EF1
  8
3
  6
CONTINUOUS
 62
     0
 10
2206.1345510000001
 20
2867.3381979999999
 30
0.0
 11
2206.1345510000001
 21
3101.9431169999998
 31
0.0
  0
LINE
  5
7EF2
  8
3
  6
CONTINUOUS
 62
     0
 10
1946.1345510000001
 20
3081.9431169999998
 30
0.0
 11
2166.1345510000001
 21
3081.9431169999998
 31
0.0
  0
INSERT
  5
7EF3
  8
3
  6
CONTINUOUS
 62
     0
  2
_OPEN
 10
1906.1345510000001
 20
3081.9431169999998
 30
0.0
 41
40.0
 42
40.0
 43
40.0
 50
180.0
  0
INSERT
  5
7EF4
  8
3
  6
CONTINUOUS
 62
     0
  2
_OPEN
 10
2206.1345510000001
 20
3081.9431169999998
 30
0.0
 41
40.0
 42
40.0
 43
40.0
  0
TEXT
  8
3
  40
60
  5
7F70
  62
0
  72
0
  71
0
 10
1936.13
 20
3025.74
 30
0.000000
  1
300
  0
POINT
  5
7EF6
  8
DEFPOINTS
  6
CONTINUOUS
 62
     0
 10
1906.1345510000001
 20
3045.1582101421859
 30
0.0
  0
POINT
  5
7EF7
  8
DEFPOINTS
  6
CONTINUOUS
 62
     0
 10
2206.1345510000001
 20
2857.3381979999999
 30
0.0
  0
POINT
  5
7EF8
  8
DEFPOINTS
  6
CONTINUOUS
 62
     0
 10
2206.1345510000001
 20
3081.9431169999998
 30
0.0
  0
ENDBLK
  5
7DC6
  8
0
  0
BLOCK
  8
0
  2
*D4
 70
     1
 10
0.0
 20
0.0
 30
0.0
  3
*D4
  1

  0
LINE
  5
7EF9
  8
3
  6
CONTINUOUS
 62
     0
 10
1955.1345510000001
 20
2887.3381979999999
 30
0.0
 11
2363.4669009999998
 21
2887.3381979999999
 31
0.0
  0
LINE
  5
7EFA
  8
3
  6
CONTINUOUS
 62
     0
 10
2315.3670105974738
 20
2587.3381979999999
 30
0.0
 11
2363.4669009999998
 21
2587.3381979999999
 31
0.0
  0
LINE
  5
7EFB
  8
3
  6
CONTINUOUS
 62
     0
 10
2343.4669009999998
 20
2847.3381979999999
 30
0.0
 11
2343.4669009999998
 21
2627.3381979999999
 31
0.0
  0
INSERT
  5
7EFC
  8
3
  6
CONTINUOUS
 62
     0
  2
_OPEN
 10
2343.4669009999998
 20
2887.3381979999999
 30
0.0
 41
40.0
 42
40.0
 43
40.0
 50
90.0
  0
INSERT
  5
7EFD
  8
3
  6
CONTINUOUS
 62
     0
  2
_OPEN
 10
2343.4669009999998
 20
2587.3381979999999
 30
0.0
 41
40.0
 42
40.0
 43
40.0
 50
270.0
  0
TEXT
  8
3
  40
60
  5
7F71
  62
0
  72
0
  71
0
 10
2173.47
 20
2644.00
 30
0.000000
  1
300
  0
POINT
  5
7EFF
  8
DEFPOINTS
  6
CONTINUOUS
 62
     0
 10
1945.1345510000001
 20
2887.3381979999999
 30
0.0
  0
POINT
  5
7F00
  8
DEFPOINTS
  6
CONTINUOUS
 62
     0
 10
2305.3670105974738
 20
2587.3381979999999
 30
0.0
  0
POINT
  5
7F01
  8
DEFPOINTS
  6
CONTINUOUS
 62
     0
 10
2343.4669009999998
 20
2587.3381979999999
 30
0.0
  0
ENDBLK
  5
7D4B
  8
0
  0
BLOCK
  8
0
  2
*D5
 70
     1
 10
0.0
 20
0.0
 30
0.0
  3
*D5
  1

  0
LINE
  5
7F02
  8
3
  6
CONTINUOUS
 62
     0
 10
2176.1345510000001
 20
2167.338197999999
 30
0.0
 11
2363.4669009999998
 21
2167.338197999999
 31
0.0
  0
LINE
  5
7F03
  8
3
  6
CONTINUOUS
 62
     0
 10
2343.4669009999998
 20
2547.3381979999999
 30
0.0
 11
2343.4669009999998
 21
2207.338197999999
 31
0.0
  0
INSERT
  5
7F04
  8
3
  6
CONTINUOUS
 62
     0
  2
_OPEN
 10
2343.4669009999998
 20
2587.3381979999999
 30
0.0
 41
40.0
 42
40.0
 43
40.0
 50
90.0
  0
INSERT
  5
7F05
  8
3
  6
CONTINUOUS
 62
     0
  2
_OPEN
 10
2343.4669009999998
 20
2167.338197999999
 30
0.0
 41
40.0
 42
40.0
 43
40.0
 50
270.0
  0
TEXT
  8
3
  40
60
  5
7F72
  62
0
  72
0
  71
0
 10
2173.47
 20
2271.14
 30
0.000000
  1
420
  0
POINT
  5
7F07
  8
DEFPOINTS
  6
CONTINUOUS
 62
     0
 10
2312.7865622836789
 20
2587.3381979999999
 30
0.0
  0
POINT
  5
7F08
  8
DEFPOINTS
  6
CONTINUOUS
 62
     0
 10
2166.1345510000001
 20
2167.338197999999
 30
0.0
  0
POINT
  5
7F09
  8
DEFPOINTS
  6
CONTINUOUS
 62
     0
 10
2343.4669009999998
 20
2167.338197999999
 30
0.0
  0
ENDBLK
  5
7D40
  8
0
  0
BLOCK
  8
0
  2
*D6
 70
     1
 10
0.0
 20
0.0
 30
0.0
  3
*D6
  1

  0
LINE
  5
7F0A
  8
3
  6
CONTINUOUS
 62
     0
 10
1965.1345510000001
 20
2887.3381979999999
 30
0.0
 11
2504.1628350000001
 21
2887.3381979999999
 31
0.0
  0
LINE
  5
7F0B
  8
3
  6
CONTINUOUS
 62
     0
 10
2176.1345510000001
 20
2080.3381979999999
 30
0.0
 11
2504.1628350000001
 21
2080.3381979999999
 31
0.0
  0
LINE
  5
7F0C
  8
3
  6
CONTINUOUS
 62
     0
 10
2484.162835000001
 20
2847.3381979999999
 30
0.0
 11
2484.162835000001
 21
2120.3381979999999
 31
0.0
  0
INSERT
  5
7F0D
  8
3
  6
CONTINUOUS
 62
     0
  2
_OPEN
 10
2484.162835000001
 20
2887.3381979999999
 30
0.0
 41
40.0
 42
40.0
 43
40.0
 50
90.0
  0
INSERT
  5
7F0E
  8
3
  6
CONTINUOUS
 62
     0
  2
_OPEN
 10
2484.162835000001
 20
2080.3381979999999
 30
0.0
 41
40.0
 42
40.0
 43
40.0
 50
270.0
  0
TEXT
  8
3
  40
60
  5
7F73
  62
0
  72
0
  71
0
 10
2314.16
 20
2413.35
 30
0.000000
  1
807
  0
POINT
  5
7F10
  8
DEFPOINTS
  6
CONTINUOUS
 62
     0
 10
1955.1345510000001
 20
2887.3381979999999
 30
0.0
  0
POINT
  5
7F11
  8
DEFPOINTS
  6
CONTINUOUS
 62
     0
 10
2166.1345510000001
 20
2080.3381979999999
 30
0.0
  0
POINT
  5
7F12
  8
DEFPOINTS
  6
CONTINUOUS
 62
     0
 10
2484.162835000001
 20
2080.3381979999999
 30
0.0
  0
ENDBLK
  5
7B79
  8
0
  0
BLOCK
  8
0
  2
*D7
 70
     1
 10
0.0
 20
0.0
 30
0.0
  3
*D7
  1

  0
LINE
  5
7DE7
  8
0
  6
BYBLOCK
 62
     0
 10
3109.6633670000001
 20
2070.338197999999
 30
0.0
 11
3109.6633670000001
 21
1893.125984
 31
0.0
  0
LINE
  5
7DE8
  8
0
  6
BYBLOCK
 62
     0
 10
3303.6633670000001
 20
1933.3464202467401
 30
0.0
 11
3303.6633670000001
 21
1893.125984
 31
0.0
  0
LINE
  5
7DE9
  8
0
  6
BYBLOCK
 62
     0
 10
3149.6633670000001
 20
1913.125984
 30
0.0
 11
3263.6633670000001
 21
1913.125984
 31
0.0
  0
TEXT
  5
7DEA
  8
3
 62
     0
 10
3133.806224142857
 20
1938.540761722202
 30
0.0
 40
60.0
  1
194
  0
INSERT
  5
7DEB
  8
0
  6
BYBLOCK
 62
     0
  2
_OPEN
 10
3109.6633670000001
 20
1913.125984
 30
0.0
 41
40.0
 42
40.0
 43
40.0
 50
180.0
  0
INSERT
  5
7DEC
  8
0
  6
BYBLOCK
 62
     0
  2
_OPEN
 10
3303.6633670000001
 20
1913.125984
 30
0.0
 41
40.0
 42
40.0
 43
40.0
  0
POINT
  5
7DED
  8
DEFPOINTS
  6
BYBLOCK
 62
     0
 10
3109.6633670000001
 20
2080.3381979999999
 30
0.0
  0
POINT
  5
7DEE
  8
DEFPOINTS
  6
BYBLOCK
 62
     0
 10
3303.6633670000001
 20
1943.3464202467401
 30
0.0
  0
POINT
  5
7DEF
  8
DEFPOINTS
  6
BYBLOCK
 62
     0
 10
3303.6633670000001
 20
1913.125984
 30
0.0
  0
ENDBLK
  5
7DF0
  8
0
  0
BLOCK
  8
0
  2
*D8
 70
     1
 10
0.0
 20
0.0
 30
0.0
  3
*D8
  1

  0
LINE
  5
7F13
  8
3
  6
CONTINUOUS
 62
     0
 10
3497.6633670000001
 20
2070.338197999999
 30
0.0
 11
3497.6633670000001
 21
1893.125984
 31
0.0
  0
LINE
  5
7F14
  8
3
  6
CONTINUOUS
 62
     0
 10
3343.6633669999992
 20
1913.125984
 30
0.0
 11
3457.6633670000001
 21
1913.125984
 31
0.0
  0
TEXT
  8
3
  40
60
  5
7F74
  62
0
  72
0
  71
0
 10
3278.86
 20
1856.90
 30
0.000000
  1
194
  0
INSERT
  5
7F16
  8
3
  6
CONTINUOUS
 62
     0
  2
_OPEN
 10
3303.6633670000001
 20
1913.125984
 30
0.0
 41
40.0
 42
40.0
 43
40.0
 50
180.0
  0
INSERT
  5
7F17
  8
3
  6
CONTINUOUS
 62
     0
  2
_OPEN
 10
3497.6633670000001
 20
1913.125984
 30
0.0
 41
40.0
 42
40.0
 43
40.0
  0
POINT
  5
7F18
  8
DEFPOINTS
  6
CONTINUOUS
 62
     0
 10
3303.6633670000001
 20
1943.3464202467401
 30
0.0
  0
POINT
  5
7F19
  8
DEFPOINTS
  6
CONTINUOUS
 62
     0
 10
3497.6633670000001
 20
2080.3381979999999
 30
0.0
  0
POINT
  5
7F1A
  8
DEFPOINTS
  6
CONTINUOUS
 62
     0
 10
3497.6633670000001
 20
1913.125984
 30
0.0
  0
ENDBLK
  5
7DE5
  8
0
  0
BLOCK
  8
0
  2
*D9
 70
     1
 10
0.0
 20
0.0
 30
0.0
  3
*D9
  1

  0
LINE
  5
7F1B
  8
3
  6
CONTINUOUS
 62
     0
 10
3453.6633670000001
 20
2897.338197999999
 30
0.0
 11
3453.6633670000001
 21
2983.406160999999
 31
0.0
  0
LINE
  5
7F1C
  8
3
  6
CONTINUOUS
 62
     0
 10
3153.6633670000001
 20
2897.338197999999
 30
0.0
 11
3153.6633670000001
 21
2983.406160999999
 31
0.0
  0
LINE
  5
7F1D
  8
3
  6
CONTINUOUS
 62
     0
 10
3493.6633669999992
 20
2963.406160999999
 30
0.0
 11
3533.6633670000001
 21
2963.406160999999
 31
0.0
  0
LINE
  5
7F1E
  8
3
  6
CONTINUOUS
 62
     0
 10
3113.6633670000001
 20
2963.406160999999
 30
0.0
 11
3073.6633670000001
 21
2963.406160999999
 31
0.0
  0
LINE
  5
7F1F
  8
3
  6
CONTINUOUS
 62
     0
 10
3453.6633670000001
 20
2963.406160999999
 30
0.0
 11
3153.6633670000001
 21
2963.406160999999
 31
0.0
  0
INSERT
  5
7F20
  8
3
  6
CONTINUOUS
 62
     0
  2
_OPEN
 10
3453.6633670000001
 20
2963.406160999999
 30
0.0
 41
40.0
 42
40.0
 43
40.0
 50
180.0
  0
INSERT
  5
7F21
  8
3
  6
CONTINUOUS
 62
     0
  2
_OPEN
 10
3153.6633670000001
 20
2963.406160999999
 30
0.0
 41
40.0
 42
40.0
 43
40.0
  0
TEXT
  8
3
  40
60
  5
7F75
  62
0
  72
0
  71
0
 10
3170.81
 20
2907.21
 30
0.000000
  1
300
  0
POINT
  5
7F23
  8
DEFPOINTS
  6
CONTINUOUS
 62
     0
 10
3453.6633670000001
 20
2887.3381979999999
 30
0.0
  0
POINT
  5
7F24
  8
DEFPOINTS
  6
CONTINUOUS
 62
     0
 10
3153.6633670000001
 20
2887.3381979999999
 30
0.0
  0
POINT
  5
7F25
  8
DEFPOINTS
  6
CONTINUOUS
 62
     0
 10
3153.6633670000001
 20
2963.406160999999
 30
0.0
  0
ENDBLK
  5
7CDD
  8
0
  0
BLOCK
  8
0
  2
*D10
 70
     1
 10
0.0
 20
0.0
 30
0.0
  3
*D10
  1

  0
LINE
  5
7F26
  8
3
  6
CONTINUOUS
 62
     0
 10
2973.6633670000001
 20
2912.3381979999999
 30
0.0
 11
2973.6633670000001
 21
3116.9836129999999
 31
0.0
  0
LINE
  5
7F27
  8
3
  6
CONTINUOUS
 62
     0
 10
3263.6633670000001
 20
3096.9836129999999
 30
0.0
 11
3013.6633670000001
 21
3096.9836129999999
 31
0.0
  0
INSERT
  5
7F28
  8
3
  6
CONTINUOUS
 62
     0
  2
_OPEN
 10
3303.6633670000001
 20
3096.9836129999999
 30
0.0
 41
40.0
 42
40.0
 43
40.0
  0
INSERT
  5
7F29
  8
3
  6
CONTINUOUS
 62
     0
  2
_OPEN
 10
2973.6633670000001
 20
3096.9836129999999
 30
0.0
 41
40.0
 42
40.0
 43
40.0
 50
180.0
  0
TEXT
  8
3
  40
60
  5
7F76
  62
0
  72
0
  71
0
 10
3018.66
 20
3090.78
 30
0.000000
  1
MAX
  0
TEXT
  8
3
  40
60
  5
7F77
  62
0
  72
0
  71
0
 10
3018.66
 20
3012.78
 30
0.000000
  1
380
  0
POINT
  5
7F2B
  8
DEFPOINTS
  6
CONTINUOUS
 62
     0
 10
3303.6633670000001
 20
3051.9296711046768
 30
0.0
  0
POINT
  5
7F2C
  8
DEFPOINTS
  6
CONTINUOUS
 62
     0
 10
2973.6633670000001
 20
2902.3381979999999
 30
0.0
  0
POINT
  5
7F2D
  8
DEFPOINTS
  6
CONTINUOUS
 62
     0
 10
2973.6633670000001
 20
3096.9836129999999
 30
0.0
  0
ENDBLK
  5
7DDB
  8
0
  0
BLOCK
  8
0
  2
*D11
 70
     1
 10
0.0
 20
0.0
 30
0.0
  3
*D11
  1

  0
LINE
  5
7F2E
  8
3
  6
CONTINUOUS
 62
     0
 10
3463.6633670000001
 20
2802.3381979999999
 30
0.0
 11
3604.6061789999999
 21
2802.3381979999999
 31
0.0
  0
LINE
  5
7F2F
  8
3
  6
CONTINUOUS
 62
     0
 10
3463.6633670000001
 20
2372.3381979999999
 30
0.0
 11
3604.6061789999999
 21
2372.3381979999999
 31
0.0
  0
LINE
  5
7F30
  8
3
  6
CONTINUOUS
 62
     0
 10
3584.6061790000008
 20
2762.3381979999999
 30
0.0
 11
3584.6061790000008
 21
2412.3381979999999
 31
0.0
  0
INSERT
  5
7F31
  8
3
  6
CONTINUOUS
 62
     0
  2
_OPEN
 10
3584.6061790000008
 20
2802.3381979999999
 30
0.0
 41
40.0
 42
40.0
 43
40.0
 50
90.0
  0
INSERT
  5
7F32
  8
3
  6
CONTINUOUS
 62
     0
  2
_OPEN
 10
3584.6061790000008
 20
2372.3381979999999
 30
0.0
 41
40.0
 42
40.0
 43
40.0
 50
270.0
  0
TEXT
  8
3
  40
60
  5
7F78
  62
0
  72
0
  71
0
 10
3414.61
 20
2488.67
 30
0.000000
  1
φ430
  0
POINT
  5
7F34
  8
DEFPOINTS
  6
CONTINUOUS
 62
     0
 10
3453.6633670000001
 20
2802.3381979999999
 30
0.0
  0
POINT
  5
7F35
  8
DEFPOINTS
  6
CONTINUOUS
 62
     0
 10
3453.6633670000001
 20
2372.3381979999999
 30
0.0
  0
POINT
  5
7F36
  8
DEFPOINTS
  6
CONTINUOUS
 62
     0
 10
3584.6061790000008
 20
2372.3381979999999
 30
0.0
  0
ENDBLK
  5
7D8D
  8
0
  0
BLOCK
  8
0
  2
*D12
 70
     1
 10
0.0
 20
0.0
 30
0.0
  3
*D12
  1

  0
LINE
  5
7F37
  8
3
  6
CONTINUOUS
 62
     0
 10
1166.134550999999
 20
4156.1081979999999
 30
0.0
 11
1166.134550999999
 21
4315.1754879999999
 31
0.0
  0
LINE
  5
7F38
  8
3
  6
CONTINUOUS
 62
     0
 10
2166.1345510000001
 20
4156.1081979999999
 30
0.0
 11
2166.1345510000001
 21
4315.1754879999999
 31
0.0
  0
LINE
  5
7F39
  8
3
  6
CONTINUOUS
 62
     0
 10
1206.134550999999
 20
4295.1754879999999
 30
0.0
 11
2126.1345510000001
 21
4295.1754879999999
 31
0.0
  0
INSERT
  5
7F3A
  8
3
  6
CONTINUOUS
 62
     0
  2
_OPEN
 10
1166.134550999999
 20
4295.1754879999999
 30
0.0
 41
40.0
 42
40.0
 43
40.0
 50
180.0
  0
INSERT
  5
7F3B
  8
3
  6
CONTINUOUS
 62
     0
  2
_OPEN
 10
2166.1345510000001
 20
4295.1754879999999
 30
0.0
 41
40.0
 42
40.0
 43
40.0
  0
TEXT
  8
3
  40
60
  5
7F79
  62
0
  72
0
  71
0
 10
1540.09
 20
4238.98
 30
0.000000
  1
1000
  0
POINT
  5
7F3D
  8
DEFPOINTS
  6
CONTINUOUS
 62
     0
 10
1166.134550999999
 20
4146.1081979999999
 30
0.0
  0
POINT
  5
7F3E
  8
DEFPOINTS
  6
CONTINUOUS
 62
     0
 10
2166.1345510000001
 20
4146.1081979999999
 30
0.0
  0
POINT
  5
7F3F
  8
DEFPOINTS
  6
CONTINUOUS
 62
     0
 10
2166.1345510000001
 20
4295.1754879999999
 30
0.0
  0
ENDBLK
  5
7D01
  8
0
  0
BLOCK
  8
0
  2
*D13
 70
     1
 10
0.0
 20
0.0
 30
0.0
  3
*D13
  1

  0
LINE
  5
7F40
  8
3
  6
CONTINUOUS
 62
     0
 10
1156.134550999999
 20
4146.1081979999999
 30
0.0
 11
1023.665223
 21
4146.1081979999999
 31
0.0
  0
LINE
  5
7F41
  8
3
  6
CONTINUOUS
 62
     0
 10
1156.134550999999
 20
3758.108197999999
 30
0.0
 11
1023.665223
 21
3758.1081979999999
 31
0.0
  0
LINE
  5
7F42
  8
3
  6
CONTINUOUS
 62
     0
 10
1043.665223
 20
4106.1081979999999
 30
0.0
 11
1043.665223
 21
3798.108197999999
 31
0.0
  0
INSERT
  5
7F43
  8
3
  6
CONTINUOUS
 62
     0
  2
_OPEN
 10
1043.665223
 20
4146.1081979999999
 30
0.0
 41
40.0
 42
40.0
 43
40.0
 50
90.0
  0
INSERT
  5
7F44
  8
3
  6
CONTINUOUS
 62
     0
  2
_OPEN
 10
1043.665223
 20
3758.108197999999
 30
0.0
 41
40.0
 42
40.0
 43
40.0
 50
270.0
  0
TEXT
  8
3
  40
60
  5
7F7A
  62
0
  72
0
  71
0
 10
873.665
 20
3847.09
 30
0.000000
  1
388
  0
POINT
  5
7F46
  8
DEFPOINTS
  6
CONTINUOUS
 62
     0
 10
1166.134550999999
 20
4146.1081979999999
 30
0.0
  0
POINT
  5
7F47
  8
DEFPOINTS
  6
CONTINUOUS
 62
     0
 10
1166.134550999999
 20
3758.108197999999
 30
0.0
  0
POINT
  5
7F48
  8
DEFPOINTS
  6
CONTINUOUS
 62
     0
 10
1043.665223
 20
3758.108197999999
 30
0.0
  0
ENDBLK
  5
7C87
  8
0
  0
BLOCK
  8
0
  2
*D14
 70
     1
 10
0.0
 20
0.0
 30
0.0
  3
*D14
  1

  0
LINE
  5
7F49
  8
3
  6
CONTINUOUS
 62
     0
 10
1166.134550999999
 20
2070.338197999999
 30
0.0
 11
1166.134550999999
 21
1885.5711269999999
 31
0.0
  0
LINE
  5
7F4A
  8
3
  6
CONTINUOUS
 62
     0
 10
1906.1345510000001
 20
2013.771119532418
 30
0.0
 11
1906.1345510000001
 21
1885.5711269999999
 31
0.0
  0
LINE
  5
7F4B
  8
3
  6
CONTINUOUS
 62
     0
 10
1206.134550999999
 20
1905.571126999999
 30
0.0
 11
1866.1345510000001
 21
1905.571126999999
 31
0.0
  0
INSERT
  5
7F4C
  8
3
  6
CONTINUOUS
 62
     0
  2
_OPEN
 10
1166.134550999999
 20
1905.571126999999
 30
0.0
 41
40.0
 42
40.0
 43
40.0
 50
180.0
  0
INSERT
  5
7F4D
  8
3
  6
CONTINUOUS
 62
     0
  2
_OPEN
 10
1906.1345510000001
 20
1905.571126999999
 30
0.0
 41
40.0
 42
40.0
 43
40.0
  0
TEXT
  8
3
  40
60
  5
7F7B
  62
0
  72
0
  71
0
 10
1397.99
 20
1849.37
 30
0.000000
  1
740
  0
POINT
  5
7F4F
  8
DEFPOINTS
  6
CONTINUOUS
 62
     0
 10
1166.134550999999
 20
2080.3381979999999
 30
0.0
  0
POINT
  5
7F50
  8
DEFPOINTS
  6
CONTINUOUS
 62
     0
 10
1906.1345510000001
 20
2023.771119532418
 30
0.0
  0
POINT
  5
7F51
  8
DEFPOINTS
  6
CONTINUOUS
 62
     0
 10
1906.1345510000001
 20
1905.571126999999
 30
0.0
  0
ENDBLK
  5
7DA5
  8
0
  0
BLOCK
  8
0
  2
*D15
 70
     1
 10
0.0
 20
0.0
 30
0.0
  3
*D15
  1

  0
LINE
  5
7F52
  8
3
  6
CONTINUOUS
 62
     0
 10
2166.1345510000001
 20
2070.338197999999
 30
0.0
 11
2166.1345510000001
 21
1885.5711269999999
 31
0.0
  0
LINE
  5
7F53
  8
3
  6
CONTINUOUS
 62
     0
 10
1946.1345510000001
 20
1905.571126999999
 30
0.0
 11
2126.1345510000001
 21
1905.571126999999
 31
0.0
  0
TEXT
  8
3
  40
60
  5
7F7C
  62
0
  72
0
  71
0
 10
1932.03
 20
1848.93
 30
0.000000
  1
260
  0
INSERT
  5
7F55
  8
3
  6
CONTINUOUS
 62
     0
  2
_OPEN
 10
1906.1345510000001
 20
1905.571126999999
 30
0.0
 41
40.0
 42
40.0
 43
40.0
 50
180.0
  0
INSERT
  5
7F56
  8
3
  6
CONTINUOUS
 62
     0
  2
_OPEN
 10
2166.1345510000001
 20
1905.571126999999
 30
0.0
 41
40.0
 42
40.0
 43
40.0
  0
POINT
  5
7F57
  8
DEFPOINTS
  6
CONTINUOUS
 62
     0
 10
1906.1345510000001
 20
2023.771119532418
 30
0.0
  0
POINT
  5
7F58
  8
DEFPOINTS
  6
CONTINUOUS
 62
     0
 10
2166.1345510000001
 20
2080.3381979999999
 30
0.0
  0
POINT
  5
7F59
  8
DEFPOINTS
  6
CONTINUOUS
 62
     0
 10
2166.1345510000001
 20
1905.571126999999
 30
0.0
  0
ENDBLK
  5
7DAF
  8
0
  0
BLOCK
  8
0
  2
*D16
 70
     1
 10
0.0
 20
0.0
 30
0.0
  3
*D16
  1

  0
LINE
  5
7F5A
  8
3
  6
CONTINUOUS
 62
     0
 10
2176.1345510000001
 20
2167.338197999999
 30
0.0
 11
2363.4669009999998
 21
2167.338197999999
 31
0.0
  0
LINE
  5
7F5B
  8
3
  6
CONTINUOUS
 62
     0
 10
2176.1345510000001
 20
2080.3381979999999
 30
0.0
 11
2363.4669009999998
 21
2080.3381979999999
 31
0.0
  0
LINE
  5
7F5C
  8
3
  6
CONTINUOUS
 62
     0
 10
2343.4669009999998
 20
2207.338197999999
 30
0.0
 11
2343.4669009999998
 21
2247.3381979999999
 31
0.0
  0
LINE
  5
7F5D
  8
3
  6
CONTINUOUS
 62
     0
 10
2343.4669009999998
 20
2040.3381979999999
 30
0.0
 11
2343.4669009999998
 21
1863.195340857143
 31
0.0
  0
LINE
  5
7F5E
  8
3
  6
CONTINUOUS
 62
     0
 10
2343.4669009999998
 20
2167.338197999999
 30
0.0
 11
2343.4669009999998
 21
2080.3381979999999
 31
0.0
  0
INSERT
  5
7F5F
  8
3
  6
CONTINUOUS
 62
     0
  2
_OPEN
 10
2343.4669009999998
 20
2167.338197999999
 30
0.0
 41
40.0
 42
40.0
 43
40.0
 50
270.0
  0
INSERT
  5
7F60
  8
3
  6
CONTINUOUS
 62
     0
  2
_OPEN
 10
2343.4669009999998
 20
2080.3381979999999
 30
0.0
 41
40.0
 42
40.0
 43
40.0
 50
90.0
  0
TEXT
  8
3
  40
60
  5
7F7D
  62
0
  72
0
  71
0
 10
2173.47
 20
1825.57
 30
0.000000
  1
87
  0
POINT
  5
7F62
  8
DEFPOINTS
  6
CONTINUOUS
 62
     0
 10
2166.1345510000001
 20
2167.338197999999
 30
0.0
  0
POINT
  5
7F63
  8
DEFPOINTS
  6
CONTINUOUS
 62
     0
 10
2166.1345510000001
 20
2080.3381979999999
 30
0.0
  0
POINT
  5
7F64
  8
DEFPOINTS
  6
CONTINUOUS
 62
     0
 10
2343.4669009999998
 20
2080.3381979999999
 30
0.0
  0
ENDBLK
  5
7DBC
  8
0
  0
BLOCK
  8
0
  2
*D17
 70
     1
 10
0.0
 20
0.0
 30
0.0
  3
*D17
  1

  0
LINE
  5
7D79
  8
0
  6
BYBLOCK
 62
     0
 10
3303.6633670000001
 20
3061.9296711046782
 30
0.0
 11
3303.6633670000001
 21
3116.9836129999999
 31
0.0
  0
LINE
  5
7D7A
  8
0
  6
BYBLOCK
 62
     0
 10
3454.6633670000001
 20
2812.3381979999999
 30
0.0
 11
3454.6633670000001
 21
3116.9836129999999
 31
0.0
  0
LINE
  5
7D7B
  8
0
  6
BYBLOCK
 62
     0
 10
3343.6633669999992
 20
3096.9836129999999
 30
0.0
 11
3414.6633670000001
 21
3096.9836129999999
 31
0.0
  0
TEXT
  5
7D7C
  8
3
 62
     0
 10
3317.3191838518819
 20
3119.3869612985491
 30
0.0
 40
60.0
  1
151
  0
INSERT
  5
7D7D
  8
0
  6
BYBLOCK
 62
     0
  2
_OPEN
 10
3303.6633670000001
 20
3096.9836129999999
 30
0.0
 41
40.0
 42
40.0
 43
40.0
 50
180.0
  0
INSERT
  5
7D7E
  8
0
  6
BYBLOCK
 62
     0
  2
_OPEN
 10
3454.6633670000001
 20
3096.9836129999999
 30
0.0
 41
40.0
 42
40.0
 43
40.0
  0
POINT
  5
7D7F
  8
DEFPOINTS
  6
BYBLOCK
 62
     0
 10
3303.6633670000001
 20
3051.9296711046768
 30
0.0
  0
POINT
  5
7D80
  8
DEFPOINTS
  6
BYBLOCK
 62
     0
 10
3454.6633670000001
 20
2802.3381979999999
 30
0.0
  0
POINT
  5
7D81
  8
DEFPOINTS
  6
BYBLOCK
 62
     0
 10
3454.6633670000001
 20
3096.9836129999999
 30
0.0
  0
ENDBLK
  5
7D82
  8
0
  0
BLOCK
  8
0
  2
*D18
 70
     1
 10
0.0
 20
0.0
 30
0.0
  3
*D18
  1

  0
LINE
  5
7F65
  8
3
 62
     0
 10
2206.1345510000001
 20
2867.3381979999999
 30
0.0
 11
2206.1345510000001
 21
3229.102201666461
 31
0.0
  0
LINE
  5
7F66
  8
3
 62
     0
 10
1166.134550999999
 20
2257.3381979999999
 30
0.0
 11
1166.134550999999
 21
3229.102201666461
 31
0.0
  0
LINE
  5
7F67
  8
3
 62
     0
 10
2166.1345510000001
 20
3209.1022016664601
 30
0.0
 11
1206.134550999999
 21
3209.1022016664601
 31
0.0
  0
INSERT
  5
7F68
  8
3
 62
     0
  2
_OPEN
 10
2206.1345510000001
 20
3209.1022016664601
 30
0.0
 41
40.0
 42
40.0
 43
40.0
  0
INSERT
  5
7F69
  8
3
 62
     0
  2
_OPEN
 10
1166.134550999999
 20
3209.1022016664601
 30
0.0
 41
40.0
 42
40.0
 43
40.0
 50
180.0
  0
TEXT
  8
3
  40
60
  5
7F7E
  62
0
  72
0
  71
0
 10
1608.27
 20
3152.90
 30
0.000000
  1
1040
  0
POINT
  5
7F6B
  8
DEFPOINTS
 62
     0
 10
2206.1345510000001
 20
2857.3381979999999
 30
0.0
  0
POINT
  5
7F6C
  8
DEFPOINTS
 62
     0
 10
1166.134550999999
 20
2247.3381979999999
 30
0.0
  0
POINT
  5
7F6D
  8
DEFPOINTS
 62
     0
 10
1166.134550999999
 20
3209.1022016664601
 30
0.0
  0
ENDBLK
  5
7E01
  8
0
  0
ENDSEC
  0
SECTION
  2
ENTITIES
  0
LINE
  5
7A6C
  8
1
  6
CONTINUOUS
 10
3497.6633670000001
 20
2167.338197999999
 30
0.0
 11
3109.6633670000001
 21
2167.338197999999
 31
0.0
  0
LINE
  5
7A6D
  8
1
  6
CONTINUOUS
 10
3497.6633670000001
 20
2247.3381979999999
 30
0.0
 11
2973.6633670000001
 21
2247.3381979999999
 31
0.0
  0
LINE
  5
7A6E
  8
1
  6
CONTINUOUS
 10
3480.6633670000001
 20
2887.3381979999999
 30
0.0
 11
3126.6633670000001
 21
2887.3381979999999
 31
0.0
  0
LINE
  5
7A6F
  8
1
  6
CONTINUOUS
 10
3453.6633670000001
 20
2247.3381979999999
 30
0.0
 11
3153.6633670000001
 21
2247.3381979999999
 31
0.0
  0
LINE
  5
7A70
  8
1
  6
CONTINUOUS
 10
3453.6633670000001
 20
2867.3381979999999
 30
0.0
 11
3153.6633670000001
 21
2867.3381979999999
 31
0.0
  0
LINE
  5
7A71
  8
1
  6
CONTINUOUS
 10
3109.6633670000001
 20
2080.3381979999999
 30
0.0
 11
3497.6633670000001
 21
2080.3381979999999
 31
0.0
  0
LINE
  5
7A72
  8
1
  6
CONTINUOUS
 10
3109.6633670000001
 20
2145.3381979999999
 30
0.0
 11
3497.6633670000001
 21
2145.3381979999999
 31
0.0
  0
LINE
  5
7A73
  8
1
  6
CONTINUOUS
 10
1937.0545509999999
 20
2492.238198
 30
0.0
 11
1392.8245509999999
 21
2315.278198
 31
0.0
  0
LINE
  5
7A74
  8
1
  6
CONTINUOUS
 10
1347.954551
 20
2426.258198
 30
0.0
 11
1862.284551
 21
2677.2081979999998
 31
0.0
  0
LINE
  5
7A75
  8
1
  6
CONTINUOUS
 10
2166.1345510000001
 20
2167.338197999999
 30
0.0
 11
1166.134550999999
 21
2167.338197999999
 31
0.0
  0
LINE
  5
7A76
  8
1
  6
CONTINUOUS
 10
1891.6345510000001
 20
2902.3381979999999
 30
0.0
 11
1211.634550999999
 21
2497.3381979999999
 31
0.0
  0
LINE
  5
7A77
  8
1
  6
CONTINUOUS
 10
1918.134550999999
 20
2867.3381979999999
 30
0.0
 11
1518.274551
 21
2867.3381979999999
 31
0.0
  0
LINE
  5
7A78
  8
1
  6
CONTINUOUS
 10
1166.134550999999
 20
2247.3381979999999
 30
0.0
 11
2206.1345510000001
 21
2247.3381979999999
 31
0.0
  0
ARC
  5
7A79
  8
1
  6
CONTINUOUS
 10
1879.1345510000001
 20
2614.3381979999999
 30
0.0
 40
360.00999999999988
 50
184.2999999999999
 51
275.82999999999993
  0
LINE
  5
7A7A
  8
1
  6
CONTINUOUS
 10
1945.1345510000001
 20
2887.3381979999999
 30
0.0
 11
1491.1345510000001
 21
2887.3381979999999
 31
0.0
  0
LINE
  5
7A7B
  8
1
  6
CONTINUOUS
 10
1166.134550999999
 20
2080.3381979999999
 30
0.0
 11
2166.1345510000001
 21
2080.3381979999999
 31
0.0
  0
LINE
  5
7A7C
  8
1
  6
CONTINUOUS
 10
1166.134550999999
 20
2145.3381979999999
 30
0.0
 11
2166.1345510000001
 21
2145.3381979999999
 31
0.0
  0
LINE
  5
7A7D
  8
1
  6
CONTINUOUS
 10
1166.134550999999
 20
2145.3381979999999
 30
0.0
 11
1166.134550999999
 21
2080.3381979999999
 31
0.0
  0
LINE
  5
7A7E
  8
1
  6
CONTINUOUS
 10
1166.134550999999
 20
2247.3381979999999
 30
0.0
 11
1166.134550999999
 21
2167.338197999999
 31
0.0
  0
LINE
  5
7A7F
  8
1
  6
CONTINUOUS
 10
1211.634550999999
 20
2247.3381979999999
 30
0.0
 11
1211.634550999999
 21
2497.3381979999999
 31
0.0
  0
LINE
  5
7A80
  8
2
  6
CENTER
 10
1314.2645509999991
 20
2372.3381979999999
 30
0.0
 11
1434.264551
 21
2372.3381979999999
 31
0.0
  0
ARC
  5
7A81
  8
1
  6
CONTINUOUS
 10
1374.264551
 20
2372.3381979999999
 30
0.0
 40
101.0
 50
322.88
 51
217.12
  0
CIRCLE
  5
7A82
  8
1
  6
CONTINUOUS
 10
1374.264551
 20
2372.3381979999999
 30
0.0
 40
60.0
  0
LINE
  5
7A83
  8
2
  6
CENTER
 10
1374.264551
 20
2312.3381979999999
 30
0.0
 11
1374.264551
 21
2432.3381979999999
 31
0.0
  0
LINE
  5
7A84
  8
1
  6
CONTINUOUS
 10
1274.264551
 20
2284.338197999999
 30
0.0
 11
1293.734551
 21
2311.378197999999
 31
0.0
  0
LINE
  5
7A85
  8
1
  6
CONTINUOUS
 10
1274.264551
 20
2247.3381979999999
 30
0.0
 11
1274.264551
 21
2284.338197999999
 31
0.0
  0
LINE
  5
7A86
  8
1
  6
CONTINUOUS
 10
1474.264551
 20
2247.3381979999999
 30
0.0
 11
1474.264551
 21
2284.338197999999
 31
0.0
  0
LINE
  5
7A87
  8
1
  6
CONTINUOUS
 10
1474.264551
 20
2284.338197999999
 30
0.0
 11
1454.8045509999999
 21
2311.378197999999
 31
0.0
  0
LINE
  5
7A88
  8
1
  6
CONTINUOUS
 10
1518.1345510000001
 20
2887.3381979999999
 30
0.0
 11
1520.134550999999
 21
2587.3381979999999
 31
0.0
  0
CIRCLE
  5
7A89
  8
1
  6
CONTINUOUS
 10
1906.1345510000001
 20
2587.3381979999999
 30
0.0
 40
240.0
  0
LINE
  5
7A8A
  8
1
  6
CONTINUOUS
 10
1606.1345510000001
 20
2857.3381979999999
 30
0.0
 11
2206.1345510000001
 21
2857.3381979999999
 31
0.0
  0
ARC
  5
7A8B
  8
1
  6
CONTINUOUS
 10
1923.1345510000001
 20
2570.338197999999
 30
0.0
 40
271.43999999999988
 50
7.3099999999999996
 51
91.060000000000016
  0
ARC
  5
7A8C
  8
1
  6
CONTINUOUS
 10
1884.1345510000001
 20
2565.3381979999999
 30
0.0
 40
310.75999999999999
 50
275.82999999999993
 51
7.3099999999999996
  0
LINE
  5
7A8D
  8
1
  6
CONTINUOUS
 10
2081.6345510000001
 20
2247.3381979999999
 30
0.0
 11
2081.6345510000001
 21
2787.3381979999999
 31
0.0
  0
CIRCLE
  5
7A8E
  8
1
  6
CONTINUOUS
 10
1906.1345510000001
 20
2587.3381979999999
 30
0.0
 40
100.0
  0
LINE
  5
7A8F
  8
1
  6
CONTINUOUS
 10
1606.1345510000001
 20
2857.3381979999999
 30
0.0
 11
1606.1345510000001
 21
2247.3381979999999
 31
0.0
  0
LINE
  5
7A90
  8
2
  6
CENTER
 10
1906.1345510000001
 20
4185.2112619333066
 30
0.0
 11
1906.1345510000001
 21
3566.6261340378969
 31
0.0
  0
CIRCLE
  5
7A91
  8
1
  6
CONTINUOUS
 10
1906.1345510000001
 20
2587.3381979999999
 30
0.0
 40
215.0
  0
LINE
  5
7A92
  8
2
  6
CENTER
 10
1236.0627632222349
 20
2587.3381979999999
 30
0.0
 11
2335.3076740000001
 21
2587.3381979999999
 31
0.0
  0
LINE
  5
7A93
  8
1
  6
CONTINUOUS
 10
2081.6345510000001
 20
2787.3381979999999
 30
0.0
 11
1891.6345510000001
 21
2902.3381979999999
 31
0.0
  0
LINE
  5
7A94
  8
1
  6
CONTINUOUS
 10
1918.134550999999
 20
2841.7281979999998
 30
0.0
 11
1918.134550999999
 21
2887.3381979999999
 31
0.0
  0
LINE
  5
7A95
  8
1
  6
CONTINUOUS
 10
2206.1345510000001
 20
2857.3381979999999
 30
0.0
 11
2206.1345510000001
 21
2247.3381979999999
 31
0.0
  0
LINE
  5
7A96
  8
1
  6
CONTINUOUS
 10
2973.6633670000001
 20
2247.3381979999999
 30
0.0
 11
2973.6633670000001
 21
2902.3381979999999
 31
0.0
  0
LINE
  5
7A97
  8
1
  6
CONTINUOUS
 10
3073.6633670000001
 20
2247.3381979999999
 30
0.0
 11
3073.6633670000001
 21
2902.3381979999999
 31
0.0
  0
LINE
  5
7A98
  8
1
  6
CONTINUOUS
 10
3048.6633670000001
 20
2485.5681979999999
 30
0.0
 11
3048.6633670000001
 21
2689.0981980000001
 31
0.0
  0
LINE
  5
7A99
  8
1
  6
CONTINUOUS
 10
2998.6633670000001
 20
2485.5681979999999
 30
0.0
 11
2998.6633670000001
 21
2689.0981980000001
 31
0.0
  0
LINE
  5
7A9A
  8
1
  6
CONTINUOUS
 10
3153.6633670000001
 20
2247.3381979999999
 30
0.0
 11
3153.6633670000001
 21
2887.3381979999999
 31
0.0
  0
LINE
  5
7A9D
  8
1
  6
CONTINUOUS
 10
2166.1345510000001
 20
2145.3381979999999
 30
0.0
 11
2166.1345510000001
 21
2080.3381979999999
 31
0.0
  0
LINE
  5
7AA0
  8
1
  6
CONTINUOUS
 10
2166.1345510000001
 20
2247.3381979999999
 30
0.0
 11
2166.1345510000001
 21
2167.338197999999
 31
0.0
  0
LINE
  5
7AA1
  8
1
  6
CONTINUOUS
 10
3109.6633670000001
 20
2145.3381979999999
 30
0.0
 11
3109.6633670000001
 21
2080.3381979999999
 31
0.0
  0
LINE
  5
7AA2
  8
1
  6
CONTINUOUS
 10
3048.6633670000001
 20
2386.3381979999999
 30
0.0
 11
3153.6633670000001
 21
2386.3381979999999
 31
0.0
  0
LINE
  5
7AA3
  8
1
  6
CONTINUOUS
 10
3048.6633670000001
 20
2358.338197999999
 30
0.0
 11
3153.6633670000001
 21
2358.338197999999
 31
0.0
  0
LINE
  5
7AA4
  8
1
  6
CONTINUOUS
 10
3048.6633670000001
 20
2575.0981980000001
 30
0.0
 11
3153.6633670000001
 21
2575.0981980000001
 31
0.0
  0
LINE
  5
7AA5
  8
1
  6
CONTINUOUS
 10
3048.6633670000001
 20
2312.3381979999999
 30
0.0
 11
3048.6633670000001
 21
2432.3381979999999
 31
0.0
  0
LINE
  5
7AA6
  8
1
  6
CONTINUOUS
 10
2998.6633670000001
 20
2312.3381979999999
 30
0.0
 11
2998.6633670000001
 21
2432.3381979999999
 31
0.0
  0
LINE
  5
7AA7
  8
1
  6
CONTINUOUS
 10
2998.6633670000001
 20
2432.3381979999999
 30
0.0
 11
3048.6633670000001
 21
2432.3381979999999
 31
0.0
  0
LINE
  5
7AA8
  8
1
  6
CONTINUOUS
 10
2998.6633670000001
 20
2312.3381979999999
 30
0.0
 11
3048.6633670000001
 21
2312.3381979999999
 31
0.0
  0
LINE
  5
7AA9
  8
1
  6
CONTINUOUS
 10
2998.6633670000001
 20
2485.5681979999999
 30
0.0
 11
3048.6633670000001
 21
2485.5681979999999
 31
0.0
  0
LINE
  5
7AAA
  8
1
  6
CONTINUOUS
 10
3109.6633670000001
 20
2247.3381979999999
 30
0.0
 11
3109.6633670000001
 21
2167.338197999999
 31
0.0
  0
LINE
  5
7AAB
  8
1
  6
CONTINUOUS
 10
2973.6633670000001
 20
2902.3381979999999
 30
0.0
 11
3073.6633670000001
 21
2902.3381979999999
 31
0.0
  0
LINE
  5
7AAC
  8
1
  6
CONTINUOUS
 10
3048.6633670000001
 20
2603.0981980000001
 30
0.0
 11
3153.6633670000001
 21
2603.0981980000001
 31
0.0
  0
LINE
  5
7AAD
  8
1
  6
CONTINUOUS
 10
2998.6633670000001
 20
2689.0981980000001
 30
0.0
 11
3048.6633670000001
 21
2689.0981980000001
 31
0.0
  0
LINE
  5
7AAE
  8
1
  6
CONTINUOUS
 10
1892.1345510000001
 20
3758.108197999999
 30
0.0
 11
1388.264551
 21
3758.108197999999
 31
0.0
  0
LINE
  5
7AAF
  8
1
  6
CONTINUOUS
 10
1517.064550999999
 20
3802.108197999999
 30
0.0
 11
2206.1345510000001
 21
3802.108197999999
 31
0.0
  0
LINE
  5
7AB0
  8
1
  6
CONTINUOUS
 10
1517.064550999999
 20
4102.108197999999
 30
0.0
 11
2206.1345510000001
 21
4102.108197999999
 31
0.0
  0
LINE
  5
7AB1
  8
1
  6
CONTINUOUS
 10
2166.1345510000001
 20
4146.1081979999999
 30
0.0
 11
1166.134550999999
 21
4146.1081979999999
 31
0.0
  0
LINE
  5
7AB2
  8
1
  6
CONTINUOUS
 10
1211.634550999999
 20
3622.108197999999
 30
0.0
 11
2081.6345510000001
 21
3622.108197999999
 31
0.0
  0
LINE
  5
7AB3
  8
1
  6
CONTINUOUS
 10
1211.634550999999
 20
3722.108197999999
 30
0.0
 11
2081.6345510000001
 21
3722.108197999999
 31
0.0
  0
LINE
  5
7AB4
  8
1
  6
CONTINUOUS
 10
1917.0645509999999
 20
3802.108197999999
 30
0.0
 11
1517.064550999999
 21
4102.108197999999
 31
0.0
  0
LINE
  5
7AB5
  8
1
  6
CONTINUOUS
 10
1517.064550999999
 20
3802.108197999999
 30
0.0
 11
1917.0645509999999
 21
4102.108197999999
 31
0.0
  0
LINE
  5
7AB6
  8
1
  6
CONTINUOUS
 10
1360.264551
 20
3758.108197999999
 30
0.0
 11
1166.134550999999
 21
3758.108197999999
 31
0.0
  0
LINE
  5
7AB7
  8
1
  6
CONTINUOUS
 10
1166.134550999999
 20
4146.1081979999999
 30
0.0
 11
1166.134550999999
 21
3758.108197999999
 31
0.0
  0
LINE
  5
7AB8
  8
1
  6
CONTINUOUS
 10
1211.634550999999
 20
3622.108197999999
 30
0.0
 11
1211.634550999999
 21
3722.108197999999
 31
0.0
  0
LINE
  5
7AB9
  8
1
  6
CONTINUOUS
 10
1517.064550999999
 20
3802.108197999999
 30
0.0
 11
1517.064550999999
 21
4102.108197999999
 31
0.0
  0
LINE
  5
7ABA
  8
1
  6
CONTINUOUS
 10
1475.264551
 20
3788.8281979999988
 30
0.0
 11
1475.264551
 21
4031.508198
 31
0.0
  0
LINE
  5
7ABB
  8
1
  6
CONTINUOUS
 10
1273.264551
 20
3788.8281979999988
 30
0.0
 11
1273.264551
 21
4031.508198
 31
0.0
  0
LINE
  5
7ABC
  8
1
  6
CONTINUOUS
 10
1475.264551
 20
3788.8281979999988
 30
0.0
 11
1273.264551
 21
3788.8281979999988
 31
0.0
  0
LINE
  5
7ABD
  8
1
  6
CONTINUOUS
 10
1314.2645509999991
 20
3647.108197999999
 30
0.0
 11
1434.264551
 21
3647.108197999999
 31
0.0
  0
LINE
  5
7ABE
  8
1
  6
CONTINUOUS
 10
1314.2645509999991
 20
3697.108197999999
 30
0.0
 11
1434.264551
 21
3697.108197999999
 31
0.0
  0
LINE
  5
7ABF
  8
1
  6
CONTINUOUS
 10
1360.264551
 20
3697.108197999999
 30
0.0
 11
1360.264551
 21
3788.8281979999988
 31
0.0
  0
LINE
  5
7AC0
  8
1
  6
CONTINUOUS
 10
1314.2645509999991
 20
3647.108197999999
 30
0.0
 11
1314.2645509999991
 21
3697.108197999999
 31
0.0
  0
LINE
  5
7AC1
  8
1
  6
CONTINUOUS
 10
1388.264551
 20
3697.108197999999
 30
0.0
 11
1388.264551
 21
3788.8281979999988
 31
0.0
  0
LINE
  5
7AC2
  8
1
  6
CONTINUOUS
 10
1434.264551
 20
3647.108197999999
 30
0.0
 11
1434.264551
 21
3697.108197999999
 31
0.0
  0
LINE
  5
7AC3
  8
1
  6
CONTINUOUS
 10
1475.264551
 20
4031.508198
 30
0.0
 11
1273.264551
 21
4031.508198
 31
0.0
  0
LINE
  5
7AC4
  8
1
  6
CONTINUOUS
 10
2166.1345510000001
 20
3758.108197999999
 30
0.0
 11
1920.1345510000001
 21
3758.108197999999
 31
0.0
  0
LINE
  5
7AC5
  8
1
  6
CONTINUOUS
 10
1804.3745510000001
 20
3647.108197999999
 30
0.0
 11
2007.9045510000001
 21
3647.108197999999
 31
0.0
  0
LINE
  5
7AC6
  8
1
  6
CONTINUOUS
 10
1804.3745510000001
 20
3697.108197999999
 30
0.0
 11
2007.9045510000001
 21
3697.108197999999
 31
0.0
  0
LINE
  5
7AC7
  8
1
  6
CONTINUOUS
 10
1804.3745510000001
 20
3647.108197999999
 30
0.0
 11
1804.3745510000001
 21
3697.108197999999
 31
0.0
  0
LINE
  5
7AC8
  8
1
  6
CONTINUOUS
 10
1917.0645509999999
 20
3802.108197999999
 30
0.0
 11
1917.0645509999999
 21
4102.108197999999
 31
0.0
  0
LINE
  5
7AC9
  8
1
  6
CONTINUOUS
 10
1893.9045510000001
 20
3697.108197999999
 30
0.0
 11
1893.9045510000001
 21
3802.108197999999
 31
0.0
  0
LINE
  5
7ACA
  8
1
  6
CONTINUOUS
 10
1921.9045510000001
 20
3697.108197999999
 30
0.0
 11
1921.9045510000001
 21
3802.108197999999
 31
0.0
  0
LINE
  5
7ACB
  8
1
  6
CONTINUOUS
 10
2081.6345510000001
 20
3622.108197999999
 30
0.0
 11
2081.6345510000001
 21
3722.108197999999
 31
0.0
  0
LINE
  5
7ACC
  8
1
  6
CONTINUOUS
 10
2007.9045510000001
 20
3647.108197999999
 30
0.0
 11
2007.9045510000001
 21
3697.108197999999
 31
0.0
  0
LINE
  5
7ACD
  8
1
  6
CONTINUOUS
 10
2206.1345510000001
 20
3802.108197999999
 30
0.0
 11
2206.1345510000001
 21
4102.108197999999
 31
0.0
  0
LINE
  5
7ACE
  8
1
  6
CONTINUOUS
 10
2166.1345510000001
 20
3802.108197999999
 30
0.0
 11
2166.1345510000001
 21
3758.108197999999
 31
0.0
  0
LINE
  5
7ACF
  8
1
  6
CONTINUOUS
 10
2166.1345510000001
 20
4146.1081979999999
 30
0.0
 11
2166.1345510000001
 21
4102.108197999999
 31
0.0
  0
LINE
  5
7AD0
  8
1
  6
CONTINUOUS
 10
3453.6633670000001
 20
2247.3381979999999
 30
0.0
 11
3453.6633670000001
 21
2887.3381979999999
 31
0.0
  0
LINE
  5
7AD1
  8
1
  6
CONTINUOUS
 10
3497.6633670000001
 20
2145.3381979999999
 30
0.0
 11
3497.6633670000001
 21
2080.3381979999999
 31
0.0
  0
LINE
  5
7AD2
  8
1
  6
CONTINUOUS
 10
3497.6633670000001
 20
2247.3381979999999
 30
0.0
 11
3497.6633670000001
 21
2167.338197999999
 31
0.0
  0
LINE
  5
7AD3
  8
2
  6
CENTER
 10
2282.0260795744139
 20
3952.108197999999
 30
0.0
 11
1103.7244969999999
 21
3952.108197999999
 31
0.0
  0
LINE
  5
7AD4
  8
2
  6
CENTER
 10
3303.6633670000001
 20
2953.3162992659759
 30
0.0
 11
3303.6633670000001
 21
1943.3464202467401
 31
0.0
  0
LINE
  5
7AD5
  8
2
  6
CENTER
 10
2916.4202189306779
 20
2587.3381979999999
 30
0.0
 11
3493.366250999999
 21
2587.3381979999999
 31
0.0
  0
LINE
  5
7AD6
  8
2
  6
CENTER
 10
1906.1345510000001
 20
3047.9274969267499
 30
0.0
 11
1906.1345510000001
 21
2023.771119532418
 31
0.0
  0
LINE
  5
7AD7
  8
4
  6
CONTINUOUS
 10
3700.0
 20
1000.0
 30
0.0
 11
3700.0
 21
600.0
 31
0.0
  0
LINE
  5
7AD8
  8
4
  6
CONTINUOUS
 10
2300.0
 20
1000.0
 30
0.0
 11
2300.0
 21
600.0
 31
0.0
  0
LINE
  5
7AD9
  8
4
  6
CONTINUOUS
 10
1300.0
 20
1000.0
 30
0.0
 11
1300.0
 21
600.0
 31
0.0
  0
LINE
  5
7ADC
  8
4
  6
CONTINUOUS
 10
1300.0
 20
600.0
 30
0.0
 11
3700.0
 21
600.0
 31
0.0
  0
LINE
  5
7ADD
  8
4
  6
CONTINUOUS
 10
1300.0
 20
800.0
 30
0.0
 11
3700.0
 21
800.0
 31
0.0
  0
TEXT
  5
7ADE
  8
4
  6
CONTINUOUS
 10
1377.004162
 20
863.086052
 30
0.0
 40
100.0
  1
機器名称
  0
TEXT
  5
7ADF
  8
4
  6
CONTINUOUS
 10
1372.516212
 20
643.29031299999986
 30
0.0
 40
100.0
  1
機器型番
  0
TEXT
  5
7AE0
  8
4
  6
CONTINUOUS
 10
2355.3574910000002
 20
845.14353800000015
 30
0.0
 40
100.0
  1
ミツヤ多翼送風機
  0
TEXT
  5
7AE1
  8
4
  6
CONTINUOUS
 10
2373.3089909999999
 20
634.31916899999999
 30
0.0
 40
100.0
  1
MFE#2 1/2-4
  0
TEXT
  5
7AE3
  8
4
  6
CONTINUOUS
 10
1499.4009140000001
 20
4766.8576830000002
 30
0.0
 40
108.0
  1
床置防振ベット
  0
TEXT
  5
7AE4
  8
4
  6
CONTINUOUS
 10
632.33518700000002
 20
5067.7619520000007
 30
0.0
 40
144.0
  1
ベルト駆動式片吸込両持排煙ファン
  0
LINE
  5
7AE5
  8
4
  6
CONTINUOUS
 10
500.0
 20
4938.8175090000004
 30
0.0
 11
3700.0
 21
4938.8175090000004
 31
0.0
  0
LINE
  5
7AE6
  8
4
  6
CONTINUOUS
 10
500.0
 20
5338.8175090000004
 30
0.0
 11
3700.0
 21
5338.8175090000004
 31
0.0
  0
LINE
  5
7AE7
  8
4
  6
CONTINUOUS
 10
1300.0
 20
1000.0
 30
0.0
 11
3700.0
 21
1000.0
 31
0.0
  0
LINE
  5
7AE8
  8
4
  6
CONTINUOUS
 10
500.0
 20
5338.8175090000004
 30
0.0
 11
500.0
 21
4938.8175090000004
 31
0.0
  0
TEXT
  5
7AE9
  8
4
  6
CONTINUOUS
 10
649.83829600000001
 20
4764.6389549999994
 30
0.0
 40
108.0
  1
右回転上向
  0
TEXT
  5
7AEA
  8
4
  6
CONTINUOUS
 10
2937.9391179999998
 20
5412.122163
 30
0.0
 40
112.0
  1
No.
  0
TEXT
  5
7AEB
  8
4
  6
CONTINUOUS
 10
2622.5921250000001
 20
4766.8576830000002
 30
0.0
 40
108.0
  1
縮尺：1/20
  0
LINE
  5
7AEC
  8
4
  6
CONTINUOUS
 10
3700.0
 20
5338.8175090000004
 30
0.0
 11
3700.0
 21
4938.8175090000004
 31
0.0
  0
LINE
  5
7AEE
  8
4
  6
CONTINUOUS
 10
2881.234845
 20
5362.5271659999999
 30
0.0
 11
2881.234845
 21
5573.3045229999998
 31
0.0
  0
LINE
  5
7AEF
  8
4
  6
CONTINUOUS
 10
2881.234845
 20
5573.3045229999998
 30
0.0
 11
3700.0
 21
5573.3045229999998
 31
0.0
  0
LINE
  5
7AF0
  8
4
  6
CONTINUOUS
 10
3700.0
 20
5573.3045229999998
 30
0.0
 11
3700.0
 21
5362.5271659999999
 31
0.0
  0
LINE
  5
7AF1
  8
4
  6
CONTINUOUS
 10
3700.0
 20
5362.5271659999999
 30
0.0
 11
2881.234845
 21
5362.5271659999999
 31
0.0
  0
DIMENSION
  5
7B09
  8
3
  6
CONTINUOUS
  2
*D1
 10
1918.134550999999
 20
2966.4559949999998
 30
0.0
 11
1730.4345310000001
 21
2966.4559949999998
 31
0.0
 70
   128
 13
1518.1345510000001
 23
2887.3381979999999
 33
0.0
 14
1918.134550999999
 24
2887.3381979999999
 34
0.0
1001
ACAD
1000
DSTYLE
1002
{
1070
   287
1070
     3
1070
   287
1070
     3
1070
    40
1040
20.0
1070
   143
1040
0.039
1070
   172
1070
     1
1070
   271
1070
     0
1070
   279
1070
     0
1070
   288
1070
     1
1002
}
  0
DIMENSION
  5
7B16
  8
3
  6
CONTINUOUS
  2
*D2
 10
1906.1345510000001
 20
3081.9431169999998
 30
0.0
 11
1725.4096770000001
 21
3081.9431169999998
 31
0.0
 70
   128
 13
1518.1345510000001
 23
2966.4559949999998
 33
0.0
 14
1906.1345510000001
 24
3041.4453150626591
 34
0.0
1001
ACAD
1000
DSTYLE
1002
{
1070
   287
1070
     3
1070
   287
1070
     3
1070
    40
1040
20.0
1070
   143
1040
0.039
1070
   172
1070
     1
1070
   271
1070
     0
1070
   279
1070
     0
1070
   288
1070
     1
1002
}
  0
DIMENSION
  5
7B22
  8
3
  6
CONTINUOUS
  2
*D3
 10
2206.1345510000001
 20
3081.9431169999998
 30
0.0
 11
2056.1345510000001
 21
3131.9431169999998
 31
0.0
 70
     0
 13
1906.1345510000001
 23
3045.1582101421859
 33
0.0
 14
2206.1345510000001
 24
2857.3381979999999
 34
0.0
1001
ACAD
1000
DSTYLE
1002
{
1070
   287
1070
     4
1070
   287
1070
     4
1070
    40
1040
20.0
1070
    75
1070
     1
1070
   143
1040
0.039
1070
   172
1070
     1
1070
   271
1070
     0
1070
   279
1070
     1
1070
   288
1070
     1
1002
}
  0
DIMENSION
  5
7B2F
  8
3
  6
CONTINUOUS
  2
*D4
 10
2343.4669009999998
 20
2587.3381979999999
 30
0.0
 11
2343.4669009999998
 21
2750.195340857143
 31
0.0
 70
   128
 13
1945.1345510000001
 23
2887.3381979999999
 33
0.0
 14
2305.3670105974738
 24
2587.3381979999999
 34
0.0
 50
90.0
1001
ACAD
1000
DSTYLE
1002
{
1070
   287
1070
     3
1070
   287
1070
     3
1070
    40
1040
20.0
1070
   143
1040
0.039
1070
   172
1070
     1
1070
   271
1070
     0
1070
   279
1070
     0
1070
   288
1070
     1
1002
}
  0
DIMENSION
  5
7B61
  8
3
  6
CONTINUOUS
  2
*D5
 10
2343.4669009999998
 20
2167.338197999999
 30
0.0
 11
2293.4669009999989
 21
2377.3381979999999
 31
0.0
 70
     0
 13
2312.7865622836789
 23
2587.3381979999999
 33
0.0
 14
2166.1345510000001
 24
2167.338197999999
 34
0.0
 50
90.0
1001
ACAD
1000
DSTYLE
1002
{
1070
   287
1070
     4
1070
   287
1070
     4
1070
    40
1040
20.0
1070
    75
1070
     1
1070
   143
1040
0.039
1070
   172
1070
     1
1070
   271
1070
     0
1070
   279
1070
     1
1070
   288
1070
     1
1002
}
  0
DIMENSION
  5
7B7A
  8
3
  6
CONTINUOUS
  2
*D6
 10
2484.162835000001
 20
2080.3381979999999
 30
0.0
 11
2484.1628350000001
 21
2519.5479730000002
 31
0.0
 70
   128
 13
1955.1345510000001
 23
2887.3381979999999
 33
0.0
 14
2166.1345510000001
 24
2080.3381979999999
 34
0.0
 50
90.0
1001
ACAD
1000
DSTYLE
1002
{
1070
   287
1070
     3
1070
   287
1070
     3
1070
    40
1040
20.0
1070
   143
1040
0.039
1070
   172
1070
     1
1070
   271
1070
     0
1070
   279
1070
     0
1070
   288
1070
     1
1002
}
  0
DIMENSION
  5
7B89
  8
3
  6
CONTINUOUS
  2
*D7
 10
3303.6633670000001
 20
1913.125984
 30
0.0
 11
3206.6633670000001
 21
1968.540761722202
 31
0.0
 70
   128
 13
3109.6633670000001
 23
2080.3381979999999
 33
0.0
 14
3303.6633670000001
 24
1943.3464202467401
 34
0.0
1001
ACAD
1000
DSTYLE
1002
{
1070
   288
1070
     1
1070
   172
1070
     1
1070
    40
1040
20.0
1070
   271
1070
     0
1070
   143
1040
0.039
1002
}
  0
DIMENSION
  5
7B97
  8
3
  6
CONTINUOUS
  2
*D8
 10
3497.6633670000001
 20
1913.125984
 30
0.0
 11
3398.863981
 21
1913.096585999999
 31
0.0
 70
   128
 13
3303.6633670000001
 23
1943.3464202467401
 33
0.0
 14
3497.6633670000001
 24
2080.3381979999999
 34
0.0
1001
ACAD
1000
DSTYLE
1002
{
1070
   287
1070
     4
1070
   287
1070
     4
1070
    40
1040
20.0
1070
    75
1070
     1
1070
   143
1040
0.039
1070
   172
1070
     1
1070
   271
1070
     0
1070
   279
1070
     1
1070
   288
1070
     1
1002
}
  0
DIMENSION
  5
7BA4
  8
3
  6
CONTINUOUS
  2
*D9
 10
3153.6633670000001
 20
2963.406160999999
 30
0.0
 11
3290.8062239999999
 21
2963.406160999999
 31
0.0
 70
   128
 13
3453.6633670000001
 23
2887.3381979999999
 33
0.0
 14
3153.6633670000001
 24
2887.3381979999999
 34
0.0
1001
ACAD
1000
DSTYLE
1002
{
1070
   287
1070
     3
1070
   287
1070
     3
1070
    40
1040
20.0
1070
   143
1040
0.039
1070
   172
1070
     1
1070
   271
1070
     0
1070
   279
1070
     0
1070
   288
1070
     1
1002
}
  0
DIMENSION
  5
7BBE
  8
3
  6
CONTINUOUS
  2
*D10
 10
2973.6633670000001
 20
3096.9836129999999
 30
0.0
 11
3138.6633670000001
 21
3196.9836129999999
 31
0.0
 70
     0
  1
MAX\P380
 13
3303.6633670000001
 23
3051.9296711046768
 33
0.0
 14
2973.6633670000001
 24
2902.3381979999999
 34
0.0
1001
ACAD
1000
DSTYLE
1002
{
1070
   287
1070
     4
1070
   287
1070
     4
1070
    40
1040
20.0
1070
    75
1070
     1
1070
   143
1040
0.039
1070
   172
1070
     1
1070
   271
1070
     0
1070
   279
1070
     1
1070
   288
1070
     1
1002
}
  0
DIMENSION
  5
7BCD
  8
3
  6
CONTINUOUS
  2
*D11
 10
3584.6061790000008
 20
2372.3381979999999
 30
0.0
 11
3584.6061789999999
 21
2594.8656639999999
 31
0.0
 70
   128
 13
3453.6633670000001
 23
2802.3381979999999
 33
0.0
 14
3453.6633670000001
 24
2372.3381979999999
 34
0.0
 50
90.0
1001
ACAD
1000
DSTYLE
1002
{
1070
   287
1070
     3
1070
   287
1070
     3
1070
     3
1000
φ<>
1070
    40
1040
20.0
1070
   143
1040
0.039
1070
   172
1070
     1
1070
   271
1070
     0
1070
   279
1070
     0
1070
   288
1070
     1
1002
}
  0
DIMENSION
  5
7BDA
  8
3
  6
CONTINUOUS
  2
*D12
 10
2166.1345510000001
 20
4295.1754879999999
 30
0.0
 11
1660.086552
 21
4295.1754879999999
 31
0.0
 70
   128
 13
1166.134550999999
 23
4146.1081979999999
 33
0.0
 14
2166.1345510000001
 24
4146.1081979999999
 34
0.0
1001
ACAD
1000
DSTYLE
1002
{
1070
   287
1070
     3
1070
   287
1070
     3
1070
    40
1040
20.0
1070
   143
1040
0.039
1070
   172
1070
     1
1070
   271
1070
     0
1070
   279
1070
     0
1070
   288
1070
     1
1002
}
  0
DIMENSION
  5
7BE7
  8
3
  6
CONTINUOUS
  2
*D13
 10
1043.665223
 20
3758.108197999999
 30
0.0
 11
1043.665223
 21
3953.2924739999999
 31
0.0
 70
   128
 13
1166.134550999999
 23
4146.1081979999999
 33
0.0
 14
1166.134550999999
 24
3758.108197999999
 34
0.0
 50
90.0
1001
ACAD
1000
DSTYLE
1002
{
1070
   287
1070
     3
1070
   287
1070
     3
1070
    40
1040
20.0
1070
   143
1040
0.039
1070
   172
1070
     1
1070
   271
1070
     0
1070
   279
1070
     0
1070
   288
1070
     1
1002
}
  0
DIMENSION
  5
7BFE
  8
3
  6
CONTINUOUS
  2
*D14
 10
1906.1345510000001
 20
1905.571126999999
 30
0.0
 11
1517.9916459999999
 21
1905.571126999999
 31
0.0
 70
   128
 13
1166.134550999999
 23
2080.3381979999999
 33
0.0
 14
1906.1345510000001
 24
2023.771119532418
 34
0.0
1001
ACAD
1000
DSTYLE
1002
{
1070
   287
1070
     3
1070
   287
1070
     3
1070
    40
1040
20.0
1070
   143
1040
0.039
1070
   172
1070
     1
1070
   271
1070
     0
1070
   279
1070
     0
1070
   288
1070
     1
1002
}
  0
DIMENSION
  5
7C0C
  8
3
  6
CONTINUOUS
  2
*D15
 10
2166.1345510000001
 20
1905.571126999999
 30
0.0
 11
2052.0259679999999
 21
1905.127037
 31
0.0
 70
   128
 13
1906.1345510000001
 23
2023.771119532418
 33
0.0
 14
2166.1345510000001
 24
2080.3381979999999
 34
0.0
1001
ACAD
1000
DSTYLE
1002
{
1070
   287
1070
     4
1070
   287
1070
     4
1070
    40
1040
20.0
1070
    75
1070
     1
1070
   143
1040
0.039
1070
   172
1070
     1
1070
   271
1070
     0
1070
   279
1070
     1
1070
   288
1070
     1
1002
}
  0
DIMENSION
  5
7C42
  8
3
  6
CONTINUOUS
  2
*D16
 10
2343.4669009999998
 20
2080.3381979999999
 30
0.0
 11
2343.4669009999998
 21
1931.766769428571
 31
0.0
 70
   128
 13
2166.1345510000001
 23
2167.338197999999
 33
0.0
 14
2166.1345510000001
 24
2080.3381979999999
 34
0.0
 50
90.0
1001
ACAD
1000
DSTYLE
1002
{
1070
   287
1070
     3
1070
   287
1070
     3
1070
    40
1040
20.0
1070
   143
1040
0.039
1070
   172
1070
     1
1070
   271
1070
     0
1070
   279
1070
     0
1070
   288
1070
     1
1002
}
  0
LINE
  5
7C9E
  8
1
  6
CONTINUOUS
 10
3454.6633670000001
 20
2372.3381979999999
 30
0.0
 11
3454.6633670000001
 21
2802.3381979999999
 31
0.0
  0
DIMENSION
  5
7CBC
  8
3
  6
CONTINUOUS
  2
*D17
 10
3454.6633670000001
 20
3096.9836129999999
 30
0.0
 11
3375.8906124233099
 21
3149.3869612985491
 31
0.0
 70
   128
 13
3303.6633670000001
 23
3051.9296711046768
 33
0.0
 14
3454.6633670000001
 24
2802.3381979999999
 34
0.0
1001
ACAD
1000
DSTYLE
1002
{
1070
   288
1070
     1
1070
   172
1070
     1
1070
    40
1040
20.0
1070
   271
1070
     0
1070
   143
1040
0.039
1002
}
  0
DIMENSION
  5
7E02
  8
3
  2
*D18
 10
1166.134550999999
 20
3209.1022016664601
 30
0.0
 11
1728.2719062671711
 21
3209.1022016664601
 31
0.0
 70
   128
 13
2206.1345510000001
 23
2857.3381979999999
 33
0.0
 14
1166.134550999999
 24
2247.3381979999999
 34
0.0
1001
ACAD
1000
DSTYLE
1002
{
1070
   287
1070
     3
1070
   287
1070
     3
1070
    40
1040
20.0
1070
   143
1040
0.039
1070
   172
1070
     1
1070
   271
1070
     0
1070
   279
1070
     0
1070
   288
1070
     1
1002
}
  0
ENDSEC
  0
EOF
