  0
SECTION
  2
HEADER
  9
$ACADVER
  1
AC1009
  9
$INSBASE
 10
0.0
 20
0.0
 30
0.0
  9
$EXTMIN
 10
500.0
 20
600.0
 30
0.0
  9
$EXTMAX
 10
3706.7622130000009
 20
5573.3045229999998
 30
0.0
  9
$LIMMIN
 10
0.0
 20
0.0
  9
$LIMMAX
 10
297.0
 20
210.0
  9
$ORTHOMODE
 70
     0
  9
$REGENMODE
 70
     1
  9
$FILLMODE
 70
     0
  9
$QTEXTMODE
 70
     0
  9
$MIRRTEXT
 70
     1
  9
$DRAGMODE
 70
     2
  9
$LTSCALE
 40
100.0
  9
$OSMODE
 70
    37
  9
$ATTMODE
 70
     1
  9
$TEXTSIZE
 40
180.0
  9
$TRACEWID
 40
0.05
  9
$TEXTSTYLE
  7
STANDARD
  9
$CLAYER
  8
4
  9
$CELTYPE
  6
BYLAYER
  9
$CECOLOR
 62
   256
  9
$DIMSCALE
 40
20.0
  9
$DIMASZ
 40
2.0
  9
$DIMEXO
 40
0.5
  9
$DIMDLI
 40
10.0
  9
$DIMRND
 40
0.0
  9
$DIMDLE
 40
0.0
  9
$DIMEXE
 40
1.0
  9
$DIMTP
 40
1.0
  9
$DIMTM
 40
1.0
  9
$DIMTXT
 40
3.0
  9
$DIMCEN
 40
0.0
  9
$DIMTSZ
 40
0.0
  9
$DIMTOL
 70
     0
  9
$DIMLIM
 70
     0
  9
$DIMTIH
 70
     0
  9
$DIMTOH
 70
     0
  9
$DIMSE1
 70
     0
  9
$DIMSE2
 70
     0
  9
$DIMTAD
 70
     1
  9
$DIMZIN
 70
     8
  9
$DIMBLK
  1

  9
$DIMASO
 70
     1
  9
$DIMSHO
 70
     1
  9
$DIMPOST
  1

  9
$DIMAPOST
  1

  9
$DIMALT
 70
     0
  9
$DIMALTD
 70
     2
  9
$DIMALTF
 40
0.039
  9
$DIMLFAC
 40
1.0
  9
$DIMTOFL
 70
     1
  9
$DIMTVP
 40
0.0
  9
$DIMTIX
 70
     0
  9
$DIMSOXD
 70
     0
  9
$DIMSAH
 70
     1
  9
$DIMBLK1
  1
OPEN
  9
$DIMBLK2
  1
OPEN
  9
$DIMSTYLE
  2
IGA
  9
$DIMCLRD
 70
     0
  9
$DIMCLRE
 70
     0
  9
$DIMCLRT
 70
     0
  9
$DIMTFAC
 40
10.0
  9
$DIMGAP
 40
1.0
  9
$LUNITS
 70
     2
  9
$LUPREC
 70
     3
  9
$SKETCHINC
 40
0.1
  9
$FILLETRAD
 40
50.0
  9
$AUNITS
 70
     0
  9
$AUPREC
 70
     0
  9
$MENU
  1
acad
  9
$ELEVATION
 40
0.0
  9
$PELEVATION
 40
0.0
  9
$THICKNESS
 40
0.0
  9
$LIMCHECK
 70
     0
  9
$BLIPMODE
 70
     0
  9
$CHAMFERA
 40
0.5
  9
$CHAMFERB
 40
0.5
  9
$SKPOLY
 70
     0
  9
$TDCREATE
 40
2450724.4517525458
  9
$TDUPDATE
 40
2454953.8344855672
  9
$TDINDWG
 40
0.0048190394
  9
$TDUSRTIMER
 40
0.0048190394
  9
$USRTIMER
 70
     1
  9
$ANGBASE
 50
0.0
  9
$ANGDIR
 70
     0
  9
$PDMODE
 70
     0
  9
$PDSIZE
 40
0.0
  9
$PLINEWID
 40
0.0
  9
$COORDS
 70
     1
  9
$SPLFRAME
 70
     0
  9
$SPLINETYPE
 70
     6
  9
$SPLINESEGS
 70
     8
  9
$ATTDIA
 70
     0
  9
$ATTREQ
 70
     1
  9
$HANDLING
 70
 10241
  9
$HANDSEED
  5
7E89
  9
$SURFTAB1
 70
     6
  9
$SURFTAB2
 70
     6
  9
$SURFTYPE
 70
     6
  9
$SURFU
 70
     6
  9
$SURFV
 70
     6
  9
$UCSNAME
  2

  9
$UCSORG
 10
0.0
 20
0.0
 30
0.0
  9
$UCSXDIR
 10
1.0
 20
0.0
 30
0.0
  9
$UCSYDIR
 10
0.0
 20
1.0
 30
0.0
  9
$PUCSNAME
  2

  9
$PUCSORG
 10
0.0
 20
0.0
 30
0.0
  9
$PUCSXDIR
 10
1.0
 20
0.0
 30
0.0
  9
$PUCSYDIR
 10
0.0
 20
1.0
 30
0.0
  9
$USERI1
 70
     0
  9
$USERI2
 70
     0
  9
$USERI3
 70
     0
  9
$USERI4
 70
     0
  9
$USERI5
 70
     0
  9
$USERR1
 40
0.0
  9
$USERR2
 40
0.0
  9
$USERR3
 40
0.0
  9
$USERR4
 40
0.0
  9
$USERR5
 40
0.0
  9
$WORLDVIEW
 70
     1
  9
$SHADEDGE
 70
     3
  9
$SHADEDIF
 70
    70
  9
$TILEMODE
 70
     1
  9
$MAXACTVP
 70
    16
  9
$PLIMCHECK
 70
     0
  9
$PEXTMIN
 10
1.0000000000000000E+020
 20
1.0000000000000000E+020
 30
1.0000000000000000E+020
  9
$PEXTMAX
 10
-1.0000000000000000E+020
 20
-1.0000000000000000E+020
 30
-1.0000000000000000E+020
  9
$PLIMMIN
 10
0.0
 20
0.0
  9
$PLIMMAX
 10
12.0
 20
9.0
  9
$UNITMODE
 70
     0
  9
$VISRETAIN
 70
     0
  9
$PLINEGEN
 70
     0
  9
$PSLTSCALE
 70
     1
  0
ENDSEC
  0
SECTION
  2
TABLES
  0
TABLE
  2
VPORT
 70
     2
  0
VPORT
  2
*ACTIVE
 70
     0
 10
0.0
 20
0.0
 11
1.0
 21
1.0
 12
5831.5648609518266
 22
3864.477021176112
 13
0.0
 23
0.0
 14
10.0
 24
10.0
 15
10.0
 25
10.0
 16
0.0
 26
0.0
 36
1.0
 17
0.0
 27
0.0
 37
0.0
 40
7720.861765592721
 41
1.5051150895140659
 42
50.0
 43
0.0
 44
0.0
 50
0.0
 51
0.0
 71
     0
 72
   100
 73
     1
 74
     0
 75
     0
 76
     0
 77
     0
 78
     0
  0
ENDTAB
  0
TABLE
  2
LTYPE
 70
     2
  0
LTYPE
  2
CONTINUOUS
 70
     0
  3
Solid line
 72
    65
 73
     0
 40
0.0
  0
LTYPE
  2
CENTER
 70
     0
  3
____ _ ____ _ ____ _ ____ _ ____ _ ____ _ ____ 
 72
    65
 73
     4
 40
2.0
 49
1.25
 49
-0.25
 49
0.25
 49
-0.25
  0
ENDTAB
  0
TABLE
  2
LAYER
 70
     6
  0
LAYER
  2
0
 70
     0
 62
     7
  6
CONTINUOUS
  0
LAYER
  2
3
 70
     0
 62
     2
  6
CONTINUOUS
  0
LAYER
  2
2
 70
     0
 62
     3
  6
CENTER
  0
LAYER
  2
1
 70
     0
 62
     4
  6
CONTINUOUS
  0
LAYER
  2
4
 70
     0
 62
     7
  6
CONTINUOUS
  0
LAYER
  2
DEFPOINTS
 70
     0
 62
     7
  6
CONTINUOUS
  0
ENDTAB
  0
TABLE
  2
STYLE
 70
     1
  0
STYLE
  2
STANDARD
 70
     0
 40
0.0
 41
1.0
 50
0.0
 71
     0
 42
180.0
  3
simplex.shx
  4
extfont.shx
  0
ENDTAB
  0
TABLE
  2
VIEW
 70
     0
  0
ENDTAB
  0
TABLE
  2
UCS
 70
     0
  0
ENDTAB
  0
TABLE
  2
APPID
 70
     1
  0
APPID
  2
ACAD
 70
     0
  0
ENDTAB
  0
TABLE
  2
DIMSTYLE
 70
     1
  0
DIMSTYLE
  2
IGA
 70
     0
  3

  4

  5

  6
OPEN
  7
OPEN
 40
2.0
 41
2.0
 42
0.5
 43
10.0
 44
1.0
 45
0.0
 46
0.0
 47
1.0
 48
1.0
140
3.0
141
0.0
142
0.0
143
0.03937
144
1.0
145
0.0
146
10.0
147
1.0
 71
     0
 72
     0
 73
     0
 74
     0
 75
     0
 76
     0
 77
     1
 78
     8
170
     0
171
     2
172
     0
173
     1
174
     0
175
     0
176
     0
177
     0
178
     0
  0
ENDTAB
  0
ENDSEC
  0
SECTION
  2
BLOCKS
  0
BLOCK
  8
0
  2
$MODEL_SPACE
 70
     0
 10
0.0
 20
0.0
 30
0.0
  3
$MODEL_SPACE
  1

  0
ENDBLK
  5
1B
  8
0
  0
BLOCK
 67
     1
  8
0
  2
$PAPER_SPACE
 70
     0
 10
0.0
 20
0.0
 30
0.0
  3
$PAPER_SPACE
  1

  0
ENDBLK
  5
18
 67
     1
  8
0
  0
BLOCK
  8
0
  2
_OPEN
 70
     0
 10
0.0
 20
0.0
 30
0.0
  3
_OPEN
  1

  0
LINE
  5
7AE0
  8
0
  6
BYBLOCK
 62
     0
 10
-1.0
 20
0.166667
 30
0.0
 11
0.0
 21
0.0
 31
0.0
  0
LINE
  5
7AE1
  8
0
  6
BYBLOCK
 62
     0
 10
0.0
 20
0.0
 30
0.0
 11
-1.0
 21
-0.166667
 31
0.0
  0
LINE
  5
7AE2
  8
0
  6
BYBLOCK
 62
     0
 10
0.0
 20
0.0
 30
0.0
 11
-1.0
 21
0.0
 31
0.0
  0
ENDBLK
  5
7AE3
  8
0
  0
BLOCK
  8
0
  2
*D1
 70
     1
 10
0.0
 20
0.0
 30
0.0
  3
*D1
  1

  0
LINE
  5
7DEB
  8
3
  6
CONTINUOUS
 62
     0
 10
2122.175162
 20
2338.342944
 30
0.0
 11
2269.7530489999999
 21
2338.342944
 31
0.0
  0
LINE
  5
7DEC
  8
3
  6
CONTINUOUS
 62
     0
 10
2122.175162
 20
1938.342944
 30
0.0
 11
2269.7530489999999
 21
1938.342944
 31
0.0
  0
LINE
  5
7DED
  8
3
  6
CONTINUOUS
 62
     0
 10
2249.7530489999999
 20
2298.342944
 30
0.0
 11
2249.7530489999999
 21
1978.342944
 31
0.0
  0
INSERT
  5
7DEE
  8
3
  6
CONTINUOUS
 62
     0
  2
_OPEN
 10
2249.7530489999999
 20
2338.342944
 30
0.0
 41
40.0
 42
40.0
 43
40.0
 50
90.0
  0
INSERT
  5
7DEF
  8
3
  6
CONTINUOUS
 62
     0
  2
_OPEN
 10
2249.7530489999999
 20
1938.342944
 30
0.0
 41
40.0
 42
40.0
 43
40.0
 50
270.0
  0
TEXT
  8
3
  40
60
  5
7E78
  62
0
  72
0
  71
0
 10
2079.75
 20
2019.61
 30
0.000000
  1
400
  0
POINT
  5
7DF1
  8
DEFPOINTS
  6
CONTINUOUS
 62
     0
 10
2112.175162
 20
2338.342944
 30
0.0
  0
POINT
  5
7DF2
  8
DEFPOINTS
  6
CONTINUOUS
 62
     0
 10
2112.175162
 20
1938.342944
 30
0.0
  0
POINT
  5
7DF3
  8
DEFPOINTS
  6
CONTINUOUS
 62
     0
 10
2249.7530489999999
 20
1938.342944
 30
0.0
  0
ENDBLK
  5
7AF0
  8
0
  0
BLOCK
  8
0
  2
*D2
 70
     1
 10
0.0
 20
0.0
 30
0.0
  3
*D2
  1

  0
LINE
  5
7DF4
  8
3
  6
CONTINUOUS
 62
     0
 10
2199.8704694993162
 20
2326.3429439999991
 30
0.0
 11
2395.3987179999999
 21
2326.3429439999991
 31
0.0
  0
LINE
  5
7DF5
  8
3
  6
CONTINUOUS
 62
     0
 10
2122.175162
 20
1938.342944
 30
0.0
 11
2395.3987179999999
 21
1938.342944
 31
0.0
  0
LINE
  5
7DF6
  8
3
  6
CONTINUOUS
 62
     0
 10
2375.3987179999999
 20
2286.342944
 30
0.0
 11
2375.3987179999999
 21
1978.342944
 31
0.0
  0
INSERT
  5
7DF7
  8
3
  6
CONTINUOUS
 62
     0
  2
_OPEN
 10
2375.3987179999999
 20
2326.3429439999991
 30
0.0
 41
40.0
 42
40.0
 43
40.0
 50
90.0
  0
INSERT
  5
7DF8
  8
3
  6
CONTINUOUS
 62
     0
  2
_OPEN
 10
2375.3987179999999
 20
1938.342944
 30
0.0
 41
40.0
 42
40.0
 43
40.0
 50
270.0
  0
TEXT
  8
3
  40
60
  5
7E79
  62
0
  72
0
  71
0
 10
2205.40
 20
2010.95
 30
0.000000
  1
388
  0
POINT
  5
7DFA
  8
DEFPOINTS
  6
CONTINUOUS
 62
     0
 10
2189.8704694993162
 20
2326.3429439999991
 30
0.0
  0
POINT
  5
7DFB
  8
DEFPOINTS
  6
CONTINUOUS
 62
     0
 10
2112.175162
 20
1938.342944
 30
0.0
  0
POINT
  5
7DFC
  8
DEFPOINTS
  6
CONTINUOUS
 62
     0
 10
2375.3987179999999
 20
1938.342944
 30
0.0
  0
ENDBLK
  5
7C8C
  8
0
  0
BLOCK
  8
0
  2
*D3
 70
     1
 10
0.0
 20
0.0
 30
0.0
  3
*D3
  1

  0
LINE
  5
7DFD
  8
3
  6
CONTINUOUS
 62
     0
 10
2082.1751619999991
 20
1811.342944
 30
0.0
 11
2512.3791639999999
 21
1811.342944
 31
0.0
  0
LINE
  5
7DFE
  8
3
  6
CONTINUOUS
 62
     0
 10
2199.8704694993162
 20
2326.3429439999991
 30
0.0
 11
2512.3791639999999
 21
2326.3429439999991
 31
0.0
  0
LINE
  5
7DFF
  8
3
  6
CONTINUOUS
 62
     0
 10
2492.3791639999999
 20
1851.342944
 30
0.0
 11
2492.3791639999999
 21
2286.342944
 31
0.0
  0
INSERT
  5
7E00
  8
3
  6
CONTINUOUS
 62
     0
  2
_OPEN
 10
2492.3791639999999
 20
1811.342944
 30
0.0
 41
40.0
 42
40.0
 43
40.0
 50
270.0
  0
INSERT
  5
7E01
  8
3
  6
CONTINUOUS
 62
     0
  2
_OPEN
 10
2492.3791639999999
 20
2326.3429439999991
 30
0.0
 41
40.0
 42
40.0
 43
40.0
 50
90.0
  0
TEXT
  8
3
  40
60
  5
7E7A
  62
0
  72
0
  71
0
 10
2322.38
 20
2015.28
 30
0.000000
  1
515
  0
POINT
  5
7E03
  8
DEFPOINTS
  6
CONTINUOUS
 62
     0
 10
2072.175162
 20
1811.342944
 30
0.0
  0
POINT
  5
7E04
  8
DEFPOINTS
  6
CONTINUOUS
 62
     0
 10
2189.8704694993162
 20
2326.3429439999991
 30
0.0
  0
POINT
  5
7E05
  8
DEFPOINTS
  6
CONTINUOUS
 62
     0
 10
2492.3791639999999
 20
2326.3429439999991
 30
0.0
  0
ENDBLK
  5
7C81
  8
0
  0
BLOCK
  8
0
  2
*D4
 70
     1
 10
0.0
 20
0.0
 30
0.0
  3
*D4
  1

  0
LINE
  5
7E06
  8
3
  6
CONTINUOUS
 62
     0
 10
2092.175162
 20
2626.342944
 30
0.0
 11
2512.3791639999999
 21
2626.342944
 31
0.0
  0
LINE
  5
7E07
  8
3
  6
CONTINUOUS
 62
     0
 10
2492.3791639999999
 20
2366.342944
 30
0.0
 11
2492.3791639999999
 21
2586.342944
 31
0.0
  0
INSERT
  5
7E08
  8
3
  6
CONTINUOUS
 62
     0
  2
_OPEN
 10
2492.3791639999999
 20
2326.3429439999991
 30
0.0
 41
40.0
 42
40.0
 43
40.0
 50
270.0
  0
INSERT
  5
7E09
  8
3
  6
CONTINUOUS
 62
     0
  2
_OPEN
 10
2492.3791639999999
 20
2626.342944
 30
0.0
 41
40.0
 42
40.0
 43
40.0
 50
90.0
  0
TEXT
  8
3
  40
60
  5
7E7B
  62
0
  72
0
  71
0
 10
2322.38
 20
2370.14
 30
0.000000
  1
300
  0
POINT
  5
7E0B
  8
DEFPOINTS
  6
CONTINUOUS
 62
     0
 10
2189.8704694993162
 20
2326.3429439999991
 30
0.0
  0
POINT
  5
7E0C
  8
DEFPOINTS
  6
CONTINUOUS
 62
     0
 10
2082.1751619999991
 20
2626.342944
 30
0.0
  0
POINT
  5
7E0D
  8
DEFPOINTS
  6
CONTINUOUS
 62
     0
 10
2492.3791639999999
 20
2626.342944
 30
0.0
  0
ENDBLK
  5
7C76
  8
0
  0
BLOCK
  8
0
  2
*D5
 70
     1
 10
0.0
 20
0.0
 30
0.0
  3
*D5
  1

  0
LINE
  5
7E0E
  8
3
  6
CONTINUOUS
 62
     0
 10
2092.175162
 20
2626.342944
 30
0.0
 11
2651.0226659999998
 21
2626.342944
 31
0.0
  0
LINE
  5
7E0F
  8
3
  6
CONTINUOUS
 62
     0
 10
2082.1751619999991
 20
1811.342944
 30
0.0
 11
2651.0226659999998
 21
1811.342944
 31
0.0
  0
LINE
  5
7E10
  8
3
  6
CONTINUOUS
 62
     0
 10
2631.0226659999998
 20
2586.342944
 30
0.0
 11
2631.0226659999998
 21
1851.3429439999991
 31
0.0
  0
INSERT
  5
7E11
  8
3
  6
CONTINUOUS
 62
     0
  2
_OPEN
 10
2631.0226659999998
 20
2626.342944
 30
0.0
 41
40.0
 42
40.0
 43
40.0
 50
90.0
  0
INSERT
  5
7E12
  8
3
  6
CONTINUOUS
 62
     0
  2
_OPEN
 10
2631.0226659999998
 20
1811.342944
 30
0.0
 41
40.0
 42
40.0
 43
40.0
 50
270.0
  0
TEXT
  8
3
  40
60
  5
7E7C
  62
0
  72
0
  71
0
 10
2461.02
 20
2140.84
 30
0.000000
  1
815
  0
POINT
  5
7E14
  8
DEFPOINTS
  6
CONTINUOUS
 62
     0
 10
2082.1751619999991
 20
2626.342944
 30
0.0
  0
POINT
  5
7E15
  8
DEFPOINTS
  6
CONTINUOUS
 62
     0
 10
2072.175162
 20
1811.342944
 30
0.0
  0
POINT
  5
7E16
  8
DEFPOINTS
  6
CONTINUOUS
 62
     0
 10
2631.0226659999998
 20
1811.342944
 30
0.0
  0
ENDBLK
  5
7B3B
  8
0
  0
BLOCK
  8
0
  2
*D6
 70
     1
 10
0.0
 20
0.0
 30
0.0
  3
*D6
  1

  0
LINE
  5
7CC6
  8
0
  6
BYBLOCK
 62
     0
 10
3206.0189070000001
 20
1801.342944
 30
0.0
 11
3206.0189070000001
 21
1655.5489500000001
 31
0.0
  0
LINE
  5
7CC7
  8
0
  6
BYBLOCK
 62
     0
 10
3400.0189070000001
 20
1708.930711773537
 30
0.0
 11
3400.0189070000001
 21
1655.5489500000001
 31
0.0
  0
LINE
  5
7CC8
  8
0
  6
BYBLOCK
 62
     0
 10
3246.0189069999992
 20
1675.5489500000001
 30
0.0
 11
3360.0189070000001
 21
1675.5489500000001
 31
0.0
  0
TEXT
  5
7CC9
  8
4
 62
     0
 10
3230.1617641428579
 20
1694.4958928321171
 30
0.0
 40
60.0
  1
194
  0
INSERT
  5
7CCA
  8
0
  6
BYBLOCK
 62
     0
  2
_OPEN
 10
3206.0189070000001
 20
1675.5489500000001
 30
0.0
 41
40.0
 42
40.0
 43
40.0
 50
180.0
  0
INSERT
  5
7CCB
  8
0
  6
BYBLOCK
 62
     0
  2
_OPEN
 10
3400.0189070000001
 20
1675.5489500000001
 30
0.0
 41
40.0
 42
40.0
 43
40.0
  0
POINT
  5
7CCC
  8
DEFPOINTS
  6
BYBLOCK
 62
     0
 10
3206.0189070000001
 20
1811.342944
 30
0.0
  0
POINT
  5
7CCD
  8
DEFPOINTS
  6
BYBLOCK
 62
     0
 10
3400.0189070000001
 20
1718.930711773537
 30
0.0
  0
POINT
  5
7CCE
  8
DEFPOINTS
  6
BYBLOCK
 62
     0
 10
3400.0189070000001
 20
1675.5489500000001
 30
0.0
  0
ENDBLK
  5
7CCF
  8
0
  0
BLOCK
  8
0
  2
*D7
 70
     1
 10
0.0
 20
0.0
 30
0.0
  3
*D7
  1

  0
LINE
  5
7E17
  8
3
  6
CONTINUOUS
 62
     0
 10
3594.0189070000001
 20
1801.342944
 30
0.0
 11
3594.0189070000001
 21
1655.5489500000001
 31
0.0
  0
LINE
  5
7E18
  8
3
  6
CONTINUOUS
 62
     0
 10
3440.0189070000001
 20
1675.5489500000001
 30
0.0
 11
3554.0189070000001
 21
1675.5489500000001
 31
0.0
  0
TEXT
  8
3
  40
60
  5
7E7D
  62
0
  72
0
  71
0
 10
3382.30
 20
1618.86
 30
0.000000
  1
194
  0
INSERT
  5
7E1A
  8
3
  6
CONTINUOUS
 62
     0
  2
_OPEN
 10
3400.0189070000001
 20
1675.5489500000001
 30
0.0
 41
40.0
 42
40.0
 43
40.0
 50
180.0
  0
INSERT
  5
7E1B
  8
3
  6
CONTINUOUS
 62
     0
  2
_OPEN
 10
3594.0189070000001
 20
1675.5489500000001
 30
0.0
 41
40.0
 42
40.0
 43
40.0
  0
POINT
  5
7E1C
  8
DEFPOINTS
  6
CONTINUOUS
 62
     0
 10
3400.0189070000001
 20
1715.542755690348
 30
0.0
  0
POINT
  5
7E1D
  8
DEFPOINTS
  6
CONTINUOUS
 62
     0
 10
3594.0189070000001
 20
1811.342944
 30
0.0
  0
POINT
  5
7E1E
  8
DEFPOINTS
  6
CONTINUOUS
 62
     0
 10
3594.0189070000001
 20
1675.5489500000001
 30
0.0
  0
ENDBLK
  5
7CC4
  8
0
  0
BLOCK
  8
0
  2
*D8
 70
     1
 10
0.0
 20
0.0
 30
0.0
  3
*D8
  1

  0
LINE
  5
7E1F
  8
3
  6
CONTINUOUS
 62
     0
 10
3250.0189070000001
 20
2661.4632469999988
 30
0.0
 11
3250.0189070000001
 21
2707.7815730000002
 31
0.0
  0
LINE
  5
7E20
  8
3
  6
CONTINUOUS
 62
     0
 10
3550.0189070000001
 20
2661.4632469999988
 30
0.0
 11
3550.0189070000001
 21
2707.7815730000002
 31
0.0
  0
LINE
  5
7E21
  8
3
  6
CONTINUOUS
 62
     0
 10
3210.0189070000001
 20
2687.7815730000002
 30
0.0
 11
3170.0189070000001
 21
2687.7815730000002
 31
0.0
  0
LINE
  5
7E22
  8
3
  6
CONTINUOUS
 62
     0
 10
3590.0189070000001
 20
2687.7815730000002
 30
0.0
 11
3630.0189070000001
 21
2687.7815730000002
 31
0.0
  0
LINE
  5
7E23
  8
3
  6
CONTINUOUS
 62
     0
 10
3250.0189070000001
 20
2687.7815730000002
 30
0.0
 11
3550.0189070000001
 21
2687.7815730000002
 31
0.0
  0
INSERT
  5
7E24
  8
3
  6
CONTINUOUS
 62
     0
  2
_OPEN
 10
3250.0189070000001
 20
2687.7815730000002
 30
0.0
 41
40.0
 42
40.0
 43
40.0
  0
INSERT
  5
7E25
  8
3
  6
CONTINUOUS
 62
     0
  2
_OPEN
 10
3550.0189070000001
 20
2687.7815730000002
 30
0.0
 41
40.0
 42
40.0
 43
40.0
 50
180.0
  0
TEXT
  8
3
  40
60
  5
7E7E
  62
0
  72
0
  71
0
 10
3267.16
 20
2631.58
 30
0.000000
  1
300
  0
POINT
  5
7E27
  8
DEFPOINTS
  6
CONTINUOUS
 62
     0
 10
3250.0189070000001
 20
2651.4632470000001
 30
0.0
  0
POINT
  5
7E28
  8
DEFPOINTS
  6
CONTINUOUS
 62
     0
 10
3550.0189070000001
 20
2651.4632470000001
 30
0.0
  0
POINT
  5
7E29
  8
DEFPOINTS
  6
CONTINUOUS
 62
     0
 10
3550.0189070000001
 20
2687.7815730000002
 30
0.0
  0
ENDBLK
  5
7B65
  8
0
  0
BLOCK
  8
0
  2
*D9
 70
     1
 10
0.0
 20
0.0
 30
0.0
  3
*D9
  1

  0
LINE
  5
7E2A
  8
3
  6
CONTINUOUS
 62
     0
 10
3070.0189070000001
 20
2556.342944
 30
0.0
 11
3070.0189070000001
 21
2834.1916739999988
 31
0.0
  0
LINE
  5
7E2B
  8
3
  6
CONTINUOUS
 62
     0
 10
3360.0189070000001
 20
2814.1916739999988
 30
0.0
 11
3110.0189070000001
 21
2814.1916739999988
 31
0.0
  0
INSERT
  5
7E2C
  8
3
  6
CONTINUOUS
 62
     0
  2
_OPEN
 10
3400.0189070000001
 20
2814.1916739999988
 30
0.0
 41
40.0
 42
40.0
 43
40.0
  0
INSERT
  5
7E2D
  8
3
  6
CONTINUOUS
 62
     0
  2
_OPEN
 10
3070.0189070000001
 20
2814.1916739999988
 30
0.0
 41
40.0
 42
40.0
 43
40.0
 50
180.0
  0
TEXT
  8
3
  40
60
  5
7E7F
  62
0
  72
0
  71
0
 10
3115.02
 20
2807.99
 30
0.000000
  1
MAX
  0
TEXT
  8
3
  40
60
  5
7E80
  62
0
  72
0
  71
0
 10
3115.02
 20
2729.99
 30
0.000000
  1
380
  0
POINT
  5
7E2F
  8
DEFPOINTS
  6
CONTINUOUS
 62
     0
 10
3400.0189070000001
 20
2789.3034309999989
 30
0.0
  0
POINT
  5
7E30
  8
DEFPOINTS
  6
CONTINUOUS
 62
     0
 10
3070.0189070000001
 20
2546.342944
 30
0.0
  0
POINT
  5
7E31
  8
DEFPOINTS
  6
CONTINUOUS
 62
     0
 10
3070.0189070000001
 20
2814.1916739999988
 30
0.0
  0
ENDBLK
  5
7D10
  8
0
  0
BLOCK
  8
0
  2
*D10
 70
     1
 10
0.0
 20
0.0
 30
0.0
  3
*D10
  1

  0
LINE
  5
7E32
  8
3
  6
CONTINUOUS
 62
     0
 10
3560.0189069999992
 20
2541.342944
 30
0.0
 11
3706.7622130000009
 21
2541.342944
 31
0.0
  0
LINE
  5
7E33
  8
3
  6
CONTINUOUS
 62
     0
 10
3560.0189069999992
 20
2111.3429439999991
 30
0.0
 11
3706.7622130000009
 21
2111.3429439999991
 31
0.0
  0
LINE
  5
7E34
  8
3
  6
CONTINUOUS
 62
     0
 10
3686.7622130000009
 20
2501.342944
 30
0.0
 11
3686.7622130000009
 21
2151.342944
 31
0.0
  0
INSERT
  5
7E35
  8
3
  6
CONTINUOUS
 62
     0
  2
_OPEN
 10
3686.7622130000009
 20
2541.342944
 30
0.0
 41
40.0
 42
40.0
 43
40.0
 50
90.0
  0
INSERT
  5
7E36
  8
3
  6
CONTINUOUS
 62
     0
  2
_OPEN
 10
3686.7622130000009
 20
2111.3429439999991
 30
0.0
 41
40.0
 42
40.0
 43
40.0
 50
270.0
  0
TEXT
  8
3
  40
60
  5
7E81
  62
0
  72
0
  71
0
 10
3516.76
 20
2178.29
 30
0.000000
  1
φ430
  0
POINT
  5
7E38
  8
DEFPOINTS
  6
CONTINUOUS
 62
     0
 10
3550.0189070000001
 20
2541.342944
 30
0.0
  0
POINT
  5
7E39
  8
DEFPOINTS
  6
CONTINUOUS
 62
     0
 10
3550.0189070000001
 20
2111.3429439999991
 30
0.0
  0
POINT
  5
7E3A
  8
DEFPOINTS
  6
CONTINUOUS
 62
     0
 10
3686.7622130000009
 20
2111.3429439999991
 30
0.0
  0
ENDBLK
  5
7CDA
  8
0
  0
BLOCK
  8
0
  2
*D11
 70
     1
 10
0.0
 20
0.0
 30
0.0
  3
*D11
  1

  0
LINE
  5
7E3B
  8
3
  6
CONTINUOUS
 62
     0
 10
1072.175162
 20
3800.112944
 30
0.0
 11
1072.175162
 21
3969.517186
 31
0.0
  0
LINE
  5
7E3C
  8
3
  6
CONTINUOUS
 62
     0
 10
2072.175162
 20
3800.112944
 30
0.0
 11
2072.175162
 21
3969.517186
 31
0.0
  0
LINE
  5
7E3D
  8
3
  6
CONTINUOUS
 62
     0
 10
1112.1751619999991
 20
3949.5171859999991
 30
0.0
 11
2032.175162
 21
3949.5171859999991
 31
0.0
  0
INSERT
  5
7E3E
  8
3
  6
CONTINUOUS
 62
     0
  2
_OPEN
 10
1072.175162
 20
3949.5171859999991
 30
0.0
 41
40.0
 42
40.0
 43
40.0
 50
180.0
  0
INSERT
  5
7E3F
  8
3
  6
CONTINUOUS
 62
     0
  2
_OPEN
 10
2072.175162
 20
3949.5171859999991
 30
0.0
 41
40.0
 42
40.0
 43
40.0
  0
TEXT
  8
3
  40
60
  5
7E82
  62
0
  72
0
  71
0
 10
1449.53
 20
3893.32
 30
0.000000
  1
1000
  0
POINT
  5
7E41
  8
DEFPOINTS
  6
CONTINUOUS
 62
     0
 10
1072.175162
 20
3790.112944
 30
0.0
  0
POINT
  5
7E42
  8
DEFPOINTS
  6
CONTINUOUS
 62
     0
 10
2072.175162
 20
3790.112944
 30
0.0
  0
POINT
  5
7E43
  8
DEFPOINTS
  6
CONTINUOUS
 62
     0
 10
2072.175162
 20
3949.5171859999991
 30
0.0
  0
ENDBLK
  5
7C58
  8
0
  0
BLOCK
  8
0
  2
*D12
 70
     1
 10
0.0
 20
0.0
 30
0.0
  3
*D12
  1

  0
LINE
  5
7E44
  8
3
  6
CONTINUOUS
 62
     0
 10
1062.1751619999991
 20
3790.112944
 30
0.0
 11
925.13268300000072
 21
3790.112944
 31
0.0
  0
LINE
  5
7E45
  8
3
  6
CONTINUOUS
 62
     0
 10
1062.1751619999991
 20
3402.112944
 30
0.0
 11
925.13268300000072
 21
3402.112944
 31
0.0
  0
LINE
  5
7E46
  8
3
  6
CONTINUOUS
 62
     0
 10
945.13268300000061
 20
3750.112944
 30
0.0
 11
945.13268300000061
 21
3442.1129440000009
 31
0.0
  0
INSERT
  5
7E47
  8
3
  6
CONTINUOUS
 62
     0
  2
_OPEN
 10
945.13268300000061
 20
3790.112944
 30
0.0
 41
40.0
 42
40.0
 43
40.0
 50
90.0
  0
INSERT
  5
7E48
  8
3
  6
CONTINUOUS
 62
     0
  2
_OPEN
 10
945.13268300000061
 20
3402.112944
 30
0.0
 41
40.0
 42
40.0
 43
40.0
 50
270.0
  0
TEXT
  8
3
  40
60
  5
7E83
  62
0
  72
0
  71
0
 10
775.133
 20
3475.60
 30
0.000000
  1
388
  0
POINT
  5
7E4A
  8
DEFPOINTS
  6
CONTINUOUS
 62
     0
 10
1072.175162
 20
3790.112944
 30
0.0
  0
POINT
  5
7E4B
  8
DEFPOINTS
  6
CONTINUOUS
 62
     0
 10
1072.175162
 20
3402.112944
 30
0.0
  0
POINT
  5
7E4C
  8
DEFPOINTS
  6
CONTINUOUS
 62
     0
 10
945.13268300000061
 20
3402.112944
 30
0.0
  0
ENDBLK
  5
7C03
  8
0
  0
BLOCK
  8
0
  2
*D13
 70
     1
 10
0.0
 20
0.0
 30
0.0
  3
*D13
  1

  0
LINE
  5
7E4D
  8
3
  6
CONTINUOUS
 62
     0
 10
1072.175162
 20
1801.342944
 30
0.0
 11
1072.175162
 21
1621.5515479999999
 31
0.0
  0
LINE
  5
7E4E
  8
3
  6
CONTINUOUS
 62
     0
 10
1812.175162
 20
1688.6613679999989
 30
0.0
 11
1812.175162
 21
1621.5515479999999
 31
0.0
  0
LINE
  5
7E4F
  8
3
  6
CONTINUOUS
 62
     0
 10
1112.1751619999991
 20
1641.5515479999999
 30
0.0
 11
1772.1751619999991
 21
1641.5515479999999
 31
0.0
  0
INSERT
  5
7E50
  8
3
  6
CONTINUOUS
 62
     0
  2
_OPEN
 10
1072.175162
 20
1641.5515479999999
 30
0.0
 41
40.0
 42
40.0
 43
40.0
 50
180.0
  0
INSERT
  5
7E51
  8
3
  6
CONTINUOUS
 62
     0
  2
_OPEN
 10
1812.175162
 20
1641.5515479999999
 30
0.0
 41
40.0
 42
40.0
 43
40.0
  0
TEXT
  8
3
  40
60
  5
7E84
  62
0
  72
0
  71
0
 10
1288.64
 20
1585.35
 30
0.000000
  1
740
  0
POINT
  5
7E53
  8
DEFPOINTS
  6
CONTINUOUS
 62
     0
 10
1072.175162
 20
1811.342944
 30
0.0
  0
POINT
  5
7E54
  8
DEFPOINTS
  6
CONTINUOUS
 62
     0
 10
1812.175162
 20
1698.661368
 30
0.0
  0
POINT
  5
7E55
  8
DEFPOINTS
  6
CONTINUOUS
 62
     0
 10
1812.175162
 20
1641.5515479999999
 30
0.0
  0
ENDBLK
  5
7BBA
  8
0
  0
BLOCK
  8
0
  2
*D14
 70
     1
 10
0.0
 20
0.0
 30
0.0
  3
*D14
  1

  0
LINE
  5
7E56
  8
3
  6
CONTINUOUS
 62
     0
 10
2072.175162
 20
1801.342944
 30
0.0
 11
2072.175162
 21
1621.5515479999999
 31
0.0
  0
LINE
  5
7E57
  8
3
  6
CONTINUOUS
 62
     0
 10
1852.1751619999991
 20
1641.5515479999999
 30
0.0
 11
2032.175162
 21
1641.5515479999999
 31
0.0
  0
TEXT
  8
3
  40
60
  5
7E85
  62
0
  72
0
  71
0
 10
1827.70
 20
1585.35
 30
0.000000
  1
260
  0
INSERT
  5
7E59
  8
3
  6
CONTINUOUS
 62
     0
  2
_OPEN
 10
1812.175162
 20
1641.5515479999999
 30
0.0
 41
40.0
 42
40.0
 43
40.0
 50
180.0
  0
INSERT
  5
7E5A
  8
3
  6
CONTINUOUS
 62
     0
  2
_OPEN
 10
2072.175162
 20
1641.5515479999999
 30
0.0
 41
40.0
 42
40.0
 43
40.0
  0
POINT
  5
7E5B
  8
DEFPOINTS
  6
CONTINUOUS
 62
     0
 10
1812.175162
 20
1698.661368
 30
0.0
  0
POINT
  5
7E5C
  8
DEFPOINTS
  6
CONTINUOUS
 62
     0
 10
2072.175162
 20
1811.342944
 30
0.0
  0
POINT
  5
7E5D
  8
DEFPOINTS
  6
CONTINUOUS
 62
     0
 10
2072.175162
 20
1641.5515479999999
 30
0.0
  0
ENDBLK
  5
7BDF
  8
0
  0
BLOCK
  8
0
  2
*D15
 70
     1
 10
0.0
 20
0.0
 30
0.0
  3
*D15
  1

  0
LINE
  5
7E5E
  8
3
  6
CONTINUOUS
 62
     0
 10
1480.1790619999999
 20
2336.342944
 30
0.0
 11
1480.1790619999999
 21
2761.2623100000001
 31
0.0
  0
LINE
  5
7E5F
  8
3
  6
CONTINUOUS
 62
     0
 10
1812.175162
 20
2636.342944
 30
0.0
 11
1812.175162
 21
2761.2623100000001
 31
0.0
  0
LINE
  5
7E60
  8
3
  6
CONTINUOUS
 62
     0
 10
1520.179061999999
 20
2741.2623100000001
 30
0.0
 11
1772.1751619999991
 21
2741.2623100000001
 31
0.0
  0
INSERT
  5
7E61
  8
3
  6
CONTINUOUS
 62
     0
  2
_OPEN
 10
1480.1790619999999
 20
2741.2623100000001
 30
0.0
 41
40.0
 42
40.0
 43
40.0
 50
180.0
  0
INSERT
  5
7E62
  8
3
  6
CONTINUOUS
 62
     0
  2
_OPEN
 10
1812.175162
 20
2741.2623100000001
 30
0.0
 41
40.0
 42
40.0
 43
40.0
  0
TEXT
  8
3
  40
60
  5
7E86
  62
0
  72
0
  71
0
 10
1528.84
 20
2685.06
 30
0.000000
  1
332
  0
POINT
  5
7E64
  8
DEFPOINTS
  6
CONTINUOUS
 62
     0
 10
1480.1790619999999
 20
2326.3429439999991
 30
0.0
  0
POINT
  5
7E65
  8
DEFPOINTS
  6
CONTINUOUS
 62
     0
 10
1812.175162
 20
2626.342944
 30
0.0
  0
POINT
  5
7E66
  8
DEFPOINTS
  6
CONTINUOUS
 62
     0
 10
1812.175162
 20
2741.2623100000001
 30
0.0
  0
ENDBLK
  5
7BEB
  8
0
  0
BLOCK
  8
0
  2
*D16
 70
     1
 10
0.0
 20
0.0
 30
0.0
  3
*D16
  1

  0
LINE
  5
7E67
  8
3
  6
CONTINUOUS
 62
     0
 10
2112.175162
 20
2375.342944
 30
0.0
 11
2112.175162
 21
2761.2623100000001
 31
0.0
  0
LINE
  5
7E68
  8
3
  6
CONTINUOUS
 62
     0
 10
1852.1751619999991
 20
2741.2623100000001
 30
0.0
 11
2072.175162
 21
2741.2623100000001
 31
0.0
  0
INSERT
  5
7E69
  8
3
  6
CONTINUOUS
 62
     0
  2
_OPEN
 10
1812.175162
 20
2741.2623100000001
 30
0.0
 41
40.0
 42
40.0
 43
40.0
 50
180.0
  0
INSERT
  5
7E6A
  8
3
  6
CONTINUOUS
 62
     0
  2
_OPEN
 10
2112.175162
 20
2741.2623100000001
 30
0.0
 41
40.0
 42
40.0
 43
40.0
  0
TEXT
  8
3
  40
60
  5
7E87
  62
0
  72
0
  71
0
 10
1842.18
 20
2685.06
 30
0.000000
  1
300
  0
POINT
  5
7E6C
  8
DEFPOINTS
  6
CONTINUOUS
 62
     0
 10
1812.175162
 20
2626.342944
 30
0.0
  0
POINT
  5
7E6D
  8
DEFPOINTS
  6
CONTINUOUS
 62
     0
 10
2112.175162
 20
2365.342944
 30
0.0
  0
POINT
  5
7E6E
  8
DEFPOINTS
  6
CONTINUOUS
 62
     0
 10
2112.175162
 20
2741.2623100000001
 30
0.0
  0
ENDBLK
  5
7BF7
  8
0
  0
BLOCK
  8
0
  2
*D17
 70
     1
 10
0.0
 20
0.0
 30
0.0
  3
*D17
  1

  0
LINE
  5
7CFD
  8
0
  6
BYBLOCK
 62
     0
 10
3400.0189070000001
 20
2799.3034309999998
 30
0.0
 11
3400.0189070000001
 21
2834.1916739999988
 31
0.0
  0
LINE
  5
7CFE
  8
0
  6
BYBLOCK
 62
     0
 10
3550.9676549999999
 20
2551.3429439999991
 30
0.0
 11
3550.9676549999999
 21
2834.1916739999988
 31
0.0
  0
LINE
  5
7CFF
  8
0
  6
BYBLOCK
 62
     0
 10
3440.0189070000001
 20
2814.1916739999988
 30
0.0
 11
3510.9676549999999
 21
2814.1916739999988
 31
0.0
  0
TEXT
  5
7D00
  8
4
 62
     0
 10
3413.0579133518131
 20
2832.2883559382549
 30
0.0
 40
60.0
  1
151
  0
INSERT
  5
7D01
  8
0
  6
BYBLOCK
 62
     0
  2
_OPEN
 10
3400.0189070000001
 20
2814.1916739999988
 30
0.0
 41
40.0
 42
40.0
 43
40.0
 50
180.0
  0
INSERT
  5
7D02
  8
0
  6
BYBLOCK
 62
     0
  2
_OPEN
 10
3550.9676549999999
 20
2814.1916739999988
 30
0.0
 41
40.0
 42
40.0
 43
40.0
  0
POINT
  5
7D03
  8
DEFPOINTS
  6
BYBLOCK
 62
     0
 10
3400.0189070000001
 20
2789.3034309999989
 30
0.0
  0
POINT
  5
7D04
  8
DEFPOINTS
  6
BYBLOCK
 62
     0
 10
3550.9676549999999
 20
2541.342944
 30
0.0
  0
POINT
  5
7D05
  8
DEFPOINTS
  6
BYBLOCK
 62
     0
 10
3550.9676549999999
 20
2814.1916739999988
 30
0.0
  0
ENDBLK
  5
7D06
  8
0
  0
BLOCK
  8
0
  2
*D18
 70
     1
 10
0.0
 20
0.0
 30
0.0
  3
*D18
  1

  0
LINE
  5
7E6F
  8
3
 62
     0
 10
2112.175162
 20
2375.342944
 30
0.0
 11
2112.175162
 21
2876.3782772549889
 31
0.0
  0
LINE
  5
7E70
  8
3
 62
     0
 10
1072.175162
 20
1901.342944
 30
0.0
 11
1072.175162
 21
2876.3782772549889
 31
0.0
  0
LINE
  5
7E71
  8
3
 62
     0
 10
2072.175162
 20
2856.3782772549889
 30
0.0
 11
1112.1751619999991
 21
2856.3782772549889
 31
0.0
  0
INSERT
  5
7E72
  8
3
 62
     0
  2
_OPEN
 10
2112.175162
 20
2856.3782772549889
 30
0.0
 41
40.0
 42
40.0
 43
40.0
  0
INSERT
  5
7E73
  8
3
 62
     0
  2
_OPEN
 10
1072.175162
 20
2856.3782772549889
 30
0.0
 41
40.0
 42
40.0
 43
40.0
 50
180.0
  0
TEXT
  8
3
  40
60
  5
7E88
  62
0
  72
0
  71
0
 10
1473.00
 20
2800.18
 30
0.000000
  1
1040
  0
POINT
  5
7E75
  8
DEFPOINTS
 62
     0
 10
2112.175162
 20
2365.342944
 30
0.0
  0
POINT
  5
7E76
  8
DEFPOINTS
 62
     0
 10
1072.175162
 20
1891.342944
 30
0.0
  0
POINT
  5
7E77
  8
DEFPOINTS
 62
     0
 10
1072.175162
 20
2856.3782772549889
 30
0.0
  0
ENDBLK
  5
7CA4
  8
0
  0
ENDSEC
  0
SECTION
  2
ENTITIES
  0
CIRCLE
  5
7A60
  8
1
  6
CONTINUOUS
 10
1812.175162
 20
2326.3429439999991
 30
0.0
 40
240.0
  0
LINE
  5
7A61
  8
1
  6
CONTINUOUS
 10
2082.1751619999991
 20
2626.342944
 30
0.0
 11
1542.175162
 21
2626.342944
 31
0.0
  0
ARC
  5
7A62
  8
1
  6
CONTINUOUS
 10
1790.1751619999991
 20
2304.342944
 30
0.0
 40
310.75999999999999
 50
82.689999999999998
 51
174.1699999999999
  0
ARC
  5
7A63
  8
1
  6
CONTINUOUS
 10
1839.175162
 20
2299.342944
 30
0.0
 40
360.00999999999988
 50
174.1699999999999
 51
265.69999999999999
  0
LINE
  5
7A64
  8
2
  6
CENTER
 10
3583.9277630000001
 20
2326.3429439999991
 30
0.0
 11
3026.340408
 21
2326.3429439999991
 31
0.0
  0
LINE
  5
7A65
  8
1
  6
CONTINUOUS
 10
2082.1751619999991
 20
1891.342944
 30
0.0
 11
1072.175162
 21
1891.342944
 31
0.0
  0
CIRCLE
  5
7A66
  8
1
  6
CONTINUOUS
 10
1812.175162
 20
2326.3429439999991
 30
0.0
 40
100.0
  0
LINE
  5
7A67
  8
1
  6
CONTINUOUS
 10
1797.675162
 20
2546.342944
 30
0.0
 11
1117.675162
 21
2141.342944
 31
0.0
  0
LINE
  5
7A68
  8
1
  6
CONTINUOUS
 10
2072.175162
 20
1811.342944
 30
0.0
 11
1072.175162
 21
1811.342944
 31
0.0
  0
LINE
  5
7A69
  8
1
  6
CONTINUOUS
 10
1856.8151620000001
 20
2236.8529440000002
 30
0.0
 11
1307.0951619999989
 21
1962.6529439999999
 31
0.0
  0
CIRCLE
  5
7A6A
  8
1
  6
CONTINUOUS
 10
1812.175162
 20
2326.3429439999991
 30
0.0
 40
215.0
  0
LINE
  5
7A6B
  8
1
  6
CONTINUOUS
 10
1072.175162
 20
1891.342944
 30
0.0
 11
1072.175162
 21
1811.342944
 31
0.0
  0
LINE
  5
7A6C
  8
1
  6
CONTINUOUS
 10
1117.675162
 20
1891.342944
 30
0.0
 11
1117.675162
 21
2141.342944
 31
0.0
  0
LINE
  5
7A6D
  8
1
  6
CONTINUOUS
 10
1246.795161999999
 20
2066.1129439999991
 30
0.0
 11
1756.3151620000001
 21
2409.282944
 31
0.0
  0
LINE
  5
7A6E
  8
1
  6
CONTINUOUS
 10
1542.175162
 20
1891.342944
 30
0.0
 11
1542.175162
 21
2626.342944
 31
0.0
  0
CIRCLE
  5
7A6F
  8
1
  6
CONTINUOUS
 10
1280.3051620000001
 20
2016.342944
 30
0.0
 40
60.0
  0
ARC
  5
7A70
  8
1
  6
CONTINUOUS
 10
1280.3051620000001
 20
2016.342944
 30
0.0
 40
101.0
 50
322.88
 51
217.12
  0
LINE
  5
7A71
  8
2
  6
CENTER
 10
1220.305161999999
 20
2016.342944
 30
0.0
 11
1340.305161999999
 21
2016.342944
 31
0.0
  0
LINE
  5
7A72
  8
1
  6
CONTINUOUS
 10
1180.3051620000001
 20
1891.342944
 30
0.0
 11
1180.3051620000001
 21
1928.342944
 31
0.0
  0
LINE
  5
7A73
  8
1
  6
CONTINUOUS
 10
1180.3051620000001
 20
1928.342944
 30
0.0
 11
1199.775161999999
 21
1955.3929439999999
 31
0.0
  0
LINE
  5
7A74
  8
2
  6
CENTER
 10
1280.3051620000001
 20
1956.342944
 30
0.0
 11
1280.3051620000001
 21
2076.3429439999991
 31
0.0
  0
LINE
  5
7A75
  8
1
  6
CONTINUOUS
 10
1380.305161999999
 20
1928.342944
 30
0.0
 11
1360.8451619999989
 21
1955.3929439999999
 31
0.0
  0
LINE
  5
7A76
  8
1
  6
CONTINUOUS
 10
1380.305161999999
 20
1891.342944
 30
0.0
 11
1380.305161999999
 21
1928.342944
 31
0.0
  0
LINE
  5
7A77
  8
1
  6
CONTINUOUS
 10
2092.175162
 20
2338.342944
 30
0.0
 11
2092.175162
 21
1938.4729440000001
 31
0.0
  0
LINE
  5
7A78
  8
1
  6
CONTINUOUS
 10
2082.1751619999991
 20
1891.342944
 30
0.0
 11
2082.1751619999991
 21
2626.342944
 31
0.0
  0
LINE
  5
7A79
  8
2
  6
CENTER
 10
1812.175162
 20
1673.5410779999991
 30
0.0
 11
1812.175162
 21
2754.2496390000001
 31
0.0
  0
LINE
  5
7A7A
  8
1
  6
CONTINUOUS
 10
2112.175162
 20
2365.342944
 30
0.0
 11
2112.175162
 21
1911.342944
 31
0.0
  0
LINE
  5
7A7B
  8
1
  6
CONTINUOUS
 10
1987.675162
 20
1891.342944
 30
0.0
 11
1987.675162
 21
2431.342944
 31
0.0
  0
LINE
  5
7A7C
  8
1
  6
CONTINUOUS
 10
2112.175162
 20
1938.342944
 30
0.0
 11
1812.175162
 21
1940.342944
 31
0.0
  0
LINE
  5
7A7D
  8
1
  6
CONTINUOUS
 10
2072.175162
 20
1891.342944
 30
0.0
 11
2072.175162
 21
1811.342944
 31
0.0
  0
ARC
  5
7A7E
  8
1
  6
CONTINUOUS
 10
1795.175162
 20
2343.342944
 30
0.0
 40
271.43999999999988
 50
358.93999999999988
 51
82.689999999999998
  0
LINE
  5
7A7F
  8
1
  6
CONTINUOUS
 10
2066.5751620000001
 20
2338.342944
 30
0.0
 11
2112.175162
 21
2338.342944
 31
0.0
  0
LINE
  5
7A80
  8
1
  6
CONTINUOUS
 10
1987.675162
 20
2431.342944
 30
0.0
 11
1797.675162
 21
2546.342944
 31
0.0
  0
LINE
  5
7A81
  8
1
  6
CONTINUOUS
 10
3095.0189070000001
 20
2224.572944
 30
0.0
 11
3095.0189070000001
 21
2428.1029440000002
 31
0.0
  0
LINE
  5
7A82
  8
1
  6
CONTINUOUS
 10
3145.0189070000001
 20
2224.572944
 30
0.0
 11
3145.0189070000001
 21
2428.1029440000002
 31
0.0
  0
LINE
  5
7A83
  8
1
  6
CONTINUOUS
 10
3170.0189070000001
 20
1891.342944
 30
0.0
 11
3170.0189070000001
 21
2546.342944
 31
0.0
  0
LINE
  5
7A84
  8
1
  6
CONTINUOUS
 10
3070.0189070000001
 20
1891.342944
 30
0.0
 11
3070.0189070000001
 21
2546.342944
 31
0.0
  0
LINE
  5
7A85
  8
1
  6
CONTINUOUS
 10
3550.0189070000001
 20
2626.342944
 30
0.0
 11
3550.0189070000001
 21
1891.342944
 31
0.0
  0
LINE
  5
7A86
  8
1
  6
CONTINUOUS
 10
3250.0189070000001
 20
2626.342944
 30
0.0
 11
3250.0189070000001
 21
1891.342944
 31
0.0
  0
LINE
  5
7A87
  8
1
  6
CONTINUOUS
 10
3550.0189070000001
 20
1938.342944
 30
0.0
 11
3250.0189070000001
 21
2338.342944
 31
0.0
  0
LINE
  5
7A88
  8
1
  6
CONTINUOUS
 10
3250.0189070000001
 20
1938.342944
 30
0.0
 11
3550.0189070000001
 21
2338.342944
 31
0.0
  0
LINE
  5
7A89
  8
1
  6
CONTINUOUS
 10
3594.0189070000001
 20
1891.342944
 30
0.0
 11
3070.0189070000001
 21
1891.342944
 31
0.0
  0
LINE
  5
7A8A
  8
1
  6
CONTINUOUS
 10
3594.0189070000001
 20
1811.342944
 30
0.0
 11
3206.0189070000001
 21
1811.342944
 31
0.0
  0
LINE
  5
7A8B
  8
1
  6
CONTINUOUS
 10
3250.0189070000001
 20
1938.342944
 30
0.0
 11
3550.0189070000001
 21
1938.342944
 31
0.0
  0
LINE
  5
7A8C
  8
1
  6
CONTINUOUS
 10
3206.0189070000001
 20
1891.342944
 30
0.0
 11
3206.0189070000001
 21
1811.342944
 31
0.0
  0
LINE
  5
7A8D
  8
1
  6
CONTINUOUS
 10
3145.0189070000001
 20
2002.342944
 30
0.0
 11
3250.0189070000001
 21
2002.342944
 31
0.0
  0
LINE
  5
7A8E
  8
1
  6
CONTINUOUS
 10
3145.0189070000001
 20
2030.342944
 30
0.0
 11
3250.0189070000001
 21
2030.342944
 31
0.0
  0
LINE
  5
7A8F
  8
1
  6
CONTINUOUS
 10
3095.0189070000001
 20
2224.572944
 30
0.0
 11
3145.0189070000001
 21
2224.572944
 31
0.0
  0
LINE
  5
7A90
  8
1
  6
CONTINUOUS
 10
3095.0189070000001
 20
1956.342944
 30
0.0
 11
3145.0189070000001
 21
1956.342944
 31
0.0
  0
LINE
  5
7A91
  8
1
  6
CONTINUOUS
 10
3095.0189070000001
 20
2076.3429439999991
 30
0.0
 11
3145.0189070000001
 21
2076.3429439999991
 31
0.0
  0
LINE
  5
7A92
  8
1
  6
CONTINUOUS
 10
3095.0189070000001
 20
1956.342944
 30
0.0
 11
3095.0189070000001
 21
2076.3429439999991
 31
0.0
  0
LINE
  5
7A93
  8
1
  6
CONTINUOUS
 10
3145.0189070000001
 20
1956.342944
 30
0.0
 11
3145.0189070000001
 21
2076.3429439999991
 31
0.0
  0
LINE
  5
7A94
  8
1
  6
CONTINUOUS
 10
3594.0189070000001
 20
1891.342944
 30
0.0
 11
3594.0189070000001
 21
1811.342944
 31
0.0
  0
LINE
  5
7A95
  8
1
  6
CONTINUOUS
 10
3250.0189070000001
 20
2626.342944
 30
0.0
 11
3550.0189070000001
 21
2626.342944
 31
0.0
  0
LINE
  5
7A96
  8
1
  6
CONTINUOUS
 10
3250.0189070000001
 20
2338.342944
 30
0.0
 11
3550.0189070000001
 21
2338.342944
 31
0.0
  0
LINE
  5
7A97
  8
1
  6
CONTINUOUS
 10
3145.0189070000001
 20
2314.1029440000002
 30
0.0
 11
3250.0189070000001
 21
2314.1029440000002
 31
0.0
  0
LINE
  5
7A98
  8
1
  6
CONTINUOUS
 10
3145.0189070000001
 20
2342.1029440000002
 30
0.0
 11
3250.0189070000001
 21
2342.1029440000002
 31
0.0
  0
LINE
  5
7A99
  8
1
  6
CONTINUOUS
 10
3095.0189070000001
 20
2428.1029440000002
 30
0.0
 11
3145.0189070000001
 21
2428.1029440000002
 31
0.0
  0
LINE
  5
7A9A
  8
1
  6
CONTINUOUS
 10
3070.0189070000001
 20
2546.342944
 30
0.0
 11
3170.0189070000001
 21
2546.342944
 31
0.0
  0
LINE
  5
7A9B
  8
1
  6
CONTINUOUS
 10
1708.655162
 20
3341.112944
 30
0.0
 11
1912.175162
 21
3341.112944
 31
0.0
  0
LINE
  5
7A9C
  8
1
  6
CONTINUOUS
 10
1708.655162
 20
3291.112944
 30
0.0
 11
1912.175162
 21
3291.112944
 31
0.0
  0
LINE
  5
7A9D
  8
1
  6
CONTINUOUS
 10
1117.675162
 20
3366.112944
 30
0.0
 11
1987.675162
 21
3366.112944
 31
0.0
  0
LINE
  5
7A9E
  8
1
  6
CONTINUOUS
 10
1117.675162
 20
3266.112944
 30
0.0
 11
1987.675162
 21
3266.112944
 31
0.0
  0
LINE
  5
7A9F
  8
1
  6
CONTINUOUS
 10
1472.175162
 20
3746.112944
 30
0.0
 11
2112.175162
 21
3746.112944
 31
0.0
  0
LINE
  5
7AA0
  8
1
  6
CONTINUOUS
 10
1472.175162
 20
3446.112944
 30
0.0
 11
2112.175162
 21
3446.112944
 31
0.0
  0
LINE
  5
7AA1
  8
1
  6
CONTINUOUS
 10
2072.175162
 20
3790.112944
 30
0.0
 11
1072.175162
 21
3790.112944
 31
0.0
  0
LINE
  5
7AA2
  8
1
  6
CONTINUOUS
 10
1798.175162
 20
3402.112944
 30
0.0
 11
1294.305161999999
 21
3402.112944
 31
0.0
  0
LINE
  5
7AA3
  8
1
  6
CONTINUOUS
 10
1266.3051620000001
 20
3402.112944
 30
0.0
 11
1072.175162
 21
3402.112944
 31
0.0
  0
LINE
  5
7AA4
  8
1
  6
CONTINUOUS
 10
1072.175162
 20
3790.112944
 30
0.0
 11
1072.175162
 21
3402.112944
 31
0.0
  0
LINE
  5
7AA5
  8
1
  6
CONTINUOUS
 10
1117.675162
 20
3266.112944
 30
0.0
 11
1117.675162
 21
3366.112944
 31
0.0
  0
LINE
  5
7AA6
  8
1
  6
CONTINUOUS
 10
1472.175162
 20
3446.112944
 30
0.0
 11
1472.175162
 21
3746.112944
 31
0.0
  0
LINE
  5
7AA7
  8
1
  6
CONTINUOUS
 10
1179.305161999999
 20
3433.6429439999988
 30
0.0
 11
1179.305161999999
 21
3676.3229439999991
 31
0.0
  0
LINE
  5
7AA8
  8
1
  6
CONTINUOUS
 10
1381.3051620000001
 20
3433.6429439999988
 30
0.0
 11
1381.3051620000001
 21
3676.3229439999991
 31
0.0
  0
LINE
  5
7AA9
  8
1
  6
CONTINUOUS
 10
1220.305161999999
 20
3341.112944
 30
0.0
 11
1340.305161999999
 21
3341.112944
 31
0.0
  0
LINE
  5
7AAA
  8
1
  6
CONTINUOUS
 10
1220.305161999999
 20
3291.112944
 30
0.0
 11
1340.305161999999
 21
3291.112944
 31
0.0
  0
LINE
  5
7AAB
  8
1
  6
CONTINUOUS
 10
1381.3051620000001
 20
3433.6429439999988
 30
0.0
 11
1179.305161999999
 21
3433.6429439999988
 31
0.0
  0
LINE
  5
7AAC
  8
1
  6
CONTINUOUS
 10
1220.305161999999
 20
3291.112944
 30
0.0
 11
1220.305161999999
 21
3341.112944
 31
0.0
  0
LINE
  5
7AAD
  8
1
  6
CONTINUOUS
 10
1294.305161999999
 20
3341.112944
 30
0.0
 11
1294.305161999999
 21
3433.6429439999988
 31
0.0
  0
LINE
  5
7AAE
  8
1
  6
CONTINUOUS
 10
1266.3051620000001
 20
3341.112944
 30
0.0
 11
1266.3051620000001
 21
3433.6429439999988
 31
0.0
  0
LINE
  5
7AAF
  8
1
  6
CONTINUOUS
 10
1340.305161999999
 20
3291.112944
 30
0.0
 11
1340.305161999999
 21
3341.112944
 31
0.0
  0
LINE
  5
7AB0
  8
1
  6
CONTINUOUS
 10
1381.3051620000001
 20
3676.3229439999991
 30
0.0
 11
1179.305161999999
 21
3676.3229439999991
 31
0.0
  0
LINE
  5
7AB1
  8
1
  6
CONTINUOUS
 10
1708.655162
 20
3291.112944
 30
0.0
 11
1708.655162
 21
3341.112944
 31
0.0
  0
LINE
  5
7AB2
  8
1
  6
CONTINUOUS
 10
2072.175162
 20
3402.112944
 30
0.0
 11
1826.175162
 21
3402.112944
 31
0.0
  0
LINE
  5
7AB3
  8
1
  6
CONTINUOUS
 10
1826.175162
 20
3341.112944
 30
0.0
 11
1826.175162
 21
3446.112944
 31
0.0
  0
LINE
  5
7AB4
  8
1
  6
CONTINUOUS
 10
1798.175162
 20
3341.112944
 30
0.0
 11
1798.175162
 21
3446.112944
 31
0.0
  0
LINE
  5
7AB5
  8
1
  6
CONTINUOUS
 10
1912.175162
 20
3291.112944
 30
0.0
 11
1912.175162
 21
3341.112944
 31
0.0
  0
LINE
  5
7AB6
  8
1
  6
CONTINUOUS
 10
1987.675162
 20
3266.112944
 30
0.0
 11
1987.675162
 21
3366.112944
 31
0.0
  0
LINE
  5
7AB7
  8
1
  6
CONTINUOUS
 10
2072.175162
 20
3446.112944
 30
0.0
 11
2072.175162
 21
3402.112944
 31
0.0
  0
LINE
  5
7AB8
  8
1
  6
CONTINUOUS
 10
2072.175162
 20
3790.112944
 30
0.0
 11
2072.175162
 21
3746.112944
 31
0.0
  0
LINE
  5
7AB9
  8
1
  6
CONTINUOUS
 10
2092.175162
 20
3446.112944
 30
0.0
 11
2092.175162
 21
3746.112944
 31
0.0
  0
LINE
  5
7ABA
  8
1
  6
CONTINUOUS
 10
2112.175162
 20
3419.112944
 30
0.0
 11
2112.175162
 21
3773.112944
 31
0.0
  0
LINE
  5
7ABB
  8
2
  6
CENTER
 10
3400.0189070000001
 20
2673.8803617865719
 30
0.0
 11
3400.0189070000001
 21
1718.348538940752
 31
0.0
  0
LINE
  5
7ABC
  8
2
  6
CENTER
 10
1019.391255969789
 20
3596.1129440000009
 30
0.0
 11
2167.3052001218271
 21
3596.112944
 31
0.0
  0
LINE
  5
7ABD
  8
2
  6
CENTER
 10
1812.175162
 20
3212.4933858198951
 30
0.0
 11
1812.175162
 21
3844.7237714096082
 31
0.0
  0
LINE
  5
7ABE
  8
2
  6
CENTER
 10
2191.2100930000001
 20
2326.3429439999991
 30
0.0
 11
1269.5091890021899
 21
2326.3429439999991
 31
0.0
  0
LINE
  5
7ABF
  8
4
  6
CONTINUOUS
 10
3700.0
 20
1000.0
 30
0.0
 11
3700.0
 21
600.0
 31
0.0
  0
LINE
  5
7AC0
  8
4
  6
CONTINUOUS
 10
2300.0
 20
1000.0
 30
0.0
 11
2300.0
 21
600.0
 31
0.0
  0
LINE
  5
7AC1
  8
4
  6
CONTINUOUS
 10
1300.0
 20
1000.0
 30
0.0
 11
1300.0
 21
600.0
 31
0.0
  0
LINE
  5
7AC4
  8
4
  6
CONTINUOUS
 10
1300.0
 20
600.0
 30
0.0
 11
3700.0
 21
600.0
 31
0.0
  0
LINE
  5
7AC5
  8
4
  6
CONTINUOUS
 10
1300.0
 20
800.0
 30
0.0
 11
3700.0
 21
800.0
 31
0.0
  0
TEXT
  5
7AC6
  8
4
  6
CONTINUOUS
 10
1377.004162
 20
863.086052
 30
0.0
 40
100.0
  1
機器名称
  0
TEXT
  5
7AC7
  8
4
  6
CONTINUOUS
 10
1372.516212
 20
643.29031299999986
 30
0.0
 40
100.0
  1
機器型番
  0
TEXT
  5
7AC8
  8
4
  6
CONTINUOUS
 10
2355.3574910000002
 20
845.14353800000015
 30
0.0
 40
100.0
  1
ミツヤ多翼送風機
  0
TEXT
  5
7AC9
  8
4
  6
CONTINUOUS
 10
2373.3089909999999
 20
634.31916899999999
 30
0.0
 40
100.0
  1
MFE#2 1/2-4
  0
TEXT
  5
7ACB
  8
4
  6
CONTINUOUS
 10
1809.5715309999989
 20
4766.8576830000002
 30
0.0
 40
108.0
  1
床置ベット
  0
TEXT
  5
7ACC
  8
4
  6
CONTINUOUS
 10
632.33518700000002
 20
5067.7619520000007
 30
0.0
 40
144.0
  1
ベルト駆動式片吸込両持排煙ファン
  0
LINE
  5
7ACD
  8
4
  6
CONTINUOUS
 10
500.0
 20
4938.8175090000004
 30
0.0
 11
3700.0
 21
4938.8175090000004
 31
0.0
  0
LINE
  5
7ACE
  8
4
  6
CONTINUOUS
 10
500.0
 20
5338.8175090000004
 30
0.0
 11
3700.0
 21
5338.8175090000004
 31
0.0
  0
LINE
  5
7ACF
  8
4
  6
CONTINUOUS
 10
1300.0
 20
1000.0
 30
0.0
 11
3700.0
 21
1000.0
 31
0.0
  0
LINE
  5
7AD0
  8
4
  6
CONTINUOUS
 10
500.0
 20
5338.8175090000004
 30
0.0
 11
500.0
 21
4938.8175090000004
 31
0.0
  0
TEXT
  5
7AD1
  8
4
  6
CONTINUOUS
 10
937.85386600000004
 20
4764.6389549999994
 30
0.0
 40
108.0
  1
左回転右横向
  0
TEXT
  5
7AD2
  8
4
  6
CONTINUOUS
 10
2937.9391179999998
 20
5412.122163
 30
0.0
 40
112.0
  1
No.
  0
TEXT
  5
7AD3
  8
4
  6
CONTINUOUS
 10
2622.5921250000001
 20
4766.8576830000002
 30
0.0
 40
108.0
  1
縮尺：1/20
  0
LINE
  5
7AD4
  8
4
  6
CONTINUOUS
 10
3700.0
 20
5338.8175090000004
 30
0.0
 11
3700.0
 21
4938.8175090000004
 31
0.0
  0
LINE
  5
7AD6
  8
4
  6
CONTINUOUS
 10
2881.234845
 20
5362.5271659999999
 30
0.0
 11
2881.234845
 21
5573.3045229999998
 31
0.0
  0
LINE
  5
7AD7
  8
4
  6
CONTINUOUS
 10
2881.234845
 20
5573.3045229999998
 30
0.0
 11
3700.0
 21
5573.3045229999998
 31
0.0
  0
LINE
  5
7AD8
  8
4
  6
CONTINUOUS
 10
3700.0
 20
5573.3045229999998
 30
0.0
 11
3700.0
 21
5362.5271659999999
 31
0.0
  0
LINE
  5
7AD9
  8
4
  6
CONTINUOUS
 10
3700.0
 20
5362.5271659999999
 30
0.0
 11
2881.234845
 21
5362.5271659999999
 31
0.0
  0
DIMENSION
  5
7AF1
  8
3
  6
CONTINUOUS
  2
*D1
 10
2249.7530489999999
 20
1938.342944
 30
0.0
 11
2249.7530489999999
 21
2125.8107110000001
 31
0.0
 70
   128
 13
2112.175162
 23
2338.342944
 33
0.0
 14
2112.175162
 24
1938.342944
 34
0.0
 50
90.0
1001
ACAD
1000
DSTYLE
1002
{
1070
   287
1070
     3
1070
   287
1070
     3
1070
    40
1040
20.0
1070
   143
1040
0.039
1070
   172
1070
     1
1070
   271
1070
     0
1070
   279
1070
     0
1070
   288
1070
     1
1002
}
  0
DIMENSION
  5
7AFE
  8
3
  6
CONTINUOUS
  2
*D2
 10
2375.3987179999999
 20
1938.342944
 30
0.0
 11
2375.3987179999999
 21
2117.1518249999999
 31
0.0
 70
   128
 13
2189.8704694993162
 23
2326.3429439999991
 33
0.0
 14
2112.175162
 24
1938.342944
 34
0.0
 50
90.0
1001
ACAD
1000
DSTYLE
1002
{
1070
   287
1070
     3
1070
   287
1070
     3
1070
    40
1040
20.0
1070
   143
1040
0.039
1070
   172
1070
     1
1070
   271
1070
     0
1070
   279
1070
     0
1070
   288
1070
     1
1002
}
  0
DIMENSION
  5
7B23
  8
3
  6
CONTINUOUS
  2
*D3
 10
2492.3791639999999
 20
2326.3429439999991
 30
0.0
 11
2492.3791639999999
 21
2121.481276
 31
0.0
 70
   128
 13
2072.175162
 23
1811.342944
 33
0.0
 14
2189.8704694993162
 24
2326.3429439999991
 34
0.0
 50
90.0
1001
ACAD
1000
DSTYLE
1002
{
1070
   287
1070
     3
1070
   287
1070
     3
1070
    40
1040
20.0
1070
   143
1040
0.039
1070
   172
1070
     1
1070
   271
1070
     0
1070
   279
1070
     0
1070
   288
1070
     1
1002
}
  0
DIMENSION
  5
7B2F
  8
3
  6
CONTINUOUS
  2
*D4
 10
2492.3791639999999
 20
2626.342944
 30
0.0
 11
2442.379163999999
 21
2476.342944
 31
0.0
 70
     0
 13
2189.8704694993162
 23
2326.3429439999991
 33
0.0
 14
2082.1751619999991
 24
2626.342944
 34
0.0
 50
90.0
1001
ACAD
1000
DSTYLE
1002
{
1070
   287
1070
     4
1070
   287
1070
     4
1070
    40
1040
20.0
1070
    75
1070
     1
1070
   143
1040
0.039
1070
   172
1070
     1
1070
   271
1070
     0
1070
   279
1070
     1
1070
   288
1070
     1
1002
}
  0
DIMENSION
  5
7B3C
  8
3
  6
CONTINUOUS
  2
*D5
 10
2631.0226659999998
 20
1811.342944
 30
0.0
 11
2631.0226659999989
 21
2247.0350370000001
 31
0.0
 70
   128
 13
2082.1751619999991
 23
2626.342944
 33
0.0
 14
2072.175162
 24
1811.342944
 34
0.0
 50
90.0
1001
ACAD
1000
DSTYLE
1002
{
1070
   287
1070
     3
1070
   287
1070
     3
1070
    40
1040
20.0
1070
   143
1040
0.039
1070
   172
1070
     1
1070
   271
1070
     0
1070
   279
1070
     0
1070
   288
1070
     1
1002
}
  0
DIMENSION
  5
7B4B
  8
3
  6
CONTINUOUS
  2
*D6
 10
3400.0189070000001
 20
1675.5489500000001
 30
0.0
 11
3303.0189070000001
 21
1724.4958928321171
 31
0.0
 70
   128
 13
3206.0189070000001
 23
1811.342944
 33
0.0
 14
3400.0189070000001
 24
1718.930711773537
 34
0.0
1001
ACAD
1000
DSTYLE
1002
{
1070
   288
1070
     1
1070
   172
1070
     1
1070
    40
1040
20.0
1070
   271
1070
     0
1070
   143
1040
0.039
1002
}
  0
DIMENSION
  5
7B59
  8
3
  6
CONTINUOUS
  2
*D7
 10
3594.0189070000001
 20
1675.5489500000001
 30
0.0
 11
3502.2955649999999
 21
1675.0555750000001
 31
0.0
 70
   128
 13
3400.0189070000001
 23
1715.542755690348
 33
0.0
 14
3594.0189070000001
 24
1811.342944
 34
0.0
1001
ACAD
1000
DSTYLE
1002
{
1070
   287
1070
     4
1070
   287
1070
     4
1070
    40
1040
20.0
1070
    75
1070
     1
1070
   143
1040
0.039
1070
   172
1070
     1
1070
   271
1070
     0
1070
   279
1070
     1
1070
   288
1070
     1
1002
}
  0
DIMENSION
  5
7B66
  8
3
  6
CONTINUOUS
  2
*D8
 10
3550.0189070000001
 20
2687.7815730000002
 30
0.0
 11
3387.1617639999999
 21
2687.7815730000002
 31
0.0
 70
   128
 13
3250.0189070000001
 23
2651.4632470000001
 33
0.0
 14
3550.0189070000001
 24
2651.4632470000001
 34
0.0
1001
ACAD
1000
DSTYLE
1002
{
1070
   287
1070
     3
1070
   287
1070
     3
1070
    40
1040
20.0
1070
   143
1040
0.039
1070
   172
1070
     1
1070
   271
1070
     0
1070
   279
1070
     0
1070
   288
1070
     1
1002
}
  0
DIMENSION
  5
7B80
  8
3
  6
CONTINUOUS
  2
*D9
 10
3070.0189070000001
 20
2814.1916739999988
 30
0.0
 11
3235.0189070000001
 21
2914.1916739999988
 31
0.0
 70
     0
  1
MAX\P380
 13
3400.0189070000001
 23
2789.3034309999989
 33
0.0
 14
3070.0189070000001
 24
2546.342944
 34
0.0
1001
ACAD
1000
DSTYLE
1002
{
1070
   287
1070
     4
1070
   287
1070
     4
1070
    40
1040
20.0
1070
    75
1070
     1
1070
   143
1040
0.039
1070
   172
1070
     1
1070
   271
1070
     0
1070
   279
1070
     1
1070
   288
1070
     1
1002
}
  0
DIMENSION
  5
7B8F
  8
3
  6
CONTINUOUS
  2
*D10
 10
3686.7622130000009
 20
2111.3429439999991
 30
0.0
 11
3686.7622130000009
 21
2284.4858011428569
 31
0.0
 70
   128
 13
3550.0189070000001
 23
2541.342944
 33
0.0
 14
3550.0189070000001
 24
2111.3429439999991
 34
0.0
 50
90.0
1001
ACAD
1000
DSTYLE
1002
{
1070
   287
1070
     3
1070
   287
1070
     3
1070
     3
1000
φ<>
1070
    40
1040
20.0
1070
   143
1040
0.039
1070
   172
1070
     1
1070
   271
1070
     0
1070
   279
1070
     0
1070
   288
1070
     1
1002
}
  0
DIMENSION
  5
7B9C
  8
3
  6
CONTINUOUS
  2
*D11
 10
2072.175162
 20
3949.5171859999991
 30
0.0
 11
1569.5333499999999
 21
3949.5171859999991
 31
0.0
 70
   128
 13
1072.175162
 23
3790.112944
 33
0.0
 14
2072.175162
 24
3790.112944
 34
0.0
1001
ACAD
1000
DSTYLE
1002
{
1070
   287
1070
     3
1070
   287
1070
     3
1070
    40
1040
20.0
1070
   143
1040
0.039
1070
   172
1070
     1
1070
   271
1070
     0
1070
   279
1070
     0
1070
   288
1070
     1
1002
}
  0
DIMENSION
  5
7BA9
  8
3
  6
CONTINUOUS
  2
*D12
 10
945.13268300000061
 20
3402.112944
 30
0.0
 11
945.13268300000016
 21
3581.7965189999991
 31
0.0
 70
   128
 13
1072.175162
 23
3790.112944
 33
0.0
 14
1072.175162
 24
3402.112944
 34
0.0
 50
90.0
1001
ACAD
1000
DSTYLE
1002
{
1070
   287
1070
     3
1070
   287
1070
     3
1070
    40
1040
20.0
1070
   143
1040
0.039
1070
   172
1070
     1
1070
   271
1070
     0
1070
   279
1070
     0
1070
   288
1070
     1
1002
}
  0
DIMENSION
  5
7BBB
  8
3
  6
CONTINUOUS
  2
*D13
 10
1812.175162
 20
1641.5515479999999
 30
0.0
 11
1408.639175
 21
1641.5515479999999
 31
0.0
 70
   128
 13
1072.175162
 23
1811.342944
 33
0.0
 14
1812.175162
 24
1698.661368
 34
0.0
1001
ACAD
1000
DSTYLE
1002
{
1070
   287
1070
     3
1070
   287
1070
     3
1070
    40
1040
20.0
1070
   143
1040
0.039
1070
   172
1070
     1
1070
   271
1070
     0
1070
   279
1070
     0
1070
   288
1070
     1
1002
}
  0
DIMENSION
  5
7BC9
  8
3
  6
CONTINUOUS
  2
*D14
 10
2072.175162
 20
1641.5515479999999
 30
0.0
 11
1947.7010049999999
 21
1641.5515479999999
 31
0.0
 70
   128
 13
1812.175162
 23
1698.661368
 33
0.0
 14
2072.175162
 24
1811.342944
 34
0.0
1001
ACAD
1000
DSTYLE
1002
{
1070
   287
1070
     4
1070
   287
1070
     4
1070
    40
1040
20.0
1070
    75
1070
     1
1070
   143
1040
0.039
1070
   172
1070
     1
1070
   271
1070
     0
1070
   279
1070
     1
1070
   288
1070
     1
1002
}
  0
DIMENSION
  5
7BEC
  8
3
  6
CONTINUOUS
  2
*D15
 10
1812.175162
 20
2741.2623100000001
 30
0.0
 11
1648.842881
 21
2741.2623100000001
 31
0.0
 70
   128
 13
1480.1790619999999
 23
2326.3429439999991
 33
0.0
 14
1812.175162
 24
2626.342944
 34
0.0
1001
ACAD
1000
DSTYLE
1002
{
1070
   287
1070
     3
1070
   287
1070
     3
1070
    40
1040
20.0
1070
   143
1040
0.039
1070
   172
1070
     1
1070
   271
1070
     0
1070
   279
1070
     0
1070
   288
1070
     1
1002
}
  0
DIMENSION
  5
7BF8
  8
3
  6
CONTINUOUS
  2
*D16
 10
2112.175162
 20
2741.2623100000001
 30
0.0
 11
1962.175162
 21
2791.2623100000001
 31
0.0
 70
     0
 13
1812.175162
 23
2626.342944
 33
0.0
 14
2112.175162
 24
2365.342944
 34
0.0
1001
ACAD
1000
DSTYLE
1002
{
1070
   287
1070
     4
1070
   287
1070
     4
1070
    40
1040
20.0
1070
    75
1070
     1
1070
   143
1040
0.039
1070
   172
1070
     1
1070
   271
1070
     0
1070
   279
1070
     1
1070
   288
1070
     1
1002
}
  0
LINE
  5
7C25
  8
1
  6
CONTINUOUS
 10
3550.9676549999999
 20
2541.342944
 30
0.0
 11
3550.9676549999999
 21
2111.3429439999991
 31
0.0
  0
DIMENSION
  5
7C35
  8
3
  6
CONTINUOUS
  2
*D17
 10
3550.9676549999999
 20
2814.1916739999988
 30
0.0
 11
3471.6293419232429
 21
2862.2883559382549
 31
0.0
 70
   128
 13
3400.0189070000001
 23
2789.3034309999989
 33
0.0
 14
3550.9676549999999
 24
2541.342944
 34
0.0
1001
ACAD
1000
DSTYLE
1002
{
1070
   288
1070
     1
1070
   172
1070
     1
1070
    40
1040
20.0
1070
   271
1070
     0
1070
   143
1040
0.039
1002
}
  0
DIMENSION
  5
7C99
  8
3
  2
*D18
 10
1072.175162
 20
2856.3782772549889
 30
0.0
 11
1592.9957153622779
 21
2856.3782772549889
 31
0.0
 70
   128
 13
2112.175162
 23
2365.342944
 33
0.0
 14
1072.175162
 24
1891.342944
 34
0.0
1001
ACAD
1000
DSTYLE
1002
{
1070
   287
1070
     3
1070
   287
1070
     3
1070
    40
1040
20.0
1070
   143
1040
0.039
1070
   172
1070
     1
1070
   271
1070
     0
1070
   279
1070
     0
1070
   288
1070
     1
1002
}
  0
ENDSEC
  0
EOF
