  0
SECTION
  2
HEADER
  9
$ACADVER
  1
AC1009
  9
$INSBASE
 10
0.0
 20
0.0
 30
0.0
  9
$EXTMIN
 10
500.0
 20
600.0
 30
0.0
  9
$EXTMAX
 10
3700.0
 20
5573.3045229999998
 30
0.0
  9
$LIMMIN
 10
0.0
 20
0.0
  9
$LIMMAX
 10
297.0
 20
210.0
  9
$ORTHOMODE
 70
     0
  9
$REGENMODE
 70
     1
  9
$FILLMODE
 70
     0
  9
$QTEXTMODE
 70
     0
  9
$MIRRTEXT
 70
     1
  9
$DRAGMODE
 70
     2
  9
$LTSCALE
 40
100.0
  9
$OSMODE
 70
    37
  9
$ATTMODE
 70
     1
  9
$TEXTSIZE
 40
180.0
  9
$TRACEWID
 40
0.05
  9
$TEXTSTYLE
  7
STANDARD
  9
$CLAYER
  8
3
  9
$CELTYPE
  6
BYLAYER
  9
$CECOLOR
 62
   256
  9
$DIMSCALE
 40
20.0
  9
$DIMASZ
 40
2.0
  9
$DIMEXO
 40
0.5
  9
$DIMDLI
 40
10.0
  9
$DIMRND
 40
0.0
  9
$DIMDLE
 40
0.0
  9
$DIMEXE
 40
1.0
  9
$DIMTP
 40
1.0
  9
$DIMTM
 40
1.0
  9
$DIMTXT
 40
3.0
  9
$DIMCEN
 40
0.0
  9
$DIMTSZ
 40
0.0
  9
$DIMTOL
 70
     0
  9
$DIMLIM
 70
     0
  9
$DIMTIH
 70
     0
  9
$DIMTOH
 70
     0
  9
$DIMSE1
 70
     0
  9
$DIMSE2
 70
     0
  9
$DIMTAD
 70
     1
  9
$DIMZIN
 70
     8
  9
$DIMBLK
  1

  9
$DIMASO
 70
     1
  9
$DIMSHO
 70
     1
  9
$DIMPOST
  1

  9
$DIMAPOST
  1

  9
$DIMALT
 70
     0
  9
$DIMALTD
 70
     2
  9
$DIMALTF
 40
0.039
  9
$DIMLFAC
 40
1.0
  9
$DIMTOFL
 70
     1
  9
$DIMTVP
 40
0.0
  9
$DIMTIX
 70
     0
  9
$DIMSOXD
 70
     0
  9
$DIMSAH
 70
     1
  9
$DIMBLK1
  1
OPEN
  9
$DIMBLK2
  1
OPEN
  9
$DIMSTYLE
  2
IGA
  9
$DIMCLRD
 70
     0
  9
$DIMCLRE
 70
     0
  9
$DIMCLRT
 70
     0
  9
$DIMTFAC
 40
10.0
  9
$DIMGAP
 40
1.0
  9
$LUNITS
 70
     2
  9
$LUPREC
 70
     3
  9
$SKETCHINC
 40
0.1
  9
$FILLETRAD
 40
50.0
  9
$AUNITS
 70
     0
  9
$AUPREC
 70
     0
  9
$MENU
  1
acad
  9
$ELEVATION
 40
0.0
  9
$PELEVATION
 40
0.0
  9
$THICKNESS
 40
0.0
  9
$LIMCHECK
 70
     0
  9
$BLIPMODE
 70
     0
  9
$CHAMFERA
 40
0.5
  9
$CHAMFERB
 40
0.5
  9
$SKPOLY
 70
     0
  9
$TDCREATE
 40
2450723.61494294
  9
$TDUPDATE
 40
2454953.8343126969
  9
$TDINDWG
 40
0.0046011111
  9
$TDUSRTIMER
 40
0.0046011111
  9
$USRTIMER
 70
     1
  9
$ANGBASE
 50
0.0
  9
$ANGDIR
 70
     0
  9
$PDMODE
 70
     0
  9
$PDSIZE
 40
0.0
  9
$PLINEWID
 40
0.0
  9
$COORDS
 70
     1
  9
$SPLFRAME
 70
     0
  9
$SPLINETYPE
 70
     6
  9
$SPLINESEGS
 70
     8
  9
$ATTDIA
 70
     0
  9
$ATTREQ
 70
     1
  9
$HANDLING
 70
 10241
  9
$HANDSEED
  5
7EE7
  9
$SURFTAB1
 70
     6
  9
$SURFTAB2
 70
     6
  9
$SURFTYPE
 70
     6
  9
$SURFU
 70
     6
  9
$SURFV
 70
     6
  9
$UCSNAME
  2

  9
$UCSORG
 10
0.0
 20
0.0
 30
0.0
  9
$UCSXDIR
 10
1.0
 20
0.0
 30
0.0
  9
$UCSYDIR
 10
0.0
 20
1.0
 30
0.0
  9
$PUCSNAME
  2

  9
$PUCSORG
 10
0.0
 20
0.0
 30
0.0
  9
$PUCSXDIR
 10
1.0
 20
0.0
 30
0.0
  9
$PUCSYDIR
 10
0.0
 20
1.0
 30
0.0
  9
$USERI1
 70
     0
  9
$USERI2
 70
     0
  9
$USERI3
 70
     0
  9
$USERI4
 70
     0
  9
$USERI5
 70
     0
  9
$USERR1
 40
0.0
  9
$USERR2
 40
0.0
  9
$USERR3
 40
0.0
  9
$USERR4
 40
0.0
  9
$USERR5
 40
0.0
  9
$WORLDVIEW
 70
     1
  9
$SHADEDGE
 70
     3
  9
$SHADEDIF
 70
    70
  9
$TILEMODE
 70
     1
  9
$MAXACTVP
 70
    16
  9
$PLIMCHECK
 70
     0
  9
$PEXTMIN
 10
1.0000000000000000E+020
 20
1.0000000000000000E+020
 30
1.0000000000000000E+020
  9
$PEXTMAX
 10
-1.0000000000000000E+020
 20
-1.0000000000000000E+020
 30
-1.0000000000000000E+020
  9
$PLIMMIN
 10
0.0
 20
0.0
  9
$PLIMMAX
 10
12.0
 20
9.0
  9
$UNITMODE
 70
     0
  9
$VISRETAIN
 70
     0
  9
$PLINEGEN
 70
     0
  9
$PSLTSCALE
 70
     1
  0
ENDSEC
  0
SECTION
  2
TABLES
  0
TABLE
  2
VPORT
 70
     2
  0
VPORT
  2
*ACTIVE
 70
     0
 10
0.0
 20
0.0
 11
1.0
 21
1.0
 12
5831.5648609518266
 22
3772.3947382605102
 13
0.0
 23
0.0
 14
10.0
 24
10.0
 15
10.0
 25
10.0
 16
0.0
 26
0.0
 36
1.0
 17
0.0
 27
0.0
 37
0.0
 40
7720.861765592721
 41
1.5051150895140659
 42
50.0
 43
0.0
 44
0.0
 50
0.0
 51
0.0
 71
     0
 72
   100
 73
     1
 74
     0
 75
     0
 76
     0
 77
     0
 78
     0
  0
ENDTAB
  0
TABLE
  2
LTYPE
 70
     2
  0
LTYPE
  2
CONTINUOUS
 70
     0
  3
Solid line
 72
    65
 73
     0
 40
0.0
  0
LTYPE
  2
CENTER
 70
     0
  3
____ _ ____ _ ____ _ ____ _ ____ _ ____ _ ____ 
 72
    65
 73
     4
 40
2.0
 49
1.25
 49
-0.25
 49
0.25
 49
-0.25
  0
ENDTAB
  0
TABLE
  2
LAYER
 70
     6
  0
LAYER
  2
0
 70
     0
 62
    -7
  6
CONTINUOUS
  0
LAYER
  2
3
 70
     0
 62
     2
  6
CONTINUOUS
  0
LAYER
  2
2
 70
     0
 62
     3
  6
CENTER
  0
LAYER
  2
1
 70
     0
 62
     4
  6
CONTINUOUS
  0
LAYER
  2
4
 70
     0
 62
     7
  6
CONTINUOUS
  0
LAYER
  2
DEFPOINTS
 70
     0
 62
     7
  6
CONTINUOUS
  0
ENDTAB
  0
TABLE
  2
STYLE
 70
     1
  0
STYLE
  2
STANDARD
 70
     0
 40
0.0
 41
1.0
 50
0.0
 71
     0
 42
180.0
  3
simplex.shx
  4
extfont.shx
  0
ENDTAB
  0
TABLE
  2
VIEW
 70
     0
  0
ENDTAB
  0
TABLE
  2
UCS
 70
     0
  0
ENDTAB
  0
TABLE
  2
APPID
 70
     1
  0
APPID
  2
ACAD
 70
     0
  0
ENDTAB
  0
TABLE
  2
DIMSTYLE
 70
     1
  0
DIMSTYLE
  2
IGA
 70
     0
  3

  4

  5

  6
OPEN
  7
OPEN
 40
2.0
 41
2.0
 42
0.5
 43
10.0
 44
1.0
 45
0.0
 46
0.0
 47
1.0
 48
1.0
140
3.0
141
0.0
142
0.0
143
0.03937
144
1.0
145
0.0
146
10.0
147
1.0
 71
     0
 72
     0
 73
     0
 74
     0
 75
     0
 76
     0
 77
     1
 78
     8
170
     0
171
     2
172
     0
173
     1
174
     0
175
     0
176
     0
177
     0
178
     0
  0
ENDTAB
  0
ENDSEC
  0
SECTION
  2
BLOCKS
  0
BLOCK
  8
0
  2
$MODEL_SPACE
 70
     0
 10
0.0
 20
0.0
 30
0.0
  3
$MODEL_SPACE
  1

  0
ENDBLK
  5
1B
  8
0
  0
BLOCK
 67
     1
  8
0
  2
$PAPER_SPACE
 70
     0
 10
0.0
 20
0.0
 30
0.0
  3
$PAPER_SPACE
  1

  0
ENDBLK
  5
18
 67
     1
  8
0
  0
BLOCK
  8
0
  2
_OPEN
 70
     0
 10
0.0
 20
0.0
 30
0.0
  3
_OPEN
  1

  0
LINE
  5
7B60
  8
0
  6
BYBLOCK
 62
     0
 10
-1.0
 20
0.166667
 30
0.0
 11
0.0
 21
0.0
 31
0.0
  0
LINE
  5
7B61
  8
0
  6
BYBLOCK
 62
     0
 10
0.0
 20
0.0
 30
0.0
 11
-1.0
 21
-0.166667
 31
0.0
  0
LINE
  5
7B62
  8
0
  6
BYBLOCK
 62
     0
 10
0.0
 20
0.0
 30
0.0
 11
-1.0
 21
0.0
 31
0.0
  0
ENDBLK
  5
7B63
  8
0
  0
BLOCK
  8
0
  2
*D1
 70
     1
 10
0.0
 20
0.0
 30
0.0
  3
*D1
  1

  0
LINE
  5
7E5B
  8
3
  6
CONTINUOUS
 62
     0
 10
1079.357258
 20
2752.0385970000002
 30
0.0
 11
872.01768000000038
 21
2752.0385970000002
 31
0.0
  0
LINE
  5
7E5C
  8
3
  6
CONTINUOUS
 62
     0
 10
1079.357258
 20
2364.0385969999988
 30
0.0
 11
872.01768000000038
 21
2364.0385970000002
 31
0.0
  0
LINE
  5
7E5D
  8
3
  6
CONTINUOUS
 62
     0
 10
892.0176800000005
 20
2712.0385970000002
 30
0.0
 11
892.0176800000005
 21
2404.0385970000002
 31
0.0
  0
INSERT
  5
7E5E
  8
3
  6
CONTINUOUS
 62
     0
  2
_OPEN
 10
892.0176800000005
 20
2752.0385970000002
 30
0.0
 41
40.0
 42
40.0
 43
40.0
 50
90.0
  0
INSERT
  5
7E5F
  8
3
  6
CONTINUOUS
 62
     0
  2
_OPEN
 10
892.0176800000005
 20
2364.0385970000002
 30
0.0
 41
40.0
 42
40.0
 43
40.0
 50
270.0
  0
TEXT
  8
3
  40
60
  5
7ED8
  62
0
  72
0
  71
0
 10
722.018
 20
2426.97
 30
0.000000
  1
388
  0
POINT
  5
7E61
  8
DEFPOINTS
  6
CONTINUOUS
 62
     0
 10
1089.357258
 20
2752.0385970000002
 30
0.0
  0
POINT
  5
7E62
  8
DEFPOINTS
  6
CONTINUOUS
 62
     0
 10
1089.357258
 20
2364.0385969999988
 30
0.0
  0
POINT
  5
7E63
  8
DEFPOINTS
  6
CONTINUOUS
 62
     0
 10
892.0176800000005
 20
2364.0385970000002
 30
0.0
  0
ENDBLK
  5
7B75
  8
0
  0
BLOCK
  8
0
  2
*D2
 70
     1
 10
0.0
 20
0.0
 30
0.0
  3
*D2
  1

  0
LINE
  5
7E64
  8
3
  6
CONTINUOUS
 62
     0
 10
1079.357258
 20
2752.0385970000002
 30
0.0
 11
985.69583900000055
 21
2752.0385970000002
 31
0.0
  0
LINE
  5
7E65
  8
3
  6
CONTINUOUS
 62
     0
 10
1079.357258
 20
2352.0385969999988
 30
0.0
 11
985.69583900000055
 21
2352.0385970000002
 31
0.0
  0
LINE
  5
7E66
  8
3
  6
CONTINUOUS
 62
     0
 10
1005.695839
 20
2712.0385970000002
 30
0.0
 11
1005.695839
 21
2392.0385970000002
 31
0.0
  0
INSERT
  5
7E67
  8
3
  6
CONTINUOUS
 62
     0
  2
_OPEN
 10
1005.695839
 20
2752.0385970000002
 30
0.0
 41
40.0
 42
40.0
 43
40.0
 50
90.0
  0
INSERT
  5
7E68
  8
3
  6
CONTINUOUS
 62
     0
  2
_OPEN
 10
1005.695839
 20
2352.0385970000002
 30
0.0
 41
40.0
 42
40.0
 43
40.0
 50
270.0
  0
TEXT
  8
3
  40
60
  5
7ED9
  62
0
  72
0
  71
0
 10
835.696
 20
2439.14
 30
0.000000
  1
400
  0
POINT
  5
7E6A
  8
DEFPOINTS
  6
CONTINUOUS
 62
     0
 10
1089.357258
 20
2752.0385970000002
 30
0.0
  0
POINT
  5
7E6B
  8
DEFPOINTS
  6
CONTINUOUS
 62
     0
 10
1089.357258
 20
2352.0385969999988
 30
0.0
  0
POINT
  5
7E6C
  8
DEFPOINTS
  6
CONTINUOUS
 62
     0
 10
1005.695839
 20
2352.0385970000002
 30
0.0
  0
ENDBLK
  5
7B82
  8
0
  0
BLOCK
  8
0
  2
*D3
 70
     1
 10
0.0
 20
0.0
 30
0.0
  3
*D3
  1

  0
LINE
  5
7E6D
  8
3
  6
CONTINUOUS
 62
     0
 10
1119.3572579999991
 20
1984.0385969999991
 30
0.0
 11
872.01768000000004
 21
1984.0385969999991
 31
0.0
  0
LINE
  5
7E6E
  8
3
  6
CONTINUOUS
 62
     0
 10
892.01768000000015
 20
2324.0385970000002
 30
0.0
 11
892.01768000000004
 21
2024.038597
 31
0.0
  0
INSERT
  5
7E6F
  8
3
  6
CONTINUOUS
 62
     0
  2
_OPEN
 10
892.01768000000015
 20
2364.0385970000002
 30
0.0
 41
40.0
 42
40.0
 43
40.0
 50
90.0
  0
INSERT
  5
7E70
  8
3
  6
CONTINUOUS
 62
     0
  2
_OPEN
 10
892.01768000000004
 20
1984.0385969999991
 30
0.0
 41
40.0
 42
40.0
 43
40.0
 50
270.0
  0
TEXT
  8
3
  40
60
  5
7EDA
  62
0
  72
0
  71
0
 10
722.018
 20
2067.84
 30
0.000000
  1
380
  0
POINT
  5
7E72
  8
DEFPOINTS
  6
CONTINUOUS
 62
     0
 10
1089.357258
 20
2364.0385969999988
 30
0.0
  0
POINT
  5
7E73
  8
DEFPOINTS
  6
CONTINUOUS
 62
     0
 10
1129.357258
 20
1984.0385969999991
 30
0.0
  0
POINT
  5
7E74
  8
DEFPOINTS
  6
CONTINUOUS
 62
     0
 10
892.01768000000004
 20
1984.0385969999991
 30
0.0
  0
ENDBLK
  5
7B8E
  8
0
  0
BLOCK
  8
0
  2
*D4
 70
     1
 10
0.0
 20
0.0
 30
0.0
  3
*D4
  1

  0
LINE
  5
7D30
  8
0
  6
BYBLOCK
 62
     0
 10
1129.357258
 20
1974.038597
 30
0.0
 11
1129.357258
 21
1802.4847719999991
 31
0.0
  0
LINE
  5
7D31
  8
0
  6
BYBLOCK
 62
     0
 10
1389.357258
 20
1974.038597
 30
0.0
 11
1389.357258
 21
1802.4847719999991
 31
0.0
  0
LINE
  5
7D32
  8
0
  6
BYBLOCK
 62
     0
 10
1169.357258
 20
1822.484772
 30
0.0
 11
1349.357258
 21
1822.484772
 31
0.0
  0
TEXT
  5
7D33
  8
3
 62
     0
 10
1182.214400857142
 20
1857.514476114198
 30
0.0
 40
60.0
  1
260
  0
INSERT
  5
7D34
  8
0
  6
BYBLOCK
 62
     0
  2
_OPEN
 10
1129.357258
 20
1822.484772
 30
0.0
 41
40.0
 42
40.0
 43
40.0
 50
180.0
  0
INSERT
  5
7D35
  8
0
  6
BYBLOCK
 62
     0
  2
_OPEN
 10
1389.357258
 20
1822.484772
 30
0.0
 41
40.0
 42
40.0
 43
40.0
  0
POINT
  5
7D36
  8
DEFPOINTS
  6
BYBLOCK
 62
     0
 10
1129.357258
 20
1984.0385969999991
 30
0.0
  0
POINT
  5
7D37
  8
DEFPOINTS
  6
BYBLOCK
 62
     0
 10
1389.357258
 20
1984.0385969999991
 30
0.0
  0
POINT
  5
7D38
  8
DEFPOINTS
  6
BYBLOCK
 62
     0
 10
1389.357258
 20
1822.484772
 30
0.0
  0
ENDBLK
  5
7D39
  8
0
  0
BLOCK
  8
0
  2
*D5
 70
     1
 10
0.0
 20
0.0
 30
0.0
  3
*D5
  1

  0
LINE
  5
7E75
  8
3
  6
CONTINUOUS
 62
     0
 10
2129.357258
 20
1974.038597
 30
0.0
 11
2129.357258
 21
1802.4847719999991
 31
0.0
  0
LINE
  5
7E76
  8
3
  6
CONTINUOUS
 62
     0
 10
1429.357258
 20
1822.484772
 30
0.0
 11
2089.357258
 21
1822.484772
 31
0.0
  0
INSERT
  5
7E77
  8
3
  6
CONTINUOUS
 62
     0
  2
_OPEN
 10
1389.357258
 20
1822.484772
 30
0.0
 41
40.0
 42
40.0
 43
40.0
 50
180.0
  0
INSERT
  5
7E78
  8
3
  6
CONTINUOUS
 62
     0
  2
_OPEN
 10
2129.357258
 20
1822.484772
 30
0.0
 41
40.0
 42
40.0
 43
40.0
  0
TEXT
  8
3
  40
60
  5
7EDB
  62
0
  72
0
  71
0
 10
1639.36
 20
1766.28
 30
0.000000
  1
740
  0
POINT
  5
7E7A
  8
DEFPOINTS
  6
CONTINUOUS
 62
     0
 10
1389.357258
 20
1984.0385969999991
 30
0.0
  0
POINT
  5
7E7B
  8
DEFPOINTS
  6
CONTINUOUS
 62
     0
 10
2129.357258
 20
1984.0385969999991
 30
0.0
  0
POINT
  5
7E7C
  8
DEFPOINTS
  6
CONTINUOUS
 62
     0
 10
2129.357258
 20
1822.484772
 30
0.0
  0
ENDBLK
  5
7C51
  8
0
  0
BLOCK
  8
0
  2
*D6
 70
     1
 10
0.0
 20
0.0
 30
0.0
  3
*D6
  1

  0
LINE
  5
7E7D
  8
3
  6
CONTINUOUS
 62
     0
 10
1089.357258
 20
2789.0385969999988
 30
0.0
 11
1089.357258
 21
2901.3892980000001
 31
0.0
  0
LINE
  5
7E7E
  8
3
  6
CONTINUOUS
 62
     0
 10
1389.357258
 20
2760.0385969999988
 30
0.0
 11
1389.357258
 21
2901.3892980000001
 31
0.0
  0
LINE
  5
7E7F
  8
3
  6
CONTINUOUS
 62
     0
 10
1049.357258
 20
2881.3892980000001
 30
0.0
 11
1009.357258
 21
2881.3892980000001
 31
0.0
  0
LINE
  5
7E80
  8
3
  6
CONTINUOUS
 62
     0
 10
1429.357258
 20
2881.3892980000001
 30
0.0
 11
1469.357258
 21
2881.3892980000001
 31
0.0
  0
LINE
  5
7E81
  8
3
  6
CONTINUOUS
 62
     0
 10
1089.357258
 20
2881.3892980000001
 30
0.0
 11
1389.357258
 21
2881.3892980000001
 31
0.0
  0
INSERT
  5
7E82
  8
3
  6
CONTINUOUS
 62
     0
  2
_OPEN
 10
1089.357258
 20
2881.3892980000001
 30
0.0
 41
40.0
 42
40.0
 43
40.0
  0
INSERT
  5
7E83
  8
3
  6
CONTINUOUS
 62
     0
  2
_OPEN
 10
1389.357258
 20
2881.3892980000001
 30
0.0
 41
40.0
 42
40.0
 43
40.0
 50
180.0
  0
TEXT
  8
3
  40
60
  5
7EDC
  62
0
  72
0
  71
0
 10
1106.50
 20
2825.19
 30
0.000000
  1
300
  0
POINT
  5
7E85
  8
DEFPOINTS
  6
CONTINUOUS
 62
     0
 10
1089.357258
 20
2779.0385969999988
 30
0.0
  0
POINT
  5
7E86
  8
DEFPOINTS
  6
CONTINUOUS
 62
     0
 10
1389.357258
 20
2750.0385969999988
 30
0.0
  0
POINT
  5
7E87
  8
DEFPOINTS
  6
CONTINUOUS
 62
     0
 10
1389.357258
 20
2881.3892980000001
 30
0.0
  0
ENDBLK
  5
7C93
  8
0
  0
BLOCK
  8
0
  2
*D7
 70
     1
 10
0.0
 20
0.0
 30
0.0
  3
*D7
  1

  0
LINE
  5
7E88
  8
3
  6
CONTINUOUS
 62
     0
 10
1729.357258
 20
2674.0385970000002
 30
0.0
 11
1729.357258
 21
2901.3892980000001
 31
0.0
  0
LINE
  5
7E89
  8
3
  6
CONTINUOUS
 62
     0
 10
1429.357258
 20
2881.3892980000001
 30
0.0
 11
1689.3572579999991
 21
2881.3892980000001
 31
0.0
  0
INSERT
  5
7E8A
  8
3
  6
CONTINUOUS
 62
     0
  2
_OPEN
 10
1389.357258
 20
2881.3892980000001
 30
0.0
 41
40.0
 42
40.0
 43
40.0
 50
180.0
  0
INSERT
  5
7E8B
  8
3
  6
CONTINUOUS
 62
     0
  2
_OPEN
 10
1729.357258
 20
2881.3892980000001
 30
0.0
 41
40.0
 42
40.0
 43
40.0
  0
TEXT
  8
3
  40
60
  5
7EDD
  62
0
  72
0
  71
0
 10
1439.36
 20
2825.19
 30
0.000000
  1
340
  0
POINT
  5
7E8D
  8
DEFPOINTS
  6
CONTINUOUS
 62
     0
 10
1389.357258
 20
2750.0385969999988
 30
0.0
  0
POINT
  5
7E8E
  8
DEFPOINTS
  6
CONTINUOUS
 62
     0
 10
1729.357258
 20
2664.0385969999988
 30
0.0
  0
POINT
  5
7E8F
  8
DEFPOINTS
  6
CONTINUOUS
 62
     0
 10
1729.357258
 20
2881.3892980000001
 30
0.0
  0
ENDBLK
  5
7C88
  8
0
  0
BLOCK
  8
0
  2
*D8
 70
     1
 10
0.0
 20
0.0
 30
0.0
  3
*D8
  1

  0
LINE
  5
7D3B
  8
0
  6
BYBLOCK
 62
     0
 10
3313.4425550000001
 20
1974.038597
 30
0.0
 11
3313.4425550000001
 21
1813.1708590000001
 31
0.0
  0
LINE
  5
7D3C
  8
0
  6
BYBLOCK
 62
     0
 10
3119.4425550000001
 20
1974.038597
 30
0.0
 11
3119.4425550000001
 21
1813.1708590000001
 31
0.0
  0
LINE
  5
7D3D
  8
0
  6
BYBLOCK
 62
     0
 10
3273.4425550000001
 20
1833.1708590000001
 30
0.0
 11
3159.4425550000001
 21
1833.1708590000001
 31
0.0
  0
TEXT
  5
7D3E
  8
3
 62
     0
 10
3143.585412142857
 20
1851.2956228758969
 30
0.0
 40
60.0
  1
194
  0
INSERT
  5
7D3F
  8
0
  6
BYBLOCK
 62
     0
  2
_OPEN
 10
3313.4425550000001
 20
1833.1708590000001
 30
0.0
 41
40.0
 42
40.0
 43
40.0
  0
INSERT
  5
7D40
  8
0
  6
BYBLOCK
 62
     0
  2
_OPEN
 10
3119.4425550000001
 20
1833.1708590000001
 30
0.0
 41
40.0
 42
40.0
 43
40.0
 50
180.0
  0
POINT
  5
7D41
  8
DEFPOINTS
  6
BYBLOCK
 62
     0
 10
3313.4425550000001
 20
1984.0385969999991
 30
0.0
  0
POINT
  5
7D42
  8
DEFPOINTS
  6
BYBLOCK
 62
     0
 10
3119.4425550000001
 20
1984.0385969999991
 30
0.0
  0
POINT
  5
7D43
  8
DEFPOINTS
  6
BYBLOCK
 62
     0
 10
3119.4425550000001
 20
1833.1708590000001
 30
0.0
  0
ENDBLK
  5
7D44
  8
0
  0
BLOCK
  8
0
  2
*D9
 70
     1
 10
0.0
 20
0.0
 30
0.0
  3
*D9
  1

  0
LINE
  5
7E90
  8
3
  6
CONTINUOUS
 62
     0
 10
2925.4425550000001
 20
1974.038597
 30
0.0
 11
2925.4425550000001
 21
1813.1708590000001
 31
0.0
  0
LINE
  5
7E91
  8
3
  6
CONTINUOUS
 62
     0
 10
3079.4425550000001
 20
1833.1708590000001
 30
0.0
 11
2965.4425550000001
 21
1833.1708590000001
 31
0.0
  0
TEXT
  8
3
  40
60
  5
7EDE
  62
0
  72
0
  71
0
 10
2911.40
 20
1776.59
 30
0.000000
  1
194
  0
INSERT
  5
7E93
  8
3
  6
CONTINUOUS
 62
     0
  2
_OPEN
 10
3119.4425550000001
 20
1833.1708590000001
 30
0.0
 41
40.0
 42
40.0
 43
40.0
  0
INSERT
  5
7E94
  8
3
  6
CONTINUOUS
 62
     0
  2
_OPEN
 10
2925.4425550000001
 20
1833.1708590000001
 30
0.0
 41
40.0
 42
40.0
 43
40.0
 50
180.0
  0
POINT
  5
7E95
  8
DEFPOINTS
  6
CONTINUOUS
 62
     0
 10
3119.4425550000001
 20
1984.0385969999991
 30
0.0
  0
POINT
  5
7E96
  8
DEFPOINTS
  6
CONTINUOUS
 62
     0
 10
2925.4425550000001
 20
1984.0385969999991
 30
0.0
  0
POINT
  5
7E97
  8
DEFPOINTS
  6
CONTINUOUS
 62
     0
 10
2925.4425550000001
 20
1833.1708590000001
 30
0.0
  0
ENDBLK
  5
7CC9
  8
0
  0
BLOCK
  8
0
  2
*D10
 70
     1
 10
0.0
 20
0.0
 30
0.0
  3
*D10
  1

  0
LINE
  5
7E98
  8
3
  6
CONTINUOUS
 62
     0
 10
3269.4425549999992
 20
2762.0385970000002
 30
0.0
 11
3269.4425549999992
 21
2835.3885100000002
 31
0.0
  0
LINE
  5
7E99
  8
3
  6
CONTINUOUS
 62
     0
 10
2969.4425550000001
 20
2762.0385970000002
 30
0.0
 11
2969.4425550000001
 21
2835.3885100000002
 31
0.0
  0
LINE
  5
7E9A
  8
3
  6
CONTINUOUS
 62
     0
 10
3309.4425550000001
 20
2815.3885100000002
 30
0.0
 11
3349.4425550000001
 21
2815.3885100000002
 31
0.0
  0
LINE
  5
7E9B
  8
3
  6
CONTINUOUS
 62
     0
 10
2929.4425549999992
 20
2815.3885100000002
 30
0.0
 11
2889.4425550000001
 21
2815.3885100000002
 31
0.0
  0
LINE
  5
7E9C
  8
3
  6
CONTINUOUS
 62
     0
 10
3269.4425549999992
 20
2815.3885100000002
 30
0.0
 11
2969.4425550000001
 21
2815.3885100000002
 31
0.0
  0
INSERT
  5
7E9D
  8
3
  6
CONTINUOUS
 62
     0
  2
_OPEN
 10
3269.4425549999992
 20
2815.3885100000002
 30
0.0
 41
40.0
 42
40.0
 43
40.0
 50
180.0
  0
INSERT
  5
7E9E
  8
3
  6
CONTINUOUS
 62
     0
  2
_OPEN
 10
2969.4425550000001
 20
2815.3885100000002
 30
0.0
 41
40.0
 42
40.0
 43
40.0
  0
TEXT
  8
3
  40
60
  5
7EDF
  62
0
  72
0
  71
0
 10
2986.59
 20
2759.19
 30
0.000000
  1
300
  0
POINT
  5
7EA0
  8
DEFPOINTS
  6
CONTINUOUS
 62
     0
 10
3269.4425549999992
 20
2752.0385970000002
 30
0.0
  0
POINT
  5
7EA1
  8
DEFPOINTS
  6
CONTINUOUS
 62
     0
 10
2969.4425550000001
 20
2752.0385970000002
 30
0.0
  0
POINT
  5
7EA2
  8
DEFPOINTS
  6
CONTINUOUS
 62
     0
 10
2969.4425550000001
 20
2815.3885100000002
 30
0.0
  0
ENDBLK
  5
7CE1
  8
0
  0
BLOCK
  8
0
  2
*D11
 70
     1
 10
0.0
 20
0.0
 30
0.0
  3
*D11
  1

  0
LINE
  5
7EA3
  8
3
  6
CONTINUOUS
 62
     0
 10
2789.4425550000001
 20
2729.0385970000002
 30
0.0
 11
2789.4425550000001
 21
2962.9445279999991
 31
0.0
  0
LINE
  5
7EA4
  8
3
  6
CONTINUOUS
 62
     0
 10
3079.4425550000001
 20
2942.9445279999991
 30
0.0
 11
2829.4425549999992
 21
2942.9445279999991
 31
0.0
  0
INSERT
  5
7EA5
  8
3
  6
CONTINUOUS
 62
     0
  2
_OPEN
 10
3119.4425550000001
 20
2942.9445279999991
 30
0.0
 41
40.0
 42
40.0
 43
40.0
  0
INSERT
  5
7EA6
  8
3
  6
CONTINUOUS
 62
     0
  2
_OPEN
 10
2789.4425550000001
 20
2942.9445279999991
 30
0.0
 41
40.0
 42
40.0
 43
40.0
 50
180.0
  0
TEXT
  8
3
  40
60
  5
7EE0
  62
0
  72
0
  71
0
 10
2834.44
 20
2936.74
 30
0.000000
  1
MAX
  0
TEXT
  8
3
  40
60
  5
7EE1
  62
0
  72
0
  71
0
 10
2834.44
 20
2858.74
 30
0.000000
  1
380
  0
POINT
  5
7EA8
  8
DEFPOINTS
  6
CONTINUOUS
 62
     0
 10
3119.4425550000001
 20
2935.7382339999999
 30
0.0
  0
POINT
  5
7EA9
  8
DEFPOINTS
  6
CONTINUOUS
 62
     0
 10
2789.4425550000001
 20
2719.0385969999988
 30
0.0
  0
POINT
  5
7EAA
  8
DEFPOINTS
  6
CONTINUOUS
 62
     0
 10
2789.4425550000001
 20
2942.9445279999991
 30
0.0
  0
ENDBLK
  5
7D92
  8
0
  0
BLOCK
  8
0
  2
*D12
 70
     1
 10
0.0
 20
0.0
 30
0.0
  3
*D12
  1

  0
LINE
  5
7EAB
  8
3
  6
CONTINUOUS
 62
     0
 10
3279.4425550000001
 20
2149.0385970000002
 30
0.0
 11
3415.5208240000011
 21
2149.0385970000002
 31
0.0
  0
LINE
  5
7EAC
  8
3
  6
CONTINUOUS
 62
     0
 10
3279.4425550000001
 20
2579.0385970000002
 30
0.0
 11
3415.5208240000011
 21
2579.0385970000002
 31
0.0
  0
LINE
  5
7EAD
  8
3
  6
CONTINUOUS
 62
     0
 10
3395.5208240000002
 20
2189.0385969999988
 30
0.0
 11
3395.5208240000002
 21
2539.0385969999988
 31
0.0
  0
INSERT
  5
7EAE
  8
3
  6
CONTINUOUS
 62
     0
  2
_OPEN
 10
3395.5208240000002
 20
2149.0385970000002
 30
0.0
 41
40.0
 42
40.0
 43
40.0
 50
270.0
  0
INSERT
  5
7EAF
  8
3
  6
CONTINUOUS
 62
     0
  2
_OPEN
 10
3395.5208240000002
 20
2579.0385970000002
 30
0.0
 41
40.0
 42
40.0
 43
40.0
 50
90.0
  0
TEXT
  8
3
  40
60
  5
7EE2
  62
0
  72
0
  71
0
 10
3225.52
 20
2264.69
 30
0.000000
  1
φ430
  0
POINT
  5
7EB1
  8
DEFPOINTS
  6
CONTINUOUS
 62
     0
 10
3269.4425549999992
 20
2149.0385970000002
 30
0.0
  0
POINT
  5
7EB2
  8
DEFPOINTS
  6
CONTINUOUS
 62
     0
 10
3269.4425549999992
 20
2579.0385970000002
 30
0.0
  0
POINT
  5
7EB3
  8
DEFPOINTS
  6
CONTINUOUS
 62
     0
 10
3395.5208240000002
 20
2579.0385970000002
 30
0.0
  0
ENDBLK
  5
7D4F
  8
0
  0
BLOCK
  8
0
  2
*D13
 70
     1
 10
0.0
 20
0.0
 30
0.0
  3
*D13
  1

  0
LINE
  5
7EB4
  8
3
  6
CONTINUOUS
 62
     0
 10
1129.357258
 20
3972.8085969999988
 30
0.0
 11
1129.357258
 21
4147.9426449999992
 31
0.0
  0
LINE
  5
7EB5
  8
3
  6
CONTINUOUS
 62
     0
 10
2129.357258
 20
3972.8085969999988
 30
0.0
 11
2129.357258
 21
4147.9426449999992
 31
0.0
  0
LINE
  5
7EB6
  8
3
  6
CONTINUOUS
 62
     0
 10
1169.357258
 20
4127.9426450000001
 30
0.0
 11
2089.357258
 21
4127.9426450000001
 31
0.0
  0
INSERT
  5
7EB7
  8
3
  6
CONTINUOUS
 62
     0
  2
_OPEN
 10
1129.357258
 20
4127.9426450000001
 30
0.0
 41
40.0
 42
40.0
 43
40.0
 50
180.0
  0
INSERT
  5
7EB8
  8
3
  6
CONTINUOUS
 62
     0
  2
_OPEN
 10
2129.357258
 20
4127.9426450000001
 30
0.0
 41
40.0
 42
40.0
 43
40.0
  0
TEXT
  8
3
  40
60
  5
7EE3
  62
0
  72
0
  71
0
 10
1433.79
 20
4071.74
 30
0.000000
  1
1000
  0
POINT
  5
7EBA
  8
DEFPOINTS
  6
CONTINUOUS
 62
     0
 10
1129.357258
 20
3962.8085970000002
 30
0.0
  0
POINT
  5
7EBB
  8
DEFPOINTS
  6
CONTINUOUS
 62
     0
 10
2129.357258
 20
3962.8085970000002
 30
0.0
  0
POINT
  5
7EBC
  8
DEFPOINTS
  6
CONTINUOUS
 62
     0
 10
2129.357258
 20
4127.9426450000001
 30
0.0
  0
ENDBLK
  5
7C9E
  8
0
  0
BLOCK
  8
0
  2
*D14
 70
     1
 10
0.0
 20
0.0
 30
0.0
  3
*D14
  1

  0
LINE
  5
7EBD
  8
3
  6
CONTINUOUS
 62
     0
 10
2139.3572579999991
 20
3962.8085970000002
 30
0.0
 11
2327.0491870000001
 21
3962.8085970000002
 31
0.0
  0
LINE
  5
7EBE
  8
3
  6
CONTINUOUS
 62
     0
 10
2139.3572579999991
 20
3574.8085970000002
 30
0.0
 11
2327.0491870000001
 21
3574.8085970000002
 31
0.0
  0
LINE
  5
7EBF
  8
3
  6
CONTINUOUS
 62
     0
 10
2307.0491870000001
 20
3922.8085969999988
 30
0.0
 11
2307.0491870000001
 21
3614.8085969999988
 31
0.0
  0
INSERT
  5
7EC0
  8
3
  6
CONTINUOUS
 62
     0
  2
_OPEN
 10
2307.0491870000001
 20
3962.8085970000002
 30
0.0
 41
40.0
 42
40.0
 43
40.0
 50
90.0
  0
INSERT
  5
7EC1
  8
3
  6
CONTINUOUS
 62
     0
  2
_OPEN
 10
2307.0491870000001
 20
3574.8085970000002
 30
0.0
 41
40.0
 42
40.0
 43
40.0
 50
270.0
  0
TEXT
  8
3
  40
60
  5
7EE4
  62
0
  72
0
  71
0
 10
2137.05
 20
3666.01
 30
0.000000
  1
388
  0
POINT
  5
7EC3
  8
DEFPOINTS
  6
CONTINUOUS
 62
     0
 10
2129.357258
 20
3962.8085970000002
 30
0.0
  0
POINT
  5
7EC4
  8
DEFPOINTS
  6
CONTINUOUS
 62
     0
 10
2129.357258
 20
3574.8085970000002
 30
0.0
  0
POINT
  5
7EC5
  8
DEFPOINTS
  6
CONTINUOUS
 62
     0
 10
2307.0491870000001
 20
3574.8085970000002
 30
0.0
  0
ENDBLK
  5
7CA9
  8
0
  0
BLOCK
  8
0
  2
*D15
 70
     1
 10
0.0
 20
0.0
 30
0.0
  3
*D15
  1

  0
LINE
  5
7EC6
  8
3
  6
CONTINUOUS
 62
     0
 10
1079.357258
 20
2789.0385969999988
 30
0.0
 11
729.77906300000041
 21
2789.0385970000002
 31
0.0
  0
LINE
  5
7EC7
  8
3
  6
CONTINUOUS
 62
     0
 10
1119.3572579999991
 20
1984.0385969999991
 30
0.0
 11
729.77906300000029
 21
1984.0385969999991
 31
0.0
  0
LINE
  5
7EC8
  8
3
  6
CONTINUOUS
 62
     0
 10
749.77906300000041
 20
2749.0385970000002
 30
0.0
 11
749.77906300000029
 21
2024.038597
 31
0.0
  0
INSERT
  5
7EC9
  8
3
  6
CONTINUOUS
 62
     0
  2
_OPEN
 10
749.77906300000041
 20
2789.0385970000002
 30
0.0
 41
40.0
 42
40.0
 43
40.0
 50
90.0
  0
INSERT
  5
7ECA
  8
3
  6
CONTINUOUS
 62
     0
  2
_OPEN
 10
749.77906300000029
 20
1984.0385969999991
 30
0.0
 41
40.0
 42
40.0
 43
40.0
 50
270.0
  0
TEXT
  8
3
  40
60
  5
7EE5
  62
0
  72
0
  71
0
 10
579.779
 20
2285.19
 30
0.000000
  1
805
  0
POINT
  5
7ECC
  8
DEFPOINTS
  6
CONTINUOUS
 62
     0
 10
1089.357258
 20
2789.0385969999988
 30
0.0
  0
POINT
  5
7ECD
  8
DEFPOINTS
  6
CONTINUOUS
 62
     0
 10
1129.357258
 20
1984.0385969999991
 30
0.0
  0
POINT
  5
7ECE
  8
DEFPOINTS
  6
CONTINUOUS
 62
     0
 10
749.77906300000029
 20
1984.0385969999991
 30
0.0
  0
ENDBLK
  5
7C46
  8
0
  0
BLOCK
  8
0
  2
*D16
 70
     1
 10
0.0
 20
0.0
 30
0.0
  3
*D16
  1

  0
LINE
  5
7D72
  8
0
  6
BYBLOCK
 62
     0
 10
3119.4425550000001
 20
2909.5449118685301
 30
0.0
 11
3119.4425550000001
 21
2962.9445279999991
 31
0.0
  0
LINE
  5
7D73
  8
0
  6
BYBLOCK
 62
     0
 10
3270.4425550000001
 20
2589.0385970000002
 30
0.0
 11
3270.4425550000001
 21
2962.9445279999991
 31
0.0
  0
LINE
  5
7D74
  8
0
  6
BYBLOCK
 62
     0
 10
3159.4425550000001
 20
2942.9445279999991
 30
0.0
 11
3230.4425550000001
 21
2942.9445279999991
 31
0.0
  0
TEXT
  5
7D75
  8
3
 62
     0
 10
3125.698599090133
 20
2960.5333113357392
 30
0.0
 40
60.0
  1
151
  0
INSERT
  5
7D76
  8
0
  6
BYBLOCK
 62
     0
  2
_OPEN
 10
3119.4425550000001
 20
2942.9445279999991
 30
0.0
 41
40.0
 42
40.0
 43
40.0
 50
180.0
  0
INSERT
  5
7D77
  8
0
  6
BYBLOCK
 62
     0
  2
_OPEN
 10
3270.4425550000001
 20
2942.9445279999991
 30
0.0
 41
40.0
 42
40.0
 43
40.0
  0
POINT
  5
7D78
  8
DEFPOINTS
  6
BYBLOCK
 62
     0
 10
3119.4425550000001
 20
2899.5449118685301
 30
0.0
  0
POINT
  5
7D79
  8
DEFPOINTS
  6
BYBLOCK
 62
     0
 10
3270.4425550000001
 20
2579.0385970000002
 30
0.0
  0
POINT
  5
7D7A
  8
DEFPOINTS
  6
BYBLOCK
 62
     0
 10
3270.4425550000001
 20
2942.9445279999991
 30
0.0
  0
ENDBLK
  5
7D7B
  8
0
  0
BLOCK
  8
0
  2
*D17
 70
     1
 10
0.0
 20
0.0
 30
0.0
  3
*D17
  1

  0
LINE
  5
7ECF
  8
3
 62
     0
 10
1089.357258
 20
2789.0385969999988
 30
0.0
 11
1089.357258
 21
3027.2400202619201
 31
0.0
  0
LINE
  5
7ED0
  8
3
 62
     0
 10
2129.357258
 20
2074.0385969999988
 30
0.0
 11
2129.357258
 21
3027.2400202619201
 31
0.0
  0
LINE
  5
7ED1
  8
3
 62
     0
 10
1129.357258
 20
3007.240020261921
 30
0.0
 11
2089.357258
 21
3007.240020261921
 31
0.0
  0
INSERT
  5
7ED2
  8
3
 62
     0
  2
_OPEN
 10
1089.357258
 20
3007.240020261921
 30
0.0
 41
40.0
 42
40.0
 43
40.0
 50
180.0
  0
INSERT
  5
7ED3
  8
3
 62
     0
  2
_OPEN
 10
2129.357258
 20
3007.240020261921
 30
0.0
 41
40.0
 42
40.0
 43
40.0
  0
TEXT
  8
3
  40
60
  5
7EE6
  62
0
  72
0
  71
0
 10
1513.64
 20
2951.04
 30
0.000000
  1
1040
  0
POINT
  5
7ED5
  8
DEFPOINTS
 62
     0
 10
1089.357258
 20
2779.0385969999988
 30
0.0
  0
POINT
  5
7ED6
  8
DEFPOINTS
 62
     0
 10
2129.357258
 20
2064.0385969999988
 30
0.0
  0
POINT
  5
7ED7
  8
DEFPOINTS
 62
     0
 10
2129.357258
 20
3007.240020261921
 30
0.0
  0
ENDBLK
  5
7D87
  8
0
  0
ENDSEC
  0
SECTION
  2
ENTITIES
  0
CIRCLE
  5
7AA0
  8
1
  6
CONTINUOUS
 10
1389.357258
 20
2364.0385969999988
 30
0.0
 40
240.0
  0
LINE
  5
7AA1
  8
1
  6
CONTINUOUS
 10
1364.9672579999999
 20
2267.0585969999988
 30
0.0
 11
1906.5872579999991
 21
2130.8485969999988
 31
0.0
  0
LINE
  5
7AA2
  8
1
  6
CONTINUOUS
 10
1943.997257999999
 20
2244.548597
 30
0.0
 11
1427.317258
 21
2456.548597
 31
0.0
  0
LINE
  5
7AA3
  8
1
  6
CONTINUOUS
 10
1403.3572579999991
 20
3574.8085970000002
 30
0.0
 11
1907.227257999999
 21
3574.8085970000002
 31
0.0
  0
LINE
  5
7AA4
  8
1
  6
CONTINUOUS
 10
2083.857258
 20
3538.8085970000002
 30
0.0
 11
1213.8572579999991
 21
3538.8085970000002
 31
0.0
  0
LINE
  5
7AA5
  8
1
  6
CONTINUOUS
 10
1403.857258
 20
2719.0385969999988
 30
0.0
 11
2083.857258
 21
2314.0385969999988
 31
0.0
  0
LINE
  5
7AA6
  8
1
  6
CONTINUOUS
 10
2083.857258
 20
3438.8085969999988
 30
0.0
 11
1213.8572579999991
 21
3438.8085969999988
 31
0.0
  0
LINE
  5
7AA7
  8
1
  6
CONTINUOUS
 10
1729.357258
 20
3918.8085969999988
 30
0.0
 11
1089.357258
 21
3918.8085969999988
 31
0.0
  0
LINE
  5
7AA8
  8
1
  6
CONTINUOUS
 10
1729.357258
 20
3618.8085969999988
 30
0.0
 11
1089.357258
 21
3618.8085969999988
 31
0.0
  0
LINE
  5
7AA9
  8
1
  6
CONTINUOUS
 10
1129.357258
 20
3962.8085970000002
 30
0.0
 11
2129.357258
 21
3962.8085970000002
 31
0.0
  0
LINE
  5
7AAA
  8
1
  6
CONTINUOUS
 10
1129.357258
 20
1984.0385969999991
 30
0.0
 11
2129.357258
 21
1984.0385969999991
 31
0.0
  0
ARC
  5
7AAB
  8
1
  6
CONTINUOUS
 10
1362.357258
 20
2391.0385969999988
 30
0.0
 40
360.00999999999988
 50
354.17000000000002
 51
85.700000000000003
  0
ARC
  5
7AAC
  8
1
  6
CONTINUOUS
 10
1411.3572579999991
 20
2386.0385970000002
 30
0.0
 40
310.75999999999999
 50
262.69
 51
354.17000000000002
  0
LINE
  5
7AAD
  8
1
  6
CONTINUOUS
 10
1119.3572579999991
 20
2064.0385969999988
 30
0.0
 11
2129.357258
 21
2064.0385969999988
 31
0.0
  0
LINE
  5
7AAE
  8
1
  6
CONTINUOUS
 10
1119.3572579999991
 20
2664.0385969999988
 30
0.0
 11
1729.357258
 21
2664.0385969999988
 31
0.0
  0
CIRCLE
  5
7AAF
  8
1
  6
CONTINUOUS
 10
1389.357258
 20
2364.0385969999988
 30
0.0
 40
215.0
  0
LINE
  5
7AB0
  8
1
  6
CONTINUOUS
 10
1213.8572579999991
 20
2064.0385969999988
 30
0.0
 11
1213.8572579999991
 21
2604.0385970000002
 31
0.0
  0
LINE
  5
7AB1
  8
1
  6
CONTINUOUS
 10
1089.357258
 20
2325.0385969999988
 30
0.0
 11
1089.357258
 21
2779.0385969999988
 31
0.0
  0
LINE
  5
7AB2
  8
1
  6
CONTINUOUS
 10
1119.3572579999991
 20
2664.0385969999988
 30
0.0
 11
1119.3572579999991
 21
2064.0385969999988
 31
0.0
  0
LINE
  5
7AB3
  8
1
  6
CONTINUOUS
 10
1109.3572579999991
 20
2352.0385969999988
 30
0.0
 11
1109.3572579999991
 21
2751.8985969999999
 31
0.0
  0
ARC
  5
7AB4
  8
1
  6
CONTINUOUS
 10
1406.357258
 20
2347.0385970000002
 30
0.0
 40
271.43999999999988
 50
178.94
 51
262.69
  0
LINE
  5
7AB5
  8
1
  6
CONTINUOUS
 10
1129.357258
 20
2064.0385969999988
 30
0.0
 11
1129.357258
 21
1984.0385969999991
 31
0.0
  0
LINE
  5
7AB6
  8
1
  6
CONTINUOUS
 10
1134.957257999999
 20
2352.0385969999988
 30
0.0
 11
1089.357258
 21
2352.0385969999988
 31
0.0
  0
CIRCLE
  5
7AB7
  8
1
  6
CONTINUOUS
 10
1389.357258
 20
2364.0385969999988
 30
0.0
 40
100.0
  0
LINE
  5
7AB8
  8
2
  6
CENTER
 10
1049.4522014218089
 20
2363.3920025784769
 30
0.0
 11
2118.7822118483809
 21
2364.0385969999988
 31
0.0
  0
LINE
  5
7AB9
  8
2
  6
CENTER
 10
1389.357258
 20
4033.0203248675862
 30
0.0
 11
1389.357258
 21
3380.0402891796139
 31
0.0
  0
LINE
  5
7ABA
  8
1
  6
CONTINUOUS
 10
1213.8572579999991
 20
2604.0385970000002
 30
0.0
 11
1403.857258
 21
2719.0385969999988
 31
0.0
  0
LINE
  5
7ABB
  8
1
  6
CONTINUOUS
 10
1089.357258
 20
2752.0385970000002
 30
0.0
 11
1389.357258
 21
2750.0385969999988
 31
0.0
  0
LINE
  5
7ABC
  8
1
  6
CONTINUOUS
 10
1129.357258
 20
3574.8085970000002
 30
0.0
 11
1375.357258
 21
3574.8085970000002
 31
0.0
  0
LINE
  5
7ABD
  8
1
  6
CONTINUOUS
 10
1109.3572579999991
 20
3618.8085969999988
 30
0.0
 11
1109.3572579999991
 21
3918.8085969999988
 31
0.0
  0
LINE
  5
7ABE
  8
1
  6
CONTINUOUS
 10
1089.357258
 20
3591.8085969999988
 30
0.0
 11
1089.357258
 21
3945.8085970000002
 31
0.0
  0
LINE
  5
7ABF
  8
1
  6
CONTINUOUS
 10
1129.357258
 20
3618.8085969999988
 30
0.0
 11
1129.357258
 21
3574.8085970000002
 31
0.0
  0
LINE
  5
7AC0
  8
1
  6
CONTINUOUS
 10
1213.8572579999991
 20
3438.8085969999988
 30
0.0
 11
1213.8572579999991
 21
3538.8085970000002
 31
0.0
  0
LINE
  5
7AC1
  8
1
  6
CONTINUOUS
 10
1129.357258
 20
3962.8085970000002
 30
0.0
 11
1129.357258
 21
3918.8085969999988
 31
0.0
  0
LINE
  5
7AC2
  8
1
  6
CONTINUOUS
 10
1492.887258
 20
3513.8085970000002
 30
0.0
 11
1289.357258
 21
3513.8085970000002
 31
0.0
  0
LINE
  5
7AC3
  8
1
  6
CONTINUOUS
 10
1492.887258
 20
3463.8085969999988
 30
0.0
 11
1289.357258
 21
3463.8085969999988
 31
0.0
  0
LINE
  5
7AC4
  8
1
  6
CONTINUOUS
 10
1375.357258
 20
3513.8085970000002
 30
0.0
 11
1375.357258
 21
3618.8085969999988
 31
0.0
  0
LINE
  5
7AC5
  8
1
  6
CONTINUOUS
 10
1289.357258
 20
3463.8085969999988
 30
0.0
 11
1289.357258
 21
3513.8085970000002
 31
0.0
  0
LINE
  5
7AC6
  8
1
  6
CONTINUOUS
 10
1403.3572579999991
 20
3513.8085970000002
 30
0.0
 11
1403.3572579999991
 21
3618.8085969999988
 31
0.0
  0
LINE
  5
7AC7
  8
1
  6
CONTINUOUS
 10
1492.887258
 20
3463.8085969999988
 30
0.0
 11
1492.887258
 21
3513.8085970000002
 31
0.0
  0
LINE
  5
7ACA
  8
1
  6
CONTINUOUS
 10
1729.357258
 20
2664.0385969999988
 30
0.0
 11
1729.357258
 21
2064.0385969999988
 31
0.0
  0
ARC
  5
7ACB
  8
1
  6
CONTINUOUS
 10
1921.2272579999999
 20
2189.0385969999988
 30
0.0
 40
101.0
 50
322.88
 51
217.12
  0
LINE
  5
7ACC
  8
1
  6
CONTINUOUS
 10
1821.2272579999999
 20
2101.0385970000002
 30
0.0
 11
1840.687257999999
 21
2128.0785969999988
 31
0.0
  0
LINE
  5
7ACD
  8
1
  6
CONTINUOUS
 10
1821.2272579999999
 20
2064.0385969999988
 30
0.0
 11
1821.2272579999999
 21
2101.0385970000002
 31
0.0
  0
LINE
  5
7ACE
  8
1
  6
CONTINUOUS
 10
2129.357258
 20
2064.0385969999988
 30
0.0
 11
2129.357258
 21
1984.0385969999991
 31
0.0
  0
CIRCLE
  5
7ACF
  8
1
  6
CONTINUOUS
 10
1921.2272579999999
 20
2189.0385969999988
 30
0.0
 40
60.0
  0
LINE
  5
7AD0
  8
2
  6
CENTER
 10
1981.227257999999
 20
2189.0385969999988
 30
0.0
 11
1861.227257999999
 21
2189.0385969999988
 31
0.0
  0
LINE
  5
7AD1
  8
2
  6
CENTER
 10
1921.2272579999999
 20
2129.0385970000002
 30
0.0
 11
1921.2272579999999
 21
2249.0385969999988
 31
0.0
  0
LINE
  5
7AD2
  8
1
  6
CONTINUOUS
 10
2083.857258
 20
2064.0385969999988
 30
0.0
 11
2083.857258
 21
2314.0385969999988
 31
0.0
  0
LINE
  5
7AD3
  8
1
  6
CONTINUOUS
 10
2021.2272579999999
 20
2064.0385969999988
 30
0.0
 11
2021.2272579999999
 21
2101.0385970000002
 31
0.0
  0
LINE
  5
7AD4
  8
1
  6
CONTINUOUS
 10
2021.2272579999999
 20
2101.0385970000002
 30
0.0
 11
2001.7572580000001
 21
2128.0785969999988
 31
0.0
  0
LINE
  5
7AF4
  8
1
  6
CONTINUOUS
 10
3313.4425550000001
 20
1984.0385969999991
 30
0.0
 11
2925.4425550000001
 21
1984.0385969999991
 31
0.0
  0
LINE
  5
7AF5
  8
1
  6
CONTINUOUS
 10
3313.4425550000001
 20
2064.0385969999988
 30
0.0
 11
2789.4425550000001
 21
2064.0385969999988
 31
0.0
  0
LINE
  5
7AF6
  8
1
  6
CONTINUOUS
 10
2969.4425550000001
 20
2752.0385970000002
 30
0.0
 11
2969.4425550000001
 21
2064.0385969999988
 31
0.0
  0
LINE
  5
7AF7
  8
1
  6
CONTINUOUS
 10
3269.4425549999992
 20
2752.0385970000002
 30
0.0
 11
3269.4425549999992
 21
2064.0385969999988
 31
0.0
  0
LINE
  5
7AF8
  8
1
  6
CONTINUOUS
 10
2789.4425550000001
 20
2064.0385969999988
 30
0.0
 11
2789.4425550000001
 21
2719.0385969999988
 31
0.0
  0
LINE
  5
7AF9
  8
1
  6
CONTINUOUS
 10
2889.4425550000001
 20
2064.0385969999988
 30
0.0
 11
2889.4425550000001
 21
2719.0385969999988
 31
0.0
  0
LINE
  5
7AFA
  8
1
  6
CONTINUOUS
 10
3269.4425549999992
 20
2352.0385969999988
 30
0.0
 11
2969.4425550000001
 21
2752.0385970000002
 31
0.0
  0
LINE
  5
7AFB
  8
1
  6
CONTINUOUS
 10
2969.4425550000001
 20
2352.0385969999988
 30
0.0
 11
3269.4425549999992
 21
2752.0385970000002
 31
0.0
  0
LINE
  5
7AFC
  8
1
  6
CONTINUOUS
 10
2969.4425550000001
 20
2352.0385969999988
 30
0.0
 11
3269.4425549999992
 21
2352.0385969999988
 31
0.0
  0
LINE
  5
7AFD
  8
1
  6
CONTINUOUS
 10
2925.4425550000001
 20
2064.0385969999988
 30
0.0
 11
2925.4425550000001
 21
1984.0385969999991
 31
0.0
  0
LINE
  5
7AFE
  8
1
  6
CONTINUOUS
 10
2814.4425550000001
 20
2249.0385969999988
 30
0.0
 11
2864.4425550000001
 21
2249.0385969999988
 31
0.0
  0
LINE
  5
7AFF
  8
1
  6
CONTINUOUS
 10
2814.4425550000001
 20
2129.0385970000002
 30
0.0
 11
2864.4425550000001
 21
2129.0385970000002
 31
0.0
  0
LINE
  5
7B00
  8
1
  6
CONTINUOUS
 10
2814.4425550000001
 20
2465.798597
 30
0.0
 11
2864.4425550000001
 21
2465.798597
 31
0.0
  0
LINE
  5
7B01
  8
1
  6
CONTINUOUS
 10
2814.4425550000001
 20
2262.2685969999989
 30
0.0
 11
2864.4425550000001
 21
2262.2685969999989
 31
0.0
  0
LINE
  5
7B02
  8
1
  6
CONTINUOUS
 10
2814.4425550000001
 20
2129.0385970000002
 30
0.0
 11
2814.4425550000001
 21
2249.0385969999988
 31
0.0
  0
LINE
  5
7B03
  8
1
  6
CONTINUOUS
 10
2814.4425550000001
 20
2262.2685969999989
 30
0.0
 11
2814.4425550000001
 21
2465.798597
 31
0.0
  0
LINE
  5
7B04
  8
1
  6
CONTINUOUS
 10
2864.4425550000001
 20
2129.0385970000002
 30
0.0
 11
2864.4425550000001
 21
2249.0385969999988
 31
0.0
  0
LINE
  5
7B05
  8
1
  6
CONTINUOUS
 10
2864.4425550000001
 20
2203.0385969999988
 30
0.0
 11
2969.4425550000001
 21
2203.0385969999988
 31
0.0
  0
LINE
  5
7B06
  8
1
  6
CONTINUOUS
 10
2864.4425550000001
 20
2175.0385969999988
 30
0.0
 11
2969.4425550000001
 21
2175.0385969999988
 31
0.0
  0
LINE
  5
7B07
  8
1
  6
CONTINUOUS
 10
2864.4425550000001
 20
2379.798597
 30
0.0
 11
2970.2425549999998
 21
2379.798597
 31
0.0
  0
LINE
  5
7B08
  8
1
  6
CONTINUOUS
 10
2864.4425550000001
 20
2351.798597
 30
0.0
 11
2970.2425549999998
 21
2351.798597
 31
0.0
  0
LINE
  5
7B09
  8
1
  6
CONTINUOUS
 10
2864.4425550000001
 20
2262.2685969999989
 30
0.0
 11
2864.4425550000001
 21
2465.798597
 31
0.0
  0
LINE
  5
7B0A
  8
1
  6
CONTINUOUS
 10
2969.4425550000001
 20
2752.0385970000002
 30
0.0
 11
3269.4425549999992
 21
2752.0385970000002
 31
0.0
  0
LINE
  5
7B0B
  8
1
  6
CONTINUOUS
 10
2789.4425550000001
 20
2719.0385969999988
 30
0.0
 11
2889.4425550000001
 21
2719.0385969999988
 31
0.0
  0
LINE
  5
7B0C
  8
1
  6
CONTINUOUS
 10
3313.4425550000001
 20
2064.0385969999988
 30
0.0
 11
3313.4425550000001
 21
1984.0385969999991
 31
0.0
  0
LINE
  5
7B0F
  8
1
  6
CONTINUOUS
 10
1820.2272579999999
 20
3606.3285969999988
 30
0.0
 11
2022.2272579999999
 21
3606.3285969999988
 31
0.0
  0
LINE
  5
7B10
  8
1
  6
CONTINUOUS
 10
1820.2272579999999
 20
3849.008597
 30
0.0
 11
2022.2272579999999
 21
3849.008597
 31
0.0
  0
LINE
  5
7B11
  8
1
  6
CONTINUOUS
 10
1729.357258
 20
3618.8085969999988
 30
0.0
 11
1729.357258
 21
3918.8085969999988
 31
0.0
  0
LINE
  5
7B12
  8
1
  6
CONTINUOUS
 10
1820.2272579999999
 20
3606.3285969999988
 30
0.0
 11
1820.2272579999999
 21
3849.008597
 31
0.0
  0
LINE
  5
7B13
  8
1
  6
CONTINUOUS
 10
2129.357258
 20
3962.8085970000002
 30
0.0
 11
2129.357258
 21
3574.8085970000002
 31
0.0
  0
LINE
  5
7B14
  8
1
  6
CONTINUOUS
 10
2022.2272579999999
 20
3606.3285969999988
 30
0.0
 11
2022.2272579999999
 21
3849.008597
 31
0.0
  0
LINE
  5
7B15
  8
1
  6
CONTINUOUS
 10
1935.2272579999999
 20
3574.8085970000002
 30
0.0
 11
2129.357258
 21
3574.8085970000002
 31
0.0
  0
LINE
  5
7B16
  8
1
  6
CONTINUOUS
 10
1981.227257999999
 20
3513.8085970000002
 30
0.0
 11
1861.227257999999
 21
3513.8085970000002
 31
0.0
  0
LINE
  5
7B17
  8
1
  6
CONTINUOUS
 10
1981.227257999999
 20
3463.8085969999988
 30
0.0
 11
1861.227257999999
 21
3463.8085969999988
 31
0.0
  0
LINE
  5
7B18
  8
1
  6
CONTINUOUS
 10
1861.227257999999
 20
3463.8085969999988
 30
0.0
 11
1861.227257999999
 21
3513.8085970000002
 31
0.0
  0
LINE
  5
7B19
  8
1
  6
CONTINUOUS
 10
1981.227257999999
 20
3463.8085969999988
 30
0.0
 11
1981.227257999999
 21
3513.8085970000002
 31
0.0
  0
LINE
  5
7B1A
  8
1
  6
CONTINUOUS
 10
1907.227257999999
 20
3513.8085970000002
 30
0.0
 11
1907.227257999999
 21
3606.3285969999988
 31
0.0
  0
LINE
  5
7B1B
  8
1
  6
CONTINUOUS
 10
1935.2272579999999
 20
3513.8085970000002
 30
0.0
 11
1935.2272579999999
 21
3606.3285969999988
 31
0.0
  0
LINE
  5
7B1C
  8
1
  6
CONTINUOUS
 10
2083.857258
 20
3438.8085969999988
 30
0.0
 11
2083.857258
 21
3538.8085970000002
 31
0.0
  0
LINE
  5
7B3F
  8
4
  6
CONTINUOUS
 10
3700.0
 20
1000.0
 30
0.0
 11
3700.0
 21
600.0
 31
0.0
  0
LINE
  5
7B40
  8
4
  6
CONTINUOUS
 10
2300.0
 20
1000.0
 30
0.0
 11
2300.0
 21
600.0
 31
0.0
  0
LINE
  5
7B41
  8
4
  6
CONTINUOUS
 10
1300.0
 20
1000.0
 30
0.0
 11
1300.0
 21
600.0
 31
0.0
  0
LINE
  5
7B44
  8
4
  6
CONTINUOUS
 10
1300.0
 20
600.0
 30
0.0
 11
3700.0
 21
600.0
 31
0.0
  0
LINE
  5
7B45
  8
4
  6
CONTINUOUS
 10
1300.0
 20
800.0
 30
0.0
 11
3700.0
 21
800.0
 31
0.0
  0
TEXT
  5
7B46
  8
4
  6
CONTINUOUS
 10
1377.004162
 20
863.086052
 30
0.0
 40
100.0
  1
機器名称
  0
TEXT
  5
7B47
  8
4
  6
CONTINUOUS
 10
1372.516212
 20
643.29031299999986
 30
0.0
 40
100.0
  1
機器型番
  0
TEXT
  5
7B48
  8
4
  6
CONTINUOUS
 10
2355.3574910000002
 20
845.14353800000015
 30
0.0
 40
100.0
  1
ミツヤ多翼送風機
  0
TEXT
  5
7B49
  8
4
  6
CONTINUOUS
 10
2373.3089909999999
 20
634.31916899999999
 30
0.0
 40
100.0
  1
MFE#2 1/2-4
  0
TEXT
  5
7B4B
  8
4
  6
CONTINUOUS
 10
1809.5715309999989
 20
4766.8576830000002
 30
0.0
 40
108.0
  1
床置ベット
  0
TEXT
  5
7B4C
  8
4
  6
CONTINUOUS
 10
632.33518700000002
 20
5067.7619520000007
 30
0.0
 40
144.0
  1
ベルト駆動式片吸込両持排煙ファン
  0
LINE
  5
7B4D
  8
4
  6
CONTINUOUS
 10
500.0
 20
4938.8175090000004
 30
0.0
 11
3700.0
 21
4938.8175090000004
 31
0.0
  0
LINE
  5
7B4E
  8
4
  6
CONTINUOUS
 10
500.0
 20
5338.8175090000004
 30
0.0
 11
3700.0
 21
5338.8175090000004
 31
0.0
  0
LINE
  5
7B4F
  8
4
  6
CONTINUOUS
 10
1300.0
 20
1000.0
 30
0.0
 11
3700.0
 21
1000.0
 31
0.0
  0
LINE
  5
7B50
  8
4
  6
CONTINUOUS
 10
500.0
 20
5338.8175090000004
 30
0.0
 11
500.0
 21
4938.8175090000004
 31
0.0
  0
TEXT
  5
7B51
  8
4
  6
CONTINUOUS
 10
937.85386600000004
 20
4764.6389549999994
 30
0.0
 40
108.0
  1
左回転左横向
  0
TEXT
  5
7B52
  8
4
  6
CONTINUOUS
 10
2937.9391179999998
 20
5412.122163
 30
0.0
 40
112.0
  1
No.
  0
TEXT
  5
7B53
  8
4
  6
CONTINUOUS
 10
2622.5921250000001
 20
4766.8576830000002
 30
0.0
 40
108.0
  1
縮尺：1/20
  0
LINE
  5
7B54
  8
4
  6
CONTINUOUS
 10
3700.0
 20
5338.8175090000004
 30
0.0
 11
3700.0
 21
4938.8175090000004
 31
0.0
  0
LINE
  5
7B56
  8
4
  6
CONTINUOUS
 10
2881.234845
 20
5362.5271659999999
 30
0.0
 11
2881.234845
 21
5573.3045229999998
 31
0.0
  0
LINE
  5
7B57
  8
4
  6
CONTINUOUS
 10
2881.234845
 20
5573.3045229999998
 30
0.0
 11
3700.0
 21
5573.3045229999998
 31
0.0
  0
LINE
  5
7B58
  8
4
  6
CONTINUOUS
 10
3700.0
 20
5573.3045229999998
 30
0.0
 11
3700.0
 21
5362.5271659999999
 31
0.0
  0
LINE
  5
7B59
  8
4
  6
CONTINUOUS
 10
3700.0
 20
5362.5271659999999
 30
0.0
 11
2881.234845
 21
5362.5271659999999
 31
0.0
  0
LINE
  5
7B64
  8
2
  6
CENTER
 10
1035.8072900342561
 20
3768.8085969999988
 30
0.0
 11
2168.5741546591998
 21
3768.8085970000002
 31
0.0
  0
LINE
  5
7B65
  8
2
  6
CENTER
 10
3119.4425550000001
 20
2802.551277
 30
0.0
 11
3119.4425550000001
 21
1919.491908598822
 31
0.0
  0
LINE
  5
7B67
  8
2
  6
CENTER
 10
2750.8674309229968
 20
2364.0385969999988
 30
0.0
 11
3295.1311700000001
 21
2364.0385969999988
 31
0.0
  0
LINE
  5
7B68
  8
2
  6
CENTER
 10
1389.357258
 20
2892.640457
 30
0.0
 11
1389.357258
 21
1832.403014
 31
0.0
  0
DIMENSION
  5
7B76
  8
3
  6
CONTINUOUS
  2
*D1
 10
892.0176800000005
 20
2364.0385970000002
 30
0.0
 11
892.01768000000004
 21
2533.172822
 31
0.0
 70
   128
 13
1089.357258
 23
2752.0385970000002
 33
0.0
 14
1089.357258
 24
2364.0385969999988
 34
0.0
 50
90.0
1001
ACAD
1000
DSTYLE
1002
{
1070
   287
1070
     3
1070
   287
1070
     3
1070
    40
1040
20.0
1070
   143
1040
0.039
1070
   172
1070
     1
1070
   271
1070
     0
1070
   279
1070
     0
1070
   288
1070
     1
1002
}
  0
DIMENSION
  5
7B83
  8
3
  6
CONTINUOUS
  2
*D2
 10
1005.695839
 20
2352.0385970000002
 30
0.0
 11
1005.695839
 21
2545.3442639999998
 31
0.0
 70
   128
 13
1089.357258
 23
2752.0385970000002
 33
0.0
 14
1089.357258
 24
2352.0385969999988
 34
0.0
 50
90.0
1001
ACAD
1000
DSTYLE
1002
{
1070
   287
1070
     3
1070
   287
1070
     3
1070
    40
1040
20.0
1070
   143
1040
0.039
1070
   172
1070
     1
1070
   271
1070
     0
1070
   279
1070
     0
1070
   288
1070
     1
1002
}
  0
DIMENSION
  5
7B8F
  8
3
  6
CONTINUOUS
  2
*D3
 10
892.01768000000004
 20
1984.0385969999991
 30
0.0
 11
842.01767999999959
 21
2174.0385970000002
 31
0.0
 70
     0
 13
1089.357258
 23
2364.0385969999988
 33
0.0
 14
1129.357258
 24
1984.0385969999991
 34
0.0
 50
90.0
1001
ACAD
1000
DSTYLE
1002
{
1070
   287
1070
     4
1070
   287
1070
     4
1070
    40
1040
20.0
1070
    75
1070
     1
1070
   143
1040
0.039
1070
   172
1070
     1
1070
   271
1070
     0
1070
   279
1070
     1
1070
   288
1070
     1
1002
}
  0
DIMENSION
  5
7B9E
  8
3
  6
CONTINUOUS
  2
*D4
 10
1389.357258
 20
1822.484772
 30
0.0
 11
1259.357258
 21
1887.514476114198
 31
0.0
 70
   128
 13
1129.357258
 23
1984.0385969999991
 33
0.0
 14
1389.357258
 24
1984.0385969999991
 34
0.0
1001
ACAD
1000
DSTYLE
1002
{
1070
   288
1070
     1
1070
   172
1070
     1
1070
    40
1040
20.0
1070
   271
1070
     0
1070
   143
1040
0.039
1002
}
  0
DIMENSION
  5
7BAA
  8
3
  6
CONTINUOUS
  2
*D5
 10
2129.357258
 20
1822.484772
 30
0.0
 11
1759.357258
 21
1872.4847719999991
 31
0.0
 70
     0
 13
1389.357258
 23
1984.0385969999991
 33
0.0
 14
2129.357258
 24
1984.0385969999991
 34
0.0
1001
ACAD
1000
DSTYLE
1002
{
1070
   287
1070
     4
1070
   287
1070
     4
1070
    40
1040
20.0
1070
    75
1070
     1
1070
   143
1040
0.039
1070
   172
1070
     1
1070
   271
1070
     0
1070
   279
1070
     1
1070
   288
1070
     1
1002
}
  0
DIMENSION
  5
7BB7
  8
3
  6
CONTINUOUS
  2
*D6
 10
1389.357258
 20
2881.3892980000001
 30
0.0
 11
1226.5001150000001
 21
2881.3892980000001
 31
0.0
 70
   128
 13
1089.357258
 23
2779.0385969999988
 33
0.0
 14
1389.357258
 24
2750.0385969999988
 34
0.0
1001
ACAD
1000
DSTYLE
1002
{
1070
   287
1070
     3
1070
   287
1070
     3
1070
    40
1040
20.0
1070
   143
1040
0.039
1070
   172
1070
     1
1070
   271
1070
     0
1070
   279
1070
     0
1070
   288
1070
     1
1002
}
  0
DIMENSION
  5
7BC3
  8
3
  6
CONTINUOUS
  2
*D7
 10
1729.357258
 20
2881.3892980000001
 30
0.0
 11
1559.357258
 21
2931.3892980000001
 31
0.0
 70
     0
 13
1389.357258
 23
2750.0385969999988
 33
0.0
 14
1729.357258
 24
2664.0385969999988
 34
0.0
1001
ACAD
1000
DSTYLE
1002
{
1070
   287
1070
     4
1070
   287
1070
     4
1070
    40
1040
20.0
1070
    75
1070
     1
1070
   143
1040
0.039
1070
   172
1070
     1
1070
   271
1070
     0
1070
   279
1070
     1
1070
   288
1070
     1
1002
}
  0
DIMENSION
  5
7BD2
  8
3
  6
CONTINUOUS
  2
*D8
 10
3119.4425550000001
 20
1833.1708590000001
 30
0.0
 11
3216.4425550000001
 21
1881.2956228758969
 31
0.0
 70
   128
 13
3313.4425550000001
 23
1984.0385969999991
 33
0.0
 14
3119.4425550000001
 24
1984.0385969999991
 34
0.0
1001
ACAD
1000
DSTYLE
1002
{
1070
   288
1070
     1
1070
   172
1070
     1
1070
    40
1040
20.0
1070
   271
1070
     0
1070
   143
1040
0.039
1002
}
  0
DIMENSION
  5
7BE0
  8
3
  6
CONTINUOUS
  2
*D9
 10
2925.4425550000001
 20
1833.1708590000001
 30
0.0
 11
3031.397575
 21
1832.7881999999991
 31
0.0
 70
   128
 13
3119.4425550000001
 23
1984.0385969999991
 33
0.0
 14
2925.4425550000001
 24
1984.0385969999991
 34
0.0
1001
ACAD
1000
DSTYLE
1002
{
1070
   287
1070
     4
1070
   287
1070
     4
1070
    40
1040
20.0
1070
    75
1070
     1
1070
   143
1040
0.039
1070
   172
1070
     1
1070
   271
1070
     0
1070
   279
1070
     1
1070
   288
1070
     1
1002
}
  0
DIMENSION
  5
7BED
  8
3
  6
CONTINUOUS
  2
*D10
 10
2969.4425550000001
 20
2815.3885100000002
 30
0.0
 11
3106.5854119999999
 21
2815.3885100000002
 31
0.0
 70
   128
 13
3269.4425549999992
 23
2752.0385970000002
 33
0.0
 14
2969.4425550000001
 24
2752.0385970000002
 34
0.0
1001
ACAD
1000
DSTYLE
1002
{
1070
   287
1070
     3
1070
   287
1070
     3
1070
    40
1040
20.0
1070
   143
1040
0.039
1070
   172
1070
     1
1070
   271
1070
     0
1070
   279
1070
     0
1070
   288
1070
     1
1002
}
  0
DIMENSION
  5
7C07
  8
3
  6
CONTINUOUS
  2
*D11
 10
2789.4425550000001
 20
2942.9445279999991
 30
0.0
 11
2954.4425549999992
 21
3042.944528
 31
0.0
 70
     0
  1
MAX\P380
 13
3119.4425550000001
 23
2935.7382339999999
 33
0.0
 14
2789.4425550000001
 24
2719.0385969999988
 34
0.0
1001
ACAD
1000
DSTYLE
1002
{
1070
   287
1070
     4
1070
   287
1070
     4
1070
    40
1040
20.0
1070
    75
1070
     1
1070
   143
1040
0.039
1070
   172
1070
     1
1070
   271
1070
     0
1070
   279
1070
     1
1070
   288
1070
     1
1002
}
  0
DIMENSION
  5
7C16
  8
3
  6
CONTINUOUS
  2
*D12
 10
3395.5208240000002
 20
2579.0385970000002
 30
0.0
 11
3395.5208240000002
 21
2370.8869970000001
 31
0.0
 70
   128
 13
3269.4425549999992
 23
2149.0385970000002
 33
0.0
 14
3269.4425549999992
 24
2579.0385970000002
 34
0.0
 50
90.0
1001
ACAD
1000
DSTYLE
1002
{
1070
   287
1070
     3
1070
   287
1070
     3
1070
     3
1000
φ<>
1070
    40
1040
20.0
1070
   143
1040
0.039
1070
   172
1070
     1
1070
   271
1070
     0
1070
   279
1070
     0
1070
   288
1070
     1
1002
}
  0
DIMENSION
  5
7C23
  8
3
  6
CONTINUOUS
  2
*D13
 10
2129.357258
 20
4127.9426450000001
 30
0.0
 11
1553.786918
 21
4127.9426450000001
 31
0.0
 70
   128
 13
1129.357258
 23
3962.8085970000002
 33
0.0
 14
2129.357258
 24
3962.8085970000002
 34
0.0
1001
ACAD
1000
DSTYLE
1002
{
1070
   287
1070
     3
1070
   287
1070
     3
1070
    40
1040
20.0
1070
   143
1040
0.039
1070
   172
1070
     1
1070
   271
1070
     0
1070
   279
1070
     0
1070
   288
1070
     1
1002
}
  0
DIMENSION
  5
7C30
  8
3
  6
CONTINUOUS
  2
*D14
 10
2307.0491870000001
 20
3574.8085970000002
 30
0.0
 11
2307.0491870000001
 21
3772.2101989999992
 31
0.0
 70
   128
 13
2129.357258
 23
3962.8085970000002
 33
0.0
 14
2129.357258
 24
3574.8085970000002
 34
0.0
 50
90.0
1001
ACAD
1000
DSTYLE
1002
{
1070
   287
1070
     3
1070
   287
1070
     3
1070
    40
1040
20.0
1070
   143
1040
0.039
1070
   172
1070
     1
1070
   271
1070
     0
1070
   279
1070
     0
1070
   288
1070
     1
1002
}
  0
DIMENSION
  5
7C47
  8
3
  6
CONTINUOUS
  2
*D15
 10
749.77906300000029
 20
1984.0385969999991
 30
0.0
 11
749.77906299999995
 21
2391.3923930000001
 31
0.0
 70
   128
 13
1089.357258
 23
2789.0385969999988
 33
0.0
 14
1129.357258
 24
1984.0385969999991
 34
0.0
 50
90.0
1001
ACAD
1000
DSTYLE
1002
{
1070
   287
1070
     3
1070
   287
1070
     3
1070
    40
1040
20.0
1070
   143
1040
0.039
1070
   172
1070
     1
1070
   271
1070
     0
1070
   279
1070
     0
1070
   288
1070
     1
1002
}
  0
LINE
  5
7CE3
  8
1
  6
CONTINUOUS
 10
3270.4425550000001
 20
2579.0385970000002
 30
0.0
 11
3270.4425550000001
 21
2064.0385969999988
 31
0.0
  0
DIMENSION
  5
7CF2
  8
3
  6
CONTINUOUS
  2
*D16
 10
3270.4425550000001
 20
2942.9445279999991
 30
0.0
 11
3184.270027661561
 21
2990.5333113357392
 31
0.0
 70
   128
 13
3119.4425550000001
 23
2899.5449118685301
 33
0.0
 14
3270.4425550000001
 24
2579.0385970000002
 34
0.0
1001
ACAD
1000
DSTYLE
1002
{
1070
   288
1070
     1
1070
   172
1070
     1
1070
    40
1040
20.0
1070
   271
1070
     0
1070
   143
1040
0.039
1002
}
  0
DIMENSION
  5
7D88
  8
3
  2
*D17
 10
2129.357258
 20
3007.240020261921
 30
0.0
 11
1633.6421477261831
 21
3007.240020261921
 31
0.0
 70
   128
 13
1089.357258
 23
2779.0385969999988
 33
0.0
 14
2129.357258
 24
2064.0385969999988
 34
0.0
1001
ACAD
1000
DSTYLE
1002
{
1070
   287
1070
     3
1070
   287
1070
     3
1070
    40
1040
20.0
1070
   143
1040
0.039
1070
   172
1070
     1
1070
   271
1070
     0
1070
   279
1070
     0
1070
   288
1070
     1
1002
}
  0
ENDSEC
  0
EOF
