  0
SECTION
  2
HEADER
  9
$ACADVER
  1
AC1015
  9
$ACADMAINTVER
 70
    20
  9
$DWGCODEPAGE
  3
ANSI_932
  9
$INSBASE
 10
0.0
 20
0.0
 30
0.0
  9
$EXTMIN
 10
7786.166697834037
 20
-14237.41921203123
 30
0.0
  9
$EXTMAX
 10
19336.16669783403
 20
1987.580787968773
 30
0.0
  9
$LIMMIN
 10
0.0
 20
0.0
  9
$LIMMAX
 10
297.0
 20
210.0
  9
$ORTHOMODE
 70
     1
  9
$REGENMODE
 70
     1
  9
$FILLMODE
 70
     1
  9
$QTEXTMODE
 70
     0
  9
$MIRRTEXT
 70
     0
  9
$LTSCALE
 40
275.0
  9
$ATTMODE
 70
     1
  9
$TEXTSIZE
 40
137.5
  9
$TRACEWID
 40
0.05
  9
$TEXTSTYLE
  7
STANDARD
  9
$CLAYER
  8
SP
  9
$CELTYPE
  6
BYLAYER
  9
$CECOLOR
 62
   256
  9
$CELTSCALE
 40
1.0
  9
$DISPSILH
 70
     0
  9
$DIMSCALE
 40
55.0
  9
$DIMASZ
 40
2.0
  9
$DIMEXO
 40
1.0
  9
$DIMDLI
 40
10.0
  9
$DIMRND
 40
0.0
  9
$DIMDLE
 40
0.0
  9
$DIMEXE
 40
1.0
  9
$DIMTP
 40
0.0
  9
$DIMTM
 40
0.0
  9
$DIMTXT
 40
2.5
  9
$DIMCEN
 40
0.0
  9
$DIMTSZ
 40
0.0
  9
$DIMTOL
 70
     0
  9
$DIMLIM
 70
     0
  9
$DIMTIH
 70
     0
  9
$DIMTOH
 70
     0
  9
$DIMSE1
 70
     1
  9
$DIMSE2
 70
     1
  9
$DIMTAD
 70
     1
  9
$DIMZIN
 70
     8
  9
$DIMBLK
  1

  9
$DIMASO
 70
     1
  9
$DIMSHO
 70
     1
  9
$DIMPOST
  1
(<>)
  9
$DIMAPOST
  1

  9
$DIMALT
 70
     0
  9
$DIMALTD
 70
     2
  9
$DIMALTF
 40
0.03937
  9
$DIMLFAC
 40
1.0
  9
$DIMTOFL
 70
     1
  9
$DIMTVP
 40
0.0
  9
$DIMTIX
 70
     0
  9
$DIMSOXD
 70
     0
  9
$DIMSAH
 70
     1
  9
$DIMBLK1
  1
NONE
  9
$DIMBLK2
  1
NONE
  9
$DIMSTYLE
  2
MATSU
  9
$DIMCLRD
 70
   256
  9
$DIMCLRE
 70
   256
  9
$DIMCLRT
 70
   256
  9
$DIMTFAC
 40
1.0
  9
$DIMGAP
 40
1.0
  9
$DIMJUST
 70
     0
  9
$DIMSD1
 70
     0
  9
$DIMSD2
 70
     0
  9
$DIMTOLJ
 70
     1
  9
$DIMTZIN
 70
     8
  9
$DIMALTZ
 70
     0
  9
$DIMALTTZ
 70
     0
  9
$DIMUPT
 70
     0
  9
$DIMDEC
 70
     0
  9
$DIMTDEC
 70
     4
  9
$DIMALTU
 70
     2
  9
$DIMALTTD
 70
     2
  9
$DIMTXSTY
  7
STANDARD
  9
$DIMAUNIT
 70
     0
  9
$DIMADEC
 70
     0
  9
$DIMALTRND
 40
0.0
  9
$DIMAZIN
 70
     0
  9
$DIMDSEP
 70
    46
  9
$DIMATFIT
 70
     3
  9
$DIMFRAC
 70
     0
  9
$DIMLDRBLK
  1
NONE
  9
$DIMLUNIT
 70
     2
  9
$DIMLWD
 70
    -2
  9
$DIMLWE
 70
    -2
  9
$DIMTMOVE
 70
     2
  9
$LUNITS
 70
     2
  9
$LUPREC
 70
     4
  9
$SKETCHINC
 40
0.1
  9
$FILLETRAD
 40
0.0
  9
$AUNITS
 70
     0
  9
$AUPREC
 70
     2
  9
$MENU
  1
acad
  9
$ELEVATION
 40
0.0
  9
$PELEVATION
 40
0.0
  9
$THICKNESS
 40
0.0
  9
$LIMCHECK
 70
     0
  9
$CHAMFERA
 40
20.0
  9
$CHAMFERB
 40
20.0
  9
$CHAMFERC
 40
20.0
  9
$CHAMFERD
 40
0.0
  9
$SKPOLY
 70
     0
  9
$TDCREATE
 40
2453950.639282407
  9
$TDUCREATE
 40
2453950.264283854
  9
$TDUPDATE
 40
2460255.328611111
  9
$TDUUPDATE
 40
2460254.953611111
  9
$TDINDWG
 40
0.3726762153
  9
$TDUSRTIMER
 40
0.3726762153
  9
$USRTIMER
 70
     1
  9
$ANGBASE
 50
0.0
  9
$ANGDIR
 70
     0
  9
$PDMODE
 70
     0
  9
$PDSIZE
 40
1.0
  9
$PLINEWID
 40
0.0
  9
$SPLFRAME
 70
     0
  9
$SPLINETYPE
 70
     6
  9
$SPLINESEGS
 70
     8
  9
$HANDSEED
  5
C672
  9
$SURFTAB1
 70
     6
  9
$SURFTAB2
 70
     6
  9
$SURFTYPE
 70
     6
  9
$SURFU
 70
     6
  9
$SURFV
 70
     6
  9
$UCSBASE
  2

  9
$UCSNAME
  2

  9
$UCSORG
 10
0.0
 20
-0.0000000000000568
 30
0.0
  9
$UCSXDIR
 10
1.0
 20
0.0
 30
0.0
  9
$UCSYDIR
 10
0.0
 20
1.0
 30
0.0
  9
$UCSORTHOREF
  2

  9
$UCSORTHOVIEW
 70
     0
  9
$UCSORGTOP
 10
0.0
 20
0.0
 30
0.0
  9
$UCSORGBOTTOM
 10
0.0
 20
0.0
 30
0.0
  9
$UCSORGLEFT
 10
0.0
 20
0.0
 30
0.0
  9
$UCSORGRIGHT
 10
0.0
 20
0.0
 30
0.0
  9
$UCSORGFRONT
 10
0.0
 20
0.0
 30
0.0
  9
$UCSORGBACK
 10
0.0
 20
0.0
 30
0.0
  9
$PUCSBASE
  2

  9
$PUCSNAME
  2

  9
$PUCSORG
 10
0.0
 20
0.0
 30
0.0
  9
$PUCSXDIR
 10
1.0
 20
0.0
 30
0.0
  9
$PUCSYDIR
 10
0.0
 20
1.0
 30
0.0
  9
$PUCSORTHOREF
  2

  9
$PUCSORTHOVIEW
 70
     0
  9
$PUCSORGTOP
 10
0.0
 20
0.0
 30
0.0
  9
$PUCSORGBOTTOM
 10
0.0
 20
0.0
 30
0.0
  9
$PUCSORGLEFT
 10
0.0
 20
0.0
 30
0.0
  9
$PUCSORGRIGHT
 10
0.0
 20
0.0
 30
0.0
  9
$PUCSORGFRONT
 10
0.0
 20
0.0
 30
0.0
  9
$PUCSORGBACK
 10
0.0
 20
0.0
 30
0.0
  9
$USERI1
 70
     0
  9
$USERI2
 70
     0
  9
$USERI3
 70
     0
  9
$USERI4
 70
     0
  9
$USERI5
 70
     0
  9
$USERR1
 40
0.0
  9
$USERR2
 40
0.0
  9
$USERR3
 40
0.0
  9
$USERR4
 40
0.0
  9
$USERR5
 40
0.0
  9
$WORLDVIEW
 70
     1
  9
$SHADEDGE
 70
     3
  9
$SHADEDIF
 70
    70
  9
$TILEMODE
 70
     1
  9
$MAXACTVP
 70
    16
  9
$PINSBASE
 10
0.0
 20
0.0
 30
0.0
  9
$PLIMCHECK
 70
     0
  9
$PEXTMIN
 10
1.000000000000000E+20
 20
1.000000000000000E+20
 30
1.000000000000000E+20
  9
$PEXTMAX
 10
-1.000000000000000E+20
 20
-1.000000000000000E+20
 30
-1.000000000000000E+20
  9
$PLIMMIN
 10
0.0
 20
0.0
  9
$PLIMMAX
 10
12.0
 20
9.0
  9
$UNITMODE
 70
     0
  9
$VISRETAIN
 70
     0
  9
$PLINEGEN
 70
     0
  9
$PSLTSCALE
 70
     0
  9
$TREEDEPTH
 70
  3020
  9
$CMLSTYLE
  2
STANDARD
  9
$CMLJUST
 70
     0
  9
$CMLSCALE
 40
20.0
  9
$PROXYGRAPHICS
 70
     1
  9
$MEASUREMENT
 70
     1
  9
$CELWEIGHT
370
    -1
  9
$ENDCAPS
280
     0
  9
$JOINSTYLE
280
     0
  9
$LWDISPLAY
290
     0
  9
$INSUNITS
 70
     0
  9
$HYPERLINKBASE
  1

  9
$STYLESHEET
  1

  9
$XEDIT
290
     1
  9
$CEPSNTYPE
380
     0
  9
$PSTYLEMODE
290
     1
  9
$FINGERPRINTGUID
  2
{989B8C16-17C7-406F-8ABE-A4879C1F2D3B}
  9
$VERSIONGUID
  2
{D76EE74E-5764-473E-A856-FAA8AF14A953}
  9
$EXTNAMES
290
     1
  9
$PSVPSCALE
 40
0.0
  9
$OLESTARTUP
290
     0
  0
ENDSEC
  0
SECTION
  2
CLASSES
  0
CLASS
  1
ACDBDICTIONARYWDFLT
  2
AcDbDictionaryWithDefault
  3
ObjectDBX Classes
 90
        0
280
     0
281
     0
  0
CLASS
  1
ACDBPLACEHOLDER
  2
AcDbPlaceHolder
  3
ObjectDBX Classes
 90
        0
280
     0
281
     0
  0
CLASS
  1
LAYOUT
  2
AcDbLayout
  3
ObjectDBX Classes
 90
        0
280
     0
281
     0
  0
CLASS
  1
DICTIONARYVAR
  2
AcDbDictionaryVar
  3
ObjectDBX Classes
 90
        0
280
     0
281
     0
  0
CLASS
  1
MATERIAL
  2
AcDbMaterial
  3
ObjectDBX Classes
 90
     1153
280
     0
281
     0
  0
CLASS
  1
VISUALSTYLE
  2
AcDbVisualStyle
  3
ObjectDBX Classes
 90
     4095
280
     0
281
     0
  0
CLASS
  1
TABLESTYLE
  2
AcDbTableStyle
  3
ObjectDBX Classes
 90
     4095
280
     0
281
     0
  0
CLASS
  1
SCALE
  2
AcDbScale
  3
ObjectDBX Classes
 90
     1153
280
     0
281
     0
  0
CLASS
  1
MLEADERSTYLE
  2
AcDbMLeaderStyle
  3
ACDB_MLEADERSTYLE_CLASS
 90
     4095
280
     0
281
     0
  0
CLASS
  1
ACDBSECTIONVIEWSTYLE
  2
AcDbSectionViewStyle
  3
ObjectDBX Classes
 90
     1025
280
     0
281
     0
  0
CLASS
  1
ACDBDETAILVIEWSTYLE
  2
AcDbDetailViewStyle
  3
ObjectDBX Classes
 90
     1025
280
     0
281
     0
  0
CLASS
  1
CELLSTYLEMAP
  2
AcDbCellStyleMap
  3
ObjectDBX Classes
 90
     1152
280
     0
281
     0
  0
ENDSEC
  0
SECTION
  2
TABLES
  0
TABLE
  2
VPORT
  5
8
330
0
100
AcDbSymbolTable
 70
     1
  0
VPORT
  5
C594
330
8
100
AcDbSymbolTableRecord
100
AcDbViewportTableRecord
  2
*Active
 70
     0
 10
0.0
 20
0.0
 11
1.0
 21
1.0
 12
13561.22181976369
 22
-5892.894324163232
 13
0.0
 23
0.0
 14
5.0
 24
5.0
 15
0.0
 25
0.0
 16
0.0
 26
0.0
 36
1.0
 17
0.0
 27
0.0
 37
0.0
 40
15713.94549387747
 41
2.130733944954128
 42
50.0
 43
0.0
 44
0.0
 50
0.0
 51
0.0
 71
     0
 72
   100
 73
     1
 74
     0
 75
     0
 76
     0
 77
     0
 78
     0
281
     0
 65
     1
110
0.0
120
-0.0000000000000568
130
0.0
111
1.0
121
0.0
131
0.0
112
0.0
122
1.0
132
0.0
 79
     0
146
0.0
1001
ACAD_NAV_VCDISPLAY
1070
     3
  0
ENDTAB
  0
TABLE
  2
LTYPE
  5
5
330
0
100
AcDbSymbolTable
 70
     3
  0
LTYPE
  5
13
330
5
100
AcDbSymbolTableRecord
100
AcDbLinetypeTableRecord
  2
BYBLOCK
 70
     0
  3

 72
    65
 73
     0
 40
0.0
  0
LTYPE
  5
14
330
5
100
AcDbSymbolTableRecord
100
AcDbLinetypeTableRecord
  2
BYLAYER
 70
     0
  3

 72
    65
 73
     0
 40
0.0
  0
LTYPE
  5
15
330
5
100
AcDbSymbolTableRecord
100
AcDbLinetypeTableRecord
  2
CONTINUOUS
 70
     0
  3
Solid line
 72
    65
 73
     0
 40
0.0
  0
LTYPE
  5
1F
330
5
100
AcDbSymbolTableRecord
100
AcDbLinetypeTableRecord
  2
CENTER
 70
     0
  3
____ _ ____ _ ____ _ ____ _ ____ _ ____ _ ____ 
 72
    65
 73
     4
 40
2.0
 49
1.25
 74
     0
 49
-0.25
 74
     0
 49
0.25
 74
     0
 49
-0.25
 74
     0
  0
LTYPE
  5
21
330
5
100
AcDbSymbolTableRecord
100
AcDbLinetypeTableRecord
  2
PHANTOM
 70
     0
  3
______  __  __  ______  __  __  ______  __  __ 
 72
    65
 73
     6
 40
2.5
 49
1.25
 74
     0
 49
-0.25
 74
     0
 49
0.25
 74
     0
 49
-0.25
 74
     0
 49
0.25
 74
     0
 49
-0.25
 74
     0
  0
ENDTAB
  0
TABLE
  2
LAYER
  5
2
102
{ACAD_XDICTIONARY
360
C609
102
}
330
0
100
AcDbSymbolTable
 70
     7
  0
LAYER
  5
F
102
{ACAD_XDICTIONARY
360
C5FA
102
}
330
2
100
AcDbSymbolTableRecord
100
AcDbLayerTableRecord
  2
0
 70
     0
 62
     7
  6
CONTINUOUS
370
    -3
390
C54F
  0
LAYER
  5
2F
102
{ACAD_XDICTIONARY
360
C5FC
102
}
330
2
100
AcDbSymbolTableRecord
100
AcDbLayerTableRecord
  2
CT
 70
     0
 62
     3
  6
CENTER
370
    -3
390
C54F
  0
LAYER
  5
30
102
{ACAD_XDICTIONARY
360
C5FE
102
}
330
2
100
AcDbSymbolTableRecord
100
AcDbLayerTableRecord
  2
FUTO
 70
     0
 62
     4
  6
CONTINUOUS
370
    -3
390
C54F
  0
LAYER
  5
35
102
{ACAD_XDICTIONARY
360
C600
102
}
330
2
100
AcDbSymbolTableRecord
100
AcDbLayerTableRecord
  2
SL
 70
     0
 62
     1
  6
PHANTOM
370
    -3
390
C54F
  0
LAYER
  5
36
102
{ACAD_XDICTIONARY
360
C602
102
}
330
2
100
AcDbSymbolTableRecord
100
AcDbLayerTableRecord
  2
SP
 70
     0
 62
     2
  6
CONTINUOUS
370
    -3
390
C54F
  0
LAYER
  5
5241
330
2
100
AcDbSymbolTableRecord
100
AcDbLayerTableRecord
  2
DEFPOINTS
 70
     0
 62
     7
  6
CONTINUOUS
290
     0
370
    -3
390
C54F
  0
LAYER
  5
99F1
102
{ACAD_XDICTIONARY
360
C604
102
}
330
2
100
AcDbSymbolTableRecord
100
AcDbLayerTableRecord
  2
4
 70
     0
 62
     7
  6
CONTINUOUS
370
    -3
390
C54F
  0
ENDTAB
  0
TABLE
  2
STYLE
  5
3
330
0
100
AcDbSymbolTable
 70
     1
  0
STYLE
  5
10
330
3
100
AcDbSymbolTableRecord
100
AcDbTextStyleTableRecord
  2
STANDARD
 70
     0
 40
0.0
 41
1.0
 50
15.0
 71
     0
 42
137.5
  3
C:\Program Files\AutoCAD LT\simplex.shx
  4
C:\Program Files\AutoCAD LT\extfont.shx
  0
ENDTAB
  0
TABLE
  2
VIEW
  5
6
330
0
100
AcDbSymbolTable
 70
     0
  0
ENDTAB
  0
TABLE
  2
UCS
  5
7
330
0
100
AcDbSymbolTable
 70
     0
  0
ENDTAB
  0
TABLE
  2
APPID
  5
9
330
0
100
AcDbSymbolTable
 70
     4
  0
APPID
  5
11
330
9
100
AcDbSymbolTableRecord
100
AcDbRegAppTableRecord
  2
ACAD
 70
     0
  0
APPID
  5
5333
330
9
100
AcDbSymbolTableRecord
100
AcDbRegAppTableRecord
  2
CONTENTBLOCKICON
 70
     0
  0
APPID
  5
C60F
330
9
100
AcDbSymbolTableRecord
100
AcDbRegAppTableRecord
  2
ACAD_NAV_VCDISPLAY
 70
     0
  0
APPID
  5
C66B
330
9
100
AcDbSymbolTableRecord
100
AcDbRegAppTableRecord
  2
ACAD_MLEADERVER
 70
     0
  0
ENDTAB
  0
TABLE
  2
DIMSTYLE
  5
A
330
0
100
AcDbSymbolTable
 70
     2
100
AcDbDimStyleTable
 71
     1
340
2C
  0
DIMSTYLE
105
1D
330
A
100
AcDbSymbolTableRecord
100
AcDbDimStyleTableRecord
  2
STANDARD
 70
     0
340
10
  0
DIMSTYLE
105
2C
102
{ACAD_REACTORS
330
C2B4
330
C2C1
330
C2CE
330
C2DB
330
C2E8
330
C350
330
C35D
330
C36A
330
C377
330
C384
330
C391
330
C3D4
330
C3E1
330
C3EE
330
C408
330
C423
330
C430
330
C43D
330
C44A
330
C457
330
C528
330
C54B
102
}
330
A
100
AcDbSymbolTableRecord
100
AcDbDimStyleTableRecord
  2
MATSU
 70
     0
 41
2.0
 42
1.0
 43
10.0
 44
1.0
 73
     0
 74
     0
 77
     1
 78
     8
140
3.0
141
0.0
143
0.03937
147
0.5
172
     1
173
     1
176
   256
177
   256
178
   256
284
     8
289
     0
340
10
341
26
343
26
344
26
  0
ENDTAB
  0
TABLE
  2
BLOCK_RECORD
  5
1
330
0
100
AcDbSymbolTable
 70
    25
  0
BLOCK_RECORD
  5
19
102
{ACAD_XDICTIONARY
360
C57D
102
}
330
1
100
AcDbSymbolTableRecord
100
AcDbBlockTableRecord
  2
*MODEL_SPACE
340
C552
  0
BLOCK_RECORD
  5
16
102
{ACAD_XDICTIONARY
360
C57B
102
}
330
1
100
AcDbSymbolTableRecord
100
AcDbBlockTableRecord
  2
*PAPER_SPACE
340
C553
  0
BLOCK_RECORD
  5
26
330
1
100
AcDbSymbolTableRecord
100
AcDbBlockTableRecord
  2
_OPEN
340
0
102
{BLKREFS
331
C481
331
C482
331
C48C
331
C48D
331
C497
331
C498
331
C4A2
331
C4A3
331
C4AD
331
C4AE
331
C4B8
331
C4B9
331
C4C3
331
C4C4
331
C4CE
331
C4CF
331
C4D9
331
C4DA
331
C4E4
331
C4E5
331
C4EF
331
C349
331
C34A
331
C356
331
C357
331
C363
331
C364
331
C401
331
C402
331
C46B
331
C46C
331
C476
331
C477
331
C4F0
331
C4FA
331
C4FB
331
C522
331
C5EB
331
C5EC
331
C5F4
331
C5F5
102
}
  0
BLOCK_RECORD
  5
C2A8
330
1
100
AcDbSymbolTableRecord
100
AcDbBlockTableRecord
  2
*D1
340
0
  0
BLOCK_RECORD
  5
C2B5
330
1
100
AcDbSymbolTableRecord
100
AcDbBlockTableRecord
  2
*D2
340
0
  0
BLOCK_RECORD
  5
C2C2
330
1
100
AcDbSymbolTableRecord
100
AcDbBlockTableRecord
  2
*D3
340
0
  0
BLOCK_RECORD
  5
C2CF
330
1
100
AcDbSymbolTableRecord
100
AcDbBlockTableRecord
  2
*D4
340
0
  0
BLOCK_RECORD
  5
C2DC
330
1
100
AcDbSymbolTableRecord
100
AcDbBlockTableRecord
  2
*D5
340
0
  0
BLOCK_RECORD
  5
C344
330
1
100
AcDbSymbolTableRecord
100
AcDbBlockTableRecord
  2
*D6
340
0
  0
BLOCK_RECORD
  5
C351
330
1
100
AcDbSymbolTableRecord
100
AcDbBlockTableRecord
  2
*D7
340
0
  0
BLOCK_RECORD
  5
C35E
330
1
100
AcDbSymbolTableRecord
100
AcDbBlockTableRecord
  2
*D8
340
0
  0
BLOCK_RECORD
  5
C36B
330
1
100
AcDbSymbolTableRecord
100
AcDbBlockTableRecord
  2
*D9
340
0
  0
BLOCK_RECORD
  5
C378
330
1
100
AcDbSymbolTableRecord
100
AcDbBlockTableRecord
  2
*D10
340
0
  0
BLOCK_RECORD
  5
C385
330
1
100
AcDbSymbolTableRecord
100
AcDbBlockTableRecord
  2
*D11
340
0
  0
BLOCK_RECORD
  5
C3C8
330
1
100
AcDbSymbolTableRecord
100
AcDbBlockTableRecord
  2
*D12
340
0
  0
BLOCK_RECORD
  5
C3D5
330
1
100
AcDbSymbolTableRecord
100
AcDbBlockTableRecord
  2
*D13
340
0
  0
BLOCK_RECORD
  5
C3E2
330
1
100
AcDbSymbolTableRecord
100
AcDbBlockTableRecord
  2
*D14
340
0
  0
BLOCK_RECORD
  5
C3FC
330
1
100
AcDbSymbolTableRecord
100
AcDbBlockTableRecord
  2
*D15
340
0
  0
BLOCK_RECORD
  5
C417
330
1
100
AcDbSymbolTableRecord
100
AcDbBlockTableRecord
  2
*D16
340
0
  0
BLOCK_RECORD
  5
C424
330
1
100
AcDbSymbolTableRecord
100
AcDbBlockTableRecord
  2
*D17
340
0
  0
BLOCK_RECORD
  5
C431
330
1
100
AcDbSymbolTableRecord
100
AcDbBlockTableRecord
  2
*D18
340
0
  0
BLOCK_RECORD
  5
C43E
330
1
100
AcDbSymbolTableRecord
100
AcDbBlockTableRecord
  2
*D19
340
0
  0
BLOCK_RECORD
  5
C44B
330
1
100
AcDbSymbolTableRecord
100
AcDbBlockTableRecord
  2
*D20
340
0
  0
BLOCK_RECORD
  5
C512
330
1
100
AcDbSymbolTableRecord
100
AcDbBlockTableRecord
  2
_DOT
340
0
102
{BLKREFS
331
C521
102
}
  0
BLOCK_RECORD
  5
C51A
330
1
100
AcDbSymbolTableRecord
100
AcDbBlockTableRecord
  2
*D22
340
0
  0
BLOCK_RECORD
  5
C529
330
1
100
AcDbSymbolTableRecord
100
AcDbBlockTableRecord
  2
_NONE
340
0
  0
BLOCK_RECORD
  5
C543
330
1
100
AcDbSymbolTableRecord
100
AcDbBlockTableRecord
  2
*D24
340
0
  0
ENDTAB
  0
ENDSEC
  0
SECTION
  2
BLOCKS
  0
BLOCK
  5
1A
330
19
100
AcDbEntity
  8
0
100
AcDbBlockBegin
  2
*MODEL_SPACE
 70
     0
 10
0.0
 20
0.0
 30
0.0
  3
*MODEL_SPACE
  1

  0
ENDBLK
  5
1B
330
19
100
AcDbEntity
  8
0
100
AcDbBlockEnd
  0
BLOCK
  5
17
330
16
100
AcDbEntity
 67
     1
  8
0
100
AcDbBlockBegin
  2
*PAPER_SPACE
 70
     0
 10
0.0
 20
0.0
 30
0.0
  3
*PAPER_SPACE
  1

  0
ENDBLK
  5
18
330
16
100
AcDbEntity
 67
     1
  8
0
100
AcDbBlockEnd
  0
BLOCK
  5
27
330
26
100
AcDbEntity
  8
0
100
AcDbBlockBegin
  2
_OPEN
 70
     0
 10
0.0
 20
0.0
 30
0.0
  3
_OPEN
  1

  0
LINE
  5
28
330
26
100
AcDbEntity
  8
0
  6
ByBlock
 62
     0
100
AcDbLine
 10
-1.0
 20
0.1666666666666666
 30
0.0
 11
0.0
 21
0.0
 31
0.0
  0
LINE
  5
29
330
26
100
AcDbEntity
  8
0
  6
ByBlock
 62
     0
100
AcDbLine
 10
0.0
 20
0.0
 30
0.0
 11
-1.0
 21
-0.1666666666666666
 31
0.0
  0
LINE
  5
2A
330
26
100
AcDbEntity
  8
0
  6
ByBlock
 62
     0
100
AcDbLine
 10
0.0
 20
0.0
 30
0.0
 11
-1.0
 21
0.0
 31
0.0
  0
ENDBLK
  5
2B
330
26
100
AcDbEntity
  8
0
100
AcDbBlockEnd
  0
BLOCK
  5
C4EB
330
C2A8
100
AcDbEntity
  8
0
100
AcDbBlockBegin
  2
*D1
 70
     1
 10
0.0
 20
0.0
 30
0.0
  3
*D1
  1

  0
LINE
  5
C4EC
330
C2A8
100
AcDbEntity
  8
0
  6
ByBlock
100
AcDbLine
 10
10347.55903593365
 20
-1837.363861048481
 30
0.0
 11
10347.55903593365
 21
-1507.69186860152
 31
0.0
  0
LINE
  5
C4ED
330
C2A8
100
AcDbEntity
  8
0
  6
ByBlock
100
AcDbLine
 10
12707.55903593365
 20
-1837.363861048481
 30
0.0
 11
12707.55903593365
 21
-1507.69186860152
 31
0.0
  0
LINE
  5
C4EE
330
C2A8
100
AcDbEntity
  8
0
  6
ByBlock
100
AcDbLine
 10
10457.55903593365
 20
-1562.691868601519
 30
0.0
 11
12597.55903593365
 21
-1562.691868601519
 31
0.0
  0
INSERT
  5
C4EF
330
C2A8
100
AcDbEntity
  8
0
  6
ByBlock
100
AcDbBlockReference
  2
_OPEN
 10
10347.55903593365
 20
-1562.691868601519
 30
0.0
 41
110.0
 42
110.0
 43
110.0
 50
180.0
  0
INSERT
  5
C4F0
330
C2A8
100
AcDbEntity
  8
0
  6
ByBlock
100
AcDbBlockReference
  2
_OPEN
 10
12707.55903593365
 20
-1562.691868601519
 30
0.0
 41
110.0
 42
110.0
 43
110.0
  0
MTEXT
  5
C4F1
330
C2A8
100
AcDbEntity
  8
0
  6
ByBlock
100
AcDbMText
 10
11527.55903593365
 20
-1438.94186860152
 30
0.0
 40
137.5
 41
0.0
 71
     5
 72
     5
  1
\A1;2360
 73
     1
 44
1.0
1001
ACAD
1000
MTEXTBEGIN
1070
    73
1070
     1
1070
    44
1040
1.0
1070
    74
1070
     0
1000
MTEXTEND
  0
POINT
  5
C4F2
330
C2A8
100
AcDbEntity
  8
DEFPOINTS
  6
ByBlock
 62
     0
100
AcDbPoint
 10
10347.55903593365
 20
-1892.363861048481
 30
0.0
  0
POINT
  5
C4F3
330
C2A8
100
AcDbEntity
  8
DEFPOINTS
  6
ByBlock
 62
     0
100
AcDbPoint
 10
12707.55903593365
 20
-1892.363861048481
 30
0.0
  0
POINT
  5
C4F4
330
C2A8
100
AcDbEntity
  8
DEFPOINTS
  6
ByBlock
 62
     0
100
AcDbPoint
 10
12707.55903593365
 20
-1562.691868601519
 30
0.0
  0
ENDBLK
  5
C4F5
330
C2A8
100
AcDbEntity
  8
0
100
AcDbBlockEnd
  0
BLOCK
  5
C488
330
C2B5
100
AcDbEntity
  8
0
100
AcDbBlockBegin
  2
*D2
 70
     1
 10
0.0
 20
0.0
 30
0.0
  3
*D2
  1

  0
LINE
  5
C489
330
C2B5
100
AcDbEntity
  8
0
  6
ByBlock
100
AcDbLine
 10
12707.55903593365
 20
-1837.363861048481
 30
0.0
 11
12707.55903593365
 21
-1507.69186860152
 31
0.0
  0
LINE
  5
C48A
330
C2B5
100
AcDbEntity
  8
0
  6
ByBlock
100
AcDbLine
 10
14547.55903593365
 20
-3787.363861048478
 30
0.0
 11
14547.55903593365
 21
-1507.69186860152
 31
0.0
  0
LINE
  5
C48B
330
C2B5
100
AcDbEntity
  8
0
  6
ByBlock
100
AcDbLine
 10
12817.55903593365
 20
-1562.691868601519
 30
0.0
 11
14437.55903593365
 21
-1562.691868601519
 31
0.0
  0
INSERT
  5
C48C
330
C2B5
100
AcDbEntity
  8
0
  6
ByBlock
100
AcDbBlockReference
  2
_OPEN
 10
12707.55903593365
 20
-1562.691868601519
 30
0.0
 41
110.0
 42
110.0
 43
110.0
 50
180.0
  0
INSERT
  5
C48D
330
C2B5
100
AcDbEntity
  8
0
  6
ByBlock
100
AcDbBlockReference
  2
_OPEN
 10
14547.55903593365
 20
-1562.691868601519
 30
0.0
 41
110.0
 42
110.0
 43
110.0
  0
MTEXT
  5
C48E
330
C2B5
100
AcDbEntity
  8
0
  6
ByBlock
100
AcDbMText
 10
13627.55903593365
 20
-1438.94186860152
 30
0.0
 40
137.5
 41
0.0
 71
     5
 72
     5
  1
\A1;1840
 73
     1
 44
1.0
1001
ACAD
1000
MTEXTBEGIN
1070
    73
1070
     1
1070
    44
1040
1.0
1070
    74
1070
     0
1000
MTEXTEND
  0
POINT
  5
C48F
330
C2B5
100
AcDbEntity
  8
DEFPOINTS
  6
ByBlock
 62
     0
100
AcDbPoint
 10
12707.55903593365
 20
-1892.363861048481
 30
0.0
  0
POINT
  5
C490
330
C2B5
100
AcDbEntity
  8
DEFPOINTS
  6
ByBlock
 62
     0
100
AcDbPoint
 10
14547.55903593365
 20
-3842.363861048478
 30
0.0
  0
POINT
  5
C491
330
C2B5
100
AcDbEntity
  8
DEFPOINTS
  6
ByBlock
 62
     0
100
AcDbPoint
 10
14547.55903593365
 20
-1562.691868601519
 30
0.0
  0
ENDBLK
  5
C492
330
C2B5
100
AcDbEntity
  8
0
100
AcDbBlockEnd
  0
BLOCK
  5
C4F6
330
C2C2
100
AcDbEntity
  8
0
100
AcDbBlockBegin
  2
*D3
 70
     1
 10
0.0
 20
0.0
 30
0.0
  3
*D3
  1

  0
LINE
  5
C4F7
330
C2C2
100
AcDbEntity
  8
0
  6
ByBlock
100
AcDbLine
 10
10292.55903593365
 20
-1892.363861048481
 30
0.0
 11
9786.684997476347
 21
-1892.363861048481
 31
0.0
  0
LINE
  5
C4F8
330
C2C2
100
AcDbEntity
  8
0
  6
ByBlock
100
AcDbLine
 10
10292.55903593365
 20
-5142.363861048481
 30
0.0
 11
9786.684997476347
 21
-5142.363861048481
 31
0.0
  0
LINE
  5
C4F9
330
C2C2
100
AcDbEntity
  8
0
  6
ByBlock
100
AcDbLine
 10
9841.684997476347
 20
-2002.363861048481
 30
0.0
 11
9841.684997476347
 21
-5032.363861048481
 31
0.0
  0
INSERT
  5
C4FA
330
C2C2
100
AcDbEntity
  8
0
  6
ByBlock
100
AcDbBlockReference
  2
_OPEN
 10
9841.684997476347
 20
-1892.363861048481
 30
0.0
 41
110.0
 42
110.0
 43
110.0
 50
90.0
  0
INSERT
  5
C4FB
330
C2C2
100
AcDbEntity
  8
0
  6
ByBlock
100
AcDbBlockReference
  2
_OPEN
 10
9841.684997476347
 20
-5142.363861048481
 30
0.0
 41
110.0
 42
110.0
 43
110.0
 50
270.0
  0
MTEXT
  5
C4FC
330
C2C2
100
AcDbEntity
  8
0
  6
ByBlock
100
AcDbMText
 10
9717.934997476348
 20
-3517.363861048482
 30
0.0
 40
137.5
 41
0.0
 71
     5
 72
     5
  1
\A1;3250
 11
0.0
 21
1.0
 31
0.0
 73
     1
 44
1.0
1001
ACAD
1000
MTEXTBEGIN
1070
    73
1070
     1
1070
    44
1040
1.0
1070
    74
1070
     0
1000
MTEXTEND
  0
POINT
  5
C4FD
330
C2C2
100
AcDbEntity
  8
DEFPOINTS
  6
ByBlock
 62
     0
100
AcDbPoint
 10
10347.55903593365
 20
-1892.363861048481
 30
0.0
  0
POINT
  5
C4FE
330
C2C2
100
AcDbEntity
  8
DEFPOINTS
  6
ByBlock
 62
     0
100
AcDbPoint
 10
10347.55903593365
 20
-5142.363861048481
 30
0.0
  0
POINT
  5
C4FF
330
C2C2
100
AcDbEntity
  8
DEFPOINTS
  6
ByBlock
 62
     0
100
AcDbPoint
 10
9841.684997476347
 20
-5142.363861048481
 30
0.0
  0
ENDBLK
  5
C500
330
C2C2
100
AcDbEntity
  8
0
100
AcDbBlockEnd
  0
BLOCK
  5
C47D
330
C2CF
100
AcDbEntity
  8
0
100
AcDbBlockBegin
  2
*D4
 70
     1
 10
0.0
 20
0.0
 30
0.0
  3
*D4
  1

  0
LINE
  5
C47E
330
C2CF
100
AcDbEntity
  8
0
  6
ByBlock
100
AcDbLine
 10
10347.55903593365
 20
-5197.363861048481
 30
0.0
 11
10347.55903593365
 21
-5644.837171930892
 31
0.0
  0
LINE
  5
C47F
330
C2CF
100
AcDbEntity
  8
0
  6
ByBlock
100
AcDbLine
 10
14547.55903593365
 20
-5197.363861048478
 30
0.0
 11
14547.55903593365
 21
-5644.837171930892
 31
0.0
  0
LINE
  5
C480
330
C2CF
100
AcDbEntity
  8
0
  6
ByBlock
100
AcDbLine
 10
10457.55903593365
 20
-5589.837171930892
 30
0.0
 11
14437.55903593365
 21
-5589.837171930892
 31
0.0
  0
INSERT
  5
C481
330
C2CF
100
AcDbEntity
  8
0
  6
ByBlock
100
AcDbBlockReference
  2
_OPEN
 10
10347.55903593365
 20
-5589.837171930892
 30
0.0
 41
110.0
 42
110.0
 43
110.0
 50
180.0
  0
INSERT
  5
C482
330
C2CF
100
AcDbEntity
  8
0
  6
ByBlock
100
AcDbBlockReference
  2
_OPEN
 10
14547.55903593365
 20
-5589.837171930892
 30
0.0
 41
110.0
 42
110.0
 43
110.0
  0
MTEXT
  5
C483
330
C2CF
100
AcDbEntity
  8
0
  6
ByBlock
100
AcDbMText
 10
12447.55903593365
 20
-5466.087171930893
 30
0.0
 40
137.5
 41
0.0
 71
     5
 72
     5
  1
\A1;4200
 73
     1
 44
1.0
1001
ACAD
1000
MTEXTBEGIN
1070
    73
1070
     1
1070
    44
1040
1.0
1070
    74
1070
     0
1000
MTEXTEND
  0
POINT
  5
C484
330
C2CF
100
AcDbEntity
  8
DEFPOINTS
  6
ByBlock
 62
     0
100
AcDbPoint
 10
10347.55903593365
 20
-5142.363861048481
 30
0.0
  0
POINT
  5
C485
330
C2CF
100
AcDbEntity
  8
DEFPOINTS
  6
ByBlock
 62
     0
100
AcDbPoint
 10
14547.55903593365
 20
-5142.363861048478
 30
0.0
  0
POINT
  5
C486
330
C2CF
100
AcDbEntity
  8
DEFPOINTS
  6
ByBlock
 62
     0
100
AcDbPoint
 10
14547.55903593365
 20
-5589.837171930892
 30
0.0
  0
ENDBLK
  5
C487
330
C2CF
100
AcDbEntity
  8
0
100
AcDbBlockEnd
  0
BLOCK
  5
C493
330
C2DC
100
AcDbEntity
  8
0
100
AcDbBlockBegin
  2
*D5
 70
     1
 10
0.0
 20
0.0
 30
0.0
  3
*D5
  1

  0
LINE
  5
C494
330
C2DC
100
AcDbEntity
  8
0
  6
ByBlock
100
AcDbLine
 10
14602.55903593365
 20
-3842.363861048478
 30
0.0
 11
14991.72261673344
 21
-3842.363861048478
 31
0.0
  0
LINE
  5
C495
330
C2DC
100
AcDbEntity
  8
0
  6
ByBlock
100
AcDbLine
 10
14602.55903593365
 20
-5142.363861048478
 30
0.0
 11
14991.72261673344
 21
-5142.363861048478
 31
0.0
  0
LINE
  5
C496
330
C2DC
100
AcDbEntity
  8
0
  6
ByBlock
100
AcDbLine
 10
14936.72261673343
 20
-3952.363861048478
 30
0.0
 11
14936.72261673343
 21
-5032.363861048477
 31
0.0
  0
INSERT
  5
C497
330
C2DC
100
AcDbEntity
  8
0
  6
ByBlock
100
AcDbBlockReference
  2
_OPEN
 10
14936.72261673343
 20
-3842.363861048478
 30
0.0
 41
110.0
 42
110.0
 43
110.0
 50
90.0
  0
INSERT
  5
C498
330
C2DC
100
AcDbEntity
  8
0
  6
ByBlock
100
AcDbBlockReference
  2
_OPEN
 10
14936.72261673343
 20
-5142.363861048478
 30
0.0
 41
110.0
 42
110.0
 43
110.0
 50
270.0
  0
MTEXT
  5
C499
330
C2DC
100
AcDbEntity
  8
0
  6
ByBlock
100
AcDbMText
 10
14812.97261673343
 20
-4492.363861048477
 30
0.0
 40
137.5
 41
0.0
 71
     5
 72
     5
  1
\A1;1300
 11
0.0
 21
1.0
 31
0.0
 73
     1
 44
1.0
1001
ACAD
1000
MTEXTBEGIN
1070
    73
1070
     1
1070
    44
1040
1.0
1070
    74
1070
     0
1000
MTEXTEND
  0
POINT
  5
C49A
330
C2DC
100
AcDbEntity
  8
DEFPOINTS
  6
ByBlock
 62
     0
100
AcDbPoint
 10
14547.55903593365
 20
-3842.363861048478
 30
0.0
  0
POINT
  5
C49B
330
C2DC
100
AcDbEntity
  8
DEFPOINTS
  6
ByBlock
 62
     0
100
AcDbPoint
 10
14547.55903593365
 20
-5142.363861048478
 30
0.0
  0
POINT
  5
C49C
330
C2DC
100
AcDbEntity
  8
DEFPOINTS
  6
ByBlock
 62
     0
100
AcDbPoint
 10
14936.72261673343
 20
-5142.363861048478
 30
0.0
  0
ENDBLK
  5
C49D
330
C2DC
100
AcDbEntity
  8
0
100
AcDbBlockEnd
  0
BLOCK
  5
C345
330
C344
100
AcDbEntity
  8
0
100
AcDbBlockBegin
  2
*D6
 70
     1
 10
0.0
 20
0.0
 30
0.0
  3
*D6
  1

  0
LINE
  5
C346
330
C344
100
AcDbEntity
  8
0
  6
ByBlock
100
AcDbLine
 10
15203.62794449223
 20
-10857.13488374287
 30
0.0
 11
15203.62794449223
 21
-11202.63562283916
 31
0.0
  0
LINE
  5
C347
330
C344
100
AcDbEntity
  8
0
  6
ByBlock
100
AcDbLine
 10
17049.62794449223
 20
-10857.13488374287
 30
0.0
 11
17049.62794449223
 21
-11202.63562283916
 31
0.0
  0
LINE
  5
C348
330
C344
100
AcDbEntity
  8
0
  6
ByBlock
100
AcDbLine
 10
15313.62794449223
 20
-11147.63562283916
 30
0.0
 11
16939.62794449223
 21
-11147.63562283916
 31
0.0
  0
INSERT
  5
C349
330
C344
100
AcDbEntity
  8
0
  6
ByBlock
100
AcDbBlockReference
  2
_OPEN
 10
15203.62794449223
 20
-11147.63562283916
 30
0.0
 41
110.0
 42
110.0
 43
110.0
 50
180.0
  0
INSERT
  5
C34A
330
C344
100
AcDbEntity
  8
0
  6
ByBlock
100
AcDbBlockReference
  2
_OPEN
 10
17049.62794449223
 20
-11147.63562283916
 30
0.0
 41
110.0
 42
110.0
 43
110.0
  0
MTEXT
  5
C34B
330
C344
100
AcDbEntity
  8
0
  6
ByBlock
100
AcDbMText
 10
16126.62794449223
 20
-11023.88562283916
 30
0.0
 40
137.5
 41
0.0
 71
     5
 72
     5
  1
\A1;1846
 73
     1
 44
1.0
1001
ACAD
1000
MTEXTBEGIN
1070
    73
1070
     1
1070
    44
1040
1.0
1070
    74
1070
     0
1000
MTEXTEND
  0
POINT
  5
C34C
330
C344
100
AcDbEntity
  8
DEFPOINTS
  6
ByBlock
 62
     0
100
AcDbPoint
 10
15203.62794449223
 20
-10802.13488374287
 30
0.0
  0
POINT
  5
C34D
330
C344
100
AcDbEntity
  8
DEFPOINTS
  6
ByBlock
 62
     0
100
AcDbPoint
 10
17049.62794449223
 20
-10802.13488374287
 30
0.0
  0
POINT
  5
C34E
330
C344
100
AcDbEntity
  8
DEFPOINTS
  6
ByBlock
 62
     0
100
AcDbPoint
 10
17049.62794449223
 20
-11147.63562283916
 30
0.0
  0
ENDBLK
  5
C34F
330
C344
100
AcDbEntity
  8
0
100
AcDbBlockEnd
  0
BLOCK
  5
C352
330
C351
100
AcDbEntity
  8
0
100
AcDbBlockBegin
  2
*D7
 70
     1
 10
0.0
 20
0.0
 30
0.0
  3
*D7
  1

  0
LINE
  5
C353
330
C351
100
AcDbEntity
  8
0
  6
ByBlock
100
AcDbLine
 10
17049.62794449223
 20
-10857.13488374287
 30
0.0
 11
17049.62794449223
 21
-11202.63562283916
 31
0.0
  0
LINE
  5
C354
330
C351
100
AcDbEntity
  8
0
  6
ByBlock
100
AcDbLine
 10
18453.62794449223
 20
-10857.13488374287
 30
0.0
 11
18453.62794449223
 21
-11202.63562283916
 31
0.0
  0
LINE
  5
C355
330
C351
100
AcDbEntity
  8
0
  6
ByBlock
100
AcDbLine
 10
17159.62794449223
 20
-11147.63562283916
 30
0.0
 11
18343.62794449223
 21
-11147.63562283916
 31
0.0
  0
INSERT
  5
C356
330
C351
100
AcDbEntity
  8
0
  6
ByBlock
100
AcDbBlockReference
  2
_OPEN
 10
17049.62794449223
 20
-11147.63562283916
 30
0.0
 41
110.0
 42
110.0
 43
110.0
 50
180.0
  0
INSERT
  5
C357
330
C351
100
AcDbEntity
  8
0
  6
ByBlock
100
AcDbBlockReference
  2
_OPEN
 10
18453.62794449223
 20
-11147.63562283916
 30
0.0
 41
110.0
 42
110.0
 43
110.0
  0
MTEXT
  5
C358
330
C351
100
AcDbEntity
  8
0
  6
ByBlock
100
AcDbMText
 10
17751.62794449223
 20
-11023.88562283916
 30
0.0
 40
137.5
 41
0.0
 71
     5
 72
     5
  1
\A1;1404
 73
     1
 44
1.0
1001
ACAD
1000
MTEXTBEGIN
1070
    73
1070
     1
1070
    44
1040
1.0
1070
    74
1070
     0
1000
MTEXTEND
  0
POINT
  5
C359
330
C351
100
AcDbEntity
  8
DEFPOINTS
  6
ByBlock
 62
     0
100
AcDbPoint
 10
17049.62794449223
 20
-10802.13488374287
 30
0.0
  0
POINT
  5
C35A
330
C351
100
AcDbEntity
  8
DEFPOINTS
  6
ByBlock
 62
     0
100
AcDbPoint
 10
18453.62794449223
 20
-10802.13488374287
 30
0.0
  0
POINT
  5
C35B
330
C351
100
AcDbEntity
  8
DEFPOINTS
  6
ByBlock
 62
     0
100
AcDbPoint
 10
18453.62794449223
 20
-11147.63562283916
 30
0.0
  0
ENDBLK
  5
C35C
330
C351
100
AcDbEntity
  8
0
100
AcDbBlockEnd
  0
BLOCK
  5
C35F
330
C35E
100
AcDbEntity
  8
0
100
AcDbBlockBegin
  2
*D8
 70
     1
 10
0.0
 20
0.0
 30
0.0
  3
*D8
  1

  0
LINE
  5
C360
330
C35E
100
AcDbEntity
  8
0
  6
ByBlock
100
AcDbLine
 10
15203.62794449223
 20
-10857.13488374287
 30
0.0
 11
15203.62794449223
 21
-11532.38305444039
 31
0.0
  0
LINE
  5
C361
330
C35E
100
AcDbEntity
  8
0
  6
ByBlock
100
AcDbLine
 10
18453.62794449223
 20
-10857.13488374287
 30
0.0
 11
18453.62794449223
 21
-11532.38305444039
 31
0.0
  0
LINE
  5
C362
330
C35E
100
AcDbEntity
  8
0
  6
ByBlock
100
AcDbLine
 10
15313.62794449223
 20
-11477.38305444039
 30
0.0
 11
18343.62794449223
 21
-11477.38305444039
 31
0.0
  0
INSERT
  5
C363
330
C35E
100
AcDbEntity
  8
0
  6
ByBlock
100
AcDbBlockReference
  2
_OPEN
 10
15203.62794449223
 20
-11477.38305444039
 30
0.0
 41
110.0
 42
110.0
 43
110.0
 50
180.0
  0
INSERT
  5
C364
330
C35E
100
AcDbEntity
  8
0
  6
ByBlock
100
AcDbBlockReference
  2
_OPEN
 10
18453.62794449223
 20
-11477.38305444039
 30
0.0
 41
110.0
 42
110.0
 43
110.0
  0
MTEXT
  5
C365
330
C35E
100
AcDbEntity
  8
0
  6
ByBlock
100
AcDbMText
 10
16828.62794449223
 20
-11353.63305444039
 30
0.0
 40
137.5
 41
0.0
 71
     5
 72
     5
  1
\A1;3250
 73
     1
 44
1.0
1001
ACAD
1000
MTEXTBEGIN
1070
    73
1070
     1
1070
    44
1040
1.0
1070
    74
1070
     0
1000
MTEXTEND
  0
POINT
  5
C366
330
C35E
100
AcDbEntity
  8
DEFPOINTS
  6
ByBlock
 62
     0
100
AcDbPoint
 10
15203.62794449223
 20
-10802.13488374287
 30
0.0
  0
POINT
  5
C367
330
C35E
100
AcDbEntity
  8
DEFPOINTS
  6
ByBlock
 62
     0
100
AcDbPoint
 10
18453.62794449223
 20
-10802.13488374287
 30
0.0
  0
POINT
  5
C368
330
C35E
100
AcDbEntity
  8
DEFPOINTS
  6
ByBlock
 62
     0
100
AcDbPoint
 10
18453.62794449223
 20
-11477.38305444039
 30
0.0
  0
ENDBLK
  5
C369
330
C35E
100
AcDbEntity
  8
0
100
AcDbBlockEnd
  0
BLOCK
  5
C4B4
330
C36B
100
AcDbEntity
  8
0
100
AcDbBlockBegin
  2
*D9
 70
     1
 10
0.0
 20
0.0
 30
0.0
  3
*D9
  1

  0
LINE
  5
C4B5
330
C36B
100
AcDbEntity
  8
0
  6
ByBlock
100
AcDbLine
 10
11527.55903593365
 20
-10650.12160820148
 30
0.0
 11
11527.55903593365
 21
-10996.84162828749
 31
0.0
  0
LINE
  5
C4B6
330
C36B
100
AcDbEntity
  8
0
  6
ByBlock
100
AcDbLine
 10
10347.55903593365
 20
-10650.12160820148
 30
0.0
 11
10347.55903593365
 21
-10996.84162828749
 31
0.0
  0
LINE
  5
C4B7
330
C36B
100
AcDbEntity
  8
0
  6
ByBlock
100
AcDbLine
 10
11417.55903593365
 20
-10941.84162828749
 30
0.0
 11
10457.55903593365
 21
-10941.84162828749
 31
0.0
  0
INSERT
  5
C4B8
330
C36B
100
AcDbEntity
  8
0
  6
ByBlock
100
AcDbBlockReference
  2
_OPEN
 10
11527.55903593365
 20
-10941.84162828749
 30
0.0
 41
110.0
 42
110.0
 43
110.0
  0
INSERT
  5
C4B9
330
C36B
100
AcDbEntity
  8
0
  6
ByBlock
100
AcDbBlockReference
  2
_OPEN
 10
10347.55903593365
 20
-10941.84162828749
 30
0.0
 41
110.0
 42
110.0
 43
110.0
 50
180.0
  0
MTEXT
  5
C4BA
330
C36B
100
AcDbEntity
  8
0
  6
ByBlock
100
AcDbMText
 10
10937.55903593365
 20
-10818.09162828749
 30
0.0
 40
137.5
 41
0.0
 71
     5
 72
     5
  1
\A1;1180
 73
     1
 44
1.0
1001
ACAD
1000
MTEXTBEGIN
1070
    73
1070
     1
1070
    44
1040
1.0
1070
    74
1070
     0
1000
MTEXTEND
  0
POINT
  5
C4BB
330
C36B
100
AcDbEntity
  8
DEFPOINTS
  6
ByBlock
 62
     0
100
AcDbPoint
 10
11527.55903593365
 20
-10595.12160820148
 30
0.0
  0
POINT
  5
C4BC
330
C36B
100
AcDbEntity
  8
DEFPOINTS
  6
ByBlock
 62
     0
100
AcDbPoint
 10
10347.55903593365
 20
-10595.12160820148
 30
0.0
  0
POINT
  5
C4BD
330
C36B
100
AcDbEntity
  8
DEFPOINTS
  6
ByBlock
 62
     0
100
AcDbPoint
 10
10347.55903593365
 20
-10941.84162828749
 30
0.0
  0
ENDBLK
  5
C4BE
330
C36B
100
AcDbEntity
  8
0
100
AcDbBlockEnd
  0
BLOCK
  5
C472
330
C378
100
AcDbEntity
  8
0
100
AcDbBlockBegin
  2
*D10
 70
     1
 10
0.0
 20
0.0
 30
0.0
  3
*D10
  1

  0
LINE
  5
C473
330
C378
100
AcDbEntity
  8
0
  6
ByBlock
100
AcDbLine
 10
14547.55903593365
 20
-10650.12160820148
 30
0.0
 11
14547.55903593365
 21
-10996.84162828749
 31
0.0
  0
LINE
  5
C474
330
C378
100
AcDbEntity
  8
0
  6
ByBlock
100
AcDbLine
 10
11527.55903593365
 20
-10650.12160820148
 30
0.0
 11
11527.55903593365
 21
-10996.84162828749
 31
0.0
  0
LINE
  5
C475
330
C378
100
AcDbEntity
  8
0
  6
ByBlock
100
AcDbLine
 10
14437.55903593365
 20
-10941.84162828749
 30
0.0
 11
11637.55903593365
 21
-10941.84162828749
 31
0.0
  0
INSERT
  5
C476
330
C378
100
AcDbEntity
  8
0
  6
ByBlock
100
AcDbBlockReference
  2
_OPEN
 10
14547.55903593365
 20
-10941.84162828749
 30
0.0
 41
110.0
 42
110.0
 43
110.0
  0
INSERT
  5
C477
330
C378
100
AcDbEntity
  8
0
  6
ByBlock
100
AcDbBlockReference
  2
_OPEN
 10
11527.55903593365
 20
-10941.84162828749
 30
0.0
 41
110.0
 42
110.0
 43
110.0
 50
180.0
  0
MTEXT
  5
C478
330
C378
100
AcDbEntity
  8
0
  6
ByBlock
100
AcDbMText
 10
13037.55903593365
 20
-10818.09162828749
 30
0.0
 40
137.5
 41
0.0
 71
     5
 72
     5
  1
\A1;3020
 73
     1
 44
1.0
1001
ACAD
1000
MTEXTBEGIN
1070
    73
1070
     1
1070
    44
1040
1.0
1070
    74
1070
     0
1000
MTEXTEND
  0
POINT
  5
C479
330
C378
100
AcDbEntity
  8
DEFPOINTS
  6
ByBlock
 62
     0
100
AcDbPoint
 10
14547.55903593365
 20
-10595.12160820148
 30
0.0
  0
POINT
  5
C47A
330
C378
100
AcDbEntity
  8
DEFPOINTS
  6
ByBlock
 62
     0
100
AcDbPoint
 10
11527.55903593365
 20
-10595.12160820148
 30
0.0
  0
POINT
  5
C47B
330
C378
100
AcDbEntity
  8
DEFPOINTS
  6
ByBlock
 62
     0
100
AcDbPoint
 10
11527.55903593365
 20
-10941.84162828749
 30
0.0
  0
ENDBLK
  5
C47C
330
C378
100
AcDbEntity
  8
0
100
AcDbBlockEnd
  0
BLOCK
  5
C467
330
C385
100
AcDbEntity
  8
0
100
AcDbBlockBegin
  2
*D11
 70
     1
 10
0.0
 20
0.0
 30
0.0
  3
*D11
  1

  0
LINE
  5
C468
330
C385
100
AcDbEntity
  8
0
  6
ByBlock
100
AcDbLine
 10
14547.55903593365
 20
-10650.12160820148
 30
0.0
 11
14547.55903593365
 21
-11325.369778899
 31
0.0
  0
LINE
  5
C469
330
C385
100
AcDbEntity
  8
0
  6
ByBlock
100
AcDbLine
 10
10347.55903593365
 20
-10650.12160820148
 30
0.0
 11
10347.55903593365
 21
-11325.369778899
 31
0.0
  0
LINE
  5
C46A
330
C385
100
AcDbEntity
  8
0
  6
ByBlock
100
AcDbLine
 10
14437.55903593365
 20
-11270.369778899
 30
0.0
 11
10457.55903593365
 21
-11270.369778899
 31
0.0
  0
INSERT
  5
C46B
330
C385
100
AcDbEntity
  8
0
  6
ByBlock
100
AcDbBlockReference
  2
_OPEN
 10
14547.55903593365
 20
-11270.369778899
 30
0.0
 41
110.0
 42
110.0
 43
110.0
  0
INSERT
  5
C46C
330
C385
100
AcDbEntity
  8
0
  6
ByBlock
100
AcDbBlockReference
  2
_OPEN
 10
10347.55903593365
 20
-11270.369778899
 30
0.0
 41
110.0
 42
110.0
 43
110.0
 50
180.0
  0
MTEXT
  5
C46D
330
C385
100
AcDbEntity
  8
0
  6
ByBlock
100
AcDbMText
 10
12447.55903593365
 20
-11146.619778899
 30
0.0
 40
137.5
 41
0.0
 71
     5
 72
     5
  1
\A1;4200
 73
     1
 44
1.0
1001
ACAD
1000
MTEXTBEGIN
1070
    73
1070
     1
1070
    44
1040
1.0
1070
    74
1070
     0
1000
MTEXTEND
  0
POINT
  5
C46E
330
C385
100
AcDbEntity
  8
DEFPOINTS
  6
ByBlock
 62
     0
100
AcDbPoint
 10
14547.55903593365
 20
-10595.12160820148
 30
0.0
  0
POINT
  5
C46F
330
C385
100
AcDbEntity
  8
DEFPOINTS
  6
ByBlock
 62
     0
100
AcDbPoint
 10
10347.55903593365
 20
-10595.12160820148
 30
0.0
  0
POINT
  5
C470
330
C385
100
AcDbEntity
  8
DEFPOINTS
  6
ByBlock
 62
     0
100
AcDbPoint
 10
10347.55903593365
 20
-11270.369778899
 30
0.0
  0
ENDBLK
  5
C471
330
C385
100
AcDbEntity
  8
0
100
AcDbBlockEnd
  0
BLOCK
  5
C4E0
330
C3C8
100
AcDbEntity
  8
0
100
AcDbBlockBegin
  2
*D12
 70
     1
 10
0.0
 20
0.0
 30
0.0
  3
*D12
  1

  0
LINE
  5
C4E1
330
C3C8
100
AcDbEntity
  8
0
  6
ByBlock
100
AcDbLine
 10
10197.55903593365
 20
-8333.121608201484
 30
0.0
 11
9851.808109406354
 21
-8333.121608201484
 31
0.0
  0
LINE
  5
C4E2
330
C3C8
100
AcDbEntity
  8
0
  6
ByBlock
100
AcDbLine
 10
10197.55903593365
 20
-10393.12160820148
 30
0.0
 11
9851.808109406354
 21
-10393.12160820148
 31
0.0
  0
LINE
  5
C4E3
330
C3C8
100
AcDbEntity
  8
0
  6
ByBlock
100
AcDbLine
 10
9906.808109406354
 20
-8443.121608201485
 30
0.0
 11
9906.808109406354
 21
-10283.12160820148
 31
0.0
  0
INSERT
  5
C4E4
330
C3C8
100
AcDbEntity
  8
0
  6
ByBlock
100
AcDbBlockReference
  2
_OPEN
 10
9906.808109406354
 20
-8333.121608201484
 30
0.0
 41
110.0
 42
110.0
 43
110.0
 50
90.0
  0
INSERT
  5
C4E5
330
C3C8
100
AcDbEntity
  8
0
  6
ByBlock
100
AcDbBlockReference
  2
_OPEN
 10
9906.808109406354
 20
-10393.12160820148
 30
0.0
 41
110.0
 42
110.0
 43
110.0
 50
270.0
  0
MTEXT
  5
C4E6
330
C3C8
100
AcDbEntity
  8
0
  6
ByBlock
100
AcDbMText
 10
9783.058109406354
 20
-9363.121608201483
 30
0.0
 40
137.5
 41
0.0
 71
     5
 72
     5
  1
\A1;2060
 11
0.0
 21
1.0
 31
0.0
 73
     1
 44
1.0
1001
ACAD
1000
MTEXTBEGIN
1070
    73
1070
     1
1070
    44
1040
1.0
1070
    74
1070
     0
1000
MTEXTEND
  0
POINT
  5
C4E7
330
C3C8
100
AcDbEntity
  8
DEFPOINTS
  6
ByBlock
 62
     0
100
AcDbPoint
 10
10252.55903593365
 20
-8333.121608201484
 30
0.0
  0
POINT
  5
C4E8
330
C3C8
100
AcDbEntity
  8
DEFPOINTS
  6
ByBlock
 62
     0
100
AcDbPoint
 10
10252.55903593365
 20
-10393.12160820148
 30
0.0
  0
POINT
  5
C4E9
330
C3C8
100
AcDbEntity
  8
DEFPOINTS
  6
ByBlock
 62
     0
100
AcDbPoint
 10
9906.808109406354
 20
-10393.12160820148
 30
0.0
  0
ENDBLK
  5
C4EA
330
C3C8
100
AcDbEntity
  8
0
100
AcDbBlockEnd
  0
BLOCK
  5
C4D5
330
C3D5
100
AcDbEntity
  8
0
100
AcDbBlockBegin
  2
*D13
 70
     1
 10
0.0
 20
0.0
 30
0.0
  3
*D13
  1

  0
LINE
  5
C4D6
330
C3D5
100
AcDbEntity
  8
0
  6
ByBlock
100
AcDbLine
 10
10094.0060378197
 20
-8245.121608201484
 30
0.0
 11
9495.181854317285
 21
-8245.121608201484
 31
0.0
  0
LINE
  5
C4D7
330
C3D5
100
AcDbEntity
  8
0
  6
ByBlock
100
AcDbLine
 10
10197.55903593365
 20
-10393.12160820148
 30
0.0
 11
9495.181854317285
 21
-10393.12160820148
 31
0.0
  0
LINE
  5
C4D8
330
C3D5
100
AcDbEntity
  8
0
  6
ByBlock
100
AcDbLine
 10
9550.181854317285
 20
-8355.121608201484
 30
0.0
 11
9550.181854317285
 21
-10283.12160820148
 31
0.0
  0
INSERT
  5
C4D9
330
C3D5
100
AcDbEntity
  8
0
  6
ByBlock
100
AcDbBlockReference
  2
_OPEN
 10
9550.181854317285
 20
-8245.121608201484
 30
0.0
 41
110.0
 42
110.0
 43
110.0
 50
90.0
  0
INSERT
  5
C4DA
330
C3D5
100
AcDbEntity
  8
0
  6
ByBlock
100
AcDbBlockReference
  2
_OPEN
 10
9550.181854317285
 20
-10393.12160820148
 30
0.0
 41
110.0
 42
110.0
 43
110.0
 50
270.0
  0
MTEXT
  5
C4DB
330
C3D5
100
AcDbEntity
  8
0
  6
ByBlock
100
AcDbMText
 10
9426.431854317284
 20
-9319.121608201482
 30
0.0
 40
137.5
 41
0.0
 71
     5
 72
     5
  1
\A1;2148
 11
0.0
 21
1.0
 31
0.0
 73
     1
 44
1.0
1001
ACAD
1000
MTEXTBEGIN
1070
    73
1070
     1
1070
    44
1040
1.0
1070
    74
1070
     0
1000
MTEXTEND
  0
POINT
  5
C4DC
330
C3D5
100
AcDbEntity
  8
DEFPOINTS
  6
ByBlock
 62
     0
100
AcDbPoint
 10
10149.0060378197
 20
-8245.121608201484
 30
0.0
  0
POINT
  5
C4DD
330
C3D5
100
AcDbEntity
  8
DEFPOINTS
  6
ByBlock
 62
     0
100
AcDbPoint
 10
10252.55903593365
 20
-10393.12160820148
 30
0.0
  0
POINT
  5
C4DE
330
C3D5
100
AcDbEntity
  8
DEFPOINTS
  6
ByBlock
 62
     0
100
AcDbPoint
 10
9550.181854317285
 20
-10393.12160820148
 30
0.0
  0
ENDBLK
  5
C4DF
330
C3D5
100
AcDbEntity
  8
0
100
AcDbBlockEnd
  0
BLOCK
  5
C4CA
330
C3E2
100
AcDbEntity
  8
0
100
AcDbBlockBegin
  2
*D14
 70
     1
 10
0.0
 20
0.0
 30
0.0
  3
*D14
  1

  0
LINE
  5
C4CB
330
C3E2
100
AcDbEntity
  8
0
  6
ByBlock
100
AcDbLine
 10
10094.0060378197
 20
-8245.121608201484
 30
0.0
 11
9138.555667528621
 21
-8245.121608201484
 31
0.0
  0
LINE
  5
C4CC
330
C3E2
100
AcDbEntity
  8
0
  6
ByBlock
100
AcDbLine
 10
10292.55903593365
 20
-10595.12160820148
 30
0.0
 11
9138.555667528621
 21
-10595.12160820148
 31
0.0
  0
LINE
  5
C4CD
330
C3E2
100
AcDbEntity
  8
0
  6
ByBlock
100
AcDbLine
 10
9193.55566752862
 20
-8355.121608201484
 30
0.0
 11
9193.55566752862
 21
-10485.12160820148
 31
0.0
  0
INSERT
  5
C4CE
330
C3E2
100
AcDbEntity
  8
0
  6
ByBlock
100
AcDbBlockReference
  2
_OPEN
 10
9193.55566752862
 20
-8245.121608201484
 30
0.0
 41
110.0
 42
110.0
 43
110.0
 50
90.0
  0
INSERT
  5
C4CF
330
C3E2
100
AcDbEntity
  8
0
  6
ByBlock
100
AcDbBlockReference
  2
_OPEN
 10
9193.55566752862
 20
-10595.12160820148
 30
0.0
 41
110.0
 42
110.0
 43
110.0
 50
270.0
  0
MTEXT
  5
C4D0
330
C3E2
100
AcDbEntity
  8
0
  6
ByBlock
100
AcDbMText
 10
9069.805667528621
 20
-9420.121608201483
 30
0.0
 40
137.5
 41
0.0
 71
     5
 72
     5
  1
\A1;2350
 11
0.0
 21
1.0
 31
0.0
 73
     1
 44
1.0
1001
ACAD
1000
MTEXTBEGIN
1070
    73
1070
     1
1070
    44
1040
1.0
1070
    74
1070
     0
1000
MTEXTEND
  0
POINT
  5
C4D1
330
C3E2
100
AcDbEntity
  8
DEFPOINTS
  6
ByBlock
 62
     0
100
AcDbPoint
 10
10149.0060378197
 20
-8245.121608201484
 30
0.0
  0
POINT
  5
C4D2
330
C3E2
100
AcDbEntity
  8
DEFPOINTS
  6
ByBlock
 62
     0
100
AcDbPoint
 10
10347.55903593365
 20
-10595.12160820148
 30
0.0
  0
POINT
  5
C4D3
330
C3E2
100
AcDbEntity
  8
DEFPOINTS
  6
ByBlock
 62
     0
100
AcDbPoint
 10
9193.55566752862
 20
-10595.12160820148
 30
0.0
  0
ENDBLK
  5
C4D4
330
C3E2
100
AcDbEntity
  8
0
100
AcDbBlockEnd
  0
BLOCK
  5
C3FD
330
C3FC
100
AcDbEntity
  8
0
100
AcDbBlockBegin
  2
*D15
 70
     1
 10
0.0
 20
0.0
 30
0.0
  3
*D15
  1

  0
LINE
  5
C3FE
330
C3FC
100
AcDbEntity
  8
0
  6
ByBlock
100
AcDbLine
 10
15724.62794449223
 20
-7371.741655375995
 30
0.0
 11
15724.62794449223
 21
-7084.248715422247
 31
0.0
  0
LINE
  5
C3FF
330
C3FC
100
AcDbEntity
  8
0
  6
ByBlock
100
AcDbLine
 10
18374.62794449223
 20
-7371.741655375995
 30
0.0
 11
18374.62794449223
 21
-7084.248715422247
 31
0.0
  0
LINE
  5
C400
330
C3FC
100
AcDbEntity
  8
0
  6
ByBlock
100
AcDbLine
 10
15834.62794449223
 20
-7139.248715422247
 30
0.0
 11
18264.62794449223
 21
-7139.248715422247
 31
0.0
  0
INSERT
  5
C401
330
C3FC
100
AcDbEntity
  8
0
  6
ByBlock
100
AcDbBlockReference
  2
_OPEN
 10
15724.62794449223
 20
-7139.248715422247
 30
0.0
 41
110.0
 42
110.0
 43
110.0
 50
180.0
  0
INSERT
  5
C402
330
C3FC
100
AcDbEntity
  8
0
  6
ByBlock
100
AcDbBlockReference
  2
_OPEN
 10
18374.62794449223
 20
-7139.248715422247
 30
0.0
 41
110.0
 42
110.0
 43
110.0
  0
MTEXT
  5
C403
330
C3FC
100
AcDbEntity
  8
0
  6
ByBlock
100
AcDbMText
 10
17049.62794449223
 20
-7015.498715422246
 30
0.0
 40
137.5
 41
0.0
 71
     5
 72
     5
  1
\A1;2650
 73
     1
 44
1.0
1001
ACAD
1000
MTEXTBEGIN
1070
    73
1070
     1
1070
    44
1040
1.0
1070
    74
1070
     0
1000
MTEXTEND
  0
POINT
  5
C404
330
C3FC
100
AcDbEntity
  8
DEFPOINTS
  6
ByBlock
 62
     0
100
AcDbPoint
 10
15724.62794449223
 20
-7426.741655375995
 30
0.0
  0
POINT
  5
C405
330
C3FC
100
AcDbEntity
  8
DEFPOINTS
  6
ByBlock
 62
     0
100
AcDbPoint
 10
18374.62794449223
 20
-7426.741655375995
 30
0.0
  0
POINT
  5
C406
330
C3FC
100
AcDbEntity
  8
DEFPOINTS
  6
ByBlock
 62
     0
100
AcDbPoint
 10
18374.62794449223
 20
-7139.248715422247
 30
0.0
  0
ENDBLK
  5
C407
330
C3FC
100
AcDbEntity
  8
0
100
AcDbBlockEnd
  0
BLOCK
  5
C4A9
330
C417
100
AcDbEntity
  8
0
100
AcDbBlockBegin
  2
*D16
 70
     1
 10
0.0
 20
0.0
 30
0.0
  3
*D16
  1

  0
LINE
  5
C4AA
330
C417
100
AcDbEntity
  8
0
  6
ByBlock
100
AcDbLine
 10
10252.55903593365
 20
-8199.121608201485
 30
0.0
 11
10252.55903593365
 21
-6460.628668247736
 31
0.0
  0
LINE
  5
C4AB
330
C417
100
AcDbEntity
  8
0
  6
ByBlock
100
AcDbLine
 10
11527.55903593365
 20
-6638.782753769001
 30
0.0
 11
11527.55903593365
 21
-6460.628668247736
 31
0.0
  0
LINE
  5
C4AC
330
C417
100
AcDbEntity
  8
0
  6
ByBlock
100
AcDbLine
 10
10362.55903593365
 20
-6515.628668247737
 30
0.0
 11
11417.55903593365
 21
-6515.628668247737
 31
0.0
  0
INSERT
  5
C4AD
330
C417
100
AcDbEntity
  8
0
  6
ByBlock
100
AcDbBlockReference
  2
_OPEN
 10
10252.55903593365
 20
-6515.628668247737
 30
0.0
 41
110.0
 42
110.0
 43
110.0
 50
180.0
  0
INSERT
  5
C4AE
330
C417
100
AcDbEntity
  8
0
  6
ByBlock
100
AcDbBlockReference
  2
_OPEN
 10
11527.55903593365
 20
-6515.628668247737
 30
0.0
 41
110.0
 42
110.0
 43
110.0
  0
MTEXT
  5
C4AF
330
C417
100
AcDbEntity
  8
0
  6
ByBlock
100
AcDbMText
 10
10890.05903593365
 20
-6391.878668247737
 30
0.0
 40
137.5
 41
0.0
 71
     5
 72
     5
  1
\A1;1275
 73
     1
 44
1.0
1001
ACAD
1000
MTEXTBEGIN
1070
    73
1070
     1
1070
    44
1040
1.0
1070
    74
1070
     0
1000
MTEXTEND
  0
POINT
  5
C4B0
330
C417
100
AcDbEntity
  8
DEFPOINTS
  6
ByBlock
 62
     0
100
AcDbPoint
 10
10252.55903593365
 20
-8254.121608201485
 30
0.0
  0
POINT
  5
C4B1
330
C417
100
AcDbEntity
  8
DEFPOINTS
  6
ByBlock
 62
     0
100
AcDbPoint
 10
11527.55903593365
 20
-6693.782753769003
 30
0.0
  0
POINT
  5
C4B2
330
C417
100
AcDbEntity
  8
DEFPOINTS
  6
ByBlock
 62
     0
100
AcDbPoint
 10
11527.55903593365
 20
-6515.628668247737
 30
0.0
  0
ENDBLK
  5
C4B3
330
C417
100
AcDbEntity
  8
0
100
AcDbBlockEnd
  0
BLOCK
  5
C4BF
330
C424
100
AcDbEntity
  8
0
100
AcDbBlockBegin
  2
*D17
 70
     1
 10
0.0
 20
0.0
 30
0.0
  3
*D17
  1

  0
LINE
  5
C4C0
330
C424
100
AcDbEntity
  8
0
  6
ByBlock
100
AcDbLine
 10
11527.55903593365
 20
-6638.782753769001
 30
0.0
 11
11527.55903593365
 21
-6460.628668247736
 31
0.0
  0
LINE
  5
C4C1
330
C424
100
AcDbEntity
  8
0
  6
ByBlock
100
AcDbLine
 10
13263.55903593365
 20
-8337.121608201483
 30
0.0
 11
13263.55903593365
 21
-6460.628668247736
 31
0.0
  0
LINE
  5
C4C2
330
C424
100
AcDbEntity
  8
0
  6
ByBlock
100
AcDbLine
 10
11637.55903593365
 20
-6515.628668247737
 30
0.0
 11
13153.55903593365
 21
-6515.628668247737
 31
0.0
  0
INSERT
  5
C4C3
330
C424
100
AcDbEntity
  8
0
  6
ByBlock
100
AcDbBlockReference
  2
_OPEN
 10
11527.55903593365
 20
-6515.628668247737
 30
0.0
 41
110.0
 42
110.0
 43
110.0
 50
180.0
  0
INSERT
  5
C4C4
330
C424
100
AcDbEntity
  8
0
  6
ByBlock
100
AcDbBlockReference
  2
_OPEN
 10
13263.55903593365
 20
-6515.628668247737
 30
0.0
 41
110.0
 42
110.0
 43
110.0
  0
MTEXT
  5
C4C5
330
C424
100
AcDbEntity
  8
0
  6
ByBlock
100
AcDbMText
 10
12395.55903593365
 20
-6391.878668247737
 30
0.0
 40
137.5
 41
0.0
 71
     5
 72
     5
  1
\A1;1736
 73
     1
 44
1.0
1001
ACAD
1000
MTEXTBEGIN
1070
    73
1070
     1
1070
    44
1040
1.0
1070
    74
1070
     0
1000
MTEXTEND
  0
POINT
  5
C4C6
330
C424
100
AcDbEntity
  8
DEFPOINTS
  6
ByBlock
 62
     0
100
AcDbPoint
 10
11527.55903593365
 20
-6693.782753769003
 30
0.0
  0
POINT
  5
C4C7
330
C424
100
AcDbEntity
  8
DEFPOINTS
  6
ByBlock
 62
     0
100
AcDbPoint
 10
13263.55903593365
 20
-8392.121608201483
 30
0.0
  0
POINT
  5
C4C8
330
C424
100
AcDbEntity
  8
DEFPOINTS
  6
ByBlock
 62
     0
100
AcDbPoint
 10
13263.55903593365
 20
-6515.628668247737
 30
0.0
  0
ENDBLK
  5
C4C9
330
C424
100
AcDbEntity
  8
0
100
AcDbBlockEnd
  0
BLOCK
  5
C432
330
C431
100
AcDbEntity
  8
0
100
AcDbBlockBegin
  2
*D18
 70
     1
 10
0.0
 20
0.0
 30
0.0
  3
*D18
  1

  0
LINE
  5
C5E8
330
C431
100
AcDbEntity
  8
SP
370
    -2
100
AcDbLine
 10
17049.62794449223
 20
-6146.767057030858
 30
0.0
 11
17049.62794449223
 21
-6116.197514311949
 31
0.0
  0
LINE
  5
C5E9
330
C431
100
AcDbEntity
  8
SP
370
    -2
100
AcDbLine
 10
15099.62794449223
 20
-7710.121608201487
 30
0.0
 11
15099.62794449223
 21
-6116.197514311949
 31
0.0
  0
LINE
  5
C5EA
330
C431
100
AcDbEntity
  8
SP
370
    -2
100
AcDbLine
 10
16939.62794449223
 20
-6171.197514311948
 30
0.0
 11
15209.62794449223
 21
-6171.197514311948
 31
0.0
  0
INSERT
  5
C5EB
330
C431
100
AcDbEntity
  8
SP
370
    -2
100
AcDbBlockReference
  2
_OPEN
 10
17049.62794449223
 20
-6171.197514311948
 30
0.0
 41
110.0
 42
110.0
 43
110.0
  0
INSERT
  5
C5EC
330
C431
100
AcDbEntity
  8
SP
370
    -2
100
AcDbBlockReference
  2
_OPEN
 10
15099.62794449223
 20
-6171.197514311948
 30
0.0
 41
110.0
 42
110.0
 43
110.0
 50
180.0
  0
MTEXT
  5
C5ED
330
C431
100
AcDbEntity
  8
SP
100
AcDbMText
 10
16074.62794449223
 20
-6011.435609550044
 30
0.0
 40
137.5
 41
0.0
 71
     5
 72
     1
  1
\A1;(1950)
 73
     1
 44
1.0
1001
ACAD
1000
MTEXTBEGIN
1070
    73
1070
     1
1070
    44
1040
1.0
1070
    74
1070
     0
1000
MTEXTEND
  0
POINT
  5
C5EE
330
C431
100
AcDbEntity
  8
DEFPOINTS
 62
     0
100
AcDbPoint
 10
17049.62794449223
 20
-6201.767057030858
 30
0.0
  0
POINT
  5
C5EF
330
C431
100
AcDbEntity
  8
DEFPOINTS
 62
     0
100
AcDbPoint
 10
15099.62794449223
 20
-7765.121608201487
 30
0.0
  0
POINT
  5
C5F0
330
C431
100
AcDbEntity
  8
DEFPOINTS
 62
     0
100
AcDbPoint
 10
15099.62794449223
 20
-6171.197514311948
 30
0.0
  0
ENDBLK
  5
C43C
330
C431
100
AcDbEntity
  8
0
100
AcDbBlockEnd
  0
BLOCK
  5
C43F
330
C43E
100
AcDbEntity
  8
0
100
AcDbBlockBegin
  2
*D19
 70
     1
 10
0.0
 20
0.0
 30
0.0
  3
*D19
  1

  0
LINE
  5
C5F1
330
C43E
100
AcDbEntity
  8
SP
370
    -2
100
AcDbLine
 10
17049.62794449223
 20
-6146.767057030858
 30
0.0
 11
17049.62794449223
 21
-6116.197514311949
 31
0.0
  0
LINE
  5
C5F2
330
C43E
100
AcDbEntity
  8
SP
370
    -2
100
AcDbLine
 10
18629.82794449224
 20
-8280.121608201481
 30
0.0
 11
18629.82794449224
 21
-6116.197514311949
 31
0.0
  0
LINE
  5
C5F3
330
C43E
100
AcDbEntity
  8
SP
370
    -2
100
AcDbLine
 10
17159.62794449223
 20
-6171.197514311948
 30
0.0
 11
18519.82794449224
 21
-6171.197514311948
 31
0.0
  0
INSERT
  5
C5F4
330
C43E
100
AcDbEntity
  8
SP
370
    -2
100
AcDbBlockReference
  2
_OPEN
 10
17049.62794449223
 20
-6171.197514311948
 30
0.0
 41
110.0
 42
110.0
 43
110.0
 50
180.0
  0
INSERT
  5
C5F5
330
C43E
100
AcDbEntity
  8
SP
370
    -2
100
AcDbBlockReference
  2
_OPEN
 10
18629.82794449224
 20
-6171.197514311948
 30
0.0
 41
110.0
 42
110.0
 43
110.0
  0
MTEXT
  5
C5F6
330
C43E
100
AcDbEntity
  8
SP
100
AcDbMText
 10
17839.72794449223
 20
-6011.435609550044
 30
0.0
 40
137.5
 41
0.0
 71
     5
 72
     1
  1
\A1;(1580)
 73
     1
 44
1.0
1001
ACAD
1000
MTEXTBEGIN
1070
    73
1070
     1
1070
    44
1040
1.0
1070
    74
1070
     0
1000
MTEXTEND
  0
POINT
  5
C5F7
330
C43E
100
AcDbEntity
  8
DEFPOINTS
 62
     0
100
AcDbPoint
 10
17049.62794449223
 20
-6201.767057030858
 30
0.0
  0
POINT
  5
C5F8
330
C43E
100
AcDbEntity
  8
DEFPOINTS
 62
     0
100
AcDbPoint
 10
18629.82794449224
 20
-8335.121608201481
 30
0.0
  0
POINT
  5
C5F9
330
C43E
100
AcDbEntity
  8
DEFPOINTS
 62
     0
100
AcDbPoint
 10
18629.82794449224
 20
-6171.197514311948
 30
0.0
  0
ENDBLK
  5
C449
330
C43E
100
AcDbEntity
  8
0
100
AcDbBlockEnd
  0
BLOCK
  5
C49E
330
C44B
100
AcDbEntity
  8
0
100
AcDbBlockBegin
  2
*D20
 70
     1
 10
0.0
 20
0.0
 30
0.0
  3
*D20
  1

  0
LINE
  5
C49F
330
C44B
100
AcDbEntity
  8
0
  6
ByBlock
100
AcDbLine
 10
11595.05903593365
 20
-6803.121608201483
 30
0.0
 11
9142.564423124051
 21
-6803.121608201483
 31
0.0
  0
LINE
  5
C4A0
330
C44B
100
AcDbEntity
  8
0
  6
ByBlock
100
AcDbLine
 10
10094.0060378197
 20
-8245.121608201484
 30
0.0
 11
9142.564423124051
 21
-8245.121608201484
 31
0.0
  0
LINE
  5
C4A1
330
C44B
100
AcDbEntity
  8
0
  6
ByBlock
100
AcDbLine
 10
9197.564423124051
 20
-6913.121608201483
 30
0.0
 11
9197.564423124051
 21
-8135.121608201483
 31
0.0
  0
INSERT
  5
C4A2
330
C44B
100
AcDbEntity
  8
0
  6
ByBlock
100
AcDbBlockReference
  2
_OPEN
 10
9197.564423124051
 20
-6803.121608201483
 30
0.0
 41
110.0
 42
110.0
 43
110.0
 50
90.0
  0
INSERT
  5
C4A3
330
C44B
100
AcDbEntity
  8
0
  6
ByBlock
100
AcDbBlockReference
  2
_OPEN
 10
9197.564423124051
 20
-8245.121608201484
 30
0.0
 41
110.0
 42
110.0
 43
110.0
 50
270.0
  0
MTEXT
  5
C4A4
330
C44B
100
AcDbEntity
  8
0
  6
ByBlock
100
AcDbMText
 10
9073.814423124051
 20
-7524.121608201483
 30
0.0
 40
137.5
 41
0.0
 71
     5
 72
     5
  1
\A1;1442
 11
0.0
 21
1.0
 31
0.0
 73
     1
 44
1.0
1001
ACAD
1000
MTEXTBEGIN
1070
    73
1070
     1
1070
    44
1040
1.0
1070
    74
1070
     0
1000
MTEXTEND
  0
POINT
  5
C4A5
330
C44B
100
AcDbEntity
  8
DEFPOINTS
  6
ByBlock
 62
     0
100
AcDbPoint
 10
11650.05903593365
 20
-6803.121608201483
 30
0.0
  0
POINT
  5
C4A6
330
C44B
100
AcDbEntity
  8
DEFPOINTS
  6
ByBlock
 62
     0
100
AcDbPoint
 10
10149.0060378197
 20
-8245.121608201484
 30
0.0
  0
POINT
  5
C4A7
330
C44B
100
AcDbEntity
  8
DEFPOINTS
  6
ByBlock
 62
     0
100
AcDbPoint
 10
9197.564423124051
 20
-8245.121608201484
 30
0.0
  0
ENDBLK
  5
C4A8
330
C44B
100
AcDbEntity
  8
0
100
AcDbBlockEnd
  0
BLOCK
  5
C513
330
C512
100
AcDbEntity
  8
0
100
AcDbBlockBegin
  2
_DOT
 70
     0
 10
0.0
 20
0.0
 30
0.0
  3
_DOT
  1

  0
LWPOLYLINE
  5
C514
330
C512
100
AcDbEntity
  8
0
  6
ByBlock
 62
     0
100
AcDbPolyline
 90
        2
 70
     1
 43
0.5
 10
-0.25
 20
0.0
 42
1.0
 10
0.25
 20
0.0
 42
1.0
  0
LINE
  5
C518
330
C512
100
AcDbEntity
  8
0
  6
ByBlock
 62
     0
100
AcDbLine
 10
-0.5
 20
0.0
 30
0.0
 11
-1.0
 21
0.0
 31
0.0
  0
ENDBLK
  5
C519
330
C512
100
AcDbEntity
  8
0
100
AcDbBlockEnd
  0
BLOCK
  5
C51B
330
C51A
100
AcDbEntity
  8
0
100
AcDbBlockBegin
  2
*D22
 70
     1
 10
0.0
 20
0.0
 30
0.0
  3
*D22
  1

  0
LINE
  5
C51C
330
C51A
100
AcDbEntity
  8
0
  6
ByBlock
100
AcDbLine
 10
10292.55903593365
 20
-10615.12160820148
 30
0.0
 11
9136.436173298665
 21
-10615.12160820148
 31
0.0
  0
LINE
  5
C51D
330
C51A
100
AcDbEntity
  8
0
  6
ByBlock
100
AcDbLine
 10
10292.55903593365
 20
-10795.12160820148
 30
0.0
 11
9136.436173298665
 21
-10795.12160820148
 31
0.0
  0
LINE
  5
C51E
330
C51A
100
AcDbEntity
  8
0
  6
ByBlock
100
AcDbLine
 10
9191.436173298665
 20
-10505.12160820148
 30
0.0
 11
9191.436173298665
 21
-10395.12160820148
 31
0.0
  0
LINE
  5
C51F
330
C51A
100
AcDbEntity
  8
0
  6
ByBlock
100
AcDbLine
 10
9191.436173298665
 20
-10905.12160820148
 30
0.0
 11
9191.436173298665
 21
-11462.21490255723
 31
0.0
  0
LINE
  5
C520
330
C51A
100
AcDbEntity
  8
0
  6
ByBlock
100
AcDbLine
 10
9191.436173298665
 20
-10615.12160820148
 30
0.0
 11
9191.436173298665
 21
-10795.12160820148
 31
0.0
  0
INSERT
  5
C521
330
C51A
100
AcDbEntity
  8
0
  6
ByBlock
100
AcDbBlockReference
  2
_DOT
 10
9191.436173298665
 20
-10615.12160820148
 30
0.0
 41
110.0
 42
110.0
 43
110.0
 50
270.0
  0
INSERT
  5
C522
330
C51A
100
AcDbEntity
  8
0
  6
ByBlock
100
AcDbBlockReference
  2
_OPEN
 10
9191.436173298665
 20
-10795.12160820148
 30
0.0
 41
110.0
 42
110.0
 43
110.0
 50
90.0
  0
MTEXT
  5
C523
330
C51A
100
AcDbEntity
  8
0
  6
ByBlock
100
AcDbMText
 10
9067.686173298666
 20
-11238.66825537935
 30
0.0
 40
137.5
 41
0.0
 71
     5
 72
     5
  1
\A1;180
 11
0.0
 21
1.0
 31
0.0
 73
     1
 44
1.0
1001
ACAD
1000
MTEXTBEGIN
1070
    73
1070
     1
1070
    44
1040
1.0
1070
    74
1070
     0
1000
MTEXTEND
  0
POINT
  5
C524
330
C51A
100
AcDbEntity
  8
DEFPOINTS
  6
ByBlock
 62
     0
100
AcDbPoint
 10
10347.55903593365
 20
-10615.12160820148
 30
0.0
  0
POINT
  5
C525
330
C51A
100
AcDbEntity
  8
DEFPOINTS
  6
ByBlock
 62
     0
100
AcDbPoint
 10
10347.55903593365
 20
-10795.12160820148
 30
0.0
  0
POINT
  5
C526
330
C51A
100
AcDbEntity
  8
DEFPOINTS
  6
ByBlock
 62
     0
100
AcDbPoint
 10
9191.436173298665
 20
-10795.12160820148
 30
0.0
  0
ENDBLK
  5
C527
330
C51A
100
AcDbEntity
  8
0
100
AcDbBlockEnd
  0
BLOCK
  5
C52A
330
C529
100
AcDbEntity
  8
0
100
AcDbBlockBegin
  2
_NONE
 70
     0
 10
0.0
 20
0.0
 30
0.0
  3
_NONE
  1

  0
CIRCLE
  5
C52B
330
C529
100
AcDbEntity
  8
0
  6
ByBlock
 62
     0
100
AcDbCircle
 10
0.0
 20
0.0
 30
0.0
 40
0.25
  0
ENDBLK
  5
C52C
330
C529
100
AcDbEntity
  8
0
100
AcDbBlockEnd
  0
BLOCK
  5
C544
330
C543
100
AcDbEntity
  8
0
100
AcDbBlockBegin
  2
*D24
 70
     1
 10
0.0
 20
0.0
 30
0.0
  3
*D24
  1

  0
LINE
  5
C586
330
C543
100
AcDbEntity
  8
SP
100
AcDbLine
 10
9193.961239224133
 20
-10735.12160820148
 30
0.0
 11
9193.961239224133
 21
-10595.12160820148
 31
0.0
  0
MTEXT
  5
C587
330
C543
100
AcDbEntity
  8
SP
100
AcDbMText
 10
8951.699334462229
 20
-10665.12160820148
 30
0.0
 40
137.5
 41
0.0
 71
     5
 72
     5
  1
\A1;(140)
 11
0.0000000000000001
 21
1.0
 31
0.0
 73
     1
 44
1.0
1001
ACAD
1000
MTEXTBEGIN
1070
    73
1070
     1
1070
    44
1040
1.0
1070
    74
1070
     0
1000
MTEXTEND
  0
POINT
  5
C588
330
C543
100
AcDbEntity
  8
DEFPOINTS
 62
     0
100
AcDbPoint
 10
10347.55903593365
 20
-10735.12160820148
 30
0.0
  0
POINT
  5
C589
330
C543
100
AcDbEntity
  8
DEFPOINTS
 62
     0
100
AcDbPoint
 10
10347.55903593365
 20
-10595.12160820148
 30
0.0
  0
POINT
  5
C58A
330
C543
100
AcDbEntity
  8
DEFPOINTS
 62
     0
100
AcDbPoint
 10
9193.961239224133
 20
-10595.12160820148
 30
0.0
  0
ENDBLK
  5
C54A
330
C543
100
AcDbEntity
  8
0
100
AcDbBlockEnd
  0
ENDSEC
  0
SECTION
  2
ENTITIES
  0
LINE
  5
7AB6
330
19
100
AcDbEntity
  8
FUTO
100
AcDbLine
 10
13577.55903593365
 20
-10345.12160820148
 30
0.0
 11
13647.55903593365
 21
-10345.12160820148
 31
0.0
  0
LINE
  5
7AB7
330
19
100
AcDbEntity
  8
FUTO
100
AcDbLine
 10
14277.55903593365
 20
-10345.12160820148
 30
0.0
 11
14277.55903593365
 21
-10415.12160820148
 31
0.0
  0
LINE
  5
7AB8
330
19
100
AcDbEntity
  8
FUTO
100
AcDbLine
 10
13577.55903593365
 20
-10345.12160820148
 30
0.0
 11
13577.55903593365
 21
-10415.12160820148
 31
0.0
  0
LINE
  5
7AC0
330
19
100
AcDbEntity
  8
FUTO
100
AcDbLine
 10
14197.55903593365
 20
-4036.363861048483
 30
0.0
 11
13657.55903593365
 21
-4036.363861048483
 31
0.0
  0
LINE
  5
7AC6
330
19
100
AcDbEntity
  8
FUTO
100
AcDbLine
 10
13657.55903593365
 20
-4939.863861048483
 30
0.0
 11
14197.55903593365
 21
-4939.863861048483
 31
0.0
  0
LINE
  5
7AFE
330
19
100
AcDbEntity
  8
FUTO
100
AcDbLine
 10
13970.05903593365
 20
-5006.363861048483
 30
0.0
 11
13970.05903593365
 21
-4939.863861048483
 31
0.0
  0
LINE
  5
7AFF
330
19
100
AcDbEntity
  8
FUTO
100
AcDbLine
 10
13885.05903593365
 20
-4939.863861048483
 30
0.0
 11
13885.05903593365
 21
-5006.363861048483
 31
0.0
  0
ARC
  5
7B35
330
19
100
AcDbEntity
  8
FUTO
100
AcDbCircle
 10
13927.55903593365
 20
-10065.12160820148
 30
0.0
 40
287.5
100
AcDbArc
 50
329.6527344126618
 51
210.3472654840073
  0
LINE
  5
7B36
330
19
100
AcDbEntity
  8
CT
100
AcDbLine
 10
13927.55903593365
 20
-10915.12160820148
 30
0.0
 11
13927.55903593365
 21
-9681.959288201484
 31
0.0
  0
LINE
  5
7B38
330
19
100
AcDbEntity
  8
CT
100
AcDbLine
 10
14247.55903593365
 20
-10065.12160820148
 30
0.0
 11
13607.55903593365
 21
-10065.12160820148
 31
0.0
  0
LINE
  5
7B3B
330
19
100
AcDbEntity
  8
FUTO
100
AcDbLine
 10
14197.92775593364
 20
-10223.87507120148
 30
0.0
 11
14175.66551293365
 21
-10210.37802220148
 31
0.0
  0
LINE
  5
7B3C
330
19
100
AcDbEntity
  8
FUTO
100
AcDbLine
 10
14207.55903593365
 20
-10345.12160820148
 30
0.0
 11
14207.55903593365
 21
-10240.97740020148
 31
0.0
  0
ARC
  5
7B3E
330
19
100
AcDbEntity
  8
FUTO
100
AcDbCircle
 10
14187.55903593365
 20
-10240.97740020148
 30
0.0
 40
20.0
100
AcDbArc
 50
0.0
 51
58.77259900000001
  0
LINE
  5
7B4A
330
19
100
AcDbEntity
  8
FUTO
100
AcDbLine
 10
13647.55903593365
 20
-10345.12160820148
 30
0.0
 11
13647.55903593365
 21
-10240.97740020148
 31
0.0
  0
LINE
  5
7B57
330
19
100
AcDbEntity
  8
FUTO
100
AcDbLine
 10
13657.19031493365
 20
-10223.87507120148
 30
0.0
 11
13679.45255828124
 21
-10210.37802199074
 31
0.0
  0
ARC
  5
7B5A
330
19
100
AcDbEntity
  8
FUTO
100
AcDbCircle
 10
13667.55903593365
 20
-10240.97740020148
 30
0.0
 40
20.0
100
AcDbArc
 50
121.227401
 51
180.0
  0
CIRCLE
  5
7B75
330
19
100
AcDbEntity
  8
SL
100
AcDbCircle
 10
13927.55903593365
 20
-10065.12160820148
 30
0.0
 40
140.0
  0
LINE
  5
7B82
330
19
100
AcDbEntity
  8
FUTO
100
AcDbLine
 10
14207.55903593365
 20
-10345.12160820148
 30
0.0
 11
14277.55903593365
 21
-10345.12160820148
 31
0.0
  0
LINE
  5
98B6
330
19
100
AcDbEntity
  8
SL
100
AcDbLine
 10
15199.62794449223
 20
-7995.121608201486
 30
0.0
 11
15339.62794449223
 21
-7995.12160820149
 31
0.0
  0
LINE
  5
98B7
330
19
100
AcDbEntity
  8
SL
100
AcDbLine
 10
15199.62794449223
 20
-8795.121608201489
 30
0.0
 11
15339.62794449223
 21
-8795.121608201489
 31
0.0
  0
LINE
  5
98B8
330
19
100
AcDbEntity
  8
SL
100
AcDbLine
 10
15339.62794449223
 20
-9925.121608201486
 30
0.0
 11
15199.62794449223
 21
-9925.121608201484
 31
0.0
  0
LINE
  5
98B9
330
19
100
AcDbEntity
  8
SL
100
AcDbLine
 10
15339.62794449223
 20
-10205.12160820148
 30
0.0
 11
15199.62794449223
 21
-10205.12160820148
 31
0.0
  0
LINE
  5
98BA
330
19
100
AcDbEntity
  8
SL
100
AcDbLine
 10
15199.62794449223
 20
-7995.121608201486
 30
0.0
 11
15199.62794449223
 21
-10205.12160820148
 31
0.0
  0
LINE
  5
98BC
330
19
100
AcDbEntity
  8
SL
100
AcDbLine
 10
15339.62794449223
 20
-7995.121608201486
 30
0.0
 11
15339.62794449223
 21
-10205.12160820148
 31
0.0
  0
LINE
  5
98C4
330
19
100
AcDbEntity
  8
FUTO
100
AcDbLine
 10
13657.55903593365
 20
-4939.863861048483
 30
0.0
 11
13657.55903593365
 21
-4036.363861048483
 31
0.0
  0
LINE
  5
98C5
330
19
100
AcDbEntity
  8
FUTO
100
AcDbLine
 10
14197.55903593365
 20
-4939.863861048483
 30
0.0
 11
14197.55903593365
 21
-4036.363861048483
 31
0.0
  0
LINE
  5
98C6
330
19
100
AcDbEntity
  8
FUTO
100
AcDbLine
 10
15406.12794449223
 20
-10335.12160820148
 30
0.0
 11
16309.62794449223
 21
-10335.12160820148
 31
0.0
  0
LINE
  5
98C7
330
19
100
AcDbEntity
  8
FUTO
100
AcDbLine
 10
15406.12794449223
 20
-9795.121608201483
 30
0.0
 11
16309.62794449223
 21
-9795.12160820149
 31
0.0
  0
LINE
  5
98CA
330
19
100
AcDbEntity
  8
FUTO
100
AcDbLine
 10
15406.12794449223
 20
-10335.12160820148
 30
0.0
 11
15406.12794449223
 21
-9795.121608201483
 31
0.0
  0
LINE
  5
98CC
330
19
100
AcDbEntity
  8
FUTO
100
AcDbLine
 10
15339.62794449223
 20
-10022.62160820148
 30
0.0
 11
15406.12794449223
 21
-10022.62160820148
 31
0.0
  0
LINE
  5
98CD
330
19
100
AcDbEntity
  8
FUTO
100
AcDbLine
 10
15406.12794449223
 20
-10107.62160820148
 30
0.0
 11
15339.62794449223
 21
-10107.62160820148
 31
0.0
  0
LINE
  5
98E8
330
19
100
AcDbEntity
  8
SL
100
AcDbLine
 10
14097.55903593365
 20
-4956.363861048483
 30
0.0
 11
14147.55903593365
 21
-4956.363861048483
 31
0.0
  0
LINE
  5
A0E7
330
19
100
AcDbEntity
  8
4
100
AcDbLine
 10
17961.16669783403
 20
-12040.48813421171
 30
0.0
 11
17961.16669783403
 21
-13140.48813421171
 31
0.0
  0
LINE
  5
A0E8
330
19
100
AcDbEntity
  8
4
100
AcDbLine
 10
14111.16669783403
 20
-12040.48813421171
 30
0.0
 11
14111.16669783403
 21
-13140.48813421171
 31
0.0
  0
LINE
  5
A0E9
330
19
100
AcDbEntity
  8
4
100
AcDbLine
 10
11361.16669783403
 20
-12040.48813421171
 30
0.0
 11
11361.16669783403
 21
-13140.48813421171
 31
0.0
  0
LINE
  5
A0EC
330
19
100
AcDbEntity
  8
4
100
AcDbLine
 10
11361.16669783403
 20
-13140.48813421171
 30
0.0
 11
17961.16669783403
 21
-13140.48813421171
 31
0.0
  0
LINE
  5
A0ED
330
19
100
AcDbEntity
  8
4
100
AcDbLine
 10
11361.16669783403
 20
-12590.48813421171
 30
0.0
 11
17961.16669783403
 21
-12590.48813421171
 31
0.0
  0
TEXT
  5
A0EE
330
19
100
AcDbEntity
  8
4
100
AcDbText
 10
11572.92814249199
 20
-12417.00149194534
 30
0.0
 40
275.0
  1
機器名称
100
AcDbText
  0
TEXT
  5
A0EF
330
19
100
AcDbEntity
  8
4
100
AcDbText
 10
11560.58628097042
 20
-13021.43977218565
 30
0.0
 40
275.0
  1
機器型番
100
AcDbText
  0
TEXT
  5
A0F0
330
19
100
AcDbEntity
  8
4
100
AcDbText
 10
14274.28609399308
 20
-12457.34307415221
 30
0.0
 40
233.75
  1
ミツヤリミットロ－ドファン
100
AcDbText
  0
TEXT
  5
A0F1
330
19
100
AcDbEntity
  8
4
100
AcDbText
 10
14312.76642355418
 20
-13046.11042067202
 30
0.0
 40
275.0
  1
LL#12-5
100
AcDbText
  0
TEXT
  5
A0F3
330
19
100
AcDbEntity
  8
4
100
AcDbText
 10
12185.97715136576
 20
-1128.56058470239
 30
0.0
 40
297.0
  1
床置防振ベット
100
AcDbText
  0
TEXT
  5
A0F4
330
19
100
AcDbEntity
  8
4
100
AcDbText
 10
9429.003240898744
 20
-301.0738429350895
 30
0.0
 40
396.0000000000001
  1
遠心式両吸込両持リミットロ－ドファン
100
AcDbText
  0
LINE
  5
A0F5
330
19
100
AcDbEntity
  8
4
100
AcDbLine
 10
9161.166697834037
 20
-655.6710635748004
 30
0.0
 11
17961.16669783403
 21
-655.6710635748004
 31
0.0
  0
LINE
  5
A0F6
330
19
100
AcDbEntity
  8
4
100
AcDbLine
 10
9161.166697834037
 20
444.3289364251995
 30
0.0
 11
17961.16669783403
 21
444.3289364251995
 31
0.0
  0
LINE
  5
A0F7
330
19
100
AcDbEntity
  8
4
100
AcDbLine
 10
11361.16669783403
 20
-12040.48813421171
 30
0.0
 11
17961.16669783403
 21
-12040.48813421171
 31
0.0
  0
LINE
  5
A0F8
330
19
100
AcDbEntity
  8
4
100
AcDbLine
 10
9161.166697834037
 20
444.3289364251995
 30
0.0
 11
9161.166697834037
 21
-655.6710635748004
 31
0.0
  0
TEXT
  5
A0F9
330
19
100
AcDbEntity
  8
4
100
AcDbText
 10
9788.753574030897
 20
-1134.662085526339
 30
0.0
 40
297.0
  1
右回転左横向
100
AcDbText
  0
TEXT
  5
A0FA
330
19
100
AcDbEntity
  8
4
100
AcDbText
 10
15865.49927370513
 20
645.9167361929703
 30
0.0
 40
308.0
  1
No.
100
AcDbText
  0
TEXT
  5
A0FB
330
19
100
AcDbEntity
  8
4
100
AcDbText
 10
14998.29504213411
 20
-1128.56058470239
 30
0.0
 40
297.0
  1
縮尺：1/55
100
AcDbText
  0
LINE
  5
A0FC
330
19
100
AcDbEntity
  8
4
100
AcDbLine
 10
17961.16669783403
 20
444.3289364251995
 30
0.0
 11
17961.16669783403
 21
-655.6710635748004
 31
0.0
  0
LINE
  5
A0FD
330
19
100
AcDbEntity
  8
4
100
AcDbLine
 10
19336.16669783403
 20
1987.580787968773
 30
0.0
 11
19336.16669783403
 21
1987.580787968773
 31
0.0
  0
LINE
  5
A0FE
330
19
100
AcDbEntity
  8
4
100
AcDbLine
 10
15709.56252081329
 20
509.5304951584785
 30
0.0
 11
15709.56252081329
 21
1089.168226492411
 31
0.0
  0
LINE
  5
A0FF
330
19
100
AcDbEntity
  8
4
100
AcDbLine
 10
15709.56252081329
 20
1089.168226492411
 30
0.0
 11
17961.16669783403
 21
1089.168226492411
 31
0.0
  0
LINE
  5
A100
330
19
100
AcDbEntity
  8
4
100
AcDbLine
 10
17961.16669783403
 20
1089.168226492411
 30
0.0
 11
17961.16669783403
 21
509.5304951584785
 31
0.0
  0
LINE
  5
A101
330
19
100
AcDbEntity
  8
4
100
AcDbLine
 10
17961.16669783403
 20
509.5304951584785
 30
0.0
 11
15709.56252081329
 21
509.5304951584785
 31
0.0
  0
LINE
  5
A102
330
19
100
AcDbEntity
  8
4
100
AcDbLine
 10
7786.166697834037
 20
-14237.41921203123
 30
0.0
 11
7786.166697834037
 21
1987.580787968773
 31
0.0
  0
LINE
  5
A103
330
19
100
AcDbEntity
  8
4
100
AcDbLine
 10
7786.166697834037
 20
1987.580787968773
 30
0.0
 11
19336.16669783403
 21
1987.580787968773
 31
0.0
  0
LINE
  5
A104
330
19
100
AcDbEntity
  8
4
100
AcDbLine
 10
19336.16669783403
 20
1987.580787968773
 30
0.0
 11
19336.16669783403
 21
-14237.41921203123
 31
0.0
  0
LINE
  5
A105
330
19
100
AcDbEntity
  8
4
100
AcDbLine
 10
19336.16669783403
 20
-14237.41921203123
 30
0.0
 11
7786.166697834037
 21
-14237.41921203123
 31
0.0
  0
LINE
  5
B009
330
19
100
AcDbEntity
  8
FUTO
100
AcDbLine
 10
10347.55903593365
 20
-10415.12160820148
 30
0.0
 11
14547.55903593365
 21
-10415.12160820148
 31
0.0
  0
LINE
  5
B00A
330
19
100
AcDbEntity
  8
FUTO
100
AcDbLine
 10
10347.55903593365
 20
-10595.12160820148
 30
0.0
 11
14547.55903593365
 21
-10595.12160820148
 31
0.0
  0
LINE
  5
B00B
330
19
100
AcDbEntity
  8
FUTO
100
AcDbLine
 10
11527.55903593365
 20
-10269.37492088999
 30
0.0
 11
10252.55903593365
 21
-10393.12160820148
 31
0.0
  0
LINE
  5
B00D
330
19
100
AcDbEntity
  8
CT
100
AcDbLine
 10
13399.55214454567
 20
-8245.121608201484
 30
0.0
 11
10149.0060378197
 21
-8245.121608201484
 31
0.0
  0
ARC
  5
B00E
330
19
100
AcDbEntity
  8
FUTO
100
AcDbCircle
 10
11380.55903593365
 20
-8392.121608201483
 30
0.0
 40
1883.0
100
AcDbArc
 50
274.4774605363485
 51
0.0
  0
LINE
  5
B00F
330
19
100
AcDbEntity
  8
CT
100
AcDbLine
 10
11527.55903593365
 20
-10915.12160820148
 30
0.0
 11
11527.55903593365
 21
-6693.782753769003
 31
0.0
  0
LINE
  5
B013
330
19
100
AcDbEntity
  8
FUTO
100
AcDbLine
 10
10327.55903593365
 20
-10385.84239130081
 30
0.0
 11
10327.55903593365
 21
-8333.121608201484
 31
0.0
  0
LINE
  5
B014
330
19
100
AcDbEntity
  8
FUTO
100
AcDbLine
 10
10252.55903593364
 20
-10472.12160820148
 30
0.0
 11
10252.55903593365
 21
-8254.121608201485
 31
0.0
  0
LINE
  5
B019
330
19
100
AcDbEntity
  8
FUTO
100
AcDbLine
 10
10351.37976784492
 20
-8333.121608201484
 30
0.0
 11
10252.55903593365
 21
-8333.121608201484
 31
0.0
  0
LINE
  5
B029
330
19
100
AcDbEntity
  8
CT
100
AcDbLine
 10
17049.62794449223
 20
-10915.12160820148
 30
0.0
 11
17049.62794449223
 21
-6568.814132180247
 31
0.0
  0
LINE
  5
B02A
330
19
100
AcDbEntity
  8
CT
100
AcDbLine
 10
15099.62794449223
 20
-8245.121608201484
 30
0.0
 11
18688.17916685943
 21
-8245.121608201484
 31
0.0
  0
LINE
  5
B02B
330
19
100
AcDbEntity
  8
FUTO
100
AcDbLine
 10
18453.62794449223
 20
-10415.12160820149
 30
0.0
 11
15203.62794449223
 21
-10415.12160820148
 31
0.0
  0
LINE
  5
B02C
330
19
100
AcDbEntity
  8
FUTO
100
AcDbLine
 10
18453.62794449223
 20
-10595.12160820148
 30
0.0
 11
15203.62794449223
 21
-10595.12160820148
 31
0.0
  0
LINE
  5
B02E
330
19
100
AcDbEntity
  8
FUTO
100
AcDbLine
 10
18374.62794449223
 20
-8254.121608201485
 30
0.0
 11
18453.62794449223
 21
-8254.121608201485
 31
0.0
  0
LINE
  5
B031
330
19
100
AcDbEntity
  8
FUTO
100
AcDbLine
 10
15645.62794449223
 20
-10415.12160820148
 30
0.0
 11
15645.62794449223
 21
-10335.12160820148
 31
0.0
  0
LINE
  5
B033
330
19
100
AcDbEntity
  8
FUTO
100
AcDbLine
 10
15724.62794449223
 20
-10397.12160820148
 30
0.0
 11
18374.62794449223
 21
-10397.12160820148
 31
0.0
  0
LINE
  5
B03F
330
19
100
AcDbEntity
  8
FUTO
100
AcDbLine
 10
18453.62794449223
 20
-10415.12160820148
 30
0.0
 11
18453.62794449223
 21
-10595.12160820148
 31
0.0
  0
LINE
  5
B168
330
19
100
AcDbEntity
  8
FUTO
100
AcDbLine
 10
18374.62794449223
 20
-8335.121608201486
 30
0.0
 11
18629.82794449224
 21
-8335.121608201481
 31
0.0
  0
LINE
  5
B169
330
19
100
AcDbEntity
  8
FUTO
100
AcDbLine
 10
18374.62794449223
 20
-8585.121608201488
 30
0.0
 11
18629.82794449224
 21
-8585.121608201481
 31
0.0
  0
LINE
  5
B16A
330
19
100
AcDbEntity
  8
FUTO
100
AcDbLine
 10
18629.82794449224
 20
-8335.121608201481
 30
0.0
 11
18629.82794449224
 21
-8585.121608201482
 31
0.0
  0
LINE
  5
B171
330
19
100
AcDbEntity
  8
FUTO
100
AcDbLine
 10
18374.62794449223
 20
-10397.12160820148
 30
0.0
 11
18374.62794449223
 21
-6803.121608201483
 31
0.0
  0
LINE
  5
B175
330
19
100
AcDbEntity
  8
FUTO
100
AcDbLine
 10
15724.62794449223
 20
-10397.12160820148
 30
0.0
 11
15724.62794449223
 21
-10335.12160820148
 31
0.0
  0
LINE
  5
B189
330
19
100
AcDbEntity
  8
FUTO
100
AcDbLine
 10
15481.42794449223
 20
-8585.121608201482
 30
0.0
 11
15724.62794449223
 21
-8585.121608201482
 31
0.0
  0
LINE
  5
B18A
330
19
100
AcDbEntity
  8
FUTO
100
AcDbLine
 10
15481.42794449223
 20
-8335.121608201481
 30
0.0
 11
15481.42794449223
 21
-8585.121608201482
 31
0.0
  0
CIRCLE
  5
B18C
330
19
100
AcDbEntity
  8
SL
100
AcDbCircle
 10
11527.55903593365
 20
-8245.121608201484
 30
0.0
 40
400.0
  0
LINE
  5
B196
330
19
100
AcDbEntity
  8
FUTO
100
AcDbLine
 10
15203.62794449223
 20
-10415.12160820148
 30
0.0
 11
15203.62794449223
 21
-10595.12160820148
 31
0.0
  0
LINE
  5
B1DD
330
19
100
AcDbEntity
  8
FUTO
100
AcDbLine
 10
15339.62794449223
 20
-8302.621608201485
 30
0.0
 11
15724.62794449223
 21
-8302.621608201482
 31
0.0
  0
LINE
  5
B1DE
330
19
100
AcDbEntity
  8
FUTO
100
AcDbLine
 10
15339.62794449223
 20
-8187.621608201482
 30
0.0
 11
15724.62794449223
 21
-8187.62160820148
 31
0.0
  0
LINE
  5
B1EA
330
19
100
AcDbEntity
  8
SP
100
AcDbLine
 10
17049.62794449223
 20
-6201.767057030858
 30
0.0
 11
17049.62794449223
 21
-6141.767057030858
 31
0.0
  0
ARC
  5
B1F2
330
19
100
AcDbEntity
  8
FUTO
100
AcDbCircle
 10
11674.55903593365
 20
-8392.121608201483
 30
0.0
 40
1589.0
100
AcDbArc
 50
359.9999999999998
 51
90.00000000000005
  0
ARC
  5
B1FA
330
19
100
AcDbEntity
  8
FUTO
100
AcDbCircle
 10
11405.05903593365
 20
-8122.621608201482
 30
0.0
 40
1074.5
100
AcDbArc
 50
180.0
 51
191.297600230598
  0
ARC
  5
B32D
330
19
100
AcDbEntity
  8
FUTO
100
AcDbCircle
 10
11650.05903593365
 20
-8122.621608201482
 30
0.0
 40
1319.5
100
AcDbArc
 50
90.0000000000001
 51
180.0
  0
LINE
  5
C236
330
19
100
AcDbEntity
  8
FUTO
100
AcDbLine
 10
15481.42794449223
 20
-8335.121608201481
 30
0.0
 11
15724.62794449223
 21
-8335.121608201482
 31
0.0
  0
LINE
  5
C239
330
19
100
AcDbEntity
  8
SL
100
AcDbLine
 10
15099.62794449223
 20
-7765.121608201487
 30
0.0
 11
15099.62794449223
 21
-10285.12160820148
 31
0.0
  0
CIRCLE
  5
C26F
330
19
100
AcDbEntity
  8
FUTO
100
AcDbCircle
 10
11527.55903593365
 20
-8245.121608201484
 30
0.0
 40
1075.0
  0
CIRCLE
  5
C270
330
19
100
AcDbEntity
  8
FUTO
100
AcDbCircle
 10
11527.55903593365
 20
-8245.121608201484
 30
0.0
 40
1000.0
  0
LINE
  5
C271
330
19
100
AcDbEntity
  8
FUTO
100
AcDbLine
 10
10347.55903593365
 20
-10595.12160820148
 30
0.0
 11
10347.55903593365
 21
-10415.12160820148
 31
0.0
  0
LINE
  5
C272
330
19
100
AcDbEntity
  8
FUTO
100
AcDbLine
 10
14547.55903593365
 20
-10595.12160820148
 30
0.0
 11
14547.55903593365
 21
-10415.12160820148
 31
0.0
  0
LINE
  5
C27B
330
19
100
AcDbEntity
  8
CT
100
AcDbLine
 10
16369.86536171544
 20
-10065.12160820148
 30
0.0
 11
15099.62794449223
 21
-10065.12160820148
 31
0.0
  0
LINE
  5
C27C
330
19
100
AcDbEntity
  8
SL
100
AcDbLine
 10
15099.62794449223
 20
-7765.121608201484
 30
0.0
 11
15389.62794449223
 21
-7765.121608201484
 31
0.0
  0
LINE
  5
C27D
330
19
100
AcDbEntity
  8
SL
100
AcDbLine
 10
15389.62794449223
 20
-10285.12160820148
 30
0.0
 11
15099.62794449223
 21
-10285.12160820148
 31
0.0
  0
LINE
  5
C27E
330
19
100
AcDbEntity
  8
SL
100
AcDbLine
 10
15389.62794449223
 20
-7765.121608201487
 30
0.0
 11
15389.62794449223
 21
-7815.121608201481
 31
0.0
  0
LINE
  5
C282
330
19
100
AcDbEntity
  8
SL
100
AcDbLine
 10
15389.62794449223
 20
-10235.12160820148
 30
0.0
 11
15389.62794449223
 21
-10285.12160820148
 31
0.0
  0
LINE
  5
C283
330
19
100
AcDbEntity
  8
FUTO
100
AcDbLine
 10
10347.55903593365
 20
-5142.363861048481
 30
0.0
 11
14547.55903593365
 21
-5142.363861048478
 31
0.0
  0
LINE
  5
C284
330
19
100
AcDbEntity
  8
FUTO
100
AcDbLine
 10
10347.55903593365
 20
-5142.363861048481
 30
0.0
 11
10347.55903593364
 21
-4621.363861048481
 31
0.0
  0
LINE
  5
C285
330
19
100
AcDbEntity
  8
FUTO
100
AcDbLine
 10
10347.55903593365
 20
-1892.363861048481
 30
0.0
 11
12707.55903593365
 21
-1892.363861048481
 31
0.0
  0
LINE
  5
C286
330
19
100
AcDbEntity
  8
FUTO
100
AcDbLine
 10
12707.55903593365
 20
-1892.363861048481
 30
0.0
 11
12707.55903593365
 21
-1971.363861048481
 31
0.0
  0
LINE
  5
C287
330
19
100
AcDbEntity
  8
FUTO
100
AcDbLine
 10
14547.55903593365
 20
-5142.363861048478
 30
0.0
 11
14547.55903593365
 21
-3842.363861048478
 31
0.0
  0
LINE
  5
C288
330
19
100
AcDbEntity
  8
FUTO
100
AcDbLine
 10
14547.55903593365
 20
-3842.363861048478
 30
0.0
 11
13263.55903593365
 21
-3842.363861048479
 31
0.0
  0
LINE
  5
C28B
330
19
100
AcDbEntity
  8
CT
100
AcDbLine
 10
11527.55903593365
 20
-1789.329442808434
 30
0.0
 11
11527.55903593365
 21
-5246.363861048481
 31
0.0
  0
LINE
  5
C28C
330
19
100
AcDbEntity
  8
CT
100
AcDbLine
 10
13927.55903593365
 20
-5246.363861048483
 30
0.0
 11
13927.55903593365
 21
-4001.53220885021
 31
0.0
  0
LINE
  5
C28D
330
19
100
AcDbEntity
  8
CT
100
AcDbLine
 10
10164.38143875463
 20
-3296.363861048482
 30
0.0
 11
13385.66346240696
 21
-3296.363861048482
 31
0.0
  0
LINE
  5
C28E
330
19
100
AcDbEntity
  8
SL
100
AcDbLine
 10
11047.55903593365
 20
-5246.363861048481
 30
0.0
 11
14147.55903593365
 21
-5246.363861048483
 31
0.0
  0
LINE
  5
C290
330
19
100
AcDbEntity
  8
SL
100
AcDbLine
 10
14147.55903593364
 20
-5246.363861048483
 30
0.0
 11
14147.55903593364
 21
-4956.363861048483
 31
0.0
  0
LINE
  5
C291
330
19
100
AcDbEntity
  8
SL
100
AcDbLine
 10
11047.55903593365
 20
-4956.363861048481
 30
0.0
 11
11047.55903593365
 21
-5246.363861048481
 31
0.0
  0
LINE
  5
C292
330
19
100
AcDbEntity
  8
SL
100
AcDbLine
 10
11047.55903593365
 20
-4956.363861048481
 30
0.0
 11
11097.55903593365
 21
-4956.363861048483
 31
0.0
  0
LINE
  5
C295
330
19
100
AcDbEntity
  8
SL
100
AcDbLine
 10
14097.55903593364
 20
-4956.363861048485
 30
0.0
 11
14147.55903593365
 21
-4956.363861048483
 31
0.0
  0
LINE
  5
C297
330
19
100
AcDbEntity
  8
SL
100
AcDbLine
 10
11127.55903593365
 20
-5146.363861048481
 30
0.0
 11
14067.55903593365
 21
-5146.363861048484
 31
0.0
  0
LINE
  5
C298
330
19
100
AcDbEntity
  8
SL
100
AcDbLine
 10
11127.55903593365
 20
-5006.363861048481
 30
0.0
 11
14067.55903593365
 21
-5006.363861048483
 31
0.0
  0
LINE
  5
C299
330
19
100
AcDbEntity
  8
SL
100
AcDbLine
 10
11127.55903593364
 20
-5006.363861048481
 30
0.0
 11
11127.55903593365
 21
-5146.363861048484
 31
0.0
  0
LINE
  5
C29A
330
19
100
AcDbEntity
  8
SL
100
AcDbLine
 10
11927.55903593365
 20
-5006.363861048481
 30
0.0
 11
11927.55903593365
 21
-5146.363861048481
 31
0.0
  0
LINE
  5
C29B
330
19
100
AcDbEntity
  8
SL
100
AcDbLine
 10
14067.55903593364
 20
-5146.363861048484
 30
0.0
 11
14067.55903593364
 21
-5006.363861048483
 31
0.0
  0
LINE
  5
C29C
330
19
100
AcDbEntity
  8
SL
100
AcDbLine
 10
13787.55903593365
 20
-5146.363861048484
 30
0.0
 11
13787.55903593365
 21
-5006.363861048481
 31
0.0
  0
LINE
  5
C29E
330
19
100
AcDbEntity
  8
FUTO
100
AcDbLine
 10
10252.55903593364
 20
-4700.363861048481
 30
0.0
 11
10252.55903593364
 21
-1892.363861048481
 31
0.0
  0
LINE
  5
C29F
330
19
100
AcDbEntity
  8
FUTO
100
AcDbLine
 10
13263.55903593365
 20
-4621.363861048481
 30
0.0
 11
13263.55903593365
 21
-1971.363861048482
 31
0.0
  0
LINE
  5
C2A0
330
19
100
AcDbEntity
  8
FUTO
100
AcDbLine
 10
10252.55903593364
 20
-1971.363861048481
 30
0.0
 11
13263.55903593365
 21
-1971.363861048481
 31
0.0
  0
LINE
  5
C2A1
330
19
100
AcDbEntity
  8
FUTO
100
AcDbLine
 10
10252.55903593365
 20
-4621.363861048481
 30
0.0
 11
13263.55903593365
 21
-4621.363861048481
 31
0.0
  0
LINE
  5
C2A2
330
19
100
AcDbEntity
  8
FUTO
100
AcDbLine
 10
10347.55903593364
 20
-1971.363861048482
 30
0.0
 11
10347.55903593365
 21
-1892.363861048481
 31
0.0
  0
LINE
  5
C2A6
330
19
100
AcDbEntity
  8
FUTO
100
AcDbLine
 10
10327.55903593364
 20
-4621.363861048481
 30
0.0
 11
10327.55903593364
 21
-1971.363861048481
 31
0.0
  0
DIMENSION
  5
C2B4
330
19
100
AcDbEntity
  8
SP
100
AcDbDimension
  2
*D1
 10
12707.55903593365
 20
-1562.691868601519
 30
0.0
 11
11527.55903593365
 21
-1438.94186860152
 31
0.0
 70
    32
 71
     5
 42
-1.0
  3
MATSU
100
AcDbAlignedDimension
 13
10347.55903593365
 23
-1892.363861048481
 33
0.0
 14
12707.55903593365
 24
-1892.363861048481
 34
0.0
100
AcDbRotatedDimension
1001
ACAD
1000
DSTYLE
1002
{
1070
   140
1040
2.5
1070
    40
1040
55.0
1070
   147
1040
1.0
1070
   271
1070
     0
1002
}
  0
DIMENSION
  5
C2C1
330
19
100
AcDbEntity
  8
SP
100
AcDbDimension
  2
*D2
 10
14547.55903593365
 20
-1562.691868601519
 30
0.0
 11
13627.55903593365
 21
-1438.94186860152
 31
0.0
 70
    32
 71
     5
 42
-1.0
  3
MATSU
100
AcDbAlignedDimension
 13
12707.55903593365
 23
-1892.363861048481
 33
0.0
 14
14547.55903593365
 24
-3842.363861048478
 34
0.0
100
AcDbRotatedDimension
1001
ACAD
1000
DSTYLE
1002
{
1070
   140
1040
2.5
1070
    40
1040
55.0
1070
   147
1040
1.0
1070
   271
1070
     0
1002
}
  0
DIMENSION
  5
C2CE
330
19
100
AcDbEntity
  8
SP
100
AcDbDimension
  2
*D3
 10
9841.684997476347
 20
-5142.363861048481
 30
0.0
 11
9717.934997476348
 21
-3517.363861048482
 31
0.0
 70
    32
 71
     5
 42
-1.0
  3
MATSU
100
AcDbAlignedDimension
 13
10347.55903593365
 23
-1892.363861048481
 33
0.0
 14
10347.55903593365
 24
-5142.363861048481
 34
0.0
 50
270.0
100
AcDbRotatedDimension
1001
ACAD
1000
DSTYLE
1002
{
1070
   140
1040
2.5
1070
    40
1040
55.0
1070
   147
1040
1.0
1070
   271
1070
     0
1002
}
  0
DIMENSION
  5
C2DB
330
19
100
AcDbEntity
  8
SP
100
AcDbDimension
  2
*D4
 10
14547.55903593365
 20
-5589.837171930892
 30
0.0
 11
12447.55903593365
 21
-5466.087171930893
 31
0.0
 70
    32
 71
     5
 42
-1.0
  3
MATSU
100
AcDbAlignedDimension
 13
10347.55903593365
 23
-5142.363861048481
 33
0.0
 14
14547.55903593365
 24
-5142.363861048478
 34
0.0
100
AcDbRotatedDimension
1001
ACAD
1000
DSTYLE
1002
{
1070
   140
1040
2.5
1070
    40
1040
55.0
1070
   147
1040
1.0
1070
   271
1070
     0
1002
}
  0
DIMENSION
  5
C2E8
330
19
100
AcDbEntity
  8
SP
100
AcDbDimension
  2
*D5
 10
14936.72261673343
 20
-5142.363861048478
 30
0.0
 11
14812.97261673343
 21
-4492.363861048477
 31
0.0
 70
    32
 71
     5
 42
-1.0
  3
MATSU
100
AcDbAlignedDimension
 13
14547.55903593365
 23
-3842.363861048478
 33
0.0
 14
14547.55903593365
 24
-5142.363861048478
 34
0.0
 50
270.0
100
AcDbRotatedDimension
1001
ACAD
1000
DSTYLE
1002
{
1070
   140
1040
2.5
1070
    40
1040
55.0
1070
   147
1040
1.0
1070
   271
1070
     0
1002
}
  0
DIMENSION
  5
C350
330
19
100
AcDbEntity
  8
SP
100
AcDbDimension
  2
*D6
 10
17049.62794449223
 20
-11260.62234729777
 30
0.0
 11
16126.62794449223
 21
-11136.87234729777
 31
0.0
 12
0.0
 22
-112.986724458613
 32
0.0
 70
    32
 71
     5
 42
-1.0
  3
MATSU
100
AcDbAlignedDimension
 13
15203.62794449223
 23
-10915.12160820148
 33
0.0
 14
17049.62794449223
 24
-10915.12160820148
 34
0.0
100
AcDbRotatedDimension
1001
ACAD
1000
DSTYLE
1002
{
1070
   140
1040
2.5
1070
    40
1040
55.0
1070
   147
1040
1.0
1070
   271
1070
     0
1002
}
  0
DIMENSION
  5
C35D
330
19
100
AcDbEntity
  8
SP
100
AcDbDimension
  2
*D7
 10
18453.62794449223
 20
-11260.62234729777
 30
0.0
 11
17751.62794449223
 21
-11136.87234729777
 31
0.0
 12
0.0
 22
-112.986724458613
 32
0.0
 70
    32
 71
     5
 42
-1.0
  3
MATSU
100
AcDbAlignedDimension
 13
17049.62794449223
 23
-10915.12160820148
 33
0.0
 14
18453.62794449223
 24
-10915.12160820148
 34
0.0
100
AcDbRotatedDimension
1001
ACAD
1000
DSTYLE
1002
{
1070
   140
1040
2.5
1070
    40
1040
55.0
1070
   147
1040
1.0
1070
   271
1070
     0
1002
}
  0
DIMENSION
  5
C36A
330
19
100
AcDbEntity
  8
SP
100
AcDbDimension
  2
*D8
 10
18453.62794449223
 20
-11590.369778899
 30
0.0
 11
16828.62794449223
 21
-11466.619778899
 31
0.0
 12
0.0
 22
-112.986724458613
 32
0.0
 70
    32
 71
     5
 42
-1.0
  3
MATSU
100
AcDbAlignedDimension
 13
15203.62794449223
 23
-10915.12160820148
 33
0.0
 14
18453.62794449223
 24
-10915.12160820148
 34
0.0
100
AcDbRotatedDimension
1001
ACAD
1000
DSTYLE
1002
{
1070
   140
1040
2.5
1070
    40
1040
55.0
1070
   147
1040
1.0
1070
   271
1070
     0
1002
}
  0
DIMENSION
  5
C377
330
19
100
AcDbEntity
  8
SP
100
AcDbDimension
  2
*D9
 10
10347.55903593365
 20
-11261.84162828749
 30
0.0
 11
10937.55903593365
 21
-11138.09162828749
 31
0.0
 12
0.0
 22
-320.0
 32
0.0
 70
    32
 71
     5
 42
-1.0
  3
MATSU
100
AcDbAlignedDimension
 13
11527.55903593365
 23
-10915.12160820148
 33
0.0
 14
10347.55903593365
 24
-10915.12160820148
 34
0.0
100
AcDbRotatedDimension
1001
ACAD
1000
DSTYLE
1002
{
1070
   140
1040
2.5
1070
    40
1040
55.0
1070
   147
1040
1.0
1070
   271
1070
     0
1002
}
  0
DIMENSION
  5
C384
330
19
100
AcDbEntity
  8
SP
100
AcDbDimension
  2
*D10
 10
11527.55903593365
 20
-11261.84162828749
 30
0.0
 11
13037.55903593365
 21
-11138.09162828749
 31
0.0
 12
0.0
 22
-320.0
 32
0.0
 70
    32
 71
     5
 42
-1.0
  3
MATSU
100
AcDbAlignedDimension
 13
14547.55903593365
 23
-10915.12160820148
 33
0.0
 14
11527.55903593365
 24
-10915.12160820148
 34
0.0
100
AcDbRotatedDimension
1001
ACAD
1000
DSTYLE
1002
{
1070
   140
1040
2.5
1070
    40
1040
55.0
1070
   147
1040
1.0
1070
   271
1070
     0
1002
}
  0
DIMENSION
  5
C391
330
19
100
AcDbEntity
  8
SP
100
AcDbDimension
  2
*D11
 10
10347.55903593365
 20
-11590.369778899
 30
0.0
 11
12447.55903593365
 21
-11466.619778899
 31
0.0
 12
0.0
 22
-320.0
 32
0.0
 70
    32
 71
     5
 42
-1.0
  3
MATSU
100
AcDbAlignedDimension
 13
14547.55903593365
 23
-10915.12160820148
 33
0.0
 14
10347.55903593365
 24
-10915.12160820148
 34
0.0
100
AcDbRotatedDimension
1001
ACAD
1000
DSTYLE
1002
{
1070
   140
1040
2.5
1070
    40
1040
55.0
1070
   147
1040
1.0
1070
   271
1070
     0
1002
}
  0
LINE
  5
C3C5
330
19
100
AcDbEntity
  8
FUTO
100
AcDbLine
 10
11674.55903593364
 20
-6803.121608201483
 30
0.0
 11
11650.05903593365
 21
-6803.121608201483
 31
0.0
  0
LINE
  5
C3C6
330
19
100
AcDbEntity
  8
FUTO
100
AcDbLine
 10
15724.62794449223
 20
-6803.121608201485
 30
0.0
 11
18374.62794449223
 21
-6803.121608201485
 31
0.0
  0
DIMENSION
  5
C3D4
330
19
100
AcDbEntity
  8
SP
100
AcDbDimension
  2
*D12
 10
9906.808109406354
 20
-10393.12160820148
 30
0.0
 11
9783.058109406354
 21
-9363.121608201483
 31
0.0
 70
    32
 71
     5
 42
-1.0
  3
MATSU
100
AcDbAlignedDimension
 13
10252.55903593365
 23
-8333.121608201484
 33
0.0
 14
10252.55903593365
 24
-10393.12160820148
 34
0.0
 50
270.0
100
AcDbRotatedDimension
1001
ACAD
1000
DSTYLE
1002
{
1070
   140
1040
2.5
1070
    40
1040
55.0
1070
   147
1040
1.0
1070
   271
1070
     0
1002
}
  0
DIMENSION
  5
C3E1
330
19
100
AcDbEntity
  8
SP
100
AcDbDimension
  2
*D13
 10
9550.181854317285
 20
-10393.12160820148
 30
0.0
 11
9426.431854317284
 21
-9319.121608201482
 31
0.0
 70
    32
 71
     5
 42
-1.0
  3
MATSU
100
AcDbAlignedDimension
 13
10149.0060378197
 23
-8245.121608201484
 33
0.0
 14
10252.55903593365
 24
-10393.12160820148
 34
0.0
 50
270.0
100
AcDbRotatedDimension
1001
ACAD
1000
DSTYLE
1002
{
1070
   140
1040
2.5
1070
    40
1040
55.0
1070
   147
1040
1.0
1070
   271
1070
     0
1002
}
  0
DIMENSION
  5
C3EE
330
19
100
AcDbEntity
  8
SP
100
AcDbDimension
  2
*D14
 10
9193.55566752862
 20
-10595.12160820148
 30
0.0
 11
9069.805667528621
 21
-9420.121608201483
 31
0.0
 70
    32
 71
     5
 42
-1.0
  3
MATSU
100
AcDbAlignedDimension
 13
10149.0060378197
 23
-8245.121608201484
 33
0.0
 14
10347.55903593365
 24
-10595.12160820148
 34
0.0
 50
270.0
100
AcDbRotatedDimension
1001
ACAD
1000
DSTYLE
1002
{
1070
   140
1040
2.5
1070
    40
1040
55.0
1070
   147
1040
1.0
1070
   271
1070
     0
1002
}
  0
DIMENSION
  5
C408
330
19
100
AcDbEntity
  8
SP
100
AcDbDimension
  2
*D15
 10
18374.62794449223
 20
-6515.628668247737
 30
0.0
 11
17049.62794449223
 21
-6391.878668247737
 31
0.0
 12
0.0
 22
623.6200471745105
 32
0.0
 70
    32
 71
     5
 42
-1.0
  3
MATSU
100
AcDbAlignedDimension
 13
15724.62794449223
 23
-6803.121608201483
 33
0.0
 14
18374.62794449223
 24
-6803.121608201483
 34
0.0
100
AcDbRotatedDimension
1001
ACAD
1000
DSTYLE
1002
{
1070
   140
1040
2.5
1070
    40
1040
55.0
1070
   147
1040
1.0
1070
   271
1070
     0
1002
}
  0
DIMENSION
  5
C423
330
19
100
AcDbEntity
  8
SP
100
AcDbDimension
  2
*D16
 10
11527.55903593365
 20
-6515.628668247737
 30
0.0
 11
10890.05903593365
 21
-6391.878668247737
 31
0.0
 70
    32
 71
     5
 42
-1.0
  3
MATSU
100
AcDbAlignedDimension
 13
10252.55903593365
 23
-8254.121608201485
 33
0.0
 14
11527.55903593365
 24
-6693.782753769003
 34
0.0
100
AcDbRotatedDimension
1001
ACAD
1000
DSTYLE
1002
{
1070
   140
1040
2.5
1070
    40
1040
55.0
1070
   147
1040
1.0
1070
   271
1070
     0
1002
}
  0
DIMENSION
  5
C430
330
19
100
AcDbEntity
  8
SP
100
AcDbDimension
  2
*D17
 10
13263.55903593365
 20
-6515.628668247737
 30
0.0
 11
12395.55903593365
 21
-6391.878668247737
 31
0.0
 70
    32
 71
     5
 42
-1.0
  3
MATSU
100
AcDbAlignedDimension
 13
11527.55903593365
 23
-6693.782753769003
 33
0.0
 14
13263.55903593365
 24
-8392.121608201483
 34
0.0
100
AcDbRotatedDimension
1001
ACAD
1000
DSTYLE
1002
{
1070
   140
1040
2.5
1070
    40
1040
55.0
1070
   147
1040
1.0
1070
   271
1070
     0
1002
}
  0
DIMENSION
  5
C43D
330
19
100
AcDbEntity
  8
SP
100
AcDbDimension
  2
*D18
 10
15099.62794449223
 20
-6171.197514311948
 30
0.0
 11
16074.62794449223
 21
-6011.435609550044
 31
0.0
 70
    32
 71
     5
 42
1949.999999999996
  3
MATSU
100
AcDbAlignedDimension
 13
17049.62794449223
 23
-6201.767057030858
 33
0.0
 14
15099.62794449223
 24
-7765.121608201487
 34
0.0
100
AcDbRotatedDimension
1001
ACAD
1000
DSTYLE
1002
{
1070
   140
1040
2.5
1070
    40
1040
55.0
1070
     3
1000
(<>)
1070
   147
1040
1.0
1070
   271
1070
     0
1002
}
  0
DIMENSION
  5
C44A
330
19
100
AcDbEntity
  8
SP
100
AcDbDimension
  2
*D19
 10
18629.82794449224
 20
-6171.197514311948
 30
0.0
 11
17839.72794449223
 21
-6011.435609550044
 31
0.0
 70
    32
 71
     5
 42
1580.200000000004
  3
MATSU
100
AcDbAlignedDimension
 13
17049.62794449223
 23
-6201.767057030858
 33
0.0
 14
18629.82794449224
 24
-8335.121608201481
 34
0.0
100
AcDbRotatedDimension
1001
ACAD
1000
DSTYLE
1002
{
1070
   140
1040
2.5
1070
    40
1040
55.0
1070
     3
1000
(<>)
1070
   147
1040
1.0
1070
   271
1070
     0
1002
}
  0
DIMENSION
  5
C457
330
19
100
AcDbEntity
  8
SP
100
AcDbDimension
  2
*D20
 10
9197.564423124051
 20
-8245.121608201484
 30
0.0
 11
9073.814423124051
 21
-7524.121608201483
 31
0.0
 70
    32
 71
     5
 42
-1.0
  3
MATSU
100
AcDbAlignedDimension
 13
11650.05903593365
 23
-6803.121608201483
 33
0.0
 14
10149.0060378197
 24
-8245.121608201484
 34
0.0
 50
270.0
100
AcDbRotatedDimension
1001
ACAD
1000
DSTYLE
1002
{
1070
   140
1040
2.5
1070
    40
1040
55.0
1070
   147
1040
1.0
1070
   271
1070
     0
1002
}
  0
ARC
  5
C458
330
19
100
AcDbEntity
  8
SL
100
AcDbCircle
 10
11527.55903593365
 20
-8245.121608201484
 30
0.0
 40
480.0
100
AcDbArc
 50
47.87380146298548
 51
237.7776888698323
  0
ARC
  5
C459
330
19
100
AcDbEntity
  8
SL
100
AcDbCircle
 10
13927.55903593365
 20
-10065.12160820148
 30
0.0
 40
220.0
100
AcDbArc
 50
237.7776888698323
 51
47.87380146298544
  0
LINE
  5
C45A
330
19
100
AcDbEntity
  8
SL
100
AcDbLine
 10
14075.12751586201
 20
-9901.954381922328
 30
0.0
 11
11849.52662850461
 21
-7889.12038722878
 31
0.0
  0
LINE
  5
C45C
330
19
100
AcDbEntity
  8
SL
100
AcDbLine
 10
14021.46625043351
 20
-9961.287918751111
 30
0.0
 11
11795.86536307612
 21
-7948.453924057564
 31
0.0
  0
LINE
  5
C45D
330
19
100
AcDbEntity
  8
SL
100
AcDbLine
 10
13852.91023155679
 20
-10183.55959199513
 30
0.0
 11
11314.27673771406
 21
-8583.515847611925
 31
0.0
  0
LINE
  5
C45E
330
19
100
AcDbEntity
  8
SL
100
AcDbLine
 10
13810.25377191288
 20
-10251.23843987722
 30
0.0
 11
11271.62027807014
 21
-8651.194695494014
 31
0.0
  0
LINE
  5
C501
330
19
100
AcDbEntity
  8
FUTO
100
AcDbLine
 10
18453.62794449223
 20
-10415.12160820148
 30
0.0
 11
18453.62794449223
 21
-8585.121608201486
 31
0.0
  0
LINE
  5
C502
330
19
100
AcDbEntity
  8
FUTO
100
AcDbLine
 10
18453.62794449223
 20
-8335.121608201486
 30
0.0
 11
18453.62794449223
 21
-8254.121608201485
 31
0.0
  0
LINE
  5
C503
330
19
100
AcDbEntity
  8
FUTO
100
AcDbLine
 10
15645.62794449223
 20
-8335.121608201481
 30
0.0
 11
15645.62794449223
 21
-8302.621608201484
 31
0.0
  0
LINE
  5
C504
330
19
100
AcDbEntity
  8
FUTO
100
AcDbLine
 10
16309.62794449223
 20
-10335.12160820148
 30
0.0
 11
16309.62794449223
 21
-9795.121608201483
 31
0.0
  0
LINE
  5
C506
330
19
100
AcDbEntity
  8
FUTO
100
AcDbLine
 10
15724.62794449223
 20
-9795.121608201485
 30
0.0
 11
15724.62794449223
 21
-6803.121608201483
 31
0.0
  0
LINE
  5
C507
330
19
100
AcDbEntity
  8
FUTO
100
AcDbLine
 10
15645.62794449223
 20
-9795.121608201483
 30
0.0
 11
15645.62794449223
 21
-8585.121608201482
 31
0.0
  0
LINE
  5
C50A
330
19
100
AcDbEntity
  8
FUTO
100
AcDbLine
 10
18453.62794449223
 20
-10915.12160820148
 30
0.0
 11
15203.62794449223
 21
-10915.12160820148
 31
0.0
  0
LINE
  5
C50B
330
19
100
AcDbEntity
  8
FUTO
100
AcDbLine
 10
18453.62794449223
 20
-10735.12160820148
 30
0.0
 11
18453.62794449223
 21
-10915.12160820148
 31
0.0
  0
LINE
  5
C50C
330
19
100
AcDbEntity
  8
FUTO
100
AcDbLine
 10
18453.62794449223
 20
-10735.12160820149
 30
0.0
 11
15203.62794449223
 21
-10735.12160820148
 31
0.0
  0
LINE
  5
C50D
330
19
100
AcDbEntity
  8
FUTO
100
AcDbLine
 10
15203.62794449223
 20
-10735.12160820148
 30
0.0
 11
15203.62794449223
 21
-10915.12160820148
 31
0.0
  0
LINE
  5
C50E
330
19
100
AcDbEntity
  8
FUTO
100
AcDbLine
 10
10347.55903593365
 20
-10735.12160820148
 30
0.0
 11
14547.55903593365
 21
-10735.12160820148
 31
0.0
  0
LINE
  5
C50F
330
19
100
AcDbEntity
  8
FUTO
100
AcDbLine
 10
10347.55903593365
 20
-10915.12160820148
 30
0.0
 11
14547.55903593365
 21
-10915.12160820148
 31
0.0
  0
LINE
  5
C510
330
19
100
AcDbEntity
  8
FUTO
100
AcDbLine
 10
14547.55903593365
 20
-10915.12160820148
 30
0.0
 11
14547.55903593365
 21
-10735.12160820148
 31
0.0
  0
LINE
  5
C511
330
19
100
AcDbEntity
  8
FUTO
100
AcDbLine
 10
10347.55903593365
 20
-10915.12160820148
 30
0.0
 11
10347.55903593365
 21
-10735.12160820148
 31
0.0
  0
DIMENSION
  5
C528
330
19
100
AcDbEntity
  8
SP
100
AcDbDimension
  2
*D22
 10
9191.436173298665
 20
-10915.12160820148
 30
0.0
 11
9067.686173298666
 21
-11358.66825537935
 31
0.0
 12
0.0
 22
-120.0
 32
0.0
 70
    32
 71
     5
 42
-1.0
  3
MATSU
100
AcDbAlignedDimension
 13
10347.55903593365
 23
-10735.12160820148
 33
0.0
 14
10347.55903593365
 24
-10915.12160820148
 34
0.0
 50
90.0
100
AcDbRotatedDimension
1001
ACAD
1000
DSTYLE
1002
{
1070
   140
1040
2.5
1070
    40
1040
55.0
1070
   147
1040
1.0
1070
   271
1070
     0
1070
     6
1000
_DOT
1002
}
  0
DIMENSION
  5
C54B
330
19
100
AcDbEntity
  8
SP
100
AcDbDimension
  2
*D24
 10
9193.961239224133
 20
-10595.12160820148
 30
0.0
 11
8951.699334462229
 21
-10665.12160820148
 31
0.0
 70
    32
 71
     5
 42
-1.0
  3
MATSU
100
AcDbAlignedDimension
 13
10347.55903593365
 23
-10735.12160820148
 33
0.0
 14
10347.55903593365
 24
-10595.12160820148
 34
0.0
 50
90.0
100
AcDbRotatedDimension
1001
ACAD
1000
DSTYLE
1002
{
1070
   287
1070
     5
1070
     3
1000
(<>)
1070
    40
1040
55.0
1070
    75
1070
     1
1070
    76
1070
     1
1070
   140
1040
2.5
1070
   147
1040
1.0
1070
   271
1070
     0
1070
   279
1070
     2
1070
   289
1070
     3
1070
     6
1000
NONE
1070
     7
1000
NONE
1002
}
  0
ENDSEC
  0
SECTION
  2
OBJECTS
  0
DICTIONARY
  5
C
330
0
100
AcDbDictionary
281
     1
  3
ACAD_CIP_PREVIOUS_PRODUCT_INFO
350
C5E6
  3
ACAD_COLOR
350
C5C8
  3
ACAD_DETAILVIEWSTYLE
350
C5E1
  3
ACAD_GROUP
350
D
  3
ACAD_LAYOUT
350
C550
  3
ACAD_MATERIAL
350
C596
  3
ACAD_MLEADERSTYLE
350
C5DD
  3
ACAD_MLINESTYLE
350
E
  3
ACAD_PLOTSETTINGS
350
C551
  3
ACAD_PLOTSTYLENAME
350
C54E
  3
ACAD_SCALELIST
350
C5CB
  3
ACAD_SECTIONVIEWSTYLE
350
C5DF
  3
ACAD_TABLESTYLE
350
C5C9
  3
ACAD_VISUALSTYLE
350
C5AF
  3
ACDB_RECOMPOSE_DATA
350
C629
  3
AcDbVariableDictionary
350
C58D
  3
AcDsDecomposeData
350
C630
  3
DWGPROPS
350
C62A
  0
DICTIONARY
  5
C609
330
2
100
AcDbDictionary
280
     1
281
     1
  3
ACAD_LAYERSTATES
360
C60A
  0
DICTIONARY
  5
C5FA
330
F
100
AcDbDictionary
280
     1
281
     1
  3
ADSK_XREC_LAYER_RECONCILED
360
C5FB
  0
DICTIONARY
  5
C5FC
330
2F
100
AcDbDictionary
280
     1
281
     1
  3
ADSK_XREC_LAYER_RECONCILED
360
C5FD
  0
DICTIONARY
  5
C5FE
330
30
100
AcDbDictionary
280
     1
281
     1
  3
ADSK_XREC_LAYER_RECONCILED
360
C5FF
  0
DICTIONARY
  5
C600
330
35
100
AcDbDictionary
280
     1
281
     1
  3
ADSK_XREC_LAYER_RECONCILED
360
C601
  0
DICTIONARY
  5
C602
330
36
100
AcDbDictionary
280
     1
281
     1
  3
ADSK_XREC_LAYER_RECONCILED
360
C603
  0
DICTIONARY
  5
C604
330
99F1
100
AcDbDictionary
280
     1
281
     1
  3
ADSK_XREC_LAYER_RECONCILED
360
C605
  0
DICTIONARY
  5
C57D
330
19
100
AcDbDictionary
280
     1
281
     1
  3
ACAD_LAYOUTSELFREF
360
C57E
  0
DICTIONARY
  5
C57B
330
16
100
AcDbDictionary
280
     1
281
     1
  3
ACAD_LAYOUTSELFREF
360
C57C
  0
XRECORD
  5
C5E6
102
{ACAD_REACTORS
330
C
102
}
330
C
100
AcDbXrecord
280
     1
300
ACDLT
300
2023
300

  0
DICTIONARY
  5
C5C8
102
{ACAD_REACTORS
330
C
102
}
330
C
100
AcDbDictionary
281
     1
  0
DICTIONARY
  5
C5E1
102
{ACAD_REACTORS
330
C
102
}
330
C
100
AcDbDictionary
281
     1
  3
Metric50
350
C5E2
  0
DICTIONARY
  5
D
102
{ACAD_REACTORS
330
C
102
}
330
C
100
AcDbDictionary
281
     1
  0
DICTIONARY
  5
C550
102
{ACAD_REACTORS
330
C
102
}
330
C
100
AcDbDictionary
281
     1
  3
Model
350
C552
  3
\U+FF9A\U+FF72\U+FF71\U+FF73\U+FF841
350
C553
  0
DICTIONARY
  5
C596
102
{ACAD_REACTORS
330
C
102
}
330
C
100
AcDbDictionary
281
     1
  3
ByBlock
350
C59F
  3
ByLayer
350
C597
  3
Global
350
C5A7
  0
DICTIONARY
  5
C5DD
102
{ACAD_REACTORS
330
C
102
}
330
C
100
AcDbDictionary
281
     1
  3
Standard
350
C5DE
  0
DICTIONARY
  5
E
102
{ACAD_REACTORS
330
C
102
}
330
C
100
AcDbDictionary
281
     1
  3
STANDARD
350
1C
  0
DICTIONARY
  5
C551
102
{ACAD_REACTORS
330
C
102
}
330
C
100
AcDbDictionary
281
     1
  0
ACDBDICTIONARYWDFLT
  5
C54E
102
{ACAD_REACTORS
330
C
102
}
330
C
100
AcDbDictionary
281
     1
  3
Normal
350
C54F
100
AcDbDictionaryWithDefault
340
C54F
  0
DICTIONARY
  5
C5CB
102
{ACAD_REACTORS
330
C
102
}
330
C
100
AcDbDictionary
281
     1
  3
A0
350
C5CC
  3
A1
350
C5CD
  3
A2
350
C5CE
  3
A3
350
C5CF
  3
A4
350
C5D0
  3
A5
350
C5D1
  3
A6
350
C5D2
  3
A7
350
C5D3
  3
A8
350
C5D4
  3
A9
350
C5D5
  3
B0
350
C5D6
  3
B1
350
C5D7
  3
B2
350
C5D8
  3
B3
350
C5D9
  3
B4
350
C5DA
  3
B5
350
C5DB
  3
B6
350
C5DC
  0
DICTIONARY
  5
C5DF
102
{ACAD_REACTORS
330
C
102
}
330
C
100
AcDbDictionary
281
     1
  3
Metric50
350
C5E0
  0
DICTIONARY
  5
C5C9
102
{ACAD_REACTORS
330
C
102
}
330
C
100
AcDbDictionary
281
     1
  3
Standard
350
C5CA
  0
DICTIONARY
  5
C5AF
102
{ACAD_REACTORS
330
C
102
}
330
C
100
AcDbDictionary
281
     1
  3
2dWireframe
350
C5B5
  3
Basic
350
C5B4
  3
Brighten
350
C5BB
  3
ColorChange
350
C5BF
  3
Conceptual
350
C5B8
  3
Dim
350
C5BA
  3
EdgeColorOff
350
C5C7
  3
Facepattern
350
C5BE
  3
Flat
350
C5B0
  3
FlatWithEdges
350
C5B1
  3
Gouraud
350
C5B2
  3
GouraudWithEdges
350
C5B3
  3
Hidden
350
C5B7
  3
JitterOff
350
C5C5
  3
Linepattern
350
C5BD
  3
OverhangOff
350
C5C6
  3
Realistic
350
C5B9
  3
Shaded
350
C5C4
  3
Shaded with edges
350
C5C3
  3
Shades of Gray
350
C5C0
  3
Sketchy
350
C5C1
  3
Thicken
350
C5BC
  3
Wireframe
350
C5B6
  3
X-Ray
350
C5C2
  0
XRECORD
  5
C629
102
{ACAD_REACTORS
330
C
102
}
330
C
100
AcDbXrecord
280
     1
 90
        1
330
C54B
330
C5CA
  0
DICTIONARY
  5
C58D
102
{ACAD_REACTORS
330
C
102
}
330
C
100
AcDbDictionary
281
     1
  3
CANNOSCALE
350
C61A
  3
CMLEADERSTYLE
350
C616
  3
CTABLESTYLE
350
C615
  3
CVIEWDETAILSTYLE
350
C617
  3
CVIEWSECTIONSTYLE
350
C618
  3
DIMASSOC
350
C58E
  3
INDEXCTL
350
C625
  3
LAYEREVAL
350
C61C
  3
LAYERNOTIFY
350
C61D
  3
LIGHTINGUNITS
350
C61B
  3
MSLTSCALE
350
C619
  3
SORTENTS
350
C624
  3
XCLIPFRAME
350
C626
  0
DICTIONARY
  5
C630
102
{ACAD_REACTORS
330
C
102
}
330
C
100
AcDbDictionary
281
     1
  3
AcDsRecords
350
C632
  3
AcDsSchemas
350
C631
1001
ACAD
1070
     2
  0
XRECORD
  5
C62A
102
{ACAD_REACTORS
330
C
102
}
330
C
100
AcDbXrecord
280
     1
  1
DWGPROPS COOKIE
  2

  3

  4

  6

  7

  8
toshiyuki.morita
  9

300
=
301
=
302
=
303
=
304
=
305
=
306
=
307
=
308
=
309
=
 40
0.3726762152777778
 41
2453950.639282407
 42
2460255.328611111
  1

 90
        0
  0
DICTIONARY
  5
C60A
102
{ACAD_REACTORS
330
C609
102
}
330
C609
100
AcDbDictionary
281
     1
  0
XRECORD
  5
C5FB
102
{ACAD_REACTORS
330
C5FA
102
}
330
C5FA
100
AcDbXrecord
280
     1
290
     1
  0
XRECORD
  5
C5FD
102
{ACAD_REACTORS
330
C5FC
102
}
330
C5FC
100
AcDbXrecord
280
     1
290
     1
  0
XRECORD
  5
C5FF
102
{ACAD_REACTORS
330
C5FE
102
}
330
C5FE
100
AcDbXrecord
280
     1
290
     1
  0
XRECORD
  5
C601
102
{ACAD_REACTORS
330
C600
102
}
330
C600
100
AcDbXrecord
280
     1
290
     1
  0
XRECORD
  5
C603
102
{ACAD_REACTORS
330
C602
102
}
330
C602
100
AcDbXrecord
280
     1
290
     1
  0
XRECORD
  5
C605
102
{ACAD_REACTORS
330
C604
102
}
330
C604
100
AcDbXrecord
280
     1
290
     1
  0
XRECORD
  5
C57E
102
{ACAD_REACTORS
330
C57D
102
}
330
C57D
100
AcDbXrecord
280
     1
340
19
  0
XRECORD
  5
C57C
102
{ACAD_REACTORS
330
C57B
102
}
330
C57B
100
AcDbXrecord
280
     1
340
16
  0
ACDBDETAILVIEWSTYLE
  5
C5E2
102
{ACAD_XDICTIONARY
360
C670
102
}
102
{ACAD_REACTORS
330
C5E1
102
}
330
C5E1
100
AcDbModelDocViewStyle
 70
     0
  3
Metric50
290
     0
100
AcDbDetailViewStyle
 70
     0
 71
     0
 90
        3
 71
     1
340
10
 40
5.0
340
0
 40
5.0
300

 40
0.0
280
     1
 71
     2
340
15
 90
       25
 71
     3
340
10
 40
5.0
 90
        0
 40
15.0
 90
        1
300
%<\AcVar ViewDetailId>% (%<\AcVar ViewScale \f "%sn">%)
 71
     4
340
15
 90
       25
340
15
 90
       25
280
     0
  0
LAYOUT
  5
C552
102
{ACAD_XDICTIONARY
360
C633
102
}
102
{ACAD_REACTORS
330
C550
102
}
330
C550
100
AcDbPlotSettings
  1

  2
\\Txbo34x8944cqyd\EPSON LP-6100
  4

  6

 40
0.0
 41
0.0
 42
0.0
 43
0.0
 44
0.0
 45
0.0
 46
0.0
 47
0.0
 48
0.0
 49
0.0
140
0.0
141
0.0
142
1.0
143
1.0
 70
  1712
 72
     0
 73
     0
 74
     0
  7
GOD2000TABLE.ctb
 75
     0
147
1.0
148
0.0
149
0.0
100
AcDbLayout
  1
Model
 70
     1
 71
     0
 10
0.0
 20
0.0
 11
12.0
 21
9.0
 12
0.0
 22
0.0
 32
0.0
 14
0.0
 24
0.0
 34
0.0
 15
0.0
 25
0.0
 35
0.0
146
0.0
 13
0.0
 23
0.0
 33
0.0
 16
1.0
 26
0.0
 36
0.0
 17
0.0
 27
1.0
 37
0.0
 76
     0
330
19
331
C594
  0
LAYOUT
  5
C553
102
{ACAD_XDICTIONARY
360
C635
102
}
102
{ACAD_REACTORS
330
C550
102
}
330
C550
100
AcDbPlotSettings
  1

  2
\\Txbo34x8944cqyd\EPSON LP-6100
  4

  6

 40
0.0
 41
0.0
 42
0.0
 43
0.0
 44
0.0
 45
0.0
 46
0.0
 47
0.0
 48
0.0
 49
0.0
140
0.0
141
0.0
142
1.0
143
1.0
 70
   688
 72
     0
 73
     0
 74
     5
  7
GOD2000TABLE.ctb
 75
    16
147
1.0
148
0.0
149
0.0
100
AcDbLayout
  1
\U+FF9A\U+FF72\U+FF71\U+FF73\U+FF841
 70
     0
 71
     1
 10
0.0
 20
0.0
 11
12.0
 21
9.0
 12
0.0
 22
0.0
 32
0.0
 14
1.000000000000000E+20
 24
1.000000000000000E+20
 34
1.000000000000000E+20
 15
-1.000000000000000E+20
 25
-1.000000000000000E+20
 35
-1.000000000000000E+20
146
0.0
 13
0.0
 23
0.0
 33
0.0
 16
1.0
 26
0.0
 36
0.0
 17
0.0
 27
1.0
 37
0.0
 76
     0
330
16
  0
MATERIAL
  5
C59F
102
{ACAD_XDICTIONARY
360
C5A0
102
}
102
{ACAD_REACTORS
330
C596
102
}
330
C596
100
AcDbMaterial
  1
ByBlock
 72
     0
 43
0.0208333333333333
 43
0.0
 43
0.0
 43
0.0
 43
0.0
 43
0.0208333333333333
 43
0.0
 43
0.0
 43
0.0
 43
0.0
 43
1.0
 43
0.0
 43
0.0
 43
0.0
 43
0.0
 43
1.0
 77
     0
 47
0.0208333333333333
 47
0.0
 47
0.0
 47
0.0
 47
0.0
 47
0.0208333333333333
 47
0.0
 47
0.0
 47
0.0
 47
0.0
 47
1.0
 47
0.0
 47
0.0
 47
0.0
 47
0.0
 47
1.0
171
     0
 49
0.0208333333333333
 49
0.0
 49
0.0
 49
0.0
 49
0.0
 49
0.0208333333333333
 49
0.0
 49
0.0
 49
0.0
 49
0.0
 49
1.0
 49
0.0
 49
0.0
 49
0.0
 49
0.0
 49
1.0
175
     0
142
0.0208333333333333
142
0.0
142
0.0
142
0.0
142
0.0
142
0.0208333333333333
142
0.0
142
0.0
142
0.0
142
0.0
142
1.0
142
0.0
142
0.0
142
0.0
142
0.0
142
1.0
179
     0
144
0.0208333333333333
144
0.0
144
0.0
144
0.0
144
0.0
144
0.0208333333333333
144
0.0
144
0.0
144
0.0
144
0.0
144
1.0
144
0.0
144
0.0
144
0.0
144
0.0
144
1.0
147
0.0208333333333333
147
0.0
147
0.0
147
0.0
147
0.0
147
0.0208333333333333
147
0.0
147
0.0
147
0.0
147
0.0
147
1.0
147
0.0
147
0.0
147
0.0
147
0.0
147
1.0
  0
MATERIAL
  5
C597
102
{ACAD_XDICTIONARY
360
C598
102
}
102
{ACAD_REACTORS
330
C596
102
}
330
C596
100
AcDbMaterial
  1
ByLayer
 72
     0
 43
0.0208333333333333
 43
0.0
 43
0.0
 43
0.0
 43
0.0
 43
0.0208333333333333
 43
0.0
 43
0.0
 43
0.0
 43
0.0
 43
1.0
 43
0.0
 43
0.0
 43
0.0
 43
0.0
 43
1.0
 77
     0
 47
0.0208333333333333
 47
0.0
 47
0.0
 47
0.0
 47
0.0
 47
0.0208333333333333
 47
0.0
 47
0.0
 47
0.0
 47
0.0
 47
1.0
 47
0.0
 47
0.0
 47
0.0
 47
0.0
 47
1.0
171
     0
 49
0.0208333333333333
 49
0.0
 49
0.0
 49
0.0
 49
0.0
 49
0.0208333333333333
 49
0.0
 49
0.0
 49
0.0
 49
0.0
 49
1.0
 49
0.0
 49
0.0
 49
0.0
 49
0.0
 49
1.0
175
     0
142
0.0208333333333333
142
0.0
142
0.0
142
0.0
142
0.0
142
0.0208333333333333
142
0.0
142
0.0
142
0.0
142
0.0
142
1.0
142
0.0
142
0.0
142
0.0
142
0.0
142
1.0
179
     0
144
0.0208333333333333
144
0.0
144
0.0
144
0.0
144
0.0
144
0.0208333333333333
144
0.0
144
0.0
144
0.0
144
0.0
144
1.0
144
0.0
144
0.0
144
0.0
144
0.0
144
1.0
147
0.0208333333333333
147
0.0
147
0.0
147
0.0
147
0.0
147
0.0208333333333333
147
0.0
147
0.0
147
0.0
147
0.0
147
1.0
147
0.0
147
0.0
147
0.0
147
0.0
147
1.0
  0
MATERIAL
  5
C5A7
102
{ACAD_XDICTIONARY
360
C5A8
102
}
102
{ACAD_REACTORS
330
C596
102
}
330
C596
100
AcDbMaterial
  1
Global
 72
     0
 43
0.0208333333333333
 43
0.0
 43
0.0
 43
0.0
 43
0.0
 43
0.0208333333333333
 43
0.0
 43
0.0
 43
0.0
 43
0.0
 43
1.0
 43
0.0
 43
0.0
 43
0.0
 43
0.0
 43
1.0
 77
     0
 47
0.0208333333333333
 47
0.0
 47
0.0
 47
0.0
 47
0.0
 47
0.0208333333333333
 47
0.0
 47
0.0
 47
0.0
 47
0.0
 47
1.0
 47
0.0
 47
0.0
 47
0.0
 47
0.0
 47
1.0
171
     0
 49
0.0208333333333333
 49
0.0
 49
0.0
 49
0.0
 49
0.0
 49
0.0208333333333333
 49
0.0
 49
0.0
 49
0.0
 49
0.0
 49
1.0
 49
0.0
 49
0.0
 49
0.0
 49
0.0
 49
1.0
175
     0
142
0.0208333333333333
142
0.0
142
0.0
142
0.0
142
0.0
142
0.0208333333333333
142
0.0
142
0.0
142
0.0
142
0.0
142
1.0
142
0.0
142
0.0
142
0.0
142
0.0
142
1.0
179
     0
144
0.0208333333333333
144
0.0
144
0.0
144
0.0
144
0.0
144
0.0208333333333333
144
0.0
144
0.0
144
0.0
144
0.0
144
1.0
144
0.0
144
0.0
144
0.0
144
0.0
144
1.0
147
0.0208333333333333
147
0.0
147
0.0
147
0.0
147
0.0
147
0.0208333333333333
147
0.0
147
0.0
147
0.0
147
0.0
147
1.0
147
0.0
147
0.0
147
0.0
147
0.0
147
1.0
  0
MLEADERSTYLE
  5
C5DE
102
{ACAD_XDICTIONARY
360
C66C
102
}
102
{ACAD_REACTORS
330
C5DD
102
}
330
C5DD
100
AcDbMLeaderStyle
170
     2
171
     1
172
     0
 90
        2
 40
0.0
 41
0.0
173
     1
 91
-1056964608
340
13
 92
       -2
290
     1
 42
2.0
291
     1
 43
0.36
  3
Standard
 44
4.0
300

342
10
174
     1
178
     6
175
     1
176
     0
 93
-1056964608
 45
4.0
292
     0
297
     0
 46
4.0
 94
-1056964608
 47
1.0
 49
1.0
140
1.0
293
     1
141
0.0
294
     1
177
     0
142
1.0
295
     0
296
     0
143
0.125
1001
ACAD_MLEADERVER
1070
     2
  0
MLINESTYLE
  5
1C
102
{ACAD_REACTORS
330
E
102
}
330
E
100
AcDbMlineStyle
  2
STANDARD
 70
     0
  3

 62
     0
 51
90.0
 52
90.0
 71
     2
 49
0.5
 62
   256
  6
BYLAYER
 49
-0.5
 62
   256
  6
BYLAYER
  0
ACDBPLACEHOLDER
  5
C54F
102
{ACAD_REACTORS
330
C54E
102
}
330
C54E
  0
SCALE
  5
C5CC
102
{ACAD_REACTORS
330
C5CB
102
}
330
C5CB
100
AcDbScale
 70
     0
300
1:1
140
1.0
141
1.0
290
     1
  0
SCALE
  5
C5CD
102
{ACAD_REACTORS
330
C5CB
102
}
330
C5CB
100
AcDbScale
 70
     0
300
1:2
140
1.0
141
2.0
290
     0
  0
SCALE
  5
C5CE
102
{ACAD_REACTORS
330
C5CB
102
}
330
C5CB
100
AcDbScale
 70
     0
300
1:4
140
1.0
141
4.0
290
     0
  0
SCALE
  5
C5CF
102
{ACAD_REACTORS
330
C5CB
102
}
330
C5CB
100
AcDbScale
 70
     0
300
1:5
140
1.0
141
5.0
290
     0
  0
SCALE
  5
C5D0
102
{ACAD_REACTORS
330
C5CB
102
}
330
C5CB
100
AcDbScale
 70
     0
300
1:8
140
1.0
141
8.0
290
     0
  0
SCALE
  5
C5D1
102
{ACAD_REACTORS
330
C5CB
102
}
330
C5CB
100
AcDbScale
 70
     0
300
1:10
140
1.0
141
10.0
290
     0
  0
SCALE
  5
C5D2
102
{ACAD_REACTORS
330
C5CB
102
}
330
C5CB
100
AcDbScale
 70
     0
300
1:16
140
1.0
141
16.0
290
     0
  0
SCALE
  5
C5D3
102
{ACAD_REACTORS
330
C5CB
102
}
330
C5CB
100
AcDbScale
 70
     0
300
1:20
140
1.0
141
20.0
290
     0
  0
SCALE
  5
C5D4
102
{ACAD_REACTORS
330
C5CB
102
}
330
C5CB
100
AcDbScale
 70
     0
300
1:30
140
1.0
141
30.0
290
     0
  0
SCALE
  5
C5D5
102
{ACAD_REACTORS
330
C5CB
102
}
330
C5CB
100
AcDbScale
 70
     0
300
1:40
140
1.0
141
40.0
290
     0
  0
SCALE
  5
C5D6
102
{ACAD_REACTORS
330
C5CB
102
}
330
C5CB
100
AcDbScale
 70
     0
300
1:50
140
1.0
141
50.0
290
     0
  0
SCALE
  5
C5D7
102
{ACAD_REACTORS
330
C5CB
102
}
330
C5CB
100
AcDbScale
 70
     0
300
1:100
140
1.0
141
100.0
290
     0
  0
SCALE
  5
C5D8
102
{ACAD_REACTORS
330
C5CB
102
}
330
C5CB
100
AcDbScale
 70
     0
300
2:1
140
2.0
141
1.0
290
     0
  0
SCALE
  5
C5D9
102
{ACAD_REACTORS
330
C5CB
102
}
330
C5CB
100
AcDbScale
 70
     0
300
4:1
140
4.0
141
1.0
290
     0
  0
SCALE
  5
C5DA
102
{ACAD_REACTORS
330
C5CB
102
}
330
C5CB
100
AcDbScale
 70
     0
300
8:1
140
8.0
141
1.0
290
     0
  0
SCALE
  5
C5DB
102
{ACAD_REACTORS
330
C5CB
102
}
330
C5CB
100
AcDbScale
 70
     0
300
10:1
140
10.0
141
1.0
290
     0
  0
SCALE
  5
C5DC
102
{ACAD_REACTORS
330
C5CB
102
}
330
C5CB
100
AcDbScale
 70
     0
300
100:1
140
100.0
141
1.0
290
     0
  0
ACDBSECTIONVIEWSTYLE
  5
C5E0
102
{ACAD_XDICTIONARY
360
C66E
102
}
102
{ACAD_REACTORS
330
C5DF
102
}
330
C5DF
100
AcDbModelDocViewStyle
 70
     0
  3
Metric50
290
     0
100
AcDbSectionViewStyle
 70
     0
 71
     0
 90
      102
 71
     1
340
10
 40
5.0
340
0
340
0
 40
5.0
300
I, O, Q, S, X, Z
 40
10.0
 90
        0
 40
2.5
 90
        0
 71
     2
340
15
 90
       25
340
15
 90
       50
 40
5.0
 40
2.5
 40
5.0
 71
     3
340
10
 40
5.0
 90
        0
 40
15.0
 90
        1
300
%<\AcVar ViewSectionStartId>%-%<\AcVar ViewSectionEndId>% (%<\AcVar ViewScale \f "%sn">%)
 71
     4
300
ANSI31
 40
1.0
 90
        0
290
     0
290
     0
 90
        6
 40
0.0
 40
1.570796326794896
 40
0.2617993877991494
 40
1.308996938995747
 40
-0.2617993877991494
 40
1.832595714594046
  0
TABLESTYLE
  5
C5CA
102
{ACAD_XDICTIONARY
360
C627
102
}
102
{ACAD_REACTORS
330
C5C9
102
}
330
C5C9
100
AcDbTableStyle
  3
Standard
 70
     0
 71
     0
 40
1.5
 41
1.5
280
     0
281
     0
  7
STANDARD
140
4.5
170
     2
 62
     0
 63
     7
283
     0
274
    -2
284
     1
 64
     0
275
    -2
285
     1
 65
     0
276
    -2
286
     1
 66
     0
277
    -2
287
     1
 67
     0
278
    -2
288
     1
 68
     0
279
    -2
289
     1
 69
     0
  7
STANDARD
140
6.0
170
     5
 62
     0
 63
     7
283
     0
274
    -2
284
     1
 64
     0
275
    -2
285
     1
 65
     0
276
    -2
286
     1
 66
     0
277
    -2
287
     1
 67
     0
278
    -2
288
     1
 68
     0
279
    -2
289
     1
 69
     0
  7
STANDARD
140
4.5
170
     5
 62
     0
 63
     7
283
     0
274
    -2
284
     1
 64
     0
275
    -2
285
     1
 65
     0
276
    -2
286
     1
 66
     0
277
    -2
287
     1
 67
     0
278
    -2
288
     1
 68
     0
279
    -2
289
     1
 69
     0
  0
VISUALSTYLE
  5
C5B5
102
{ACAD_XDICTIONARY
360
C644
102
}
102
{ACAD_REACTORS
330
C5AF
102
}
330
C5AF
100
AcDbVisualStyle
  2
2dWireframe
 70
     4
 71
     0
 72
     2
 73
     0
 90
        0
 40
-0.6
 41
-30.0
 62
     5
 63
     7
 74
     1
 91
        4
 64
     7
 65
   257
 75
     1
175
     1
 42
1.0
 92
        0
 66
   257
 43
1.0
 76
     1
 77
     6
 78
     2
 67
     7
 79
     5
170
     0
171
     0
290
     0
174
     0
 93
        1
 44
0.0
173
     0
291
     0
 45
0.0
1001
ACAD
1000
AcDbSavedByObjectVersion
1070
     0
  0
VISUALSTYLE
  5
C5B4
102
{ACAD_XDICTIONARY
360
C642
102
}
102
{ACAD_REACTORS
330
C5AF
102
}
330
C5AF
100
AcDbVisualStyle
  2
Basic
 70
     7
 71
     1
 72
     0
 73
     1
 90
        0
 40
-0.6
 41
-30.0
 62
     5
 63
     7
 74
     0
 91
        4
 64
     7
 65
   257
 75
     1
175
     1
 42
1.0
 92
        8
 66
     7
 43
1.0
 76
     1
 77
     6
 78
     2
 67
     7
 79
     5
170
     0
171
     0
290
     0
174
     0
 93
        1
 44
0.0
173
     0
291
     1
 45
0.0
1001
ACAD
1000
AcDbSavedByObjectVersion
1070
     0
  0
VISUALSTYLE
  5
C5BB
102
{ACAD_XDICTIONARY
360
C650
102
}
102
{ACAD_REACTORS
330
C5AF
102
}
330
C5AF
100
AcDbVisualStyle
  2
Brighten
 70
    12
 71
     2
 72
     2
 73
     0
 90
        0
 40
-0.6
 41
-30.0
 62
     5
 63
     7
 74
     1
 91
        4
 64
     7
 65
   257
 75
     1
175
     1
 42
1.0
 92
        8
 66
     7
 43
1.0
 76
     1
 77
     6
 78
     2
 67
     7
 79
     5
170
     0
171
     0
290
     0
174
     0
 93
        1
 44
50.0
173
     0
291
     1
 45
0.0
1001
ACAD
1000
AcDbSavedByObjectVersion
1070
     0
  0
VISUALSTYLE
  5
C5BF
102
{ACAD_XDICTIONARY
360
C658
102
}
102
{ACAD_REACTORS
330
C5AF
102
}
330
C5AF
100
AcDbVisualStyle
  2
ColorChange
 70
    16
 71
     2
 72
     2
 73
     3
 90
        0
 40
-0.6
 41
-30.0
 62
     5
 63
     8
 74
     1
 91
        4
 64
     7
 65
   257
 75
     1
175
     1
 42
1.0
 92
        8
 66
     8
 43
1.0
 76
     1
 77
     6
 78
     2
 67
     7
 79
     5
170
     0
171
     0
290
     0
174
     0
 93
        1
 44
0.0
173
     0
291
     1
 45
0.0
1001
ACAD
1000
AcDbSavedByObjectVersion
1070
     0
  0
VISUALSTYLE
  5
C5B8
102
{ACAD_XDICTIONARY
360
C64A
102
}
102
{ACAD_REACTORS
330
C5AF
102
}
330
C5AF
100
AcDbVisualStyle
  2
Conceptual
 70
     9
 71
     3
 72
     2
 73
     0
 90
        0
 40
-0.6
 41
-30.0
 62
     5
 63
     7
 74
     2
 91
        2
 64
     7
 65
   257
 75
     1
175
     1
 42
179.0
 92
        8
 66
     7
 43
1.0
 76
     1
 77
     6
 78
     2
 67
     7
 79
     3
170
     0
171
     0
290
     0
174
     0
 93
        1
 44
0.0
173
     0
291
     0
 45
0.0
1001
ACAD
1000
AcDbSavedByObjectVersion
1070
     0
  0
VISUALSTYLE
  5
C5BA
102
{ACAD_XDICTIONARY
360
C64E
102
}
102
{ACAD_REACTORS
330
C5AF
102
}
330
C5AF
100
AcDbVisualStyle
  2
Dim
 70
    11
 71
     2
 72
     2
 73
     0
 90
        0
 40
-0.6
 41
-30.0
 62
     5
 63
     7
 74
     1
 91
        4
 64
     7
 65
   257
 75
     1
175
     1
 42
1.0
 92
        8
 66
     7
 43
1.0
 76
     1
 77
     6
 78
     2
 67
     7
 79
     5
170
     0
171
     0
290
     0
174
     0
 93
        1
 44
-50.0
173
     0
291
     1
 45
0.0
1001
ACAD
1000
AcDbSavedByObjectVersion
1070
     0
  0
VISUALSTYLE
  5
C5C7
102
{ACAD_XDICTIONARY
360
C668
102
}
102
{ACAD_REACTORS
330
C5AF
102
}
330
C5AF
100
AcDbVisualStyle
  2
EdgeColorOff
 70
    22
 71
     2
 72
     2
 73
     0
 90
        0
 40
-0.6
 41
-30.0
 62
     5
 63
     7
 74
     1
 91
        4
 64
     7
 65
   257
 75
     1
175
     1
 42
1.0
 92
        8
 66
     7
 43
1.0
 76
     1
 77
     6
 78
     2
 67
     7
 79
     5
170
     0
171
     0
290
     0
174
     0
 93
        1
 44
0.0
173
     0
291
     1
 45
0.0
1001
ACAD
1000
AcDbSavedByObjectVersion
1070
     0
  0
VISUALSTYLE
  5
C5BE
102
{ACAD_XDICTIONARY
360
C656
102
}
102
{ACAD_REACTORS
330
C5AF
102
}
330
C5AF
100
AcDbVisualStyle
  2
Facepattern
 70
    15
 71
     2
 72
     2
 73
     0
 90
        0
 40
-0.6
 41
-30.0
 62
     5
 63
     7
 74
     1
 91
        4
 64
     7
 65
   257
 75
     1
175
     1
 42
1.0
 92
        8
 66
     7
 43
1.0
 76
     1
 77
     6
 78
     2
 67
     7
 79
     5
170
     0
171
     0
290
     0
174
     0
 93
        1
 44
0.0
173
     0
291
     1
 45
0.0
1001
ACAD
1000
AcDbSavedByObjectVersion
1070
     0
  0
VISUALSTYLE
  5
C5B0
102
{ACAD_XDICTIONARY
360
C63A
102
}
102
{ACAD_REACTORS
330
C5AF
102
}
330
C5AF
100
AcDbVisualStyle
  2
Flat
 70
     0
 71
     2
 72
     1
 73
     1
 90
        2
 40
-0.6
 41
30.0
 62
     5
 63
     7
 74
     0
 91
        0
 64
     7
 65
   257
 75
     1
175
     1
 42
1.0
 92
        8
 66
     7
 43
1.0
 76
     1
 77
     6
 78
     2
 67
     7
 79
     5
170
     0
171
     0
290
     0
174
     0
 93
       13
 44
0.0
173
     0
291
     1
 45
0.0
1001
ACAD
1000
AcDbSavedByObjectVersion
1070
     0
  0
VISUALSTYLE
  5
C5B1
102
{ACAD_XDICTIONARY
360
C63C
102
}
102
{ACAD_REACTORS
330
C5AF
102
}
330
C5AF
100
AcDbVisualStyle
  2
FlatWithEdges
 70
     1
 71
     2
 72
     1
 73
     1
 90
        2
 40
-0.6
 41
30.0
 62
     5
 63
     7
 74
     1
 91
        0
 64
     7
 65
   257
 75
     1
175
     1
 42
1.0
 92
        0
 66
   257
 43
1.0
 76
     1
 77
     6
 78
     2
 67
     7
 79
     5
170
     0
171
     0
290
     0
174
     0
 93
       13
 44
0.0
173
     0
291
     1
 45
0.0
1001
ACAD
1000
AcDbSavedByObjectVersion
1070
     0
  0
VISUALSTYLE
  5
C5B2
102
{ACAD_XDICTIONARY
360
C63E
102
}
102
{ACAD_REACTORS
330
C5AF
102
}
330
C5AF
100
AcDbVisualStyle
  2
Gouraud
 70
     2
 71
     2
 72
     2
 73
     1
 90
        2
 40
-0.6
 41
30.0
 62
     5
 63
     7
 74
     0
 91
        0
 64
     7
 65
   257
 75
     1
175
     1
 42
1.0
 92
        0
 66
     7
 43
1.0
 76
     1
 77
     6
 78
     2
 67
     7
 79
     5
170
     0
171
     0
290
     0
174
     0
 93
       13
 44
0.0
173
     0
291
     1
 45
0.0
1001
ACAD
1000
AcDbSavedByObjectVersion
1070
     0
  0
VISUALSTYLE
  5
C5B3
102
{ACAD_XDICTIONARY
360
C640
102
}
102
{ACAD_REACTORS
330
C5AF
102
}
330
C5AF
100
AcDbVisualStyle
  2
GouraudWithEdges
 70
     3
 71
     2
 72
     2
 73
     1
 90
        2
 40
-0.6
 41
30.0
 62
     5
 63
     7
 74
     1
 91
        0
 64
     7
 65
   257
 75
     1
175
     1
 42
1.0
 92
        0
 66
   257
 43
1.0
 76
     1
 77
     6
 78
     2
 67
     7
 79
     5
170
     0
171
     0
290
     0
174
     0
 93
       13
 44
0.0
173
     0
291
     1
 45
0.0
1001
ACAD
1000
AcDbSavedByObjectVersion
1070
     0
  0
VISUALSTYLE
  5
C5B7
102
{ACAD_XDICTIONARY
360
C648
102
}
102
{ACAD_REACTORS
330
C5AF
102
}
330
C5AF
100
AcDbVisualStyle
  2
Hidden
 70
     6
 71
     1
 72
     2
 73
     2
 90
        0
 40
-0.6
 41
-30.0
 62
     5
 63
     7
 74
     2
 91
        2
 64
     7
 65
   257
 75
     2
175
     1
 42
40.0
 92
        0
 66
   257
 43
1.0
 76
     1
 77
     6
 78
     2
 67
     7
 79
     3
170
     0
171
     0
290
     0
174
     0
 93
        1
 44
0.0
173
     0
291
     0
 45
0.0
1001
ACAD
1000
AcDbSavedByObjectVersion
1070
     0
  0
VISUALSTYLE
  5
C5C5
102
{ACAD_XDICTIONARY
360
C664
102
}
102
{ACAD_REACTORS
330
C5AF
102
}
330
C5AF
100
AcDbVisualStyle
  2
JitterOff
 70
    20
 71
     2
 72
     2
 73
     0
 90
        0
 40
-0.6
 41
-30.0
 62
     5
 63
     7
 74
     1
 91
        4
 64
     7
 65
   257
 75
     1
175
     1
 42
1.0
 92
       10
 66
     7
 43
1.0
 76
     1
 77
     6
 78
     2
 67
     7
 79
     5
170
     0
171
     0
290
     0
174
     0
 93
        1
 44
0.0
173
     0
291
     1
 45
0.0
1001
ACAD
1000
AcDbSavedByObjectVersion
1070
     0
  0
VISUALSTYLE
  5
C5BD
102
{ACAD_XDICTIONARY
360
C654
102
}
102
{ACAD_REACTORS
330
C5AF
102
}
330
C5AF
100
AcDbVisualStyle
  2
Linepattern
 70
    14
 71
     2
 72
     2
 73
     0
 90
        0
 40
-0.6
 41
-30.0
 62
     5
 63
     7
 74
     1
 91
        4
 64
     7
 65
   257
 75
     7
175
     7
 42
1.0
 92
        8
 66
     7
 43
1.0
 76
     1
 77
     6
 78
     2
 67
     7
 79
     5
170
     0
171
     0
290
     0
174
     0
 93
        1
 44
0.0
173
     0
291
     1
 45
0.0
1001
ACAD
1000
AcDbSavedByObjectVersion
1070
     0
  0
VISUALSTYLE
  5
C5C6
102
{ACAD_XDICTIONARY
360
C666
102
}
102
{ACAD_REACTORS
330
C5AF
102
}
330
C5AF
100
AcDbVisualStyle
  2
OverhangOff
 70
    21
 71
     2
 72
     2
 73
     0
 90
        0
 40
-0.6
 41
-30.0
 62
     5
 63
     7
 74
     1
 91
        4
 64
     7
 65
   257
 75
     1
175
     1
 42
1.0
 92
        9
 66
     7
 43
1.0
 76
     1
 77
     6
 78
     2
 67
     7
 79
     5
170
     0
171
     0
290
     0
174
     0
 93
        1
 44
0.0
173
     0
291
     1
 45
0.0
1001
ACAD
1000
AcDbSavedByObjectVersion
1070
     0
  0
VISUALSTYLE
  5
C5B9
102
{ACAD_XDICTIONARY
360
C64C
102
}
102
{ACAD_REACTORS
330
C5AF
102
}
330
C5AF
100
AcDbVisualStyle
  2
Realistic
 70
     8
 71
     2
 72
     3
 73
     0
 90
        2
 40
-0.6
 41
30.0
 62
     5
 63
     7
 74
     0
 91
        0
 64
     7
 65
   257
 75
     1
175
     1
 42
1.0
 92
        8
 66
   257
 43
1.0
 76
     1
 77
     6
 78
     2
 67
     7
 79
     3
170
     0
171
     0
290
     0
174
     0
 93
       13
 44
0.0
173
     0
291
     0
 45
0.0
1001
ACAD
1000
AcDbSavedByObjectVersion
1070
     0
  0
VISUALSTYLE
  5
C5C4
102
{ACAD_XDICTIONARY
360
C662
102
}
102
{ACAD_REACTORS
330
C5AF
102
}
330
C5AF
100
AcDbVisualStyle
  2
Shaded
 70
    27
 71
     2
 72
     2
 73
     1
 90
        2
 40
-0.6
 41
30.0
 62
     5
 63
     7
 74
     0
 91
        4
 64
     7
 65
   257
 75
     1
175
     1
 42
1.0
 92
        8
 66
   257
 43
1.0
 76
     1
 77
     6
 78
     2
 67
     8
 79
     3
170
     0
171
     0
290
     0
174
     0
 93
        5
 44
0.0
173
     0
291
     0
 45
0.0
1001
ACAD
1000
AcDbSavedByObjectVersion
1070
     0
  0
VISUALSTYLE
  5
C5C3
102
{ACAD_XDICTIONARY
360
C660
102
}
102
{ACAD_REACTORS
330
C5AF
102
}
330
C5AF
100
AcDbVisualStyle
  2
Shaded with edges
 70
    26
 71
     2
 72
     2
 73
     1
 90
        2
 40
-0.6
 41
30.0
 62
     5
 63
     7
 74
     1
 91
        2
 64
     7
 65
   257
 75
     2
175
     1
 42
1.0
 92
        8
 66
   257
 43
1.0
 76
     1
 77
     6
 78
     2
 67
     7
 79
     3
170
     0
171
     0
290
     0
174
     0
 93
        5
 44
0.0
173
     0
291
     0
 45
0.0
1001
ACAD
1000
AcDbSavedByObjectVersion
1070
     0
  0
VISUALSTYLE
  5
C5C0
102
{ACAD_XDICTIONARY
360
C65A
102
}
102
{ACAD_REACTORS
330
C5AF
102
}
330
C5AF
100
AcDbVisualStyle
  2
Shades of Gray
 70
    23
 71
     2
 72
     2
 73
     3
 90
        0
 40
-0.6
 41
-30.0
 62
     5
 63
     7
 74
     2
 91
        2
 64
     7
 65
     7
 75
     1
175
     1
 42
40.0
 92
        8
 66
     7
 43
1.0
 76
     1
 77
     6
 78
     2
 67
     7
 79
     3
170
     0
171
     0
290
     0
174
     0
 93
        1
 44
0.0
173
     0
291
     0
 45
0.0
1001
ACAD
1000
AcDbSavedByObjectVersion
1070
     0
  0
VISUALSTYLE
  5
C5C1
102
{ACAD_XDICTIONARY
360
C65C
102
}
102
{ACAD_REACTORS
330
C5AF
102
}
330
C5AF
100
AcDbVisualStyle
  2
Sketchy
 70
    24
 71
     1
 72
     2
 73
     2
 90
        0
 40
-0.6
 41
-30.0
 62
     5
 63
     7
 74
     2
 91
        2
 64
     7
 65
     7
 75
     1
175
     1
 42
40.0
 92
       11
 66
     7
 43
1.0
 76
     1
 77
     6
 78
     2
 67
     7
 79
     6
170
     0
171
     0
290
     0
174
     0
 93
        1
 44
0.0
173
     0
291
     0
 45
0.0
1001
ACAD
1000
AcDbSavedByObjectVersion
1070
     0
  0
VISUALSTYLE
  5
C5BC
102
{ACAD_XDICTIONARY
360
C652
102
}
102
{ACAD_REACTORS
330
C5AF
102
}
330
C5AF
100
AcDbVisualStyle
  2
Thicken
 70
    13
 71
     2
 72
     2
 73
     0
 90
        0
 40
-0.6
 41
-30.0
 62
     5
 63
     7
 74
     1
 91
        4
 64
     7
 65
   257
 75
     1
175
     1
 42
1.0
 92
       12
 66
     7
 43
1.0
 76
     1
 77
     6
 78
     2
 67
     7
 79
     5
170
     0
171
     0
290
     0
174
     0
 93
        1
 44
0.0
173
     0
291
     1
 45
0.0
1001
ACAD
1000
AcDbSavedByObjectVersion
1070
     0
  0
VISUALSTYLE
  5
C5B6
102
{ACAD_XDICTIONARY
360
C646
102
}
102
{ACAD_REACTORS
330
C5AF
102
}
330
C5AF
100
AcDbVisualStyle
  2
Wireframe
 70
     5
 71
     0
 72
     2
 73
     0
 90
        0
 40
-0.6
 41
-30.0
 62
     5
 63
     7
 74
     1
 91
        4
 64
     7
 65
   257
 75
     1
175
     1
 42
1.0
 92
        0
 66
   257
 43
1.0
 76
     1
 77
     6
 78
     2
 67
     7
 79
     3
170
     0
171
     0
290
     0
174
     0
 93
        1
 44
0.0
173
     0
291
     0
 45
0.0
1001
ACAD
1000
AcDbSavedByObjectVersion
1070
     0
  0
VISUALSTYLE
  5
C5C2
102
{ACAD_XDICTIONARY
360
C65E
102
}
102
{ACAD_REACTORS
330
C5AF
102
}
330
C5AF
100
AcDbVisualStyle
  2
X-Ray
 70
    25
 71
     2
 72
     2
 73
     1
 90
        1
 40
0.5
 41
-30.0
 62
     5
 63
     7
 74
     1
 91
        0
 64
     7
 65
   257
 75
     1
175
     1
 42
1.0
 92
        8
 66
     7
 43
1.0
 76
     1
 77
     6
 78
     2
 67
     7
 79
     3
170
     0
171
     0
290
     0
174
     0
 93
       13
 44
0.0
173
     0
291
     0
 45
0.0
1001
ACAD
1000
AcDbSavedByObjectVersion
1070
     0
  0
DICTIONARYVAR
  5
C61A
102
{ACAD_REACTORS
330
C58D
102
}
330
C58D
100
DictionaryVariables
280
     0
  1
1:1
  0
DICTIONARYVAR
  5
C616
102
{ACAD_REACTORS
330
C58D
102
}
330
C58D
100
DictionaryVariables
280
     0
  1
STANDARD
  0
DICTIONARYVAR
  5
C615
102
{ACAD_REACTORS
330
C58D
102
}
330
C58D
100
DictionaryVariables
280
     0
  1
STANDARD
  0
DICTIONARYVAR
  5
C617
102
{ACAD_REACTORS
330
C58D
102
}
330
C58D
100
DictionaryVariables
280
     0
  1
Metric50
  0
DICTIONARYVAR
  5
C618
102
{ACAD_REACTORS
330
C58D
102
}
330
C58D
100
DictionaryVariables
280
     0
  1
Metric50
  0
DICTIONARYVAR
  5
C58E
102
{ACAD_REACTORS
330
C58D
102
}
330
C58D
100
DictionaryVariables
280
     0
  1
1
  0
DICTIONARYVAR
  5
C625
102
{ACAD_REACTORS
330
C58D
102
}
330
C58D
100
DictionaryVariables
280
     0
  1
0
  0
DICTIONARYVAR
  5
C61C
102
{ACAD_REACTORS
330
C58D
102
}
330
C58D
100
DictionaryVariables
280
     0
  1
1
  0
DICTIONARYVAR
  5
C61D
102
{ACAD_REACTORS
330
C58D
102
}
330
C58D
100
DictionaryVariables
280
     0
  1
15
  0
DICTIONARYVAR
  5
C61B
102
{ACAD_REACTORS
330
C58D
102
}
330
C58D
100
DictionaryVariables
280
     0
  1
0
  0
DICTIONARYVAR
  5
C619
102
{ACAD_REACTORS
330
C58D
102
}
330
C58D
100
DictionaryVariables
280
     0
  1
0
  0
DICTIONARYVAR
  5
C624
102
{ACAD_REACTORS
330
C58D
102
}
330
C58D
100
DictionaryVariables
280
     0
  1
127
  0
DICTIONARYVAR
  5
C626
102
{ACAD_REACTORS
330
C58D
102
}
330
C58D
100
DictionaryVariables
280
     0
  1
2
  0
DICTIONARY
  5
C632
102
{ACAD_REACTORS
330
C630
102
}
330
C630
100
AcDbDictionary
281
     1
  0
DICTIONARY
  5
C631
102
{ACAD_REACTORS
330
C630
102
}
330
C630
100
AcDbDictionary
281
     1
  3
2223982576048
350
C62B
  3
2223982576064
350
C62C
  3
2223982576080
350
C62D
  3
2223982576096
350
C62E
  3
2223982576112
350
C62F
  0
DICTIONARY
  5
C670
330
C5E2
100
AcDbDictionary
280
     1
281
     1
  3
ACAD_XREC_ROUNDTRIP
360
C671
  0
DICTIONARY
  5
C633
330
C552
100
AcDbDictionary
280
     1
281
     1
  3
ACAD_XREC_ROUNDTRIP
360
C634
  0
DICTIONARY
  5
C635
330
C553
100
AcDbDictionary
280
     1
281
     1
  3
ACAD_XREC_ROUNDTRIP
360
C636
  0
DICTIONARY
  5
C5A0
330
C59F
100
AcDbDictionary
280
     1
281
     1
  3
ACAD_XREC_ROUNDTRIP
360
C638
  3
BUMPTILE
360
C5A2
  3
DIFFUSETILE
360
C5A1
  3
OPACITYTILE
360
C5A5
  3
REFLECTIONTILE
360
C5A4
  3
REFRACTIONTILE
360
C5A6
  3
SPECULARTILE
360
C5A3
  0
DICTIONARY
  5
C598
330
C597
100
AcDbDictionary
280
     1
281
     1
  3
ACAD_XREC_ROUNDTRIP
360
C637
  3
BUMPTILE
360
C59A
  3
DIFFUSETILE
360
C599
  3
OPACITYTILE
360
C59D
  3
REFLECTIONTILE
360
C59C
  3
REFRACTIONTILE
360
C59E
  3
SPECULARTILE
360
C59B
  0
DICTIONARY
  5
C5A8
330
C5A7
100
AcDbDictionary
280
     1
281
     1
  3
ACAD_XREC_ROUNDTRIP
360
C639
  3
BUMPTILE
360
C5AA
  3
DIFFUSETILE
360
C5A9
  3
OPACITYTILE
360
C5AD
  3
REFLECTIONTILE
360
C5AC
  3
REFRACTIONTILE
360
C5AE
  3
SPECULARTILE
360
C5AB
  0
DICTIONARY
  5
C66C
330
C5DE
100
AcDbDictionary
280
     1
281
     1
  3
ACAD_XREC_ROUNDTRIP
360
C66D
  0
DICTIONARY
  5
C66E
330
C5E0
100
AcDbDictionary
280
     1
281
     1
  3
ACAD_XREC_ROUNDTRIP
360
C66F
  0
DICTIONARY
  5
C627
330
C5CA
100
AcDbDictionary
280
     1
281
     1
  3
ACAD_ROUNDTRIP_2008_TABLESTYLE_CELLSTYLEMAP
360
C628
  3
ACAD_XREC_ROUNDTRIP
360
C66A
  0
DICTIONARY
  5
C644
330
C5B5
100
AcDbDictionary
280
     1
281
     1
  3
ACAD_XREC_ROUNDTRIP
360
C645
  0
DICTIONARY
  5
C642
330
C5B4
100
AcDbDictionary
280
     1
281
     1
  3
ACAD_XREC_ROUNDTRIP
360
C643
  0
DICTIONARY
  5
C650
330
C5BB
100
AcDbDictionary
280
     1
281
     1
  3
ACAD_XREC_ROUNDTRIP
360
C651
  0
DICTIONARY
  5
C658
330
C5BF
100
AcDbDictionary
280
     1
281
     1
  3
ACAD_XREC_ROUNDTRIP
360
C659
  0
DICTIONARY
  5
C64A
330
C5B8
100
AcDbDictionary
280
     1
281
     1
  3
ACAD_XREC_ROUNDTRIP
360
C64B
  0
DICTIONARY
  5
C64E
330
C5BA
100
AcDbDictionary
280
     1
281
     1
  3
ACAD_XREC_ROUNDTRIP
360
C64F
  0
DICTIONARY
  5
C668
330
C5C7
100
AcDbDictionary
280
     1
281
     1
  3
ACAD_XREC_ROUNDTRIP
360
C669
  0
DICTIONARY
  5
C656
330
C5BE
100
AcDbDictionary
280
     1
281
     1
  3
ACAD_XREC_ROUNDTRIP
360
C657
  0
DICTIONARY
  5
C63A
330
C5B0
100
AcDbDictionary
280
     1
281
     1
  3
ACAD_XREC_ROUNDTRIP
360
C63B
  0
DICTIONARY
  5
C63C
330
C5B1
100
AcDbDictionary
280
     1
281
     1
  3
ACAD_XREC_ROUNDTRIP
360
C63D
  0
DICTIONARY
  5
C63E
330
C5B2
100
AcDbDictionary
280
     1
281
     1
  3
ACAD_XREC_ROUNDTRIP
360
C63F
  0
DICTIONARY
  5
C640
330
C5B3
100
AcDbDictionary
280
     1
281
     1
  3
ACAD_XREC_ROUNDTRIP
360
C641
  0
DICTIONARY
  5
C648
330
C5B7
100
AcDbDictionary
280
     1
281
     1
  3
ACAD_XREC_ROUNDTRIP
360
C649
  0
DICTIONARY
  5
C664
330
C5C5
100
AcDbDictionary
280
     1
281
     1
  3
ACAD_XREC_ROUNDTRIP
360
C665
  0
DICTIONARY
  5
C654
330
C5BD
100
AcDbDictionary
280
     1
281
     1
  3
ACAD_XREC_ROUNDTRIP
360
C655
  0
DICTIONARY
  5
C666
330
C5C6
100
AcDbDictionary
280
     1
281
     1
  3
ACAD_XREC_ROUNDTRIP
360
C667
  0
DICTIONARY
  5
C64C
330
C5B9
100
AcDbDictionary
280
     1
281
     1
  3
ACAD_XREC_ROUNDTRIP
360
C64D
  0
DICTIONARY
  5
C662
330
C5C4
100
AcDbDictionary
280
     1
281
     1
  3
ACAD_XREC_ROUNDTRIP
360
C663
  0
DICTIONARY
  5
C660
330
C5C3
100
AcDbDictionary
280
     1
281
     1
  3
ACAD_XREC_ROUNDTRIP
360
C661
  0
DICTIONARY
  5
C65A
330
C5C0
100
AcDbDictionary
280
     1
281
     1
  3
ACAD_XREC_ROUNDTRIP
360
C65B
  0
DICTIONARY
  5
C65C
330
C5C1
100
AcDbDictionary
280
     1
281
     1
  3
ACAD_XREC_ROUNDTRIP
360
C65D
  0
DICTIONARY
  5
C652
330
C5BC
100
AcDbDictionary
280
     1
281
     1
  3
ACAD_XREC_ROUNDTRIP
360
C653
  0
DICTIONARY
  5
C646
330
C5B6
100
AcDbDictionary
280
     1
281
     1
  3
ACAD_XREC_ROUNDTRIP
360
C647
  0
DICTIONARY
  5
C65E
330
C5C2
100
AcDbDictionary
280
     1
281
     1
  3
ACAD_XREC_ROUNDTRIP
360
C65F
  0
XRECORD
  5
C62B
102
{ACAD_REACTORS
330
C631
102
}
330
C631
100
AcDbXrecord
280
     1
  1
AcDb_Thumbnail_Schema
102
{ATTRRECORD
341
C62C
  2
AcDbDs::TreatedAsObjectData
280
     1
291
     1
102
ATTRRECORD}
102
{ATTRRECORD
341
C62D
  2
AcDbDs::Legacy
280
     1
291
     1
102
ATTRRECORD}
  2
AcDbDs::ID
280
    10
 91
        8
102
{ATTRRECORD
341
C62E
  2
AcDs:Indexable
280
     1
291
     1
102
ATTRRECORD}
102
{ATTRRECORD
341
C62F
  2
AcDbDs::HandleAttribute
280
     7
282
     1
102
ATTRRECORD}
  2
Thumbnail_Data
280
    15
 91
        0
  0
XRECORD
  5
C62C
102
{ACAD_REACTORS
330
C631
102
}
330
C631
100
AcDbXrecord
280
     1
  1
AcDbDs::TreatedAsObjectDataSchema
  2
AcDbDs::TreatedAsObjectData
280
     1
 91
        0
  0
XRECORD
  5
C62D
102
{ACAD_REACTORS
330
C631
102
}
330
C631
100
AcDbXrecord
280
     1
  1
AcDbDs::LegacySchema
  2
AcDbDs::Legacy
280
     1
 91
        0
  0
XRECORD
  5
C62E
102
{ACAD_REACTORS
330
C631
102
}
330
C631
100
AcDbXrecord
280
     1
  1
AcDbDs::IndexedPropertySchema
  2
AcDs:Indexable
280
     1
 91
        0
  0
XRECORD
  5
C62F
102
{ACAD_REACTORS
330
C631
102
}
330
C631
100
AcDbXrecord
280
     1
  1
AcDbDs::HandleAttributeSchema
  2
AcDbDs::HandleAttribute
280
     7
 91
        1
284
     1
  0
XRECORD
  5
C671
102
{ACAD_REACTORS
330
C670
102
}
330
C670
100
AcDbXrecord
280
     1
102
DISPLAYNAME
  1
Metric50
102
FLAGS
 90
        0
  0
XRECORD
  5
C634
102
{ACAD_REACTORS
330
C633
102
}
330
C633
100
AcDbXrecord
280
     1
102
SHADEPLOT
 70
     0
102
SHADEPLOTRESLEVEL
 70
     2
102
SHADEPLOTCUSTOMDPI
 70
   300
  0
XRECORD
  5
C636
102
{ACAD_REACTORS
330
C635
102
}
330
C635
100
AcDbXrecord
280
     1
102
SHADEPLOT
 70
     0
102
SHADEPLOTRESLEVEL
 70
     2
102
SHADEPLOTCUSTOMDPI
 70
   300
  0
XRECORD
  5
C638
102
{ACAD_REACTORS
330
C5A0
102
}
330
C5A0
100
AcDbXrecord
280
     1
102
MATERIAL
148
0.0
149
0.0
149
0.0
 93
        0
 94
      127
282
     0
 72
     0
 77
     0
171
     0
175
     0
179
     0
273
     0
  0
XRECORD
  5
C5A2
102
{ACAD_REACTORS
330
C5A0
102
}
330
C5A0
100
AcDbXrecord
280
     1
270
     1
271
     1
  0
XRECORD
  5
C5A1
102
{ACAD_REACTORS
330
C5A0
102
}
330
C5A0
100
AcDbXrecord
280
     1
270
     1
271
     1
  0
XRECORD
  5
C5A5
102
{ACAD_REACTORS
330
C5A0
102
}
330
C5A0
100
AcDbXrecord
280
     1
270
     1
271
     1
  0
XRECORD
  5
C5A4
102
{ACAD_REACTORS
330
C5A0
102
}
330
C5A0
100
AcDbXrecord
280
     1
270
     1
271
     1
  0
XRECORD
  5
C5A6
102
{ACAD_REACTORS
330
C5A0
102
}
330
C5A0
100
AcDbXrecord
280
     1
270
     1
271
     1
  0
XRECORD
  5
C5A3
102
{ACAD_REACTORS
330
C5A0
102
}
330
C5A0
100
AcDbXrecord
280
     1
270
     1
271
     1
  0
XRECORD
  5
C637
102
{ACAD_REACTORS
330
C598
102
}
330
C598
100
AcDbXrecord
280
     1
102
MATERIAL
148
0.0
149
0.0
149
0.0
 93
        0
 94
      127
282
     0
 72
     0
 77
     0
171
     0
175
     0
179
     0
273
     0
  0
XRECORD
  5
C59A
102
{ACAD_REACTORS
330
C598
102
}
330
C598
100
AcDbXrecord
280
     1
270
     1
271
     1
  0
XRECORD
  5
C599
102
{ACAD_REACTORS
330
C598
102
}
330
C598
100
AcDbXrecord
280
     1
270
     1
271
     1
  0
XRECORD
  5
C59D
102
{ACAD_REACTORS
330
C598
102
}
330
C598
100
AcDbXrecord
280
     1
270
     1
271
     1
  0
XRECORD
  5
C59C
102
{ACAD_REACTORS
330
C598
102
}
330
C598
100
AcDbXrecord
280
     1
270
     1
271
     1
  0
XRECORD
  5
C59E
102
{ACAD_REACTORS
330
C598
102
}
330
C598
100
AcDbXrecord
280
     1
270
     1
271
     1
  0
XRECORD
  5
C59B
102
{ACAD_REACTORS
330
C598
102
}
330
C598
100
AcDbXrecord
280
     1
270
     1
271
     1
  0
XRECORD
  5
C639
102
{ACAD_REACTORS
330
C5A8
102
}
330
C5A8
100
AcDbXrecord
280
     1
102
MATERIAL
148
0.0
149
0.0
149
0.0
 93
        0
 94
      127
282
     0
 72
     0
 77
     0
171
     0
175
     0
179
     0
273
     0
  0
XRECORD
  5
C5AA
102
{ACAD_REACTORS
330
C5A8
102
}
330
C5A8
100
AcDbXrecord
280
     1
270
     1
271
     1
  0
XRECORD
  5
C5A9
102
{ACAD_REACTORS
330
C5A8
102
}
330
C5A8
100
AcDbXrecord
280
     1
270
     1
271
     1
  0
XRECORD
  5
C5AD
102
{ACAD_REACTORS
330
C5A8
102
}
330
C5A8
100
AcDbXrecord
280
     1
270
     1
271
     1
  0
XRECORD
  5
C5AC
102
{ACAD_REACTORS
330
C5A8
102
}
330
C5A8
100
AcDbXrecord
280
     1
270
     1
271
     1
  0
XRECORD
  5
C5AE
102
{ACAD_REACTORS
330
C5A8
102
}
330
C5A8
100
AcDbXrecord
280
     1
270
     1
271
     1
  0
XRECORD
  5
C5AB
102
{ACAD_REACTORS
330
C5A8
102
}
330
C5A8
100
AcDbXrecord
280
     1
270
     1
271
     1
  0
XRECORD
  5
C66D
102
{ACAD_REACTORS
330
C66C
102
}
330
C66C
100
AcDbXrecord
280
     1
102
ACAD_ROUNDTRIP_2012_MLEADER_STYLE
298
     1
  0
XRECORD
  5
C66F
102
{ACAD_REACTORS
330
C66E
102
}
330
C66E
100
AcDbXrecord
280
     1
102
DISPLAYNAME
  1
Metric50
102
FLAGS
 90
        0
  0
CELLSTYLEMAP
  5
C628
102
{ACAD_REACTORS
330
C627
102
}
330
C627
100
AcDbCellStyleMap
 90
        3
300
CELLSTYLE
  1
TABLEFORMAT_BEGIN
 90
        5
170
     1
 91
        0
 92
    32768
 62
   257
 93
        1
300
CONTENTFORMAT
  1
CONTENTFORMAT_BEGIN
 90
        0
 91
        0
 92
      512
 93
        0
300

 40
0.0
140
1.0
 94
        5
 62
     0
340
10
144
6.0
309
CONTENTFORMAT_END
171
     1
301
MARGIN
  1
CELLMARGIN_BEGIN
 40
1.5
 40
1.5
 40
1.5
 40
1.5
 40
4.5
 40
4.5
309
CELLMARGIN_END
 94
        6
 95
        1
302
GRIDFORMAT
  1
GRIDFORMAT_BEGIN
 90
        0
 91
        1
 62
     0
 92
       -2
340
0
 93
        0
 40
1.125
309
GRIDFORMAT_END
 95
        2
302
GRIDFORMAT
  1
GRIDFORMAT_BEGIN
 90
        0
 91
        1
 62
     0
 92
       -2
340
0
 93
        0
 40
1.125
309
GRIDFORMAT_END
 95
        4
302
GRIDFORMAT
  1
GRIDFORMAT_BEGIN
 90
        0
 91
        1
 62
     0
 92
       -2
340
0
 93
        0
 40
1.125
309
GRIDFORMAT_END
 95
        8
302
GRIDFORMAT
  1
GRIDFORMAT_BEGIN
 90
        0
 91
        1
 62
     0
 92
       -2
340
0
 93
        0
 40
1.125
309
GRIDFORMAT_END
 95
       16
302
GRIDFORMAT
  1
GRIDFORMAT_BEGIN
 90
        0
 91
        1
 62
     0
 92
       -2
340
0
 93
        0
 40
1.125
309
GRIDFORMAT_END
 95
       32
302
GRIDFORMAT
  1
GRIDFORMAT_BEGIN
 90
        0
 91
        1
 62
     0
 92
       -2
340
0
 93
        0
 40
1.125
309
GRIDFORMAT_END
309
TABLEFORMAT_END
  1
CELLSTYLE_BEGIN
 90
        1
 91
        1
300
_TITLE
309
CELLSTYLE_END
300
CELLSTYLE
  1
TABLEFORMAT_BEGIN
 90
        5
170
     1
 91
        0
 92
        0
 62
   257
 93
        1
300
CONTENTFORMAT
  1
CONTENTFORMAT_BEGIN
 90
        0
 91
        0
 92
      512
 93
        0
300

 40
0.0
140
1.0
 94
        5
 62
     0
340
10
144
4.5
309
CONTENTFORMAT_END
171
     1
301
MARGIN
  1
CELLMARGIN_BEGIN
 40
1.5
 40
1.5
 40
1.5
 40
1.5
 40
4.5
 40
4.5
309
CELLMARGIN_END
 94
        6
 95
        1
302
GRIDFORMAT
  1
GRIDFORMAT_BEGIN
 90
        0
 91
        1
 62
     0
 92
       -2
340
0
 93
        0
 40
1.125
309
GRIDFORMAT_END
 95
        2
302
GRIDFORMAT
  1
GRIDFORMAT_BEGIN
 90
        0
 91
        1
 62
     0
 92
       -2
340
0
 93
        0
 40
1.125
309
GRIDFORMAT_END
 95
        4
302
GRIDFORMAT
  1
GRIDFORMAT_BEGIN
 90
        0
 91
        1
 62
     0
 92
       -2
340
0
 93
        0
 40
1.125
309
GRIDFORMAT_END
 95
        8
302
GRIDFORMAT
  1
GRIDFORMAT_BEGIN
 90
        0
 91
        1
 62
     0
 92
       -2
340
0
 93
        0
 40
1.125
309
GRIDFORMAT_END
 95
       16
302
GRIDFORMAT
  1
GRIDFORMAT_BEGIN
 90
        0
 91
        1
 62
     0
 92
       -2
340
0
 93
        0
 40
1.125
309
GRIDFORMAT_END
 95
       32
302
GRIDFORMAT
  1
GRIDFORMAT_BEGIN
 90
        0
 91
        1
 62
     0
 92
       -2
340
0
 93
        0
 40
1.125
309
GRIDFORMAT_END
309
TABLEFORMAT_END
  1
CELLSTYLE_BEGIN
 90
        2
 91
        1
300
_HEADER
309
CELLSTYLE_END
300
CELLSTYLE
  1
TABLEFORMAT_BEGIN
 90
        5
170
     1
 91
        0
 92
        0
 62
   257
 93
        1
300
CONTENTFORMAT
  1
CONTENTFORMAT_BEGIN
 90
        0
 91
        0
 92
      512
 93
        0
300

 40
0.0
140
1.0
 94
        2
 62
     0
340
10
144
4.5
309
CONTENTFORMAT_END
171
     1
301
MARGIN
  1
CELLMARGIN_BEGIN
 40
1.5
 40
1.5
 40
1.5
 40
1.5
 40
4.5
 40
4.5
309
CELLMARGIN_END
 94
        6
 95
        1
302
GRIDFORMAT
  1
GRIDFORMAT_BEGIN
 90
        0
 91
        1
 62
     0
 92
       -2
340
0
 93
        0
 40
1.125
309
GRIDFORMAT_END
 95
        2
302
GRIDFORMAT
  1
GRIDFORMAT_BEGIN
 90
        0
 91
        1
 62
     0
 92
       -2
340
0
 93
        0
 40
1.125
309
GRIDFORMAT_END
 95
        4
302
GRIDFORMAT
  1
GRIDFORMAT_BEGIN
 90
        0
 91
        1
 62
     0
 92
       -2
340
0
 93
        0
 40
1.125
309
GRIDFORMAT_END
 95
        8
302
GRIDFORMAT
  1
GRIDFORMAT_BEGIN
 90
        0
 91
        1
 62
     0
 92
       -2
340
0
 93
        0
 40
1.125
309
GRIDFORMAT_END
 95
       16
302
GRIDFORMAT
  1
GRIDFORMAT_BEGIN
 90
        0
 91
        1
 62
     0
 92
       -2
340
0
 93
        0
 40
1.125
309
GRIDFORMAT_END
 95
       32
302
GRIDFORMAT
  1
GRIDFORMAT_BEGIN
 90
        0
 91
        1
 62
     0
 92
       -2
340
0
 93
        0
 40
1.125
309
GRIDFORMAT_END
309
TABLEFORMAT_END
  1
CELLSTYLE_BEGIN
 90
        3
 91
        2
300
_DATA
309
CELLSTYLE_END
  0
XRECORD
  5
C66A
102
{ACAD_REACTORS
330
C627
102
}
330
C627
100
AcDbXrecord
280
     1
102
ACAD_ROUNDTRIP_PRE2007_TABLESTYLE
 90
      512
 91
        0
  1

 92
      512
 93
        0
  2

 94
      512
 95
        0
  3

  0
XRECORD
  5
C645
102
{ACAD_REACTORS
330
C644
102
}
330
C644
100
AcDbXrecord
280
     1
102
RTVSPost2010Prop28
280
     1
102
RTVSPost2010PropOp28
 70
     1
102
RTVSPost2010Prop29
280
     1
102
RTVSPost2010PropOp29
 70
     1
102
RTVSPost2010Prop30
280
     0
102
RTVSPost2010PropOp30
 70
     1
102
RTVSPost2010Prop31
280
     0
102
RTVSPost2010PropOp31
 70
     1
102
RTVSPost2010Prop32
280
     0
102
RTVSPost2010PropOp32
 70
     1
102
RTVSPost2010Prop33
280
     0
102
RTVSPost2010PropOp33
 70
     1
102
RTVSPost2010Prop34
280
     0
102
RTVSPost2010PropOp34
 70
     1
102
RTVSPost2010Prop35
280
     0
102
RTVSPost2010PropOp35
 70
     1
102
RTVSPost2010Prop36
280
     0
102
RTVSPost2010PropOp36
 70
     1
102
RTVSPost2010Prop37
 90
       50
102
RTVSPost2010PropOp37
 70
     1
102
RTVSPost2010Prop38
140
0.0
102
RTVSPost2010PropOp38
 70
     1
102
RTVSPost2010Prop39
140
1.0
102
RTVSPost2010PropOp39
 70
     1
102
RTVSPost2010Prop40
 90
        0
102
RTVSPost2010PropOp40
 70
     1
102
RTVSPost2010Prop41ColorIndex
 90
       18
102
RTVSPost2010Prop41ColorRGB
 90
        0
102
RTVSPost2010PropOp41
 70
     1
102
RTVSPost2010Prop42
 90
       50
102
RTVSPost2010PropOp42
 70
     1
102
RTVSPost2010Prop43
 90
        3
102
RTVSPost2010PropOp43
 70
     1
102
RTVSPost2010Prop44ColorIndex
 90
        5
102
RTVSPost2010Prop44ColorRGB
 90
      255
102
RTVSPost2010PropOp44
 70
     1
102
RTVSPost2010Prop45
280
     0
102
RTVSPost2010PropOp45
 70
     1
102
RTVSPost2010Prop46
 90
       50
102
RTVSPost2010PropOp46
 70
     1
102
RTVSPost2010Prop47
 90
       50
102
RTVSPost2010PropOp47
 70
     1
102
RTVSPost2010Prop48
 90
       50
102
RTVSPost2010PropOp48
 70
     1
102
RTVSPost2010Prop49
280
     0
102
RTVSPost2010PropOp49
 70
     1
102
RTVSPost2010Prop50
 90
       50
102
RTVSPost2010PropOp50
 70
     1
102
RTVSPost2010Prop51ColorIndex
 90
      256
102
RTVSPost2010Prop51ColorRGB
 90
-16777216
102
RTVSPost2010PropOp51
 70
     0
102
RTVSPost2010Prop52
140
1.0
102
RTVSPost2010PropOp52
 70
     0
102
RTVSPost2010Prop53
 90
        2
102
RTVSPost2010PropOp53
 70
     1
102
RTVSPost2010Prop54
  1
strokes_ogs.tif
102
RTVSPost2010PropOp54
 70
     1
102
RTVSPost2010Prop55
280
     0
102
RTVSPost2010PropOp55
 70
     1
102
RTVSPost2010Prop56
140
1.0
102
RTVSPost2010PropOp56
 70
     1
102
RTVSPost2010Prop57
140
1.0
102
RTVSPost2010PropOp57
 70
     1
102
RTVSPropertyOp0
 70
     1
102
RTVSPropertyOp1
 70
     1
102
RTVSPropertyOp2
 70
     1
102
RTVSPropertyOp3
 70
     1
102
RTVSPropertyOp4
 70
     1
102
RTVSPropertyOp5
 70
     1
102
RTVSPropertyOp6
 70
     1
102
RTVSPropertyOp7
 70
     1
102
RTVSPropertyOp8
 70
     1
102
RTVSPropertyOp9
 70
     1
102
RTVSPropertyOp10
 70
     1
102
RTVSPropertyOp11
 70
     1
102
RTVSPropertyOp12
 70
     1
102
RTVSPropertyOp13
 70
     1
102
RTVSPropertyOp14
 70
     1
102
RTVSPropertyOp15
 70
     1
102
RTVSPropertyOp16
 70
     1
102
RTVSPropertyOp17
 70
     1
102
RTVSPropertyOp18
 70
     1
102
RTVSPropertyOp19
 70
     1
102
RTVSPropertyOp20
 70
     1
102
RTVSPropertyOp21
 70
     1
102
RTVSPropertyOp22
 70
     1
102
RTVSPropertyOp23
 70
     1
102
RTVSPropertyOp24
 70
     1
102
RTVSPropertyOp25
 70
     1
102
RTVSPropertyOp26
 70
     1
102
RTVSPropertyOp27
 70
     1
102
RTVSPropertyOp28
 70
     1
102
RTVSPropertyOp29
 70
     1
102
RTVSPropertyOp30
 70
     1
102
RTVSPropertyOp31
 70
     1
102
RTVSPropertyOp32
 70
     1
102
RTVSPropertyOp33
 70
     1
102
RTVSPropertyOp34
 70
     1
102
RTVSPropertyOp35
 70
     1
102
RTVSPropertyOp36
 70
     1
102
RTVSPropertyOp37
 70
     1
102
RTVSPropertyOp38
 70
     1
102
RTVSPropertyOp39
 70
     1
102
RTVSPropertyOp40
 70
     1
102
RTVSPropertyOp41
 70
     1
102
RTVSPropertyOp42
 70
     1
102
RTVSPropertyOp43
 70
     1
102
RTVSPropertyOp44
 70
     1
102
RTVSPropertyOp45
 70
     1
102
RTVSPropertyOp46
 70
     1
102
RTVSPropertyOp47
 70
     1
102
RTVSPropertyOp48
 70
     1
102
RTVSPropertyOp49
 70
     1
102
RTVSPropertyOp50
 70
     1
102
RTVSPropertyOp51
 70
     0
102
RTVSPropertyOp52
 70
     0
102
RTVSPropertyOp53
 70
     1
102
RTVSPropertyOp54
 70
     1
102
RTVSPropertyOp55
 70
     1
102
RTVSPropertyOp56
 70
     1
102
RTVSPropertyOp57
 70
     1
102
RTVSPropertyOp58
 70
     1
102
RTVSPropertyOp59
 70
     1
102
RTVSPropertyOp60
 70
     1
102
RTVSPropertyOp61
 70
     1
102
RTVSPropertyOp62
 70
     1
  0
XRECORD
  5
C643
102
{ACAD_REACTORS
330
C642
102
}
330
C642
100
AcDbXrecord
280
     1
102
RTVSPost2010Prop28
280
     0
102
RTVSPost2010PropOp28
 70
     1
102
RTVSPost2010Prop29
280
     1
102
RTVSPost2010PropOp29
 70
     1
102
RTVSPost2010Prop30
280
     1
102
RTVSPost2010PropOp30
 70
     1
102
RTVSPost2010Prop31
280
     0
102
RTVSPost2010PropOp31
 70
     1
102
RTVSPost2010Prop32
280
     0
102
RTVSPost2010PropOp32
 70
     1
102
RTVSPost2010Prop33
280
     0
102
RTVSPost2010PropOp33
 70
     1
102
RTVSPost2010Prop34
280
     0
102
RTVSPost2010PropOp34
 70
     1
102
RTVSPost2010Prop35
280
     0
102
RTVSPost2010PropOp35
 70
     1
102
RTVSPost2010Prop36
280
     0
102
RTVSPost2010PropOp36
 70
     1
102
RTVSPost2010Prop37
 90
       50
102
RTVSPost2010PropOp37
 70
     1
102
RTVSPost2010Prop38
140
0.0
102
RTVSPost2010PropOp38
 70
     1
102
RTVSPost2010Prop39
140
1.0
102
RTVSPost2010PropOp39
 70
     1
102
RTVSPost2010Prop40
 90
        0
102
RTVSPost2010PropOp40
 70
     1
102
RTVSPost2010Prop41ColorIndex
 90
       18
102
RTVSPost2010Prop41ColorRGB
 90
        0
102
RTVSPost2010PropOp41
 70
     1
102
RTVSPost2010Prop42
 90
       50
102
RTVSPost2010PropOp42
 70
     1
102
RTVSPost2010Prop43
 90
        3
102
RTVSPost2010PropOp43
 70
     1
102
RTVSPost2010Prop44ColorIndex
 90
        5
102
RTVSPost2010Prop44ColorRGB
 90
      255
102
RTVSPost2010PropOp44
 70
     1
102
RTVSPost2010Prop45
280
     0
102
RTVSPost2010PropOp45
 70
     1
102
RTVSPost2010Prop46
 90
       50
102
RTVSPost2010PropOp46
 70
     1
102
RTVSPost2010Prop47
 90
       50
102
RTVSPost2010PropOp47
 70
     1
102
RTVSPost2010Prop48
 90
       50
102
RTVSPost2010PropOp48
 70
     1
102
RTVSPost2010Prop49
280
     0
102
RTVSPost2010PropOp49
 70
     1
102
RTVSPost2010Prop50
 90
       50
102
RTVSPost2010PropOp50
 70
     1
102
RTVSPost2010Prop51ColorIndex
 90
      256
102
RTVSPost2010Prop51ColorRGB
 90
-16777216
102
RTVSPost2010PropOp51
 70
     0
102
RTVSPost2010Prop52
140
1.0
102
RTVSPost2010PropOp52
 70
     0
102
RTVSPost2010Prop53
 90
        2
102
RTVSPost2010PropOp53
 70
     1
102
RTVSPost2010Prop54
  1
strokes_ogs.tif
102
RTVSPost2010PropOp54
 70
     1
102
RTVSPost2010Prop55
280
     0
102
RTVSPost2010PropOp55
 70
     1
102
RTVSPost2010Prop56
140
1.0
102
RTVSPost2010PropOp56
 70
     1
102
RTVSPost2010Prop57
140
1.0
102
RTVSPost2010PropOp57
 70
     1
102
RTVSPropertyOp0
 70
     1
102
RTVSPropertyOp1
 70
     1
102
RTVSPropertyOp2
 70
     1
102
RTVSPropertyOp3
 70
     1
102
RTVSPropertyOp4
 70
     1
102
RTVSPropertyOp5
 70
     1
102
RTVSPropertyOp6
 70
     1
102
RTVSPropertyOp7
 70
     1
102
RTVSPropertyOp8
 70
     1
102
RTVSPropertyOp9
 70
     1
102
RTVSPropertyOp10
 70
     1
102
RTVSPropertyOp11
 70
     1
102
RTVSPropertyOp12
 70
     1
102
RTVSPropertyOp13
 70
     1
102
RTVSPropertyOp14
 70
     1
102
RTVSPropertyOp15
 70
     1
102
RTVSPropertyOp16
 70
     1
102
RTVSPropertyOp17
 70
     1
102
RTVSPropertyOp18
 70
     1
102
RTVSPropertyOp19
 70
     1
102
RTVSPropertyOp20
 70
     1
102
RTVSPropertyOp21
 70
     1
102
RTVSPropertyOp22
 70
     1
102
RTVSPropertyOp23
 70
     1
102
RTVSPropertyOp24
 70
     1
102
RTVSPropertyOp25
 70
     1
102
RTVSPropertyOp26
 70
     1
102
RTVSPropertyOp27
 70
     1
102
RTVSPropertyOp28
 70
     1
102
RTVSPropertyOp29
 70
     1
102
RTVSPropertyOp30
 70
     1
102
RTVSPropertyOp31
 70
     1
102
RTVSPropertyOp32
 70
     1
102
RTVSPropertyOp33
 70
     1
102
RTVSPropertyOp34
 70
     1
102
RTVSPropertyOp35
 70
     1
102
RTVSPropertyOp36
 70
     1
102
RTVSPropertyOp37
 70
     1
102
RTVSPropertyOp38
 70
     1
102
RTVSPropertyOp39
 70
     1
102
RTVSPropertyOp40
 70
     1
102
RTVSPropertyOp41
 70
     1
102
RTVSPropertyOp42
 70
     1
102
RTVSPropertyOp43
 70
     1
102
RTVSPropertyOp44
 70
     1
102
RTVSPropertyOp45
 70
     1
102
RTVSPropertyOp46
 70
     1
102
RTVSPropertyOp47
 70
     1
102
RTVSPropertyOp48
 70
     1
102
RTVSPropertyOp49
 70
     1
102
RTVSPropertyOp50
 70
     1
102
RTVSPropertyOp51
 70
     0
102
RTVSPropertyOp52
 70
     0
102
RTVSPropertyOp53
 70
     1
102
RTVSPropertyOp54
 70
     1
102
RTVSPropertyOp55
 70
     1
102
RTVSPropertyOp56
 70
     1
102
RTVSPropertyOp57
 70
     1
102
RTVSPropertyOp58
 70
     1
102
RTVSPropertyOp59
 70
     1
102
RTVSPropertyOp60
 70
     1
102
RTVSPropertyOp61
 70
     1
102
RTVSPropertyOp62
 70
     1
  0
XRECORD
  5
C651
102
{ACAD_REACTORS
330
C650
102
}
330
C650
100
AcDbXrecord
280
     1
102
RTVSPost2010Prop28
280
     0
102
RTVSPost2010PropOp28
 70
     1
102
RTVSPost2010Prop29
280
     1
102
RTVSPost2010PropOp29
 70
     1
102
RTVSPost2010Prop30
280
     1
102
RTVSPost2010PropOp30
 70
     1
102
RTVSPost2010Prop31
280
     0
102
RTVSPost2010PropOp31
 70
     1
102
RTVSPost2010Prop32
280
     0
102
RTVSPost2010PropOp32
 70
     1
102
RTVSPost2010Prop33
280
     0
102
RTVSPost2010PropOp33
 70
     1
102
RTVSPost2010Prop34
280
     0
102
RTVSPost2010PropOp34
 70
     1
102
RTVSPost2010Prop35
280
     0
102
RTVSPost2010PropOp35
 70
     1
102
RTVSPost2010Prop36
280
     0
102
RTVSPost2010PropOp36
 70
     1
102
RTVSPost2010Prop37
 90
       50
102
RTVSPost2010PropOp37
 70
     1
102
RTVSPost2010Prop38
140
0.0
102
RTVSPost2010PropOp38
 70
     1
102
RTVSPost2010Prop39
140
1.0
102
RTVSPost2010PropOp39
 70
     1
102
RTVSPost2010Prop40
 90
        0
102
RTVSPost2010PropOp40
 70
     1
102
RTVSPost2010Prop41ColorIndex
 90
       18
102
RTVSPost2010Prop41ColorRGB
 90
        0
102
RTVSPost2010PropOp41
 70
     1
102
RTVSPost2010Prop42
 90
       50
102
RTVSPost2010PropOp42
 70
     1
102
RTVSPost2010Prop43
 90
        3
102
RTVSPost2010PropOp43
 70
     1
102
RTVSPost2010Prop44ColorIndex
 90
        5
102
RTVSPost2010Prop44ColorRGB
 90
      255
102
RTVSPost2010PropOp44
 70
     1
102
RTVSPost2010Prop45
280
     0
102
RTVSPost2010PropOp45
 70
     1
102
RTVSPost2010Prop46
 90
       50
102
RTVSPost2010PropOp46
 70
     1
102
RTVSPost2010Prop47
 90
       50
102
RTVSPost2010PropOp47
 70
     1
102
RTVSPost2010Prop48
 90
       50
102
RTVSPost2010PropOp48
 70
     1
102
RTVSPost2010Prop49
280
     0
102
RTVSPost2010PropOp49
 70
     1
102
RTVSPost2010Prop50
 90
       50
102
RTVSPost2010PropOp50
 70
     1
102
RTVSPost2010Prop51ColorIndex
 90
      256
102
RTVSPost2010Prop51ColorRGB
 90
-16777216
102
RTVSPost2010PropOp51
 70
     0
102
RTVSPost2010Prop52
140
1.0
102
RTVSPost2010PropOp52
 70
     0
102
RTVSPost2010Prop53
 90
        2
102
RTVSPost2010PropOp53
 70
     1
102
RTVSPost2010Prop54
  1
strokes_ogs.tif
102
RTVSPost2010PropOp54
 70
     1
102
RTVSPost2010Prop55
280
     0
102
RTVSPost2010PropOp55
 70
     1
102
RTVSPost2010Prop56
140
1.0
102
RTVSPost2010PropOp56
 70
     1
102
RTVSPost2010Prop57
140
1.0
102
RTVSPost2010PropOp57
 70
     1
102
RTVSPropertyOp0
 70
     1
102
RTVSPropertyOp1
 70
     1
102
RTVSPropertyOp2
 70
     1
102
RTVSPropertyOp3
 70
     1
102
RTVSPropertyOp4
 70
     1
102
RTVSPropertyOp5
 70
     1
102
RTVSPropertyOp6
 70
     1
102
RTVSPropertyOp7
 70
     1
102
RTVSPropertyOp8
 70
     1
102
RTVSPropertyOp9
 70
     1
102
RTVSPropertyOp10
 70
     1
102
RTVSPropertyOp11
 70
     1
102
RTVSPropertyOp12
 70
     1
102
RTVSPropertyOp13
 70
     1
102
RTVSPropertyOp14
 70
     1
102
RTVSPropertyOp15
 70
     1
102
RTVSPropertyOp16
 70
     1
102
RTVSPropertyOp17
 70
     1
102
RTVSPropertyOp18
 70
     1
102
RTVSPropertyOp19
 70
     1
102
RTVSPropertyOp20
 70
     1
102
RTVSPropertyOp21
 70
     1
102
RTVSPropertyOp22
 70
     1
102
RTVSPropertyOp23
 70
     1
102
RTVSPropertyOp24
 70
     1
102
RTVSPropertyOp25
 70
     1
102
RTVSPropertyOp26
 70
     1
102
RTVSPropertyOp27
 70
     1
102
RTVSPropertyOp28
 70
     1
102
RTVSPropertyOp29
 70
     1
102
RTVSPropertyOp30
 70
     1
102
RTVSPropertyOp31
 70
     1
102
RTVSPropertyOp32
 70
     1
102
RTVSPropertyOp33
 70
     1
102
RTVSPropertyOp34
 70
     1
102
RTVSPropertyOp35
 70
     1
102
RTVSPropertyOp36
 70
     1
102
RTVSPropertyOp37
 70
     1
102
RTVSPropertyOp38
 70
     1
102
RTVSPropertyOp39
 70
     1
102
RTVSPropertyOp40
 70
     1
102
RTVSPropertyOp41
 70
     1
102
RTVSPropertyOp42
 70
     1
102
RTVSPropertyOp43
 70
     1
102
RTVSPropertyOp44
 70
     1
102
RTVSPropertyOp45
 70
     1
102
RTVSPropertyOp46
 70
     1
102
RTVSPropertyOp47
 70
     1
102
RTVSPropertyOp48
 70
     1
102
RTVSPropertyOp49
 70
     1
102
RTVSPropertyOp50
 70
     1
102
RTVSPropertyOp51
 70
     0
102
RTVSPropertyOp52
 70
     0
102
RTVSPropertyOp53
 70
     1
102
RTVSPropertyOp54
 70
     1
102
RTVSPropertyOp55
 70
     1
102
RTVSPropertyOp56
 70
     1
102
RTVSPropertyOp57
 70
     1
102
RTVSPropertyOp58
 70
     1
102
RTVSPropertyOp59
 70
     1
102
RTVSPropertyOp60
 70
     1
102
RTVSPropertyOp61
 70
     1
102
RTVSPropertyOp62
 70
     1
  0
XRECORD
  5
C659
102
{ACAD_REACTORS
330
C658
102
}
330
C658
100
AcDbXrecord
280
     1
102
RTVSPost2010Prop28
280
     0
102
RTVSPost2010PropOp28
 70
     1
102
RTVSPost2010Prop29
280
     1
102
RTVSPost2010PropOp29
 70
     1
102
RTVSPost2010Prop30
280
     1
102
RTVSPost2010PropOp30
 70
     1
102
RTVSPost2010Prop31
280
     0
102
RTVSPost2010PropOp31
 70
     1
102
RTVSPost2010Prop32
280
     0
102
RTVSPost2010PropOp32
 70
     1
102
RTVSPost2010Prop33
280
     0
102
RTVSPost2010PropOp33
 70
     1
102
RTVSPost2010Prop34
280
     0
102
RTVSPost2010PropOp34
 70
     1
102
RTVSPost2010Prop35
280
     0
102
RTVSPost2010PropOp35
 70
     1
102
RTVSPost2010Prop36
280
     0
102
RTVSPost2010PropOp36
 70
     1
102
RTVSPost2010Prop37
 90
       50
102
RTVSPost2010PropOp37
 70
     1
102
RTVSPost2010Prop38
140
0.0
102
RTVSPost2010PropOp38
 70
     1
102
RTVSPost2010Prop39
140
1.0
102
RTVSPost2010PropOp39
 70
     1
102
RTVSPost2010Prop40
 90
        0
102
RTVSPost2010PropOp40
 70
     1
102
RTVSPost2010Prop41ColorIndex
 90
       18
102
RTVSPost2010Prop41ColorRGB
 90
        0
102
RTVSPost2010PropOp41
 70
     1
102
RTVSPost2010Prop42
 90
       50
102
RTVSPost2010PropOp42
 70
     1
102
RTVSPost2010Prop43
 90
        3
102
RTVSPost2010PropOp43
 70
     1
102
RTVSPost2010Prop44ColorIndex
 90
        5
102
RTVSPost2010Prop44ColorRGB
 90
      255
102
RTVSPost2010PropOp44
 70
     1
102
RTVSPost2010Prop45
280
     0
102
RTVSPost2010PropOp45
 70
     1
102
RTVSPost2010Prop46
 90
       50
102
RTVSPost2010PropOp46
 70
     1
102
RTVSPost2010Prop47
 90
       50
102
RTVSPost2010PropOp47
 70
     1
102
RTVSPost2010Prop48
 90
       50
102
RTVSPost2010PropOp48
 70
     1
102
RTVSPost2010Prop49
280
     0
102
RTVSPost2010PropOp49
 70
     1
102
RTVSPost2010Prop50
 90
       50
102
RTVSPost2010PropOp50
 70
     1
102
RTVSPost2010Prop51ColorIndex
 90
      256
102
RTVSPost2010Prop51ColorRGB
 90
-16777216
102
RTVSPost2010PropOp51
 70
     0
102
RTVSPost2010Prop52
140
1.0
102
RTVSPost2010PropOp52
 70
     0
102
RTVSPost2010Prop53
 90
        2
102
RTVSPost2010PropOp53
 70
     1
102
RTVSPost2010Prop54
  1
strokes_ogs.tif
102
RTVSPost2010PropOp54
 70
     1
102
RTVSPost2010Prop55
280
     0
102
RTVSPost2010PropOp55
 70
     1
102
RTVSPost2010Prop56
140
1.0
102
RTVSPost2010PropOp56
 70
     1
102
RTVSPost2010Prop57
140
1.0
102
RTVSPost2010PropOp57
 70
     1
102
RTVSPropertyOp0
 70
     1
102
RTVSPropertyOp1
 70
     1
102
RTVSPropertyOp2
 70
     1
102
RTVSPropertyOp3
 70
     1
102
RTVSPropertyOp4
 70
     1
102
RTVSPropertyOp5
 70
     1
102
RTVSPropertyOp6
 70
     1
102
RTVSPropertyOp7
 70
     1
102
RTVSPropertyOp8
 70
     1
102
RTVSPropertyOp9
 70
     1
102
RTVSPropertyOp10
 70
     1
102
RTVSPropertyOp11
 70
     1
102
RTVSPropertyOp12
 70
     1
102
RTVSPropertyOp13
 70
     1
102
RTVSPropertyOp14
 70
     1
102
RTVSPropertyOp15
 70
     1
102
RTVSPropertyOp16
 70
     1
102
RTVSPropertyOp17
 70
     1
102
RTVSPropertyOp18
 70
     1
102
RTVSPropertyOp19
 70
     1
102
RTVSPropertyOp20
 70
     1
102
RTVSPropertyOp21
 70
     1
102
RTVSPropertyOp22
 70
     1
102
RTVSPropertyOp23
 70
     1
102
RTVSPropertyOp24
 70
     1
102
RTVSPropertyOp25
 70
     1
102
RTVSPropertyOp26
 70
     1
102
RTVSPropertyOp27
 70
     1
102
RTVSPropertyOp28
 70
     1
102
RTVSPropertyOp29
 70
     1
102
RTVSPropertyOp30
 70
     1
102
RTVSPropertyOp31
 70
     1
102
RTVSPropertyOp32
 70
     1
102
RTVSPropertyOp33
 70
     1
102
RTVSPropertyOp34
 70
     1
102
RTVSPropertyOp35
 70
     1
102
RTVSPropertyOp36
 70
     1
102
RTVSPropertyOp37
 70
     1
102
RTVSPropertyOp38
 70
     1
102
RTVSPropertyOp39
 70
     1
102
RTVSPropertyOp40
 70
     1
102
RTVSPropertyOp41
 70
     1
102
RTVSPropertyOp42
 70
     1
102
RTVSPropertyOp43
 70
     1
102
RTVSPropertyOp44
 70
     1
102
RTVSPropertyOp45
 70
     1
102
RTVSPropertyOp46
 70
     1
102
RTVSPropertyOp47
 70
     1
102
RTVSPropertyOp48
 70
     1
102
RTVSPropertyOp49
 70
     1
102
RTVSPropertyOp50
 70
     1
102
RTVSPropertyOp51
 70
     0
102
RTVSPropertyOp52
 70
     0
102
RTVSPropertyOp53
 70
     1
102
RTVSPropertyOp54
 70
     1
102
RTVSPropertyOp55
 70
     1
102
RTVSPropertyOp56
 70
     1
102
RTVSPropertyOp57
 70
     1
102
RTVSPropertyOp58
 70
     1
102
RTVSPropertyOp59
 70
     1
102
RTVSPropertyOp60
 70
     1
102
RTVSPropertyOp61
 70
     1
102
RTVSPropertyOp62
 70
     1
  0
XRECORD
  5
C64B
102
{ACAD_REACTORS
330
C64A
102
}
330
C64A
100
AcDbXrecord
280
     1
102
RTVSPost2010Prop28
280
     0
102
RTVSPost2010PropOp28
 70
     1
102
RTVSPost2010Prop29
280
     1
102
RTVSPost2010PropOp29
 70
     1
102
RTVSPost2010Prop30
280
     1
102
RTVSPost2010PropOp30
 70
     1
102
RTVSPost2010Prop31
280
     0
102
RTVSPost2010PropOp31
 70
     1
102
RTVSPost2010Prop32
280
     0
102
RTVSPost2010PropOp32
 70
     1
102
RTVSPost2010Prop33
280
     0
102
RTVSPost2010PropOp33
 70
     1
102
RTVSPost2010Prop34
280
     0
102
RTVSPost2010PropOp34
 70
     1
102
RTVSPost2010Prop35
280
     0
102
RTVSPost2010PropOp35
 70
     1
102
RTVSPost2010Prop36
280
     0
102
RTVSPost2010PropOp36
 70
     1
102
RTVSPost2010Prop37
 90
       50
102
RTVSPost2010PropOp37
 70
     1
102
RTVSPost2010Prop38
140
0.0
102
RTVSPost2010PropOp38
 70
     1
102
RTVSPost2010Prop39
140
1.0
102
RTVSPost2010PropOp39
 70
     1
102
RTVSPost2010Prop40
 90
        0
102
RTVSPost2010PropOp40
 70
     1
102
RTVSPost2010Prop41ColorIndex
 90
       18
102
RTVSPost2010Prop41ColorRGB
 90
        0
102
RTVSPost2010PropOp41
 70
     1
102
RTVSPost2010Prop42
 90
       50
102
RTVSPost2010PropOp42
 70
     1
102
RTVSPost2010Prop43
 90
        3
102
RTVSPost2010PropOp43
 70
     1
102
RTVSPost2010Prop44ColorIndex
 90
        5
102
RTVSPost2010Prop44ColorRGB
 90
      255
102
RTVSPost2010PropOp44
 70
     1
102
RTVSPost2010Prop45
280
     0
102
RTVSPost2010PropOp45
 70
     1
102
RTVSPost2010Prop46
 90
       50
102
RTVSPost2010PropOp46
 70
     1
102
RTVSPost2010Prop47
 90
       50
102
RTVSPost2010PropOp47
 70
     1
102
RTVSPost2010Prop48
 90
       50
102
RTVSPost2010PropOp48
 70
     1
102
RTVSPost2010Prop49
280
     0
102
RTVSPost2010PropOp49
 70
     1
102
RTVSPost2010Prop50
 90
       50
102
RTVSPost2010PropOp50
 70
     1
102
RTVSPost2010Prop51ColorIndex
 90
      256
102
RTVSPost2010Prop51ColorRGB
 90
-16777216
102
RTVSPost2010PropOp51
 70
     0
102
RTVSPost2010Prop52
140
1.0
102
RTVSPost2010PropOp52
 70
     0
102
RTVSPost2010Prop53
 90
        2
102
RTVSPost2010PropOp53
 70
     1
102
RTVSPost2010Prop54
  1
strokes_ogs.tif
102
RTVSPost2010PropOp54
 70
     1
102
RTVSPost2010Prop55
280
     0
102
RTVSPost2010PropOp55
 70
     1
102
RTVSPost2010Prop56
140
1.0
102
RTVSPost2010PropOp56
 70
     1
102
RTVSPost2010Prop57
140
1.0
102
RTVSPost2010PropOp57
 70
     1
102
RTVSPropertyOp0
 70
     1
102
RTVSPropertyOp1
 70
     1
102
RTVSPropertyOp2
 70
     1
102
RTVSPropertyOp3
 70
     1
102
RTVSPropertyOp4
 70
     1
102
RTVSPropertyOp5
 70
     1
102
RTVSPropertyOp6
 70
     1
102
RTVSPropertyOp7
 70
     1
102
RTVSPropertyOp8
 70
     1
102
RTVSPropertyOp9
 70
     1
102
RTVSPropertyOp10
 70
     1
102
RTVSPropertyOp11
 70
     1
102
RTVSPropertyOp12
 70
     1
102
RTVSPropertyOp13
 70
     1
102
RTVSPropertyOp14
 70
     1
102
RTVSPropertyOp15
 70
     1
102
RTVSPropertyOp16
 70
     1
102
RTVSPropertyOp17
 70
     1
102
RTVSPropertyOp18
 70
     1
102
RTVSPropertyOp19
 70
     1
102
RTVSPropertyOp20
 70
     1
102
RTVSPropertyOp21
 70
     1
102
RTVSPropertyOp22
 70
     1
102
RTVSPropertyOp23
 70
     1
102
RTVSPropertyOp24
 70
     1
102
RTVSPropertyOp25
 70
     1
102
RTVSPropertyOp26
 70
     1
102
RTVSPropertyOp27
 70
     1
102
RTVSPropertyOp28
 70
     1
102
RTVSPropertyOp29
 70
     1
102
RTVSPropertyOp30
 70
     1
102
RTVSPropertyOp31
 70
     1
102
RTVSPropertyOp32
 70
     1
102
RTVSPropertyOp33
 70
     1
102
RTVSPropertyOp34
 70
     1
102
RTVSPropertyOp35
 70
     1
102
RTVSPropertyOp36
 70
     1
102
RTVSPropertyOp37
 70
     1
102
RTVSPropertyOp38
 70
     1
102
RTVSPropertyOp39
 70
     1
102
RTVSPropertyOp40
 70
     1
102
RTVSPropertyOp41
 70
     1
102
RTVSPropertyOp42
 70
     1
102
RTVSPropertyOp43
 70
     1
102
RTVSPropertyOp44
 70
     1
102
RTVSPropertyOp45
 70
     1
102
RTVSPropertyOp46
 70
     1
102
RTVSPropertyOp47
 70
     1
102
RTVSPropertyOp48
 70
     1
102
RTVSPropertyOp49
 70
     1
102
RTVSPropertyOp50
 70
     1
102
RTVSPropertyOp51
 70
     0
102
RTVSPropertyOp52
 70
     0
102
RTVSPropertyOp53
 70
     1
102
RTVSPropertyOp54
 70
     1
102
RTVSPropertyOp55
 70
     1
102
RTVSPropertyOp56
 70
     1
102
RTVSPropertyOp57
 70
     1
102
RTVSPropertyOp58
 70
     1
102
RTVSPropertyOp59
 70
     1
102
RTVSPropertyOp60
 70
     1
102
RTVSPropertyOp61
 70
     1
102
RTVSPropertyOp62
 70
     1
  0
XRECORD
  5
C64F
102
{ACAD_REACTORS
330
C64E
102
}
330
C64E
100
AcDbXrecord
280
     1
102
RTVSPost2010Prop28
280
     0
102
RTVSPost2010PropOp28
 70
     1
102
RTVSPost2010Prop29
280
     1
102
RTVSPost2010PropOp29
 70
     1
102
RTVSPost2010Prop30
280
     1
102
RTVSPost2010PropOp30
 70
     1
102
RTVSPost2010Prop31
280
     0
102
RTVSPost2010PropOp31
 70
     1
102
RTVSPost2010Prop32
280
     0
102
RTVSPost2010PropOp32
 70
     1
102
RTVSPost2010Prop33
280
     0
102
RTVSPost2010PropOp33
 70
     1
102
RTVSPost2010Prop34
280
     0
102
RTVSPost2010PropOp34
 70
     1
102
RTVSPost2010Prop35
280
     0
102
RTVSPost2010PropOp35
 70
     1
102
RTVSPost2010Prop36
280
     0
102
RTVSPost2010PropOp36
 70
     1
102
RTVSPost2010Prop37
 90
       50
102
RTVSPost2010PropOp37
 70
     1
102
RTVSPost2010Prop38
140
0.0
102
RTVSPost2010PropOp38
 70
     1
102
RTVSPost2010Prop39
140
1.0
102
RTVSPost2010PropOp39
 70
     1
102
RTVSPost2010Prop40
 90
        0
102
RTVSPost2010PropOp40
 70
     1
102
RTVSPost2010Prop41ColorIndex
 90
       18
102
RTVSPost2010Prop41ColorRGB
 90
        0
102
RTVSPost2010PropOp41
 70
     1
102
RTVSPost2010Prop42
 90
       50
102
RTVSPost2010PropOp42
 70
     1
102
RTVSPost2010Prop43
 90
        3
102
RTVSPost2010PropOp43
 70
     1
102
RTVSPost2010Prop44ColorIndex
 90
        5
102
RTVSPost2010Prop44ColorRGB
 90
      255
102
RTVSPost2010PropOp44
 70
     1
102
RTVSPost2010Prop45
280
     0
102
RTVSPost2010PropOp45
 70
     1
102
RTVSPost2010Prop46
 90
       50
102
RTVSPost2010PropOp46
 70
     1
102
RTVSPost2010Prop47
 90
       50
102
RTVSPost2010PropOp47
 70
     1
102
RTVSPost2010Prop48
 90
       50
102
RTVSPost2010PropOp48
 70
     1
102
RTVSPost2010Prop49
280
     0
102
RTVSPost2010PropOp49
 70
     1
102
RTVSPost2010Prop50
 90
       50
102
RTVSPost2010PropOp50
 70
     1
102
RTVSPost2010Prop51ColorIndex
 90
      256
102
RTVSPost2010Prop51ColorRGB
 90
-16777216
102
RTVSPost2010PropOp51
 70
     0
102
RTVSPost2010Prop52
140
1.0
102
RTVSPost2010PropOp52
 70
     0
102
RTVSPost2010Prop53
 90
        2
102
RTVSPost2010PropOp53
 70
     1
102
RTVSPost2010Prop54
  1
strokes_ogs.tif
102
RTVSPost2010PropOp54
 70
     1
102
RTVSPost2010Prop55
280
     0
102
RTVSPost2010PropOp55
 70
     1
102
RTVSPost2010Prop56
140
1.0
102
RTVSPost2010PropOp56
 70
     1
102
RTVSPost2010Prop57
140
1.0
102
RTVSPost2010PropOp57
 70
     1
102
RTVSPropertyOp0
 70
     1
102
RTVSPropertyOp1
 70
     1
102
RTVSPropertyOp2
 70
     1
102
RTVSPropertyOp3
 70
     1
102
RTVSPropertyOp4
 70
     1
102
RTVSPropertyOp5
 70
     1
102
RTVSPropertyOp6
 70
     1
102
RTVSPropertyOp7
 70
     1
102
RTVSPropertyOp8
 70
     1
102
RTVSPropertyOp9
 70
     1
102
RTVSPropertyOp10
 70
     1
102
RTVSPropertyOp11
 70
     1
102
RTVSPropertyOp12
 70
     1
102
RTVSPropertyOp13
 70
     1
102
RTVSPropertyOp14
 70
     1
102
RTVSPropertyOp15
 70
     1
102
RTVSPropertyOp16
 70
     1
102
RTVSPropertyOp17
 70
     1
102
RTVSPropertyOp18
 70
     1
102
RTVSPropertyOp19
 70
     1
102
RTVSPropertyOp20
 70
     1
102
RTVSPropertyOp21
 70
     1
102
RTVSPropertyOp22
 70
     1
102
RTVSPropertyOp23
 70
     1
102
RTVSPropertyOp24
 70
     1
102
RTVSPropertyOp25
 70
     1
102
RTVSPropertyOp26
 70
     1
102
RTVSPropertyOp27
 70
     1
102
RTVSPropertyOp28
 70
     1
102
RTVSPropertyOp29
 70
     1
102
RTVSPropertyOp30
 70
     1
102
RTVSPropertyOp31
 70
     1
102
RTVSPropertyOp32
 70
     1
102
RTVSPropertyOp33
 70
     1
102
RTVSPropertyOp34
 70
     1
102
RTVSPropertyOp35
 70
     1
102
RTVSPropertyOp36
 70
     1
102
RTVSPropertyOp37
 70
     1
102
RTVSPropertyOp38
 70
     1
102
RTVSPropertyOp39
 70
     1
102
RTVSPropertyOp40
 70
     1
102
RTVSPropertyOp41
 70
     1
102
RTVSPropertyOp42
 70
     1
102
RTVSPropertyOp43
 70
     1
102
RTVSPropertyOp44
 70
     1
102
RTVSPropertyOp45
 70
     1
102
RTVSPropertyOp46
 70
     1
102
RTVSPropertyOp47
 70
     1
102
RTVSPropertyOp48
 70
     1
102
RTVSPropertyOp49
 70
     1
102
RTVSPropertyOp50
 70
     1
102
RTVSPropertyOp51
 70
     0
102
RTVSPropertyOp52
 70
     0
102
RTVSPropertyOp53
 70
     1
102
RTVSPropertyOp54
 70
     1
102
RTVSPropertyOp55
 70
     1
102
RTVSPropertyOp56
 70
     1
102
RTVSPropertyOp57
 70
     1
102
RTVSPropertyOp58
 70
     1
102
RTVSPropertyOp59
 70
     1
102
RTVSPropertyOp60
 70
     1
102
RTVSPropertyOp61
 70
     1
102
RTVSPropertyOp62
 70
     1
  0
XRECORD
  5
C669
102
{ACAD_REACTORS
330
C668
102
}
330
C668
100
AcDbXrecord
280
     1
102
RTVSPost2010Prop28
280
     0
102
RTVSPost2010PropOp28
 70
     0
102
RTVSPost2010Prop29
280
     1
102
RTVSPost2010PropOp29
 70
     0
102
RTVSPost2010Prop30
280
     1
102
RTVSPost2010PropOp30
 70
     0
102
RTVSPost2010Prop31
280
     0
102
RTVSPost2010PropOp31
 70
     0
102
RTVSPost2010Prop32
280
     0
102
RTVSPost2010PropOp32
 70
     0
102
RTVSPost2010Prop33
280
     0
102
RTVSPost2010PropOp33
 70
     0
102
RTVSPost2010Prop34
280
     0
102
RTVSPost2010PropOp34
 70
     0
102
RTVSPost2010Prop35
280
     0
102
RTVSPost2010PropOp35
 70
     0
102
RTVSPost2010Prop36
280
     0
102
RTVSPost2010PropOp36
 70
     0
102
RTVSPost2010Prop37
 90
       50
102
RTVSPost2010PropOp37
 70
     0
102
RTVSPost2010Prop38
140
0.0
102
RTVSPost2010PropOp38
 70
     0
102
RTVSPost2010Prop39
140
1.0
102
RTVSPost2010PropOp39
 70
     0
102
RTVSPost2010Prop40
 90
        0
102
RTVSPost2010PropOp40
 70
     0
102
RTVSPost2010Prop41ColorIndex
 90
       18
102
RTVSPost2010Prop41ColorRGB
 90
        0
102
RTVSPost2010PropOp41
 70
     0
102
RTVSPost2010Prop42
 90
       50
102
RTVSPost2010PropOp42
 70
     0
102
RTVSPost2010Prop43
 90
        3
102
RTVSPost2010PropOp43
 70
     0
102
RTVSPost2010Prop44ColorIndex
 90
        5
102
RTVSPost2010Prop44ColorRGB
 90
      255
102
RTVSPost2010PropOp44
 70
     0
102
RTVSPost2010Prop45
280
     0
102
RTVSPost2010PropOp45
 70
     0
102
RTVSPost2010Prop46
 90
       50
102
RTVSPost2010PropOp46
 70
     0
102
RTVSPost2010Prop47
 90
       50
102
RTVSPost2010PropOp47
 70
     0
102
RTVSPost2010Prop48
 90
       50
102
RTVSPost2010PropOp48
 70
     0
102
RTVSPost2010Prop49
280
     0
102
RTVSPost2010PropOp49
 70
     0
102
RTVSPost2010Prop50
 90
       50
102
RTVSPost2010PropOp50
 70
     0
102
RTVSPost2010Prop51ColorIndex
 90
      256
102
RTVSPost2010Prop51ColorRGB
 90
-16777216
102
RTVSPost2010PropOp51
 70
     0
102
RTVSPost2010Prop52
140
1.0
102
RTVSPost2010PropOp52
 70
     0
102
RTVSPost2010Prop53
 90
        2
102
RTVSPost2010PropOp53
 70
     0
102
RTVSPost2010Prop54
  1
strokes_ogs.tif
102
RTVSPost2010PropOp54
 70
     0
102
RTVSPost2010Prop55
280
     0
102
RTVSPost2010PropOp55
 70
     0
102
RTVSPost2010Prop56
140
1.0
102
RTVSPost2010PropOp56
 70
     0
102
RTVSPost2010Prop57
140
1.0
102
RTVSPost2010PropOp57
 70
     0
102
RTVSPropertyOp0
 70
     0
102
RTVSPropertyOp1
 70
     0
102
RTVSPropertyOp2
 70
     0
102
RTVSPropertyOp3
 70
     0
102
RTVSPropertyOp4
 70
     0
102
RTVSPropertyOp5
 70
     0
102
RTVSPropertyOp6
 70
     0
102
RTVSPropertyOp7
 70
     0
102
RTVSPropertyOp8
 70
     0
102
RTVSPropertyOp9
 70
     0
102
RTVSPropertyOp10
 70
     0
102
RTVSPropertyOp11
 70
     0
102
RTVSPropertyOp12
 70
     0
102
RTVSPropertyOp13
 70
     0
102
RTVSPropertyOp14
 70
     2
102
RTVSPropertyOp15
 70
     0
102
RTVSPropertyOp16
 70
     0
102
RTVSPropertyOp17
 70
     0
102
RTVSPropertyOp18
 70
     0
102
RTVSPropertyOp19
 70
     0
102
RTVSPropertyOp20
 70
     0
102
RTVSPropertyOp21
 70
     0
102
RTVSPropertyOp22
 70
     0
102
RTVSPropertyOp23
 70
     0
102
RTVSPropertyOp24
 70
     0
102
RTVSPropertyOp25
 70
     0
102
RTVSPropertyOp26
 70
     0
102
RTVSPropertyOp27
 70
     0
102
RTVSPropertyOp28
 70
     0
102
RTVSPropertyOp29
 70
     0
102
RTVSPropertyOp30
 70
     0
102
RTVSPropertyOp31
 70
     0
102
RTVSPropertyOp32
 70
     0
102
RTVSPropertyOp33
 70
     0
102
RTVSPropertyOp34
 70
     0
102
RTVSPropertyOp35
 70
     0
102
RTVSPropertyOp36
 70
     0
102
RTVSPropertyOp37
 70
     0
102
RTVSPropertyOp38
 70
     0
102
RTVSPropertyOp39
 70
     0
102
RTVSPropertyOp40
 70
     0
102
RTVSPropertyOp41
 70
     0
102
RTVSPropertyOp42
 70
     0
102
RTVSPropertyOp43
 70
     0
102
RTVSPropertyOp44
 70
     0
102
RTVSPropertyOp45
 70
     0
102
RTVSPropertyOp46
 70
     0
102
RTVSPropertyOp47
 70
     0
102
RTVSPropertyOp48
 70
     0
102
RTVSPropertyOp49
 70
     0
102
RTVSPropertyOp50
 70
     0
102
RTVSPropertyOp51
 70
     0
102
RTVSPropertyOp52
 70
     0
102
RTVSPropertyOp53
 70
     0
102
RTVSPropertyOp54
 70
     0
102
RTVSPropertyOp55
 70
     0
102
RTVSPropertyOp56
 70
     0
102
RTVSPropertyOp57
 70
     0
102
RTVSPropertyOp58
 70
     1
102
RTVSPropertyOp59
 70
     1
102
RTVSPropertyOp60
 70
     1
102
RTVSPropertyOp61
 70
     1
102
RTVSPropertyOp62
 70
     1
  0
XRECORD
  5
C657
102
{ACAD_REACTORS
330
C656
102
}
330
C656
100
AcDbXrecord
280
     1
102
RTVSPost2010Prop28
280
     0
102
RTVSPost2010PropOp28
 70
     1
102
RTVSPost2010Prop29
280
     1
102
RTVSPost2010PropOp29
 70
     1
102
RTVSPost2010Prop30
280
     1
102
RTVSPost2010PropOp30
 70
     1
102
RTVSPost2010Prop31
280
     0
102
RTVSPost2010PropOp31
 70
     1
102
RTVSPost2010Prop32
280
     0
102
RTVSPost2010PropOp32
 70
     1
102
RTVSPost2010Prop33
280
     0
102
RTVSPost2010PropOp33
 70
     1
102
RTVSPost2010Prop34
280
     0
102
RTVSPost2010PropOp34
 70
     1
102
RTVSPost2010Prop35
280
     0
102
RTVSPost2010PropOp35
 70
     1
102
RTVSPost2010Prop36
280
     0
102
RTVSPost2010PropOp36
 70
     1
102
RTVSPost2010Prop37
 90
       50
102
RTVSPost2010PropOp37
 70
     1
102
RTVSPost2010Prop38
140
0.0
102
RTVSPost2010PropOp38
 70
     1
102
RTVSPost2010Prop39
140
1.0
102
RTVSPost2010PropOp39
 70
     1
102
RTVSPost2010Prop40
 90
        0
102
RTVSPost2010PropOp40
 70
     1
102
RTVSPost2010Prop41ColorIndex
 90
       18
102
RTVSPost2010Prop41ColorRGB
 90
        0
102
RTVSPost2010PropOp41
 70
     1
102
RTVSPost2010Prop42
 90
       50
102
RTVSPost2010PropOp42
 70
     1
102
RTVSPost2010Prop43
 90
        3
102
RTVSPost2010PropOp43
 70
     1
102
RTVSPost2010Prop44ColorIndex
 90
        5
102
RTVSPost2010Prop44ColorRGB
 90
      255
102
RTVSPost2010PropOp44
 70
     1
102
RTVSPost2010Prop45
280
     0
102
RTVSPost2010PropOp45
 70
     1
102
RTVSPost2010Prop46
 90
       50
102
RTVSPost2010PropOp46
 70
     1
102
RTVSPost2010Prop47
 90
       50
102
RTVSPost2010PropOp47
 70
     1
102
RTVSPost2010Prop48
 90
       50
102
RTVSPost2010PropOp48
 70
     1
102
RTVSPost2010Prop49
280
     0
102
RTVSPost2010PropOp49
 70
     1
102
RTVSPost2010Prop50
 90
       50
102
RTVSPost2010PropOp50
 70
     1
102
RTVSPost2010Prop51ColorIndex
 90
      256
102
RTVSPost2010Prop51ColorRGB
 90
-16777216
102
RTVSPost2010PropOp51
 70
     0
102
RTVSPost2010Prop52
140
1.0
102
RTVSPost2010PropOp52
 70
     0
102
RTVSPost2010Prop53
 90
        2
102
RTVSPost2010PropOp53
 70
     1
102
RTVSPost2010Prop54
  1
strokes_ogs.tif
102
RTVSPost2010PropOp54
 70
     1
102
RTVSPost2010Prop55
280
     0
102
RTVSPost2010PropOp55
 70
     1
102
RTVSPost2010Prop56
140
1.0
102
RTVSPost2010PropOp56
 70
     1
102
RTVSPost2010Prop57
140
1.0
102
RTVSPost2010PropOp57
 70
     1
102
RTVSPropertyOp0
 70
     1
102
RTVSPropertyOp1
 70
     1
102
RTVSPropertyOp2
 70
     1
102
RTVSPropertyOp3
 70
     1
102
RTVSPropertyOp4
 70
     1
102
RTVSPropertyOp5
 70
     1
102
RTVSPropertyOp6
 70
     1
102
RTVSPropertyOp7
 70
     1
102
RTVSPropertyOp8
 70
     1
102
RTVSPropertyOp9
 70
     1
102
RTVSPropertyOp10
 70
     1
102
RTVSPropertyOp11
 70
     1
102
RTVSPropertyOp12
 70
     1
102
RTVSPropertyOp13
 70
     1
102
RTVSPropertyOp14
 70
     1
102
RTVSPropertyOp15
 70
     1
102
RTVSPropertyOp16
 70
     1
102
RTVSPropertyOp17
 70
     1
102
RTVSPropertyOp18
 70
     1
102
RTVSPropertyOp19
 70
     1
102
RTVSPropertyOp20
 70
     1
102
RTVSPropertyOp21
 70
     1
102
RTVSPropertyOp22
 70
     1
102
RTVSPropertyOp23
 70
     1
102
RTVSPropertyOp24
 70
     1
102
RTVSPropertyOp25
 70
     1
102
RTVSPropertyOp26
 70
     1
102
RTVSPropertyOp27
 70
     1
102
RTVSPropertyOp28
 70
     1
102
RTVSPropertyOp29
 70
     1
102
RTVSPropertyOp30
 70
     1
102
RTVSPropertyOp31
 70
     1
102
RTVSPropertyOp32
 70
     1
102
RTVSPropertyOp33
 70
     1
102
RTVSPropertyOp34
 70
     1
102
RTVSPropertyOp35
 70
     1
102
RTVSPropertyOp36
 70
     1
102
RTVSPropertyOp37
 70
     1
102
RTVSPropertyOp38
 70
     1
102
RTVSPropertyOp39
 70
     1
102
RTVSPropertyOp40
 70
     1
102
RTVSPropertyOp41
 70
     1
102
RTVSPropertyOp42
 70
     1
102
RTVSPropertyOp43
 70
     1
102
RTVSPropertyOp44
 70
     1
102
RTVSPropertyOp45
 70
     1
102
RTVSPropertyOp46
 70
     1
102
RTVSPropertyOp47
 70
     1
102
RTVSPropertyOp48
 70
     1
102
RTVSPropertyOp49
 70
     1
102
RTVSPropertyOp50
 70
     1
102
RTVSPropertyOp51
 70
     0
102
RTVSPropertyOp52
 70
     0
102
RTVSPropertyOp53
 70
     1
102
RTVSPropertyOp54
 70
     1
102
RTVSPropertyOp55
 70
     1
102
RTVSPropertyOp56
 70
     1
102
RTVSPropertyOp57
 70
     1
102
RTVSPropertyOp58
 70
     1
102
RTVSPropertyOp59
 70
     1
102
RTVSPropertyOp60
 70
     1
102
RTVSPropertyOp61
 70
     1
102
RTVSPropertyOp62
 70
     1
  0
XRECORD
  5
C63B
102
{ACAD_REACTORS
330
C63A
102
}
330
C63A
100
AcDbXrecord
280
     1
102
RTVSPost2010Prop28
280
     0
102
RTVSPost2010PropOp28
 70
     1
102
RTVSPost2010Prop29
280
     1
102
RTVSPost2010PropOp29
 70
     1
102
RTVSPost2010Prop30
280
     1
102
RTVSPost2010PropOp30
 70
     1
102
RTVSPost2010Prop31
280
     0
102
RTVSPost2010PropOp31
 70
     1
102
RTVSPost2010Prop32
280
     0
102
RTVSPost2010PropOp32
 70
     1
102
RTVSPost2010Prop33
280
     0
102
RTVSPost2010PropOp33
 70
     1
102
RTVSPost2010Prop34
280
     0
102
RTVSPost2010PropOp34
 70
     1
102
RTVSPost2010Prop35
280
     0
102
RTVSPost2010PropOp35
 70
     1
102
RTVSPost2010Prop36
280
     0
102
RTVSPost2010PropOp36
 70
     1
102
RTVSPost2010Prop37
 90
       50
102
RTVSPost2010PropOp37
 70
     1
102
RTVSPost2010Prop38
140
0.0
102
RTVSPost2010PropOp38
 70
     1
102
RTVSPost2010Prop39
140
1.0
102
RTVSPost2010PropOp39
 70
     1
102
RTVSPost2010Prop40
 90
        0
102
RTVSPost2010PropOp40
 70
     1
102
RTVSPost2010Prop41ColorIndex
 90
       18
102
RTVSPost2010Prop41ColorRGB
 90
        0
102
RTVSPost2010PropOp41
 70
     1
102
RTVSPost2010Prop42
 90
       50
102
RTVSPost2010PropOp42
 70
     1
102
RTVSPost2010Prop43
 90
        3
102
RTVSPost2010PropOp43
 70
     1
102
RTVSPost2010Prop44ColorIndex
 90
        5
102
RTVSPost2010Prop44ColorRGB
 90
      255
102
RTVSPost2010PropOp44
 70
     1
102
RTVSPost2010Prop45
280
     0
102
RTVSPost2010PropOp45
 70
     1
102
RTVSPost2010Prop46
 90
       50
102
RTVSPost2010PropOp46
 70
     1
102
RTVSPost2010Prop47
 90
       50
102
RTVSPost2010PropOp47
 70
     1
102
RTVSPost2010Prop48
 90
       50
102
RTVSPost2010PropOp48
 70
     1
102
RTVSPost2010Prop49
280
     0
102
RTVSPost2010PropOp49
 70
     1
102
RTVSPost2010Prop50
 90
       50
102
RTVSPost2010PropOp50
 70
     1
102
RTVSPost2010Prop51ColorIndex
 90
      256
102
RTVSPost2010Prop51ColorRGB
 90
-16777216
102
RTVSPost2010PropOp51
 70
     0
102
RTVSPost2010Prop52
140
1.0
102
RTVSPost2010PropOp52
 70
     0
102
RTVSPost2010Prop53
 90
        2
102
RTVSPost2010PropOp53
 70
     1
102
RTVSPost2010Prop54
  1
strokes_ogs.tif
102
RTVSPost2010PropOp54
 70
     1
102
RTVSPost2010Prop55
280
     0
102
RTVSPost2010PropOp55
 70
     1
102
RTVSPost2010Prop56
140
1.0
102
RTVSPost2010PropOp56
 70
     1
102
RTVSPost2010Prop57
140
1.0
102
RTVSPost2010PropOp57
 70
     1
102
RTVSPropertyOp0
 70
     1
102
RTVSPropertyOp1
 70
     1
102
RTVSPropertyOp2
 70
     1
102
RTVSPropertyOp3
 70
     1
102
RTVSPropertyOp4
 70
     1
102
RTVSPropertyOp5
 70
     1
102
RTVSPropertyOp6
 70
     1
102
RTVSPropertyOp7
 70
     1
102
RTVSPropertyOp8
 70
     1
102
RTVSPropertyOp9
 70
     1
102
RTVSPropertyOp10
 70
     1
102
RTVSPropertyOp11
 70
     1
102
RTVSPropertyOp12
 70
     1
102
RTVSPropertyOp13
 70
     1
102
RTVSPropertyOp14
 70
     1
102
RTVSPropertyOp15
 70
     1
102
RTVSPropertyOp16
 70
     1
102
RTVSPropertyOp17
 70
     1
102
RTVSPropertyOp18
 70
     1
102
RTVSPropertyOp19
 70
     1
102
RTVSPropertyOp20
 70
     1
102
RTVSPropertyOp21
 70
     1
102
RTVSPropertyOp22
 70
     1
102
RTVSPropertyOp23
 70
     1
102
RTVSPropertyOp24
 70
     1
102
RTVSPropertyOp25
 70
     1
102
RTVSPropertyOp26
 70
     1
102
RTVSPropertyOp27
 70
     1
102
RTVSPropertyOp28
 70
     1
102
RTVSPropertyOp29
 70
     1
102
RTVSPropertyOp30
 70
     1
102
RTVSPropertyOp31
 70
     1
102
RTVSPropertyOp32
 70
     1
102
RTVSPropertyOp33
 70
     1
102
RTVSPropertyOp34
 70
     1
102
RTVSPropertyOp35
 70
     1
102
RTVSPropertyOp36
 70
     1
102
RTVSPropertyOp37
 70
     1
102
RTVSPropertyOp38
 70
     1
102
RTVSPropertyOp39
 70
     1
102
RTVSPropertyOp40
 70
     1
102
RTVSPropertyOp41
 70
     1
102
RTVSPropertyOp42
 70
     1
102
RTVSPropertyOp43
 70
     1
102
RTVSPropertyOp44
 70
     1
102
RTVSPropertyOp45
 70
     1
102
RTVSPropertyOp46
 70
     1
102
RTVSPropertyOp47
 70
     1
102
RTVSPropertyOp48
 70
     1
102
RTVSPropertyOp49
 70
     1
102
RTVSPropertyOp50
 70
     1
102
RTVSPropertyOp51
 70
     0
102
RTVSPropertyOp52
 70
     0
102
RTVSPropertyOp53
 70
     1
102
RTVSPropertyOp54
 70
     1
102
RTVSPropertyOp55
 70
     1
102
RTVSPropertyOp56
 70
     1
102
RTVSPropertyOp57
 70
     1
102
RTVSPropertyOp58
 70
     1
102
RTVSPropertyOp59
 70
     1
102
RTVSPropertyOp60
 70
     1
102
RTVSPropertyOp61
 70
     1
102
RTVSPropertyOp62
 70
     1
  0
XRECORD
  5
C63D
102
{ACAD_REACTORS
330
C63C
102
}
330
C63C
100
AcDbXrecord
280
     1
102
RTVSPost2010Prop28
280
     0
102
RTVSPost2010PropOp28
 70
     1
102
RTVSPost2010Prop29
280
     1
102
RTVSPost2010PropOp29
 70
     1
102
RTVSPost2010Prop30
280
     1
102
RTVSPost2010PropOp30
 70
     1
102
RTVSPost2010Prop31
280
     0
102
RTVSPost2010PropOp31
 70
     1
102
RTVSPost2010Prop32
280
     0
102
RTVSPost2010PropOp32
 70
     1
102
RTVSPost2010Prop33
280
     0
102
RTVSPost2010PropOp33
 70
     1
102
RTVSPost2010Prop34
280
     0
102
RTVSPost2010PropOp34
 70
     1
102
RTVSPost2010Prop35
280
     0
102
RTVSPost2010PropOp35
 70
     1
102
RTVSPost2010Prop36
280
     0
102
RTVSPost2010PropOp36
 70
     1
102
RTVSPost2010Prop37
 90
       50
102
RTVSPost2010PropOp37
 70
     1
102
RTVSPost2010Prop38
140
0.0
102
RTVSPost2010PropOp38
 70
     1
102
RTVSPost2010Prop39
140
1.0
102
RTVSPost2010PropOp39
 70
     1
102
RTVSPost2010Prop40
 90
        0
102
RTVSPost2010PropOp40
 70
     1
102
RTVSPost2010Prop41ColorIndex
 90
       18
102
RTVSPost2010Prop41ColorRGB
 90
        0
102
RTVSPost2010PropOp41
 70
     1
102
RTVSPost2010Prop42
 90
       50
102
RTVSPost2010PropOp42
 70
     1
102
RTVSPost2010Prop43
 90
        3
102
RTVSPost2010PropOp43
 70
     1
102
RTVSPost2010Prop44ColorIndex
 90
        5
102
RTVSPost2010Prop44ColorRGB
 90
      255
102
RTVSPost2010PropOp44
 70
     1
102
RTVSPost2010Prop45
280
     0
102
RTVSPost2010PropOp45
 70
     1
102
RTVSPost2010Prop46
 90
       50
102
RTVSPost2010PropOp46
 70
     1
102
RTVSPost2010Prop47
 90
       50
102
RTVSPost2010PropOp47
 70
     1
102
RTVSPost2010Prop48
 90
       50
102
RTVSPost2010PropOp48
 70
     1
102
RTVSPost2010Prop49
280
     0
102
RTVSPost2010PropOp49
 70
     1
102
RTVSPost2010Prop50
 90
       50
102
RTVSPost2010PropOp50
 70
     1
102
RTVSPost2010Prop51ColorIndex
 90
      256
102
RTVSPost2010Prop51ColorRGB
 90
-16777216
102
RTVSPost2010PropOp51
 70
     0
102
RTVSPost2010Prop52
140
1.0
102
RTVSPost2010PropOp52
 70
     0
102
RTVSPost2010Prop53
 90
        2
102
RTVSPost2010PropOp53
 70
     1
102
RTVSPost2010Prop54
  1
strokes_ogs.tif
102
RTVSPost2010PropOp54
 70
     1
102
RTVSPost2010Prop55
280
     0
102
RTVSPost2010PropOp55
 70
     1
102
RTVSPost2010Prop56
140
1.0
102
RTVSPost2010PropOp56
 70
     1
102
RTVSPost2010Prop57
140
1.0
102
RTVSPost2010PropOp57
 70
     1
102
RTVSPropertyOp0
 70
     1
102
RTVSPropertyOp1
 70
     1
102
RTVSPropertyOp2
 70
     1
102
RTVSPropertyOp3
 70
     1
102
RTVSPropertyOp4
 70
     1
102
RTVSPropertyOp5
 70
     1
102
RTVSPropertyOp6
 70
     1
102
RTVSPropertyOp7
 70
     1
102
RTVSPropertyOp8
 70
     1
102
RTVSPropertyOp9
 70
     1
102
RTVSPropertyOp10
 70
     1
102
RTVSPropertyOp11
 70
     1
102
RTVSPropertyOp12
 70
     1
102
RTVSPropertyOp13
 70
     1
102
RTVSPropertyOp14
 70
     1
102
RTVSPropertyOp15
 70
     1
102
RTVSPropertyOp16
 70
     1
102
RTVSPropertyOp17
 70
     1
102
RTVSPropertyOp18
 70
     1
102
RTVSPropertyOp19
 70
     1
102
RTVSPropertyOp20
 70
     1
102
RTVSPropertyOp21
 70
     1
102
RTVSPropertyOp22
 70
     1
102
RTVSPropertyOp23
 70
     1
102
RTVSPropertyOp24
 70
     1
102
RTVSPropertyOp25
 70
     1
102
RTVSPropertyOp26
 70
     1
102
RTVSPropertyOp27
 70
     1
102
RTVSPropertyOp28
 70
     1
102
RTVSPropertyOp29
 70
     1
102
RTVSPropertyOp30
 70
     1
102
RTVSPropertyOp31
 70
     1
102
RTVSPropertyOp32
 70
     1
102
RTVSPropertyOp33
 70
     1
102
RTVSPropertyOp34
 70
     1
102
RTVSPropertyOp35
 70
     1
102
RTVSPropertyOp36
 70
     1
102
RTVSPropertyOp37
 70
     1
102
RTVSPropertyOp38
 70
     1
102
RTVSPropertyOp39
 70
     1
102
RTVSPropertyOp40
 70
     1
102
RTVSPropertyOp41
 70
     1
102
RTVSPropertyOp42
 70
     1
102
RTVSPropertyOp43
 70
     1
102
RTVSPropertyOp44
 70
     1
102
RTVSPropertyOp45
 70
     1
102
RTVSPropertyOp46
 70
     1
102
RTVSPropertyOp47
 70
     1
102
RTVSPropertyOp48
 70
     1
102
RTVSPropertyOp49
 70
     1
102
RTVSPropertyOp50
 70
     1
102
RTVSPropertyOp51
 70
     0
102
RTVSPropertyOp52
 70
     0
102
RTVSPropertyOp53
 70
     1
102
RTVSPropertyOp54
 70
     1
102
RTVSPropertyOp55
 70
     1
102
RTVSPropertyOp56
 70
     1
102
RTVSPropertyOp57
 70
     1
102
RTVSPropertyOp58
 70
     1
102
RTVSPropertyOp59
 70
     1
102
RTVSPropertyOp60
 70
     1
102
RTVSPropertyOp61
 70
     1
102
RTVSPropertyOp62
 70
     1
  0
XRECORD
  5
C63F
102
{ACAD_REACTORS
330
C63E
102
}
330
C63E
100
AcDbXrecord
280
     1
102
RTVSPost2010Prop28
280
     0
102
RTVSPost2010PropOp28
 70
     1
102
RTVSPost2010Prop29
280
     1
102
RTVSPost2010PropOp29
 70
     1
102
RTVSPost2010Prop30
280
     1
102
RTVSPost2010PropOp30
 70
     1
102
RTVSPost2010Prop31
280
     0
102
RTVSPost2010PropOp31
 70
     1
102
RTVSPost2010Prop32
280
     0
102
RTVSPost2010PropOp32
 70
     1
102
RTVSPost2010Prop33
280
     0
102
RTVSPost2010PropOp33
 70
     1
102
RTVSPost2010Prop34
280
     0
102
RTVSPost2010PropOp34
 70
     1
102
RTVSPost2010Prop35
280
     0
102
RTVSPost2010PropOp35
 70
     1
102
RTVSPost2010Prop36
280
     0
102
RTVSPost2010PropOp36
 70
     1
102
RTVSPost2010Prop37
 90
       50
102
RTVSPost2010PropOp37
 70
     1
102
RTVSPost2010Prop38
140
0.0
102
RTVSPost2010PropOp38
 70
     1
102
RTVSPost2010Prop39
140
1.0
102
RTVSPost2010PropOp39
 70
     1
102
RTVSPost2010Prop40
 90
        0
102
RTVSPost2010PropOp40
 70
     1
102
RTVSPost2010Prop41ColorIndex
 90
       18
102
RTVSPost2010Prop41ColorRGB
 90
        0
102
RTVSPost2010PropOp41
 70
     1
102
RTVSPost2010Prop42
 90
       50
102
RTVSPost2010PropOp42
 70
     1
102
RTVSPost2010Prop43
 90
        3
102
RTVSPost2010PropOp43
 70
     1
102
RTVSPost2010Prop44ColorIndex
 90
        5
102
RTVSPost2010Prop44ColorRGB
 90
      255
102
RTVSPost2010PropOp44
 70
     1
102
RTVSPost2010Prop45
280
     0
102
RTVSPost2010PropOp45
 70
     1
102
RTVSPost2010Prop46
 90
       50
102
RTVSPost2010PropOp46
 70
     1
102
RTVSPost2010Prop47
 90
       50
102
RTVSPost2010PropOp47
 70
     1
102
RTVSPost2010Prop48
 90
       50
102
RTVSPost2010PropOp48
 70
     1
102
RTVSPost2010Prop49
280
     0
102
RTVSPost2010PropOp49
 70
     1
102
RTVSPost2010Prop50
 90
       50
102
RTVSPost2010PropOp50
 70
     1
102
RTVSPost2010Prop51ColorIndex
 90
      256
102
RTVSPost2010Prop51ColorRGB
 90
-16777216
102
RTVSPost2010PropOp51
 70
     0
102
RTVSPost2010Prop52
140
1.0
102
RTVSPost2010PropOp52
 70
     0
102
RTVSPost2010Prop53
 90
        2
102
RTVSPost2010PropOp53
 70
     1
102
RTVSPost2010Prop54
  1
strokes_ogs.tif
102
RTVSPost2010PropOp54
 70
     1
102
RTVSPost2010Prop55
280
     0
102
RTVSPost2010PropOp55
 70
     1
102
RTVSPost2010Prop56
140
1.0
102
RTVSPost2010PropOp56
 70
     1
102
RTVSPost2010Prop57
140
1.0
102
RTVSPost2010PropOp57
 70
     1
102
RTVSPropertyOp0
 70
     1
102
RTVSPropertyOp1
 70
     1
102
RTVSPropertyOp2
 70
     1
102
RTVSPropertyOp3
 70
     1
102
RTVSPropertyOp4
 70
     1
102
RTVSPropertyOp5
 70
     1
102
RTVSPropertyOp6
 70
     1
102
RTVSPropertyOp7
 70
     1
102
RTVSPropertyOp8
 70
     1
102
RTVSPropertyOp9
 70
     1
102
RTVSPropertyOp10
 70
     1
102
RTVSPropertyOp11
 70
     1
102
RTVSPropertyOp12
 70
     1
102
RTVSPropertyOp13
 70
     1
102
RTVSPropertyOp14
 70
     1
102
RTVSPropertyOp15
 70
     1
102
RTVSPropertyOp16
 70
     1
102
RTVSPropertyOp17
 70
     1
102
RTVSPropertyOp18
 70
     1
102
RTVSPropertyOp19
 70
     1
102
RTVSPropertyOp20
 70
     1
102
RTVSPropertyOp21
 70
     1
102
RTVSPropertyOp22
 70
     1
102
RTVSPropertyOp23
 70
     1
102
RTVSPropertyOp24
 70
     1
102
RTVSPropertyOp25
 70
     1
102
RTVSPropertyOp26
 70
     1
102
RTVSPropertyOp27
 70
     1
102
RTVSPropertyOp28
 70
     1
102
RTVSPropertyOp29
 70
     1
102
RTVSPropertyOp30
 70
     1
102
RTVSPropertyOp31
 70
     1
102
RTVSPropertyOp32
 70
     1
102
RTVSPropertyOp33
 70
     1
102
RTVSPropertyOp34
 70
     1
102
RTVSPropertyOp35
 70
     1
102
RTVSPropertyOp36
 70
     1
102
RTVSPropertyOp37
 70
     1
102
RTVSPropertyOp38
 70
     1
102
RTVSPropertyOp39
 70
     1
102
RTVSPropertyOp40
 70
     1
102
RTVSPropertyOp41
 70
     1
102
RTVSPropertyOp42
 70
     1
102
RTVSPropertyOp43
 70
     1
102
RTVSPropertyOp44
 70
     1
102
RTVSPropertyOp45
 70
     1
102
RTVSPropertyOp46
 70
     1
102
RTVSPropertyOp47
 70
     1
102
RTVSPropertyOp48
 70
     1
102
RTVSPropertyOp49
 70
     1
102
RTVSPropertyOp50
 70
     1
102
RTVSPropertyOp51
 70
     0
102
RTVSPropertyOp52
 70
     0
102
RTVSPropertyOp53
 70
     1
102
RTVSPropertyOp54
 70
     1
102
RTVSPropertyOp55
 70
     1
102
RTVSPropertyOp56
 70
     1
102
RTVSPropertyOp57
 70
     1
102
RTVSPropertyOp58
 70
     1
102
RTVSPropertyOp59
 70
     1
102
RTVSPropertyOp60
 70
     1
102
RTVSPropertyOp61
 70
     1
102
RTVSPropertyOp62
 70
     1
  0
XRECORD
  5
C641
102
{ACAD_REACTORS
330
C640
102
}
330
C640
100
AcDbXrecord
280
     1
102
RTVSPost2010Prop28
280
     0
102
RTVSPost2010PropOp28
 70
     1
102
RTVSPost2010Prop29
280
     1
102
RTVSPost2010PropOp29
 70
     1
102
RTVSPost2010Prop30
280
     1
102
RTVSPost2010PropOp30
 70
     1
102
RTVSPost2010Prop31
280
     0
102
RTVSPost2010PropOp31
 70
     1
102
RTVSPost2010Prop32
280
     0
102
RTVSPost2010PropOp32
 70
     1
102
RTVSPost2010Prop33
280
     0
102
RTVSPost2010PropOp33
 70
     1
102
RTVSPost2010Prop34
280
     0
102
RTVSPost2010PropOp34
 70
     1
102
RTVSPost2010Prop35
280
     0
102
RTVSPost2010PropOp35
 70
     1
102
RTVSPost2010Prop36
280
     0
102
RTVSPost2010PropOp36
 70
     1
102
RTVSPost2010Prop37
 90
       50
102
RTVSPost2010PropOp37
 70
     1
102
RTVSPost2010Prop38
140
0.0
102
RTVSPost2010PropOp38
 70
     1
102
RTVSPost2010Prop39
140
1.0
102
RTVSPost2010PropOp39
 70
     1
102
RTVSPost2010Prop40
 90
        0
102
RTVSPost2010PropOp40
 70
     1
102
RTVSPost2010Prop41ColorIndex
 90
       18
102
RTVSPost2010Prop41ColorRGB
 90
        0
102
RTVSPost2010PropOp41
 70
     1
102
RTVSPost2010Prop42
 90
       50
102
RTVSPost2010PropOp42
 70
     1
102
RTVSPost2010Prop43
 90
        3
102
RTVSPost2010PropOp43
 70
     1
102
RTVSPost2010Prop44ColorIndex
 90
        5
102
RTVSPost2010Prop44ColorRGB
 90
      255
102
RTVSPost2010PropOp44
 70
     1
102
RTVSPost2010Prop45
280
     0
102
RTVSPost2010PropOp45
 70
     1
102
RTVSPost2010Prop46
 90
       50
102
RTVSPost2010PropOp46
 70
     1
102
RTVSPost2010Prop47
 90
       50
102
RTVSPost2010PropOp47
 70
     1
102
RTVSPost2010Prop48
 90
       50
102
RTVSPost2010PropOp48
 70
     1
102
RTVSPost2010Prop49
280
     0
102
RTVSPost2010PropOp49
 70
     1
102
RTVSPost2010Prop50
 90
       50
102
RTVSPost2010PropOp50
 70
     1
102
RTVSPost2010Prop51ColorIndex
 90
      256
102
RTVSPost2010Prop51ColorRGB
 90
-16777216
102
RTVSPost2010PropOp51
 70
     0
102
RTVSPost2010Prop52
140
1.0
102
RTVSPost2010PropOp52
 70
     0
102
RTVSPost2010Prop53
 90
        2
102
RTVSPost2010PropOp53
 70
     1
102
RTVSPost2010Prop54
  1
strokes_ogs.tif
102
RTVSPost2010PropOp54
 70
     1
102
RTVSPost2010Prop55
280
     0
102
RTVSPost2010PropOp55
 70
     1
102
RTVSPost2010Prop56
140
1.0
102
RTVSPost2010PropOp56
 70
     1
102
RTVSPost2010Prop57
140
1.0
102
RTVSPost2010PropOp57
 70
     1
102
RTVSPropertyOp0
 70
     1
102
RTVSPropertyOp1
 70
     1
102
RTVSPropertyOp2
 70
     1
102
RTVSPropertyOp3
 70
     1
102
RTVSPropertyOp4
 70
     1
102
RTVSPropertyOp5
 70
     1
102
RTVSPropertyOp6
 70
     1
102
RTVSPropertyOp7
 70
     1
102
RTVSPropertyOp8
 70
     1
102
RTVSPropertyOp9
 70
     1
102
RTVSPropertyOp10
 70
     1
102
RTVSPropertyOp11
 70
     1
102
RTVSPropertyOp12
 70
     1
102
RTVSPropertyOp13
 70
     1
102
RTVSPropertyOp14
 70
     1
102
RTVSPropertyOp15
 70
     1
102
RTVSPropertyOp16
 70
     1
102
RTVSPropertyOp17
 70
     1
102
RTVSPropertyOp18
 70
     1
102
RTVSPropertyOp19
 70
     1
102
RTVSPropertyOp20
 70
     1
102
RTVSPropertyOp21
 70
     1
102
RTVSPropertyOp22
 70
     1
102
RTVSPropertyOp23
 70
     1
102
RTVSPropertyOp24
 70
     1
102
RTVSPropertyOp25
 70
     1
102
RTVSPropertyOp26
 70
     1
102
RTVSPropertyOp27
 70
     1
102
RTVSPropertyOp28
 70
     1
102
RTVSPropertyOp29
 70
     1
102
RTVSPropertyOp30
 70
     1
102
RTVSPropertyOp31
 70
     1
102
RTVSPropertyOp32
 70
     1
102
RTVSPropertyOp33
 70
     1
102
RTVSPropertyOp34
 70
     1
102
RTVSPropertyOp35
 70
     1
102
RTVSPropertyOp36
 70
     1
102
RTVSPropertyOp37
 70
     1
102
RTVSPropertyOp38
 70
     1
102
RTVSPropertyOp39
 70
     1
102
RTVSPropertyOp40
 70
     1
102
RTVSPropertyOp41
 70
     1
102
RTVSPropertyOp42
 70
     1
102
RTVSPropertyOp43
 70
     1
102
RTVSPropertyOp44
 70
     1
102
RTVSPropertyOp45
 70
     1
102
RTVSPropertyOp46
 70
     1
102
RTVSPropertyOp47
 70
     1
102
RTVSPropertyOp48
 70
     1
102
RTVSPropertyOp49
 70
     1
102
RTVSPropertyOp50
 70
     1
102
RTVSPropertyOp51
 70
     0
102
RTVSPropertyOp52
 70
     0
102
RTVSPropertyOp53
 70
     1
102
RTVSPropertyOp54
 70
     1
102
RTVSPropertyOp55
 70
     1
102
RTVSPropertyOp56
 70
     1
102
RTVSPropertyOp57
 70
     1
102
RTVSPropertyOp58
 70
     1
102
RTVSPropertyOp59
 70
     1
102
RTVSPropertyOp60
 70
     1
102
RTVSPropertyOp61
 70
     1
102
RTVSPropertyOp62
 70
     1
  0
XRECORD
  5
C649
102
{ACAD_REACTORS
330
C648
102
}
330
C648
100
AcDbXrecord
280
     1
102
RTVSPost2010Prop28
280
     0
102
RTVSPost2010PropOp28
 70
     1
102
RTVSPost2010Prop29
280
     1
102
RTVSPost2010PropOp29
 70
     1
102
RTVSPost2010Prop30
280
     1
102
RTVSPost2010PropOp30
 70
     1
102
RTVSPost2010Prop31
280
     0
102
RTVSPost2010PropOp31
 70
     1
102
RTVSPost2010Prop32
280
     0
102
RTVSPost2010PropOp32
 70
     1
102
RTVSPost2010Prop33
280
     0
102
RTVSPost2010PropOp33
 70
     1
102
RTVSPost2010Prop34
280
     0
102
RTVSPost2010PropOp34
 70
     1
102
RTVSPost2010Prop35
280
     0
102
RTVSPost2010PropOp35
 70
     1
102
RTVSPost2010Prop36
280
     0
102
RTVSPost2010PropOp36
 70
     1
102
RTVSPost2010Prop37
 90
       50
102
RTVSPost2010PropOp37
 70
     1
102
RTVSPost2010Prop38
140
0.0
102
RTVSPost2010PropOp38
 70
     1
102
RTVSPost2010Prop39
140
1.0
102
RTVSPost2010PropOp39
 70
     1
102
RTVSPost2010Prop40
 90
        0
102
RTVSPost2010PropOp40
 70
     1
102
RTVSPost2010Prop41ColorIndex
 90
       18
102
RTVSPost2010Prop41ColorRGB
 90
        0
102
RTVSPost2010PropOp41
 70
     1
102
RTVSPost2010Prop42
 90
       50
102
RTVSPost2010PropOp42
 70
     1
102
RTVSPost2010Prop43
 90
        3
102
RTVSPost2010PropOp43
 70
     1
102
RTVSPost2010Prop44ColorIndex
 90
        5
102
RTVSPost2010Prop44ColorRGB
 90
      255
102
RTVSPost2010PropOp44
 70
     1
102
RTVSPost2010Prop45
280
     0
102
RTVSPost2010PropOp45
 70
     1
102
RTVSPost2010Prop46
 90
       50
102
RTVSPost2010PropOp46
 70
     1
102
RTVSPost2010Prop47
 90
       50
102
RTVSPost2010PropOp47
 70
     1
102
RTVSPost2010Prop48
 90
       50
102
RTVSPost2010PropOp48
 70
     1
102
RTVSPost2010Prop49
280
     0
102
RTVSPost2010PropOp49
 70
     1
102
RTVSPost2010Prop50
 90
       50
102
RTVSPost2010PropOp50
 70
     1
102
RTVSPost2010Prop51ColorIndex
 90
      256
102
RTVSPost2010Prop51ColorRGB
 90
-16777216
102
RTVSPost2010PropOp51
 70
     0
102
RTVSPost2010Prop52
140
1.0
102
RTVSPost2010PropOp52
 70
     0
102
RTVSPost2010Prop53
 90
        2
102
RTVSPost2010PropOp53
 70
     1
102
RTVSPost2010Prop54
  1
strokes_ogs.tif
102
RTVSPost2010PropOp54
 70
     1
102
RTVSPost2010Prop55
280
     0
102
RTVSPost2010PropOp55
 70
     1
102
RTVSPost2010Prop56
140
1.0
102
RTVSPost2010PropOp56
 70
     1
102
RTVSPost2010Prop57
140
1.0
102
RTVSPost2010PropOp57
 70
     1
102
RTVSPropertyOp0
 70
     1
102
RTVSPropertyOp1
 70
     1
102
RTVSPropertyOp2
 70
     1
102
RTVSPropertyOp3
 70
     1
102
RTVSPropertyOp4
 70
     1
102
RTVSPropertyOp5
 70
     1
102
RTVSPropertyOp6
 70
     1
102
RTVSPropertyOp7
 70
     1
102
RTVSPropertyOp8
 70
     1
102
RTVSPropertyOp9
 70
     1
102
RTVSPropertyOp10
 70
     1
102
RTVSPropertyOp11
 70
     1
102
RTVSPropertyOp12
 70
     1
102
RTVSPropertyOp13
 70
     1
102
RTVSPropertyOp14
 70
     1
102
RTVSPropertyOp15
 70
     1
102
RTVSPropertyOp16
 70
     1
102
RTVSPropertyOp17
 70
     1
102
RTVSPropertyOp18
 70
     1
102
RTVSPropertyOp19
 70
     1
102
RTVSPropertyOp20
 70
     1
102
RTVSPropertyOp21
 70
     1
102
RTVSPropertyOp22
 70
     1
102
RTVSPropertyOp23
 70
     1
102
RTVSPropertyOp24
 70
     1
102
RTVSPropertyOp25
 70
     1
102
RTVSPropertyOp26
 70
     1
102
RTVSPropertyOp27
 70
     1
102
RTVSPropertyOp28
 70
     1
102
RTVSPropertyOp29
 70
     1
102
RTVSPropertyOp30
 70
     1
102
RTVSPropertyOp31
 70
     1
102
RTVSPropertyOp32
 70
     1
102
RTVSPropertyOp33
 70
     1
102
RTVSPropertyOp34
 70
     1
102
RTVSPropertyOp35
 70
     1
102
RTVSPropertyOp36
 70
     1
102
RTVSPropertyOp37
 70
     1
102
RTVSPropertyOp38
 70
     1
102
RTVSPropertyOp39
 70
     1
102
RTVSPropertyOp40
 70
     1
102
RTVSPropertyOp41
 70
     1
102
RTVSPropertyOp42
 70
     1
102
RTVSPropertyOp43
 70
     1
102
RTVSPropertyOp44
 70
     1
102
RTVSPropertyOp45
 70
     1
102
RTVSPropertyOp46
 70
     1
102
RTVSPropertyOp47
 70
     1
102
RTVSPropertyOp48
 70
     1
102
RTVSPropertyOp49
 70
     1
102
RTVSPropertyOp50
 70
     1
102
RTVSPropertyOp51
 70
     0
102
RTVSPropertyOp52
 70
     0
102
RTVSPropertyOp53
 70
     1
102
RTVSPropertyOp54
 70
     1
102
RTVSPropertyOp55
 70
     1
102
RTVSPropertyOp56
 70
     1
102
RTVSPropertyOp57
 70
     1
102
RTVSPropertyOp58
 70
     1
102
RTVSPropertyOp59
 70
     1
102
RTVSPropertyOp60
 70
     1
102
RTVSPropertyOp61
 70
     1
102
RTVSPropertyOp62
 70
     1
  0
XRECORD
  5
C665
102
{ACAD_REACTORS
330
C664
102
}
330
C664
100
AcDbXrecord
280
     1
102
RTVSPost2010Prop28
280
     0
102
RTVSPost2010PropOp28
 70
     0
102
RTVSPost2010Prop29
280
     1
102
RTVSPost2010PropOp29
 70
     0
102
RTVSPost2010Prop30
280
     1
102
RTVSPost2010PropOp30
 70
     0
102
RTVSPost2010Prop31
280
     0
102
RTVSPost2010PropOp31
 70
     0
102
RTVSPost2010Prop32
280
     0
102
RTVSPost2010PropOp32
 70
     0
102
RTVSPost2010Prop33
280
     0
102
RTVSPost2010PropOp33
 70
     0
102
RTVSPost2010Prop34
280
     0
102
RTVSPost2010PropOp34
 70
     0
102
RTVSPost2010Prop35
280
     0
102
RTVSPost2010PropOp35
 70
     0
102
RTVSPost2010Prop36
280
     0
102
RTVSPost2010PropOp36
 70
     0
102
RTVSPost2010Prop37
 90
       50
102
RTVSPost2010PropOp37
 70
     0
102
RTVSPost2010Prop38
140
0.0
102
RTVSPost2010PropOp38
 70
     0
102
RTVSPost2010Prop39
140
1.0
102
RTVSPost2010PropOp39
 70
     0
102
RTVSPost2010Prop40
 90
        0
102
RTVSPost2010PropOp40
 70
     0
102
RTVSPost2010Prop41ColorIndex
 90
       18
102
RTVSPost2010Prop41ColorRGB
 90
        0
102
RTVSPost2010PropOp41
 70
     0
102
RTVSPost2010Prop42
 90
       50
102
RTVSPost2010PropOp42
 70
     0
102
RTVSPost2010Prop43
 90
        3
102
RTVSPost2010PropOp43
 70
     0
102
RTVSPost2010Prop44ColorIndex
 90
        5
102
RTVSPost2010Prop44ColorRGB
 90
      255
102
RTVSPost2010PropOp44
 70
     0
102
RTVSPost2010Prop45
280
     0
102
RTVSPost2010PropOp45
 70
     0
102
RTVSPost2010Prop46
 90
       50
102
RTVSPost2010PropOp46
 70
     0
102
RTVSPost2010Prop47
 90
       50
102
RTVSPost2010PropOp47
 70
     0
102
RTVSPost2010Prop48
 90
       50
102
RTVSPost2010PropOp48
 70
     0
102
RTVSPost2010Prop49
280
     0
102
RTVSPost2010PropOp49
 70
     0
102
RTVSPost2010Prop50
 90
       50
102
RTVSPost2010PropOp50
 70
     0
102
RTVSPost2010Prop51ColorIndex
 90
      256
102
RTVSPost2010Prop51ColorRGB
 90
-16777216
102
RTVSPost2010PropOp51
 70
     0
102
RTVSPost2010Prop52
140
1.0
102
RTVSPost2010PropOp52
 70
     0
102
RTVSPost2010Prop53
 90
        2
102
RTVSPost2010PropOp53
 70
     0
102
RTVSPost2010Prop54
  1
strokes_ogs.tif
102
RTVSPost2010PropOp54
 70
     0
102
RTVSPost2010Prop55
280
     0
102
RTVSPost2010PropOp55
 70
     0
102
RTVSPost2010Prop56
140
1.0
102
RTVSPost2010PropOp56
 70
     0
102
RTVSPost2010Prop57
140
1.0
102
RTVSPost2010PropOp57
 70
     0
102
RTVSPropertyOp0
 70
     0
102
RTVSPropertyOp1
 70
     0
102
RTVSPropertyOp2
 70
     0
102
RTVSPropertyOp3
 70
     0
102
RTVSPropertyOp4
 70
     0
102
RTVSPropertyOp5
 70
     0
102
RTVSPropertyOp6
 70
     0
102
RTVSPropertyOp7
 70
     0
102
RTVSPropertyOp8
 70
     0
102
RTVSPropertyOp9
 70
     0
102
RTVSPropertyOp10
 70
     0
102
RTVSPropertyOp11
 70
     0
102
RTVSPropertyOp12
 70
     0
102
RTVSPropertyOp13
 70
     0
102
RTVSPropertyOp14
 70
     2
102
RTVSPropertyOp15
 70
     0
102
RTVSPropertyOp16
 70
     0
102
RTVSPropertyOp17
 70
     0
102
RTVSPropertyOp18
 70
     0
102
RTVSPropertyOp19
 70
     0
102
RTVSPropertyOp20
 70
     0
102
RTVSPropertyOp21
 70
     0
102
RTVSPropertyOp22
 70
     0
102
RTVSPropertyOp23
 70
     0
102
RTVSPropertyOp24
 70
     0
102
RTVSPropertyOp25
 70
     0
102
RTVSPropertyOp26
 70
     0
102
RTVSPropertyOp27
 70
     0
102
RTVSPropertyOp28
 70
     0
102
RTVSPropertyOp29
 70
     0
102
RTVSPropertyOp30
 70
     0
102
RTVSPropertyOp31
 70
     0
102
RTVSPropertyOp32
 70
     0
102
RTVSPropertyOp33
 70
     0
102
RTVSPropertyOp34
 70
     0
102
RTVSPropertyOp35
 70
     0
102
RTVSPropertyOp36
 70
     0
102
RTVSPropertyOp37
 70
     0
102
RTVSPropertyOp38
 70
     0
102
RTVSPropertyOp39
 70
     0
102
RTVSPropertyOp40
 70
     0
102
RTVSPropertyOp41
 70
     0
102
RTVSPropertyOp42
 70
     0
102
RTVSPropertyOp43
 70
     0
102
RTVSPropertyOp44
 70
     0
102
RTVSPropertyOp45
 70
     0
102
RTVSPropertyOp46
 70
     0
102
RTVSPropertyOp47
 70
     0
102
RTVSPropertyOp48
 70
     0
102
RTVSPropertyOp49
 70
     0
102
RTVSPropertyOp50
 70
     0
102
RTVSPropertyOp51
 70
     0
102
RTVSPropertyOp52
 70
     0
102
RTVSPropertyOp53
 70
     0
102
RTVSPropertyOp54
 70
     0
102
RTVSPropertyOp55
 70
     0
102
RTVSPropertyOp56
 70
     0
102
RTVSPropertyOp57
 70
     0
102
RTVSPropertyOp58
 70
     1
102
RTVSPropertyOp59
 70
     1
102
RTVSPropertyOp60
 70
     1
102
RTVSPropertyOp61
 70
     1
102
RTVSPropertyOp62
 70
     1
  0
XRECORD
  5
C655
102
{ACAD_REACTORS
330
C654
102
}
330
C654
100
AcDbXrecord
280
     1
102
RTVSPost2010Prop28
280
     0
102
RTVSPost2010PropOp28
 70
     1
102
RTVSPost2010Prop29
280
     1
102
RTVSPost2010PropOp29
 70
     1
102
RTVSPost2010Prop30
280
     1
102
RTVSPost2010PropOp30
 70
     1
102
RTVSPost2010Prop31
280
     0
102
RTVSPost2010PropOp31
 70
     1
102
RTVSPost2010Prop32
280
     0
102
RTVSPost2010PropOp32
 70
     1
102
RTVSPost2010Prop33
280
     0
102
RTVSPost2010PropOp33
 70
     1
102
RTVSPost2010Prop34
280
     0
102
RTVSPost2010PropOp34
 70
     1
102
RTVSPost2010Prop35
280
     0
102
RTVSPost2010PropOp35
 70
     1
102
RTVSPost2010Prop36
280
     0
102
RTVSPost2010PropOp36
 70
     1
102
RTVSPost2010Prop37
 90
       50
102
RTVSPost2010PropOp37
 70
     1
102
RTVSPost2010Prop38
140
0.0
102
RTVSPost2010PropOp38
 70
     1
102
RTVSPost2010Prop39
140
1.0
102
RTVSPost2010PropOp39
 70
     1
102
RTVSPost2010Prop40
 90
        0
102
RTVSPost2010PropOp40
 70
     1
102
RTVSPost2010Prop41ColorIndex
 90
       18
102
RTVSPost2010Prop41ColorRGB
 90
        0
102
RTVSPost2010PropOp41
 70
     1
102
RTVSPost2010Prop42
 90
       50
102
RTVSPost2010PropOp42
 70
     1
102
RTVSPost2010Prop43
 90
        3
102
RTVSPost2010PropOp43
 70
     1
102
RTVSPost2010Prop44ColorIndex
 90
        5
102
RTVSPost2010Prop44ColorRGB
 90
      255
102
RTVSPost2010PropOp44
 70
     1
102
RTVSPost2010Prop45
280
     0
102
RTVSPost2010PropOp45
 70
     1
102
RTVSPost2010Prop46
 90
       50
102
RTVSPost2010PropOp46
 70
     1
102
RTVSPost2010Prop47
 90
       50
102
RTVSPost2010PropOp47
 70
     1
102
RTVSPost2010Prop48
 90
       50
102
RTVSPost2010PropOp48
 70
     1
102
RTVSPost2010Prop49
280
     0
102
RTVSPost2010PropOp49
 70
     1
102
RTVSPost2010Prop50
 90
       50
102
RTVSPost2010PropOp50
 70
     1
102
RTVSPost2010Prop51ColorIndex
 90
      256
102
RTVSPost2010Prop51ColorRGB
 90
-16777216
102
RTVSPost2010PropOp51
 70
     0
102
RTVSPost2010Prop52
140
1.0
102
RTVSPost2010PropOp52
 70
     0
102
RTVSPost2010Prop53
 90
        2
102
RTVSPost2010PropOp53
 70
     1
102
RTVSPost2010Prop54
  1
strokes_ogs.tif
102
RTVSPost2010PropOp54
 70
     1
102
RTVSPost2010Prop55
280
     0
102
RTVSPost2010PropOp55
 70
     1
102
RTVSPost2010Prop56
140
1.0
102
RTVSPost2010PropOp56
 70
     1
102
RTVSPost2010Prop57
140
1.0
102
RTVSPost2010PropOp57
 70
     1
102
RTVSPropertyOp0
 70
     1
102
RTVSPropertyOp1
 70
     1
102
RTVSPropertyOp2
 70
     1
102
RTVSPropertyOp3
 70
     1
102
RTVSPropertyOp4
 70
     1
102
RTVSPropertyOp5
 70
     1
102
RTVSPropertyOp6
 70
     1
102
RTVSPropertyOp7
 70
     1
102
RTVSPropertyOp8
 70
     1
102
RTVSPropertyOp9
 70
     1
102
RTVSPropertyOp10
 70
     1
102
RTVSPropertyOp11
 70
     1
102
RTVSPropertyOp12
 70
     1
102
RTVSPropertyOp13
 70
     1
102
RTVSPropertyOp14
 70
     1
102
RTVSPropertyOp15
 70
     1
102
RTVSPropertyOp16
 70
     1
102
RTVSPropertyOp17
 70
     1
102
RTVSPropertyOp18
 70
     1
102
RTVSPropertyOp19
 70
     1
102
RTVSPropertyOp20
 70
     1
102
RTVSPropertyOp21
 70
     1
102
RTVSPropertyOp22
 70
     1
102
RTVSPropertyOp23
 70
     1
102
RTVSPropertyOp24
 70
     1
102
RTVSPropertyOp25
 70
     1
102
RTVSPropertyOp26
 70
     1
102
RTVSPropertyOp27
 70
     1
102
RTVSPropertyOp28
 70
     1
102
RTVSPropertyOp29
 70
     1
102
RTVSPropertyOp30
 70
     1
102
RTVSPropertyOp31
 70
     1
102
RTVSPropertyOp32
 70
     1
102
RTVSPropertyOp33
 70
     1
102
RTVSPropertyOp34
 70
     1
102
RTVSPropertyOp35
 70
     1
102
RTVSPropertyOp36
 70
     1
102
RTVSPropertyOp37
 70
     1
102
RTVSPropertyOp38
 70
     1
102
RTVSPropertyOp39
 70
     1
102
RTVSPropertyOp40
 70
     1
102
RTVSPropertyOp41
 70
     1
102
RTVSPropertyOp42
 70
     1
102
RTVSPropertyOp43
 70
     1
102
RTVSPropertyOp44
 70
     1
102
RTVSPropertyOp45
 70
     1
102
RTVSPropertyOp46
 70
     1
102
RTVSPropertyOp47
 70
     1
102
RTVSPropertyOp48
 70
     1
102
RTVSPropertyOp49
 70
     1
102
RTVSPropertyOp50
 70
     1
102
RTVSPropertyOp51
 70
     0
102
RTVSPropertyOp52
 70
     0
102
RTVSPropertyOp53
 70
     1
102
RTVSPropertyOp54
 70
     1
102
RTVSPropertyOp55
 70
     1
102
RTVSPropertyOp56
 70
     1
102
RTVSPropertyOp57
 70
     1
102
RTVSPropertyOp58
 70
     1
102
RTVSPropertyOp59
 70
     1
102
RTVSPropertyOp60
 70
     1
102
RTVSPropertyOp61
 70
     1
102
RTVSPropertyOp62
 70
     1
  0
XRECORD
  5
C667
102
{ACAD_REACTORS
330
C666
102
}
330
C666
100
AcDbXrecord
280
     1
102
RTVSPost2010Prop28
280
     0
102
RTVSPost2010PropOp28
 70
     0
102
RTVSPost2010Prop29
280
     1
102
RTVSPost2010PropOp29
 70
     0
102
RTVSPost2010Prop30
280
     1
102
RTVSPost2010PropOp30
 70
     0
102
RTVSPost2010Prop31
280
     0
102
RTVSPost2010PropOp31
 70
     0
102
RTVSPost2010Prop32
280
     0
102
RTVSPost2010PropOp32
 70
     0
102
RTVSPost2010Prop33
280
     0
102
RTVSPost2010PropOp33
 70
     0
102
RTVSPost2010Prop34
280
     0
102
RTVSPost2010PropOp34
 70
     0
102
RTVSPost2010Prop35
280
     0
102
RTVSPost2010PropOp35
 70
     0
102
RTVSPost2010Prop36
280
     0
102
RTVSPost2010PropOp36
 70
     0
102
RTVSPost2010Prop37
 90
       50
102
RTVSPost2010PropOp37
 70
     0
102
RTVSPost2010Prop38
140
0.0
102
RTVSPost2010PropOp38
 70
     0
102
RTVSPost2010Prop39
140
1.0
102
RTVSPost2010PropOp39
 70
     0
102
RTVSPost2010Prop40
 90
        0
102
RTVSPost2010PropOp40
 70
     0
102
RTVSPost2010Prop41ColorIndex
 90
       18
102
RTVSPost2010Prop41ColorRGB
 90
        0
102
RTVSPost2010PropOp41
 70
     0
102
RTVSPost2010Prop42
 90
       50
102
RTVSPost2010PropOp42
 70
     0
102
RTVSPost2010Prop43
 90
        3
102
RTVSPost2010PropOp43
 70
     0
102
RTVSPost2010Prop44ColorIndex
 90
        5
102
RTVSPost2010Prop44ColorRGB
 90
      255
102
RTVSPost2010PropOp44
 70
     0
102
RTVSPost2010Prop45
280
     0
102
RTVSPost2010PropOp45
 70
     0
102
RTVSPost2010Prop46
 90
       50
102
RTVSPost2010PropOp46
 70
     0
102
RTVSPost2010Prop47
 90
       50
102
RTVSPost2010PropOp47
 70
     0
102
RTVSPost2010Prop48
 90
       50
102
RTVSPost2010PropOp48
 70
     0
102
RTVSPost2010Prop49
280
     0
102
RTVSPost2010PropOp49
 70
     0
102
RTVSPost2010Prop50
 90
       50
102
RTVSPost2010PropOp50
 70
     0
102
RTVSPost2010Prop51ColorIndex
 90
      256
102
RTVSPost2010Prop51ColorRGB
 90
-16777216
102
RTVSPost2010PropOp51
 70
     0
102
RTVSPost2010Prop52
140
1.0
102
RTVSPost2010PropOp52
 70
     0
102
RTVSPost2010Prop53
 90
        2
102
RTVSPost2010PropOp53
 70
     0
102
RTVSPost2010Prop54
  1
strokes_ogs.tif
102
RTVSPost2010PropOp54
 70
     0
102
RTVSPost2010Prop55
280
     0
102
RTVSPost2010PropOp55
 70
     0
102
RTVSPost2010Prop56
140
1.0
102
RTVSPost2010PropOp56
 70
     0
102
RTVSPost2010Prop57
140
1.0
102
RTVSPost2010PropOp57
 70
     0
102
RTVSPropertyOp0
 70
     0
102
RTVSPropertyOp1
 70
     0
102
RTVSPropertyOp2
 70
     0
102
RTVSPropertyOp3
 70
     0
102
RTVSPropertyOp4
 70
     0
102
RTVSPropertyOp5
 70
     0
102
RTVSPropertyOp6
 70
     0
102
RTVSPropertyOp7
 70
     0
102
RTVSPropertyOp8
 70
     0
102
RTVSPropertyOp9
 70
     0
102
RTVSPropertyOp10
 70
     0
102
RTVSPropertyOp11
 70
     0
102
RTVSPropertyOp12
 70
     0
102
RTVSPropertyOp13
 70
     0
102
RTVSPropertyOp14
 70
     2
102
RTVSPropertyOp15
 70
     0
102
RTVSPropertyOp16
 70
     0
102
RTVSPropertyOp17
 70
     0
102
RTVSPropertyOp18
 70
     0
102
RTVSPropertyOp19
 70
     0
102
RTVSPropertyOp20
 70
     0
102
RTVSPropertyOp21
 70
     0
102
RTVSPropertyOp22
 70
     0
102
RTVSPropertyOp23
 70
     0
102
RTVSPropertyOp24
 70
     0
102
RTVSPropertyOp25
 70
     0
102
RTVSPropertyOp26
 70
     0
102
RTVSPropertyOp27
 70
     0
102
RTVSPropertyOp28
 70
     0
102
RTVSPropertyOp29
 70
     0
102
RTVSPropertyOp30
 70
     0
102
RTVSPropertyOp31
 70
     0
102
RTVSPropertyOp32
 70
     0
102
RTVSPropertyOp33
 70
     0
102
RTVSPropertyOp34
 70
     0
102
RTVSPropertyOp35
 70
     0
102
RTVSPropertyOp36
 70
     0
102
RTVSPropertyOp37
 70
     0
102
RTVSPropertyOp38
 70
     0
102
RTVSPropertyOp39
 70
     0
102
RTVSPropertyOp40
 70
     0
102
RTVSPropertyOp41
 70
     0
102
RTVSPropertyOp42
 70
     0
102
RTVSPropertyOp43
 70
     0
102
RTVSPropertyOp44
 70
     0
102
RTVSPropertyOp45
 70
     0
102
RTVSPropertyOp46
 70
     0
102
RTVSPropertyOp47
 70
     0
102
RTVSPropertyOp48
 70
     0
102
RTVSPropertyOp49
 70
     0
102
RTVSPropertyOp50
 70
     0
102
RTVSPropertyOp51
 70
     0
102
RTVSPropertyOp52
 70
     0
102
RTVSPropertyOp53
 70
     0
102
RTVSPropertyOp54
 70
     0
102
RTVSPropertyOp55
 70
     0
102
RTVSPropertyOp56
 70
     0
102
RTVSPropertyOp57
 70
     0
102
RTVSPropertyOp58
 70
     1
102
RTVSPropertyOp59
 70
     1
102
RTVSPropertyOp60
 70
     1
102
RTVSPropertyOp61
 70
     1
102
RTVSPropertyOp62
 70
     1
  0
XRECORD
  5
C64D
102
{ACAD_REACTORS
330
C64C
102
}
330
C64C
100
AcDbXrecord
280
     1
102
RTVSPost2010Prop28
280
     0
102
RTVSPost2010PropOp28
 70
     1
102
RTVSPost2010Prop29
280
     1
102
RTVSPost2010PropOp29
 70
     1
102
RTVSPost2010Prop30
280
     1
102
RTVSPost2010PropOp30
 70
     1
102
RTVSPost2010Prop31
280
     0
102
RTVSPost2010PropOp31
 70
     1
102
RTVSPost2010Prop32
280
     0
102
RTVSPost2010PropOp32
 70
     1
102
RTVSPost2010Prop33
280
     0
102
RTVSPost2010PropOp33
 70
     1
102
RTVSPost2010Prop34
280
     0
102
RTVSPost2010PropOp34
 70
     1
102
RTVSPost2010Prop35
280
     0
102
RTVSPost2010PropOp35
 70
     1
102
RTVSPost2010Prop36
280
     0
102
RTVSPost2010PropOp36
 70
     1
102
RTVSPost2010Prop37
 90
       50
102
RTVSPost2010PropOp37
 70
     1
102
RTVSPost2010Prop38
140
0.0
102
RTVSPost2010PropOp38
 70
     1
102
RTVSPost2010Prop39
140
1.0
102
RTVSPost2010PropOp39
 70
     1
102
RTVSPost2010Prop40
 90
        0
102
RTVSPost2010PropOp40
 70
     1
102
RTVSPost2010Prop41ColorIndex
 90
       18
102
RTVSPost2010Prop41ColorRGB
 90
        0
102
RTVSPost2010PropOp41
 70
     1
102
RTVSPost2010Prop42
 90
       50
102
RTVSPost2010PropOp42
 70
     1
102
RTVSPost2010Prop43
 90
        3
102
RTVSPost2010PropOp43
 70
     1
102
RTVSPost2010Prop44ColorIndex
 90
        5
102
RTVSPost2010Prop44ColorRGB
 90
      255
102
RTVSPost2010PropOp44
 70
     1
102
RTVSPost2010Prop45
280
     0
102
RTVSPost2010PropOp45
 70
     1
102
RTVSPost2010Prop46
 90
       50
102
RTVSPost2010PropOp46
 70
     1
102
RTVSPost2010Prop47
 90
       50
102
RTVSPost2010PropOp47
 70
     1
102
RTVSPost2010Prop48
 90
       50
102
RTVSPost2010PropOp48
 70
     1
102
RTVSPost2010Prop49
280
     0
102
RTVSPost2010PropOp49
 70
     1
102
RTVSPost2010Prop50
 90
       50
102
RTVSPost2010PropOp50
 70
     1
102
RTVSPost2010Prop51ColorIndex
 90
      256
102
RTVSPost2010Prop51ColorRGB
 90
-16777216
102
RTVSPost2010PropOp51
 70
     0
102
RTVSPost2010Prop52
140
1.0
102
RTVSPost2010PropOp52
 70
     0
102
RTVSPost2010Prop53
 90
        2
102
RTVSPost2010PropOp53
 70
     1
102
RTVSPost2010Prop54
  1
strokes_ogs.tif
102
RTVSPost2010PropOp54
 70
     1
102
RTVSPost2010Prop55
280
     0
102
RTVSPost2010PropOp55
 70
     1
102
RTVSPost2010Prop56
140
1.0
102
RTVSPost2010PropOp56
 70
     1
102
RTVSPost2010Prop57
140
1.0
102
RTVSPost2010PropOp57
 70
     1
102
RTVSPropertyOp0
 70
     1
102
RTVSPropertyOp1
 70
     1
102
RTVSPropertyOp2
 70
     1
102
RTVSPropertyOp3
 70
     1
102
RTVSPropertyOp4
 70
     1
102
RTVSPropertyOp5
 70
     1
102
RTVSPropertyOp6
 70
     1
102
RTVSPropertyOp7
 70
     1
102
RTVSPropertyOp8
 70
     1
102
RTVSPropertyOp9
 70
     1
102
RTVSPropertyOp10
 70
     1
102
RTVSPropertyOp11
 70
     1
102
RTVSPropertyOp12
 70
     1
102
RTVSPropertyOp13
 70
     1
102
RTVSPropertyOp14
 70
     1
102
RTVSPropertyOp15
 70
     1
102
RTVSPropertyOp16
 70
     1
102
RTVSPropertyOp17
 70
     1
102
RTVSPropertyOp18
 70
     1
102
RTVSPropertyOp19
 70
     1
102
RTVSPropertyOp20
 70
     1
102
RTVSPropertyOp21
 70
     1
102
RTVSPropertyOp22
 70
     1
102
RTVSPropertyOp23
 70
     1
102
RTVSPropertyOp24
 70
     1
102
RTVSPropertyOp25
 70
     1
102
RTVSPropertyOp26
 70
     1
102
RTVSPropertyOp27
 70
     1
102
RTVSPropertyOp28
 70
     1
102
RTVSPropertyOp29
 70
     1
102
RTVSPropertyOp30
 70
     1
102
RTVSPropertyOp31
 70
     1
102
RTVSPropertyOp32
 70
     1
102
RTVSPropertyOp33
 70
     1
102
RTVSPropertyOp34
 70
     1
102
RTVSPropertyOp35
 70
     1
102
RTVSPropertyOp36
 70
     1
102
RTVSPropertyOp37
 70
     1
102
RTVSPropertyOp38
 70
     1
102
RTVSPropertyOp39
 70
     1
102
RTVSPropertyOp40
 70
     1
102
RTVSPropertyOp41
 70
     1
102
RTVSPropertyOp42
 70
     1
102
RTVSPropertyOp43
 70
     1
102
RTVSPropertyOp44
 70
     1
102
RTVSPropertyOp45
 70
     1
102
RTVSPropertyOp46
 70
     1
102
RTVSPropertyOp47
 70
     1
102
RTVSPropertyOp48
 70
     1
102
RTVSPropertyOp49
 70
     1
102
RTVSPropertyOp50
 70
     1
102
RTVSPropertyOp51
 70
     0
102
RTVSPropertyOp52
 70
     0
102
RTVSPropertyOp53
 70
     1
102
RTVSPropertyOp54
 70
     1
102
RTVSPropertyOp55
 70
     1
102
RTVSPropertyOp56
 70
     1
102
RTVSPropertyOp57
 70
     1
102
RTVSPropertyOp58
 70
     1
102
RTVSPropertyOp59
 70
     1
102
RTVSPropertyOp60
 70
     1
102
RTVSPropertyOp61
 70
     1
102
RTVSPropertyOp62
 70
     1
  0
XRECORD
  5
C663
102
{ACAD_REACTORS
330
C662
102
}
330
C662
100
AcDbXrecord
280
     1
102
RTVSPost2010Prop28
280
     0
102
RTVSPost2010PropOp28
 70
     1
102
RTVSPost2010Prop29
280
     1
102
RTVSPost2010PropOp29
 70
     1
102
RTVSPost2010Prop30
280
     1
102
RTVSPost2010PropOp30
 70
     1
102
RTVSPost2010Prop31
280
     0
102
RTVSPost2010PropOp31
 70
     1
102
RTVSPost2010Prop32
280
     0
102
RTVSPost2010PropOp32
 70
     1
102
RTVSPost2010Prop33
280
     0
102
RTVSPost2010PropOp33
 70
     1
102
RTVSPost2010Prop34
280
     0
102
RTVSPost2010PropOp34
 70
     1
102
RTVSPost2010Prop35
280
     0
102
RTVSPost2010PropOp35
 70
     1
102
RTVSPost2010Prop36
280
     0
102
RTVSPost2010PropOp36
 70
     1
102
RTVSPost2010Prop37
 90
       50
102
RTVSPost2010PropOp37
 70
     1
102
RTVSPost2010Prop38
140
0.0
102
RTVSPost2010PropOp38
 70
     1
102
RTVSPost2010Prop39
140
1.0
102
RTVSPost2010PropOp39
 70
     1
102
RTVSPost2010Prop40
 90
        0
102
RTVSPost2010PropOp40
 70
     1
102
RTVSPost2010Prop41ColorIndex
 90
       18
102
RTVSPost2010Prop41ColorRGB
 90
        0
102
RTVSPost2010PropOp41
 70
     1
102
RTVSPost2010Prop42
 90
       50
102
RTVSPost2010PropOp42
 70
     1
102
RTVSPost2010Prop43
 90
        3
102
RTVSPost2010PropOp43
 70
     1
102
RTVSPost2010Prop44ColorIndex
 90
        5
102
RTVSPost2010Prop44ColorRGB
 90
      255
102
RTVSPost2010PropOp44
 70
     1
102
RTVSPost2010Prop45
280
     0
102
RTVSPost2010PropOp45
 70
     1
102
RTVSPost2010Prop46
 90
       50
102
RTVSPost2010PropOp46
 70
     1
102
RTVSPost2010Prop47
 90
       50
102
RTVSPost2010PropOp47
 70
     1
102
RTVSPost2010Prop48
 90
       50
102
RTVSPost2010PropOp48
 70
     1
102
RTVSPost2010Prop49
280
     0
102
RTVSPost2010PropOp49
 70
     1
102
RTVSPost2010Prop50
 90
       50
102
RTVSPost2010PropOp50
 70
     1
102
RTVSPost2010Prop51ColorIndex
 90
      256
102
RTVSPost2010Prop51ColorRGB
 90
-16777216
102
RTVSPost2010PropOp51
 70
     0
102
RTVSPost2010Prop52
140
1.0
102
RTVSPost2010PropOp52
 70
     0
102
RTVSPost2010Prop53
 90
        2
102
RTVSPost2010PropOp53
 70
     1
102
RTVSPost2010Prop54
  1
strokes_ogs.tif
102
RTVSPost2010PropOp54
 70
     1
102
RTVSPost2010Prop55
280
     0
102
RTVSPost2010PropOp55
 70
     1
102
RTVSPost2010Prop56
140
1.0
102
RTVSPost2010PropOp56
 70
     1
102
RTVSPost2010Prop57
140
1.0
102
RTVSPost2010PropOp57
 70
     1
102
RTVSPropertyOp0
 70
     1
102
RTVSPropertyOp1
 70
     1
102
RTVSPropertyOp2
 70
     1
102
RTVSPropertyOp3
 70
     1
102
RTVSPropertyOp4
 70
     1
102
RTVSPropertyOp5
 70
     1
102
RTVSPropertyOp6
 70
     1
102
RTVSPropertyOp7
 70
     1
102
RTVSPropertyOp8
 70
     1
102
RTVSPropertyOp9
 70
     1
102
RTVSPropertyOp10
 70
     1
102
RTVSPropertyOp11
 70
     1
102
RTVSPropertyOp12
 70
     1
102
RTVSPropertyOp13
 70
     1
102
RTVSPropertyOp14
 70
     1
102
RTVSPropertyOp15
 70
     1
102
RTVSPropertyOp16
 70
     1
102
RTVSPropertyOp17
 70
     1
102
RTVSPropertyOp18
 70
     1
102
RTVSPropertyOp19
 70
     1
102
RTVSPropertyOp20
 70
     1
102
RTVSPropertyOp21
 70
     1
102
RTVSPropertyOp22
 70
     1
102
RTVSPropertyOp23
 70
     1
102
RTVSPropertyOp24
 70
     1
102
RTVSPropertyOp25
 70
     1
102
RTVSPropertyOp26
 70
     1
102
RTVSPropertyOp27
 70
     1
102
RTVSPropertyOp28
 70
     1
102
RTVSPropertyOp29
 70
     1
102
RTVSPropertyOp30
 70
     1
102
RTVSPropertyOp31
 70
     1
102
RTVSPropertyOp32
 70
     1
102
RTVSPropertyOp33
 70
     1
102
RTVSPropertyOp34
 70
     1
102
RTVSPropertyOp35
 70
     1
102
RTVSPropertyOp36
 70
     1
102
RTVSPropertyOp37
 70
     1
102
RTVSPropertyOp38
 70
     1
102
RTVSPropertyOp39
 70
     1
102
RTVSPropertyOp40
 70
     1
102
RTVSPropertyOp41
 70
     1
102
RTVSPropertyOp42
 70
     1
102
RTVSPropertyOp43
 70
     1
102
RTVSPropertyOp44
 70
     1
102
RTVSPropertyOp45
 70
     1
102
RTVSPropertyOp46
 70
     1
102
RTVSPropertyOp47
 70
     1
102
RTVSPropertyOp48
 70
     1
102
RTVSPropertyOp49
 70
     1
102
RTVSPropertyOp50
 70
     1
102
RTVSPropertyOp51
 70
     0
102
RTVSPropertyOp52
 70
     0
102
RTVSPropertyOp53
 70
     1
102
RTVSPropertyOp54
 70
     1
102
RTVSPropertyOp55
 70
     1
102
RTVSPropertyOp56
 70
     1
102
RTVSPropertyOp57
 70
     1
102
RTVSPropertyOp58
 70
     1
102
RTVSPropertyOp59
 70
     1
102
RTVSPropertyOp60
 70
     1
102
RTVSPropertyOp61
 70
     1
102
RTVSPropertyOp62
 70
     1
  0
XRECORD
  5
C661
102
{ACAD_REACTORS
330
C660
102
}
330
C660
100
AcDbXrecord
280
     1
102
RTVSPost2010Prop28
280
     0
102
RTVSPost2010PropOp28
 70
     1
102
RTVSPost2010Prop29
280
     1
102
RTVSPost2010PropOp29
 70
     1
102
RTVSPost2010Prop30
280
     1
102
RTVSPost2010PropOp30
 70
     1
102
RTVSPost2010Prop31
280
     0
102
RTVSPost2010PropOp31
 70
     1
102
RTVSPost2010Prop32
280
     0
102
RTVSPost2010PropOp32
 70
     1
102
RTVSPost2010Prop33
280
     0
102
RTVSPost2010PropOp33
 70
     1
102
RTVSPost2010Prop34
280
     0
102
RTVSPost2010PropOp34
 70
     1
102
RTVSPost2010Prop35
280
     0
102
RTVSPost2010PropOp35
 70
     1
102
RTVSPost2010Prop36
280
     0
102
RTVSPost2010PropOp36
 70
     1
102
RTVSPost2010Prop37
 90
       50
102
RTVSPost2010PropOp37
 70
     1
102
RTVSPost2010Prop38
140
0.0
102
RTVSPost2010PropOp38
 70
     1
102
RTVSPost2010Prop39
140
1.0
102
RTVSPost2010PropOp39
 70
     1
102
RTVSPost2010Prop40
 90
        0
102
RTVSPost2010PropOp40
 70
     1
102
RTVSPost2010Prop41ColorIndex
 90
       18
102
RTVSPost2010Prop41ColorRGB
 90
        0
102
RTVSPost2010PropOp41
 70
     1
102
RTVSPost2010Prop42
 90
       50
102
RTVSPost2010PropOp42
 70
     1
102
RTVSPost2010Prop43
 90
        3
102
RTVSPost2010PropOp43
 70
     1
102
RTVSPost2010Prop44ColorIndex
 90
        5
102
RTVSPost2010Prop44ColorRGB
 90
      255
102
RTVSPost2010PropOp44
 70
     1
102
RTVSPost2010Prop45
280
     0
102
RTVSPost2010PropOp45
 70
     1
102
RTVSPost2010Prop46
 90
       50
102
RTVSPost2010PropOp46
 70
     1
102
RTVSPost2010Prop47
 90
       50
102
RTVSPost2010PropOp47
 70
     1
102
RTVSPost2010Prop48
 90
       50
102
RTVSPost2010PropOp48
 70
     1
102
RTVSPost2010Prop49
280
     0
102
RTVSPost2010PropOp49
 70
     1
102
RTVSPost2010Prop50
 90
       50
102
RTVSPost2010PropOp50
 70
     1
102
RTVSPost2010Prop51ColorIndex
 90
      256
102
RTVSPost2010Prop51ColorRGB
 90
-16777216
102
RTVSPost2010PropOp51
 70
     0
102
RTVSPost2010Prop52
140
1.0
102
RTVSPost2010PropOp52
 70
     0
102
RTVSPost2010Prop53
 90
        2
102
RTVSPost2010PropOp53
 70
     1
102
RTVSPost2010Prop54
  1
strokes_ogs.tif
102
RTVSPost2010PropOp54
 70
     1
102
RTVSPost2010Prop55
280
     0
102
RTVSPost2010PropOp55
 70
     1
102
RTVSPost2010Prop56
140
1.0
102
RTVSPost2010PropOp56
 70
     1
102
RTVSPost2010Prop57
140
1.0
102
RTVSPost2010PropOp57
 70
     1
102
RTVSPropertyOp0
 70
     1
102
RTVSPropertyOp1
 70
     1
102
RTVSPropertyOp2
 70
     1
102
RTVSPropertyOp3
 70
     1
102
RTVSPropertyOp4
 70
     1
102
RTVSPropertyOp5
 70
     1
102
RTVSPropertyOp6
 70
     1
102
RTVSPropertyOp7
 70
     1
102
RTVSPropertyOp8
 70
     1
102
RTVSPropertyOp9
 70
     1
102
RTVSPropertyOp10
 70
     1
102
RTVSPropertyOp11
 70
     1
102
RTVSPropertyOp12
 70
     1
102
RTVSPropertyOp13
 70
     1
102
RTVSPropertyOp14
 70
     1
102
RTVSPropertyOp15
 70
     1
102
RTVSPropertyOp16
 70
     1
102
RTVSPropertyOp17
 70
     1
102
RTVSPropertyOp18
 70
     1
102
RTVSPropertyOp19
 70
     1
102
RTVSPropertyOp20
 70
     1
102
RTVSPropertyOp21
 70
     1
102
RTVSPropertyOp22
 70
     1
102
RTVSPropertyOp23
 70
     1
102
RTVSPropertyOp24
 70
     1
102
RTVSPropertyOp25
 70
     1
102
RTVSPropertyOp26
 70
     1
102
RTVSPropertyOp27
 70
     1
102
RTVSPropertyOp28
 70
     1
102
RTVSPropertyOp29
 70
     1
102
RTVSPropertyOp30
 70
     1
102
RTVSPropertyOp31
 70
     1
102
RTVSPropertyOp32
 70
     1
102
RTVSPropertyOp33
 70
     1
102
RTVSPropertyOp34
 70
     1
102
RTVSPropertyOp35
 70
     1
102
RTVSPropertyOp36
 70
     1
102
RTVSPropertyOp37
 70
     1
102
RTVSPropertyOp38
 70
     1
102
RTVSPropertyOp39
 70
     1
102
RTVSPropertyOp40
 70
     1
102
RTVSPropertyOp41
 70
     1
102
RTVSPropertyOp42
 70
     1
102
RTVSPropertyOp43
 70
     1
102
RTVSPropertyOp44
 70
     1
102
RTVSPropertyOp45
 70
     1
102
RTVSPropertyOp46
 70
     1
102
RTVSPropertyOp47
 70
     1
102
RTVSPropertyOp48
 70
     1
102
RTVSPropertyOp49
 70
     1
102
RTVSPropertyOp50
 70
     1
102
RTVSPropertyOp51
 70
     0
102
RTVSPropertyOp52
 70
     0
102
RTVSPropertyOp53
 70
     1
102
RTVSPropertyOp54
 70
     1
102
RTVSPropertyOp55
 70
     1
102
RTVSPropertyOp56
 70
     1
102
RTVSPropertyOp57
 70
     1
102
RTVSPropertyOp58
 70
     1
102
RTVSPropertyOp59
 70
     1
102
RTVSPropertyOp60
 70
     1
102
RTVSPropertyOp61
 70
     1
102
RTVSPropertyOp62
 70
     1
  0
XRECORD
  5
C65B
102
{ACAD_REACTORS
330
C65A
102
}
330
C65A
100
AcDbXrecord
280
     1
102
RTVSPost2010Prop28
280
     0
102
RTVSPost2010PropOp28
 70
     1
102
RTVSPost2010Prop29
280
     1
102
RTVSPost2010PropOp29
 70
     1
102
RTVSPost2010Prop30
280
     1
102
RTVSPost2010PropOp30
 70
     1
102
RTVSPost2010Prop31
280
     0
102
RTVSPost2010PropOp31
 70
     1
102
RTVSPost2010Prop32
280
     0
102
RTVSPost2010PropOp32
 70
     1
102
RTVSPost2010Prop33
280
     0
102
RTVSPost2010PropOp33
 70
     1
102
RTVSPost2010Prop34
280
     0
102
RTVSPost2010PropOp34
 70
     1
102
RTVSPost2010Prop35
280
     0
102
RTVSPost2010PropOp35
 70
     1
102
RTVSPost2010Prop36
280
     0
102
RTVSPost2010PropOp36
 70
     1
102
RTVSPost2010Prop37
 90
       50
102
RTVSPost2010PropOp37
 70
     1
102
RTVSPost2010Prop38
140
0.0
102
RTVSPost2010PropOp38
 70
     1
102
RTVSPost2010Prop39
140
1.0
102
RTVSPost2010PropOp39
 70
     1
102
RTVSPost2010Prop40
 90
        0
102
RTVSPost2010PropOp40
 70
     1
102
RTVSPost2010Prop41ColorIndex
 90
       18
102
RTVSPost2010Prop41ColorRGB
 90
        0
102
RTVSPost2010PropOp41
 70
     1
102
RTVSPost2010Prop42
 90
       50
102
RTVSPost2010PropOp42
 70
     1
102
RTVSPost2010Prop43
 90
        3
102
RTVSPost2010PropOp43
 70
     1
102
RTVSPost2010Prop44ColorIndex
 90
        5
102
RTVSPost2010Prop44ColorRGB
 90
      255
102
RTVSPost2010PropOp44
 70
     1
102
RTVSPost2010Prop45
280
     0
102
RTVSPost2010PropOp45
 70
     1
102
RTVSPost2010Prop46
 90
       50
102
RTVSPost2010PropOp46
 70
     1
102
RTVSPost2010Prop47
 90
       50
102
RTVSPost2010PropOp47
 70
     1
102
RTVSPost2010Prop48
 90
       50
102
RTVSPost2010PropOp48
 70
     1
102
RTVSPost2010Prop49
280
     0
102
RTVSPost2010PropOp49
 70
     1
102
RTVSPost2010Prop50
 90
       50
102
RTVSPost2010PropOp50
 70
     1
102
RTVSPost2010Prop51ColorIndex
 90
      256
102
RTVSPost2010Prop51ColorRGB
 90
-16777216
102
RTVSPost2010PropOp51
 70
     0
102
RTVSPost2010Prop52
140
1.0
102
RTVSPost2010PropOp52
 70
     0
102
RTVSPost2010Prop53
 90
        2
102
RTVSPost2010PropOp53
 70
     1
102
RTVSPost2010Prop54
  1
strokes_ogs.tif
102
RTVSPost2010PropOp54
 70
     1
102
RTVSPost2010Prop55
280
     0
102
RTVSPost2010PropOp55
 70
     1
102
RTVSPost2010Prop56
140
1.0
102
RTVSPost2010PropOp56
 70
     1
102
RTVSPost2010Prop57
140
1.0
102
RTVSPost2010PropOp57
 70
     1
102
RTVSPropertyOp0
 70
     1
102
RTVSPropertyOp1
 70
     1
102
RTVSPropertyOp2
 70
     1
102
RTVSPropertyOp3
 70
     1
102
RTVSPropertyOp4
 70
     1
102
RTVSPropertyOp5
 70
     1
102
RTVSPropertyOp6
 70
     1
102
RTVSPropertyOp7
 70
     1
102
RTVSPropertyOp8
 70
     1
102
RTVSPropertyOp9
 70
     1
102
RTVSPropertyOp10
 70
     1
102
RTVSPropertyOp11
 70
     1
102
RTVSPropertyOp12
 70
     1
102
RTVSPropertyOp13
 70
     1
102
RTVSPropertyOp14
 70
     1
102
RTVSPropertyOp15
 70
     1
102
RTVSPropertyOp16
 70
     1
102
RTVSPropertyOp17
 70
     1
102
RTVSPropertyOp18
 70
     1
102
RTVSPropertyOp19
 70
     1
102
RTVSPropertyOp20
 70
     1
102
RTVSPropertyOp21
 70
     1
102
RTVSPropertyOp22
 70
     1
102
RTVSPropertyOp23
 70
     1
102
RTVSPropertyOp24
 70
     1
102
RTVSPropertyOp25
 70
     1
102
RTVSPropertyOp26
 70
     1
102
RTVSPropertyOp27
 70
     1
102
RTVSPropertyOp28
 70
     1
102
RTVSPropertyOp29
 70
     1
102
RTVSPropertyOp30
 70
     1
102
RTVSPropertyOp31
 70
     1
102
RTVSPropertyOp32
 70
     1
102
RTVSPropertyOp33
 70
     1
102
RTVSPropertyOp34
 70
     1
102
RTVSPropertyOp35
 70
     1
102
RTVSPropertyOp36
 70
     1
102
RTVSPropertyOp37
 70
     1
102
RTVSPropertyOp38
 70
     1
102
RTVSPropertyOp39
 70
     1
102
RTVSPropertyOp40
 70
     1
102
RTVSPropertyOp41
 70
     1
102
RTVSPropertyOp42
 70
     1
102
RTVSPropertyOp43
 70
     1
102
RTVSPropertyOp44
 70
     1
102
RTVSPropertyOp45
 70
     1
102
RTVSPropertyOp46
 70
     1
102
RTVSPropertyOp47
 70
     1
102
RTVSPropertyOp48
 70
     1
102
RTVSPropertyOp49
 70
     1
102
RTVSPropertyOp50
 70
     1
102
RTVSPropertyOp51
 70
     0
102
RTVSPropertyOp52
 70
     0
102
RTVSPropertyOp53
 70
     1
102
RTVSPropertyOp54
 70
     1
102
RTVSPropertyOp55
 70
     1
102
RTVSPropertyOp56
 70
     1
102
RTVSPropertyOp57
 70
     1
102
RTVSPropertyOp58
 70
     1
102
RTVSPropertyOp59
 70
     1
102
RTVSPropertyOp60
 70
     1
102
RTVSPropertyOp61
 70
     1
102
RTVSPropertyOp62
 70
     1
  0
XRECORD
  5
C65D
102
{ACAD_REACTORS
330
C65C
102
}
330
C65C
100
AcDbXrecord
280
     1
102
RTVSPost2010Prop28
280
     0
102
RTVSPost2010PropOp28
 70
     1
102
RTVSPost2010Prop29
280
     1
102
RTVSPost2010PropOp29
 70
     1
102
RTVSPost2010Prop30
280
     1
102
RTVSPost2010PropOp30
 70
     1
102
RTVSPost2010Prop31
280
     0
102
RTVSPost2010PropOp31
 70
     1
102
RTVSPost2010Prop32
280
     0
102
RTVSPost2010PropOp32
 70
     1
102
RTVSPost2010Prop33
280
     0
102
RTVSPost2010PropOp33
 70
     1
102
RTVSPost2010Prop34
280
     0
102
RTVSPost2010PropOp34
 70
     1
102
RTVSPost2010Prop35
280
     0
102
RTVSPost2010PropOp35
 70
     1
102
RTVSPost2010Prop36
280
     0
102
RTVSPost2010PropOp36
 70
     1
102
RTVSPost2010Prop37
 90
       50
102
RTVSPost2010PropOp37
 70
     1
102
RTVSPost2010Prop38
140
0.0
102
RTVSPost2010PropOp38
 70
     1
102
RTVSPost2010Prop39
140
1.0
102
RTVSPost2010PropOp39
 70
     1
102
RTVSPost2010Prop40
 90
        0
102
RTVSPost2010PropOp40
 70
     1
102
RTVSPost2010Prop41ColorIndex
 90
       18
102
RTVSPost2010Prop41ColorRGB
 90
        0
102
RTVSPost2010PropOp41
 70
     1
102
RTVSPost2010Prop42
 90
       50
102
RTVSPost2010PropOp42
 70
     1
102
RTVSPost2010Prop43
 90
        3
102
RTVSPost2010PropOp43
 70
     1
102
RTVSPost2010Prop44ColorIndex
 90
        5
102
RTVSPost2010Prop44ColorRGB
 90
      255
102
RTVSPost2010PropOp44
 70
     1
102
RTVSPost2010Prop45
280
     0
102
RTVSPost2010PropOp45
 70
     1
102
RTVSPost2010Prop46
 90
       50
102
RTVSPost2010PropOp46
 70
     1
102
RTVSPost2010Prop47
 90
       50
102
RTVSPost2010PropOp47
 70
     1
102
RTVSPost2010Prop48
 90
       50
102
RTVSPost2010PropOp48
 70
     1
102
RTVSPost2010Prop49
280
     0
102
RTVSPost2010PropOp49
 70
     1
102
RTVSPost2010Prop50
 90
       50
102
RTVSPost2010PropOp50
 70
     1
102
RTVSPost2010Prop51ColorIndex
 90
      256
102
RTVSPost2010Prop51ColorRGB
 90
-16777216
102
RTVSPost2010PropOp51
 70
     0
102
RTVSPost2010Prop52
140
1.0
102
RTVSPost2010PropOp52
 70
     0
102
RTVSPost2010Prop53
 90
        2
102
RTVSPost2010PropOp53
 70
     1
102
RTVSPost2010Prop54
  1
strokes_ogs.tif
102
RTVSPost2010PropOp54
 70
     1
102
RTVSPost2010Prop55
280
     0
102
RTVSPost2010PropOp55
 70
     1
102
RTVSPost2010Prop56
140
1.0
102
RTVSPost2010PropOp56
 70
     1
102
RTVSPost2010Prop57
140
1.0
102
RTVSPost2010PropOp57
 70
     1
102
RTVSPropertyOp0
 70
     1
102
RTVSPropertyOp1
 70
     1
102
RTVSPropertyOp2
 70
     1
102
RTVSPropertyOp3
 70
     1
102
RTVSPropertyOp4
 70
     1
102
RTVSPropertyOp5
 70
     1
102
RTVSPropertyOp6
 70
     1
102
RTVSPropertyOp7
 70
     1
102
RTVSPropertyOp8
 70
     1
102
RTVSPropertyOp9
 70
     1
102
RTVSPropertyOp10
 70
     1
102
RTVSPropertyOp11
 70
     1
102
RTVSPropertyOp12
 70
     1
102
RTVSPropertyOp13
 70
     1
102
RTVSPropertyOp14
 70
     1
102
RTVSPropertyOp15
 70
     1
102
RTVSPropertyOp16
 70
     1
102
RTVSPropertyOp17
 70
     1
102
RTVSPropertyOp18
 70
     1
102
RTVSPropertyOp19
 70
     1
102
RTVSPropertyOp20
 70
     1
102
RTVSPropertyOp21
 70
     1
102
RTVSPropertyOp22
 70
     1
102
RTVSPropertyOp23
 70
     1
102
RTVSPropertyOp24
 70
     1
102
RTVSPropertyOp25
 70
     1
102
RTVSPropertyOp26
 70
     1
102
RTVSPropertyOp27
 70
     1
102
RTVSPropertyOp28
 70
     1
102
RTVSPropertyOp29
 70
     1
102
RTVSPropertyOp30
 70
     1
102
RTVSPropertyOp31
 70
     1
102
RTVSPropertyOp32
 70
     1
102
RTVSPropertyOp33
 70
     1
102
RTVSPropertyOp34
 70
     1
102
RTVSPropertyOp35
 70
     1
102
RTVSPropertyOp36
 70
     1
102
RTVSPropertyOp37
 70
     1
102
RTVSPropertyOp38
 70
     1
102
RTVSPropertyOp39
 70
     1
102
RTVSPropertyOp40
 70
     1
102
RTVSPropertyOp41
 70
     1
102
RTVSPropertyOp42
 70
     1
102
RTVSPropertyOp43
 70
     1
102
RTVSPropertyOp44
 70
     1
102
RTVSPropertyOp45
 70
     1
102
RTVSPropertyOp46
 70
     1
102
RTVSPropertyOp47
 70
     1
102
RTVSPropertyOp48
 70
     1
102
RTVSPropertyOp49
 70
     1
102
RTVSPropertyOp50
 70
     1
102
RTVSPropertyOp51
 70
     0
102
RTVSPropertyOp52
 70
     0
102
RTVSPropertyOp53
 70
     1
102
RTVSPropertyOp54
 70
     1
102
RTVSPropertyOp55
 70
     1
102
RTVSPropertyOp56
 70
     1
102
RTVSPropertyOp57
 70
     1
102
RTVSPropertyOp58
 70
     1
102
RTVSPropertyOp59
 70
     1
102
RTVSPropertyOp60
 70
     1
102
RTVSPropertyOp61
 70
     1
102
RTVSPropertyOp62
 70
     1
  0
XRECORD
  5
C653
102
{ACAD_REACTORS
330
C652
102
}
330
C652
100
AcDbXrecord
280
     1
102
RTVSPost2010Prop28
280
     0
102
RTVSPost2010PropOp28
 70
     1
102
RTVSPost2010Prop29
280
     1
102
RTVSPost2010PropOp29
 70
     1
102
RTVSPost2010Prop30
280
     1
102
RTVSPost2010PropOp30
 70
     1
102
RTVSPost2010Prop31
280
     0
102
RTVSPost2010PropOp31
 70
     1
102
RTVSPost2010Prop32
280
     0
102
RTVSPost2010PropOp32
 70
     1
102
RTVSPost2010Prop33
280
     0
102
RTVSPost2010PropOp33
 70
     1
102
RTVSPost2010Prop34
280
     0
102
RTVSPost2010PropOp34
 70
     1
102
RTVSPost2010Prop35
280
     0
102
RTVSPost2010PropOp35
 70
     1
102
RTVSPost2010Prop36
280
     0
102
RTVSPost2010PropOp36
 70
     1
102
RTVSPost2010Prop37
 90
       50
102
RTVSPost2010PropOp37
 70
     1
102
RTVSPost2010Prop38
140
0.0
102
RTVSPost2010PropOp38
 70
     1
102
RTVSPost2010Prop39
140
1.0
102
RTVSPost2010PropOp39
 70
     1
102
RTVSPost2010Prop40
 90
        0
102
RTVSPost2010PropOp40
 70
     1
102
RTVSPost2010Prop41ColorIndex
 90
       18
102
RTVSPost2010Prop41ColorRGB
 90
        0
102
RTVSPost2010PropOp41
 70
     1
102
RTVSPost2010Prop42
 90
       50
102
RTVSPost2010PropOp42
 70
     1
102
RTVSPost2010Prop43
 90
        3
102
RTVSPost2010PropOp43
 70
     1
102
RTVSPost2010Prop44ColorIndex
 90
        5
102
RTVSPost2010Prop44ColorRGB
 90
      255
102
RTVSPost2010PropOp44
 70
     1
102
RTVSPost2010Prop45
280
     0
102
RTVSPost2010PropOp45
 70
     1
102
RTVSPost2010Prop46
 90
       50
102
RTVSPost2010PropOp46
 70
     1
102
RTVSPost2010Prop47
 90
       50
102
RTVSPost2010PropOp47
 70
     1
102
RTVSPost2010Prop48
 90
       50
102
RTVSPost2010PropOp48
 70
     1
102
RTVSPost2010Prop49
280
     0
102
RTVSPost2010PropOp49
 70
     1
102
RTVSPost2010Prop50
 90
       50
102
RTVSPost2010PropOp50
 70
     1
102
RTVSPost2010Prop51ColorIndex
 90
      256
102
RTVSPost2010Prop51ColorRGB
 90
-16777216
102
RTVSPost2010PropOp51
 70
     0
102
RTVSPost2010Prop52
140
1.0
102
RTVSPost2010PropOp52
 70
     0
102
RTVSPost2010Prop53
 90
        2
102
RTVSPost2010PropOp53
 70
     1
102
RTVSPost2010Prop54
  1
strokes_ogs.tif
102
RTVSPost2010PropOp54
 70
     1
102
RTVSPost2010Prop55
280
     0
102
RTVSPost2010PropOp55
 70
     1
102
RTVSPost2010Prop56
140
1.0
102
RTVSPost2010PropOp56
 70
     1
102
RTVSPost2010Prop57
140
1.0
102
RTVSPost2010PropOp57
 70
     1
102
RTVSPropertyOp0
 70
     1
102
RTVSPropertyOp1
 70
     1
102
RTVSPropertyOp2
 70
     1
102
RTVSPropertyOp3
 70
     1
102
RTVSPropertyOp4
 70
     1
102
RTVSPropertyOp5
 70
     1
102
RTVSPropertyOp6
 70
     1
102
RTVSPropertyOp7
 70
     1
102
RTVSPropertyOp8
 70
     1
102
RTVSPropertyOp9
 70
     1
102
RTVSPropertyOp10
 70
     1
102
RTVSPropertyOp11
 70
     1
102
RTVSPropertyOp12
 70
     1
102
RTVSPropertyOp13
 70
     1
102
RTVSPropertyOp14
 70
     1
102
RTVSPropertyOp15
 70
     1
102
RTVSPropertyOp16
 70
     1
102
RTVSPropertyOp17
 70
     1
102
RTVSPropertyOp18
 70
     1
102
RTVSPropertyOp19
 70
     1
102
RTVSPropertyOp20
 70
     1
102
RTVSPropertyOp21
 70
     1
102
RTVSPropertyOp22
 70
     1
102
RTVSPropertyOp23
 70
     1
102
RTVSPropertyOp24
 70
     1
102
RTVSPropertyOp25
 70
     1
102
RTVSPropertyOp26
 70
     1
102
RTVSPropertyOp27
 70
     1
102
RTVSPropertyOp28
 70
     1
102
RTVSPropertyOp29
 70
     1
102
RTVSPropertyOp30
 70
     1
102
RTVSPropertyOp31
 70
     1
102
RTVSPropertyOp32
 70
     1
102
RTVSPropertyOp33
 70
     1
102
RTVSPropertyOp34
 70
     1
102
RTVSPropertyOp35
 70
     1
102
RTVSPropertyOp36
 70
     1
102
RTVSPropertyOp37
 70
     1
102
RTVSPropertyOp38
 70
     1
102
RTVSPropertyOp39
 70
     1
102
RTVSPropertyOp40
 70
     1
102
RTVSPropertyOp41
 70
     1
102
RTVSPropertyOp42
 70
     1
102
RTVSPropertyOp43
 70
     1
102
RTVSPropertyOp44
 70
     1
102
RTVSPropertyOp45
 70
     1
102
RTVSPropertyOp46
 70
     1
102
RTVSPropertyOp47
 70
     1
102
RTVSPropertyOp48
 70
     1
102
RTVSPropertyOp49
 70
     1
102
RTVSPropertyOp50
 70
     1
102
RTVSPropertyOp51
 70
     0
102
RTVSPropertyOp52
 70
     0
102
RTVSPropertyOp53
 70
     1
102
RTVSPropertyOp54
 70
     1
102
RTVSPropertyOp55
 70
     1
102
RTVSPropertyOp56
 70
     1
102
RTVSPropertyOp57
 70
     1
102
RTVSPropertyOp58
 70
     1
102
RTVSPropertyOp59
 70
     1
102
RTVSPropertyOp60
 70
     1
102
RTVSPropertyOp61
 70
     1
102
RTVSPropertyOp62
 70
     1
  0
XRECORD
  5
C647
102
{ACAD_REACTORS
330
C646
102
}
330
C646
100
AcDbXrecord
280
     1
102
RTVSPost2010Prop28
280
     0
102
RTVSPost2010PropOp28
 70
     1
102
RTVSPost2010Prop29
280
     1
102
RTVSPost2010PropOp29
 70
     1
102
RTVSPost2010Prop30
280
     1
102
RTVSPost2010PropOp30
 70
     1
102
RTVSPost2010Prop31
280
     0
102
RTVSPost2010PropOp31
 70
     1
102
RTVSPost2010Prop32
280
     0
102
RTVSPost2010PropOp32
 70
     1
102
RTVSPost2010Prop33
280
     0
102
RTVSPost2010PropOp33
 70
     1
102
RTVSPost2010Prop34
280
     0
102
RTVSPost2010PropOp34
 70
     1
102
RTVSPost2010Prop35
280
     0
102
RTVSPost2010PropOp35
 70
     1
102
RTVSPost2010Prop36
280
     0
102
RTVSPost2010PropOp36
 70
     1
102
RTVSPost2010Prop37
 90
       50
102
RTVSPost2010PropOp37
 70
     1
102
RTVSPost2010Prop38
140
0.0
102
RTVSPost2010PropOp38
 70
     1
102
RTVSPost2010Prop39
140
1.0
102
RTVSPost2010PropOp39
 70
     1
102
RTVSPost2010Prop40
 90
        0
102
RTVSPost2010PropOp40
 70
     1
102
RTVSPost2010Prop41ColorIndex
 90
       18
102
RTVSPost2010Prop41ColorRGB
 90
        0
102
RTVSPost2010PropOp41
 70
     1
102
RTVSPost2010Prop42
 90
       50
102
RTVSPost2010PropOp42
 70
     1
102
RTVSPost2010Prop43
 90
        3
102
RTVSPost2010PropOp43
 70
     1
102
RTVSPost2010Prop44ColorIndex
 90
        5
102
RTVSPost2010Prop44ColorRGB
 90
      255
102
RTVSPost2010PropOp44
 70
     1
102
RTVSPost2010Prop45
280
     0
102
RTVSPost2010PropOp45
 70
     1
102
RTVSPost2010Prop46
 90
       50
102
RTVSPost2010PropOp46
 70
     1
102
RTVSPost2010Prop47
 90
       50
102
RTVSPost2010PropOp47
 70
     1
102
RTVSPost2010Prop48
 90
       50
102
RTVSPost2010PropOp48
 70
     1
102
RTVSPost2010Prop49
280
     0
102
RTVSPost2010PropOp49
 70
     1
102
RTVSPost2010Prop50
 90
       50
102
RTVSPost2010PropOp50
 70
     1
102
RTVSPost2010Prop51ColorIndex
 90
      256
102
RTVSPost2010Prop51ColorRGB
 90
-16777216
102
RTVSPost2010PropOp51
 70
     0
102
RTVSPost2010Prop52
140
1.0
102
RTVSPost2010PropOp52
 70
     0
102
RTVSPost2010Prop53
 90
        2
102
RTVSPost2010PropOp53
 70
     1
102
RTVSPost2010Prop54
  1
strokes_ogs.tif
102
RTVSPost2010PropOp54
 70
     1
102
RTVSPost2010Prop55
280
     0
102
RTVSPost2010PropOp55
 70
     1
102
RTVSPost2010Prop56
140
1.0
102
RTVSPost2010PropOp56
 70
     1
102
RTVSPost2010Prop57
140
1.0
102
RTVSPost2010PropOp57
 70
     1
102
RTVSPropertyOp0
 70
     1
102
RTVSPropertyOp1
 70
     1
102
RTVSPropertyOp2
 70
     1
102
RTVSPropertyOp3
 70
     1
102
RTVSPropertyOp4
 70
     1
102
RTVSPropertyOp5
 70
     1
102
RTVSPropertyOp6
 70
     1
102
RTVSPropertyOp7
 70
     1
102
RTVSPropertyOp8
 70
     1
102
RTVSPropertyOp9
 70
     1
102
RTVSPropertyOp10
 70
     1
102
RTVSPropertyOp11
 70
     1
102
RTVSPropertyOp12
 70
     1
102
RTVSPropertyOp13
 70
     1
102
RTVSPropertyOp14
 70
     1
102
RTVSPropertyOp15
 70
     1
102
RTVSPropertyOp16
 70
     1
102
RTVSPropertyOp17
 70
     1
102
RTVSPropertyOp18
 70
     1
102
RTVSPropertyOp19
 70
     1
102
RTVSPropertyOp20
 70
     1
102
RTVSPropertyOp21
 70
     1
102
RTVSPropertyOp22
 70
     1
102
RTVSPropertyOp23
 70
     1
102
RTVSPropertyOp24
 70
     1
102
RTVSPropertyOp25
 70
     1
102
RTVSPropertyOp26
 70
     1
102
RTVSPropertyOp27
 70
     1
102
RTVSPropertyOp28
 70
     1
102
RTVSPropertyOp29
 70
     1
102
RTVSPropertyOp30
 70
     1
102
RTVSPropertyOp31
 70
     1
102
RTVSPropertyOp32
 70
     1
102
RTVSPropertyOp33
 70
     1
102
RTVSPropertyOp34
 70
     1
102
RTVSPropertyOp35
 70
     1
102
RTVSPropertyOp36
 70
     1
102
RTVSPropertyOp37
 70
     1
102
RTVSPropertyOp38
 70
     1
102
RTVSPropertyOp39
 70
     1
102
RTVSPropertyOp40
 70
     1
102
RTVSPropertyOp41
 70
     1
102
RTVSPropertyOp42
 70
     1
102
RTVSPropertyOp43
 70
     1
102
RTVSPropertyOp44
 70
     1
102
RTVSPropertyOp45
 70
     1
102
RTVSPropertyOp46
 70
     1
102
RTVSPropertyOp47
 70
     1
102
RTVSPropertyOp48
 70
     1
102
RTVSPropertyOp49
 70
     1
102
RTVSPropertyOp50
 70
     1
102
RTVSPropertyOp51
 70
     0
102
RTVSPropertyOp52
 70
     0
102
RTVSPropertyOp53
 70
     1
102
RTVSPropertyOp54
 70
     1
102
RTVSPropertyOp55
 70
     1
102
RTVSPropertyOp56
 70
     1
102
RTVSPropertyOp57
 70
     1
102
RTVSPropertyOp58
 70
     1
102
RTVSPropertyOp59
 70
     1
102
RTVSPropertyOp60
 70
     1
102
RTVSPropertyOp61
 70
     1
102
RTVSPropertyOp62
 70
     1
  0
XRECORD
  5
C65F
102
{ACAD_REACTORS
330
C65E
102
}
330
C65E
100
AcDbXrecord
280
     1
102
RTVSPost2010Prop28
280
     0
102
RTVSPost2010PropOp28
 70
     1
102
RTVSPost2010Prop29
280
     1
102
RTVSPost2010PropOp29
 70
     1
102
RTVSPost2010Prop30
280
     1
102
RTVSPost2010PropOp30
 70
     1
102
RTVSPost2010Prop31
280
     0
102
RTVSPost2010PropOp31
 70
     1
102
RTVSPost2010Prop32
280
     0
102
RTVSPost2010PropOp32
 70
     1
102
RTVSPost2010Prop33
280
     0
102
RTVSPost2010PropOp33
 70
     1
102
RTVSPost2010Prop34
280
     0
102
RTVSPost2010PropOp34
 70
     1
102
RTVSPost2010Prop35
280
     0
102
RTVSPost2010PropOp35
 70
     1
102
RTVSPost2010Prop36
280
     0
102
RTVSPost2010PropOp36
 70
     1
102
RTVSPost2010Prop37
 90
       50
102
RTVSPost2010PropOp37
 70
     1
102
RTVSPost2010Prop38
140
0.0
102
RTVSPost2010PropOp38
 70
     1
102
RTVSPost2010Prop39
140
1.0
102
RTVSPost2010PropOp39
 70
     1
102
RTVSPost2010Prop40
 90
        0
102
RTVSPost2010PropOp40
 70
     1
102
RTVSPost2010Prop41ColorIndex
 90
       18
102
RTVSPost2010Prop41ColorRGB
 90
        0
102
RTVSPost2010PropOp41
 70
     1
102
RTVSPost2010Prop42
 90
       50
102
RTVSPost2010PropOp42
 70
     1
102
RTVSPost2010Prop43
 90
        3
102
RTVSPost2010PropOp43
 70
     1
102
RTVSPost2010Prop44ColorIndex
 90
        5
102
RTVSPost2010Prop44ColorRGB
 90
      255
102
RTVSPost2010PropOp44
 70
     1
102
RTVSPost2010Prop45
280
     0
102
RTVSPost2010PropOp45
 70
     1
102
RTVSPost2010Prop46
 90
       50
102
RTVSPost2010PropOp46
 70
     1
102
RTVSPost2010Prop47
 90
       50
102
RTVSPost2010PropOp47
 70
     1
102
RTVSPost2010Prop48
 90
       50
102
RTVSPost2010PropOp48
 70
     1
102
RTVSPost2010Prop49
280
     0
102
RTVSPost2010PropOp49
 70
     1
102
RTVSPost2010Prop50
 90
       50
102
RTVSPost2010PropOp50
 70
     1
102
RTVSPost2010Prop51ColorIndex
 90
      256
102
RTVSPost2010Prop51ColorRGB
 90
-16777216
102
RTVSPost2010PropOp51
 70
     0
102
RTVSPost2010Prop52
140
1.0
102
RTVSPost2010PropOp52
 70
     0
102
RTVSPost2010Prop53
 90
        2
102
RTVSPost2010PropOp53
 70
     1
102
RTVSPost2010Prop54
  1
strokes_ogs.tif
102
RTVSPost2010PropOp54
 70
     1
102
RTVSPost2010Prop55
280
     0
102
RTVSPost2010PropOp55
 70
     1
102
RTVSPost2010Prop56
140
1.0
102
RTVSPost2010PropOp56
 70
     1
102
RTVSPost2010Prop57
140
1.0
102
RTVSPost2010PropOp57
 70
     1
102
RTVSPropertyOp0
 70
     1
102
RTVSPropertyOp1
 70
     1
102
RTVSPropertyOp2
 70
     1
102
RTVSPropertyOp3
 70
     1
102
RTVSPropertyOp4
 70
     1
102
RTVSPropertyOp5
 70
     1
102
RTVSPropertyOp6
 70
     1
102
RTVSPropertyOp7
 70
     1
102
RTVSPropertyOp8
 70
     1
102
RTVSPropertyOp9
 70
     1
102
RTVSPropertyOp10
 70
     1
102
RTVSPropertyOp11
 70
     1
102
RTVSPropertyOp12
 70
     1
102
RTVSPropertyOp13
 70
     1
102
RTVSPropertyOp14
 70
     1
102
RTVSPropertyOp15
 70
     1
102
RTVSPropertyOp16
 70
     1
102
RTVSPropertyOp17
 70
     1
102
RTVSPropertyOp18
 70
     1
102
RTVSPropertyOp19
 70
     1
102
RTVSPropertyOp20
 70
     1
102
RTVSPropertyOp21
 70
     1
102
RTVSPropertyOp22
 70
     1
102
RTVSPropertyOp23
 70
     1
102
RTVSPropertyOp24
 70
     1
102
RTVSPropertyOp25
 70
     1
102
RTVSPropertyOp26
 70
     1
102
RTVSPropertyOp27
 70
     1
102
RTVSPropertyOp28
 70
     1
102
RTVSPropertyOp29
 70
     1
102
RTVSPropertyOp30
 70
     1
102
RTVSPropertyOp31
 70
     1
102
RTVSPropertyOp32
 70
     1
102
RTVSPropertyOp33
 70
     1
102
RTVSPropertyOp34
 70
     1
102
RTVSPropertyOp35
 70
     1
102
RTVSPropertyOp36
 70
     1
102
RTVSPropertyOp37
 70
     1
102
RTVSPropertyOp38
 70
     1
102
RTVSPropertyOp39
 70
     1
102
RTVSPropertyOp40
 70
     1
102
RTVSPropertyOp41
 70
     1
102
RTVSPropertyOp42
 70
     1
102
RTVSPropertyOp43
 70
     1
102
RTVSPropertyOp44
 70
     1
102
RTVSPropertyOp45
 70
     1
102
RTVSPropertyOp46
 70
     1
102
RTVSPropertyOp47
 70
     1
102
RTVSPropertyOp48
 70
     1
102
RTVSPropertyOp49
 70
     1
102
RTVSPropertyOp50
 70
     1
102
RTVSPropertyOp51
 70
     0
102
RTVSPropertyOp52
 70
     0
102
RTVSPropertyOp53
 70
     1
102
RTVSPropertyOp54
 70
     1
102
RTVSPropertyOp55
 70
     1
102
RTVSPropertyOp56
 70
     1
102
RTVSPropertyOp57
 70
     1
102
RTVSPropertyOp58
 70
     1
102
RTVSPropertyOp59
 70
     1
102
RTVSPropertyOp60
 70
     1
102
RTVSPropertyOp61
 70
     1
102
RTVSPropertyOp62
 70
     1
  0
ENDSEC
  0
EOF
