  0
SECTION
  2
HEADER
  9
$ACADVER
  1
AC1027
  9
$ACADMAINTVER
 70
   125
  9
$DWGCODEPAGE
  3
ANSI_932
  9
$LASTSAVEDBY
  1
yasukiyo.ogawa
  9
$REQUIREDVERSIONS
160
                 0
  9
$INSBASE
 10
0.0
 20
0.0
 30
0.0
  9
$EXTMIN
 10
7786.166697834037
 20
-14237.41921203123
 30
0.0
  9
$EXTMAX
 10
19336.16669783403
 20
1987.580787968773
 30
0.0
  9
$LIMMIN
 10
0.0
 20
0.0
  9
$LIMMAX
 10
297.0
 20
210.0
  9
$ORTHOMODE
 70
     1
  9
$REGENMODE
 70
     1
  9
$FILLMODE
 70
     1
  9
$QTEXTMODE
 70
     0
  9
$MIRRTEXT
 70
     0
  9
$LTSCALE
 40
275.0
  9
$ATTMODE
 70
     1
  9
$TEXTSIZE
 40
137.5
  9
$TRACEWID
 40
0.05
  9
$TEXTSTYLE
  7
STANDARD
  9
$CLAYER
  8
SP
  9
$CELTYPE
  6
BYLAYER
  9
$CECOLOR
 62
   256
  9
$CELTSCALE
 40
1.0
  9
$DISPSILH
 70
     0
  9
$DIMSCALE
 40
55.0
  9
$DIMASZ
 40
2.0
  9
$DIMEXO
 40
1.0
  9
$DIMDLI
 40
10.0
  9
$DIMRND
 40
0.0
  9
$DIMDLE
 40
0.0
  9
$DIMEXE
 40
1.0
  9
$DIMTP
 40
0.0
  9
$DIMTM
 40
0.0
  9
$DIMTXT
 40
2.5
  9
$DIMCEN
 40
0.0
  9
$DIMTSZ
 40
0.0
  9
$DIMTOL
 70
     0
  9
$DIMLIM
 70
     0
  9
$DIMTIH
 70
     0
  9
$DIMTOH
 70
     0
  9
$DIMSE1
 70
     1
  9
$DIMSE2
 70
     1
  9
$DIMTAD
 70
     1
  9
$DIMZIN
 70
     8
  9
$DIMBLK
  1

  9
$DIMASO
 70
     1
  9
$DIMSHO
 70
     1
  9
$DIMPOST
  1
(<>)
  9
$DIMAPOST
  1

  9
$DIMALT
 70
     0
  9
$DIMALTD
 70
     2
  9
$DIMALTF
 40
0.03937
  9
$DIMLFAC
 40
1.0
  9
$DIMTOFL
 70
     1
  9
$DIMTVP
 40
0.0
  9
$DIMTIX
 70
     0
  9
$DIMSOXD
 70
     0
  9
$DIMSAH
 70
     1
  9
$DIMBLK1
  1
NONE
  9
$DIMBLK2
  1
NONE
  9
$DIMSTYLE
  2
MATSU
  9
$DIMCLRD
 70
   256
  9
$DIMCLRE
 70
   256
  9
$DIMCLRT
 70
   256
  9
$DIMTFAC
 40
1.0
  9
$DIMGAP
 40
1.0
  9
$DIMJUST
 70
     0
  9
$DIMSD1
 70
     0
  9
$DIMSD2
 70
     0
  9
$DIMTOLJ
 70
     1
  9
$DIMTZIN
 70
     8
  9
$DIMALTZ
 70
     0
  9
$DIMALTTZ
 70
     0
  9
$DIMUPT
 70
     0
  9
$DIMDEC
 70
     0
  9
$DIMTDEC
 70
     4
  9
$DIMALTU
 70
     2
  9
$DIMALTTD
 70
     2
  9
$DIMTXSTY
  7
STANDARD
  9
$DIMAUNIT
 70
     0
  9
$DIMADEC
 70
     0
  9
$DIMALTRND
 40
0.0
  9
$DIMAZIN
 70
     0
  9
$DIMDSEP
 70
    46
  9
$DIMATFIT
 70
     3
  9
$DIMFRAC
 70
     0
  9
$DIMLDRBLK
  1
NONE
  9
$DIMLUNIT
 70
     2
  9
$DIMLWD
 70
    -2
  9
$DIMLWE
 70
    -2
  9
$DIMTMOVE
 70
     2
  9
$DIMFXL
 40
1.0
  9
$DIMFXLON
 70
     0
  9
$DIMJOGANG
 40
0.7853981633974483
  9
$DIMTFILL
 70
     0
  9
$DIMTFILLCLR
 70
     0
  9
$DIMARCSYM
 70
     0
  9
$DIMLTYPE
  6

  9
$DIMLTEX1
  6

  9
$DIMLTEX2
  6

  9
$DIMTXTDIRECTION
 70
     0
  9
$LUNITS
 70
     2
  9
$LUPREC
 70
     4
  9
$SKETCHINC
 40
0.1
  9
$FILLETRAD
 40
0.0
  9
$AUNITS
 70
     0
  9
$AUPREC
 70
     2
  9
$MENU
  1
acad
  9
$ELEVATION
 40
0.0
  9
$PELEVATION
 40
0.0
  9
$THICKNESS
 40
0.0
  9
$LIMCHECK
 70
     0
  9
$CHAMFERA
 40
20.0
  9
$CHAMFERB
 40
20.0
  9
$CHAMFERC
 40
20.0
  9
$CHAMFERD
 40
0.0
  9
$SKPOLY
 70
     0
  9
$TDCREATE
 40
2453950.639282407
  9
$TDUCREATE
 40
2453950.264283854
  9
$TDUPDATE
 40
2460245.779756945
  9
$TDUUPDATE
 40
2460245.404763576
  9
$TDINDWG
 40
0.5161881250
  9
$TDUSRTIMER
 40
0.5161881250
  9
$USRTIMER
 70
     1
  9
$ANGBASE
 50
0.0
  9
$ANGDIR
 70
     0
  9
$PDMODE
 70
     0
  9
$PDSIZE
 40
1.0
  9
$PLINEWID
 40
0.0
  9
$SPLFRAME
 70
     0
  9
$SPLINETYPE
 70
     6
  9
$SPLINESEGS
 70
     8
  9
$HANDSEED
  5
C4DF
  9
$SURFTAB1
 70
     6
  9
$SURFTAB2
 70
     6
  9
$SURFTYPE
 70
     6
  9
$SURFU
 70
     6
  9
$SURFV
 70
     6
  9
$UCSBASE
  2

  9
$UCSNAME
  2

  9
$UCSORG
 10
0.0
 20
-0.0000000000000568
 30
0.0
  9
$UCSXDIR
 10
1.0
 20
0.0
 30
0.0
  9
$UCSYDIR
 10
0.0
 20
1.0
 30
0.0
  9
$UCSORTHOREF
  2

  9
$UCSORTHOVIEW
 70
     0
  9
$UCSORGTOP
 10
0.0
 20
0.0
 30
0.0
  9
$UCSORGBOTTOM
 10
0.0
 20
0.0
 30
0.0
  9
$UCSORGLEFT
 10
0.0
 20
0.0
 30
0.0
  9
$UCSORGRIGHT
 10
0.0
 20
0.0
 30
0.0
  9
$UCSORGFRONT
 10
0.0
 20
0.0
 30
0.0
  9
$UCSORGBACK
 10
0.0
 20
0.0
 30
0.0
  9
$PUCSBASE
  2

  9
$PUCSNAME
  2

  9
$PUCSORG
 10
0.0
 20
0.0
 30
0.0
  9
$PUCSXDIR
 10
1.0
 20
0.0
 30
0.0
  9
$PUCSYDIR
 10
0.0
 20
1.0
 30
0.0
  9
$PUCSORTHOREF
  2

  9
$PUCSORTHOVIEW
 70
     0
  9
$PUCSORGTOP
 10
0.0
 20
0.0
 30
0.0
  9
$PUCSORGBOTTOM
 10
0.0
 20
0.0
 30
0.0
  9
$PUCSORGLEFT
 10
0.0
 20
0.0
 30
0.0
  9
$PUCSORGRIGHT
 10
0.0
 20
0.0
 30
0.0
  9
$PUCSORGFRONT
 10
0.0
 20
0.0
 30
0.0
  9
$PUCSORGBACK
 10
0.0
 20
0.0
 30
0.0
  9
$USERI1
 70
     0
  9
$USERI2
 70
     0
  9
$USERI3
 70
     0
  9
$USERI4
 70
     0
  9
$USERI5
 70
     0
  9
$USERR1
 40
0.0
  9
$USERR2
 40
0.0
  9
$USERR3
 40
0.0
  9
$USERR4
 40
0.0
  9
$USERR5
 40
0.0
  9
$WORLDVIEW
 70
     1
  9
$SHADEDGE
 70
     3
  9
$SHADEDIF
 70
    70
  9
$TILEMODE
 70
     1
  9
$MAXACTVP
 70
    16
  9
$PINSBASE
 10
0.0
 20
0.0
 30
0.0
  9
$PLIMCHECK
 70
     0
  9
$PEXTMIN
 10
1.000000000000000E+20
 20
1.000000000000000E+20
 30
1.000000000000000E+20
  9
$PEXTMAX
 10
-1.000000000000000E+20
 20
-1.000000000000000E+20
 30
-1.000000000000000E+20
  9
$PLIMMIN
 10
0.0
 20
0.0
  9
$PLIMMAX
 10
12.0
 20
9.0
  9
$UNITMODE
 70
     0
  9
$VISRETAIN
 70
     0
  9
$PLINEGEN
 70
     0
  9
$PSLTSCALE
 70
     0
  9
$TREEDEPTH
 70
  3020
  9
$CMLSTYLE
  2
STANDARD
  9
$CMLJUST
 70
     0
  9
$CMLSCALE
 40
20.0
  9
$PROXYGRAPHICS
 70
     1
  9
$MEASUREMENT
 70
     1
  9
$CELWEIGHT
370
    -1
  9
$ENDCAPS
280
     0
  9
$JOINSTYLE
280
     0
  9
$LWDISPLAY
290
     0
  9
$INSUNITS
 70
     0
  9
$HYPERLINKBASE
  1

  9
$STYLESHEET
  1

  9
$XEDIT
290
     1
  9
$CEPSNTYPE
380
     0
  9
$PSTYLEMODE
290
     1
  9
$FINGERPRINTGUID
  2
{6BDC1CA3-DD7B-4464-99D4-A44F5DC42F77}
  9
$VERSIONGUID
  2
{B0D534A8-4102-4D5A-8858-FE2F90E053DA}
  9
$EXTNAMES
290
     1
  9
$PSVPSCALE
 40
0.0
  9
$OLESTARTUP
290
     0
  9
$SORTENTS
280
   127
  9
$INDEXCTL
280
     0
  9
$HIDETEXT
280
     0
  9
$XCLIPFRAME
280
     2
  9
$HALOGAP
280
     0
  9
$OBSCOLOR
 70
   257
  9
$OBSLTYPE
280
     0
  9
$INTERSECTIONDISPLAY
280
     0
  9
$INTERSECTIONCOLOR
 70
   257
  9
$DIMASSOC
280
     1
  9
$PROJECTNAME
  1

  9
$CAMERADISPLAY
290
     0
  9
$LENSLENGTH
 40
50.0
  9
$CAMERAHEIGHT
 40
0.0
  9
$STEPSPERSEC
 40
2.0
  9
$STEPSIZE
 40
6.0
  9
$3DDWFPREC
 40
2.0
  9
$PSOLWIDTH
 40
0.25
  9
$PSOLHEIGHT
 40
4.0
  9
$LOFTANG1
 40
1.570796326794896
  9
$LOFTANG2
 40
1.570796326794896
  9
$LOFTMAG1
 40
0.0
  9
$LOFTMAG2
 40
0.0
  9
$LOFTPARAM
 70
     7
  9
$LOFTNORMALS
280
     1
  9
$LATITUDE
 40
37.795
  9
$LONGITUDE
 40
-122.394
  9
$NORTHDIRECTION
 40
0.0
  9
$TIMEZONE
 70
 -8000
  9
$LIGHTGLYPHDISPLAY
280
     1
  9
$TILEMODELIGHTSYNCH
280
     1
  9
$CMATERIAL
347
C42E
  9
$SOLIDHIST
280
     0
  9
$SHOWHIST
280
     1
  9
$DWFFRAME
280
     2
  9
$DGNFRAME
280
     0
  9
$REALWORLDSCALE
290
     1
  9
$INTERFERECOLOR
 62
     1
  9
$INTERFEREOBJVS
345
C450
  9
$INTERFEREVPVS
346
C44D
  9
$CSHADOW
280
     0
  9
$SHADOWPLANELOCATION
 40
0.0
  0
ENDSEC
  0
SECTION
  2
CLASSES
  0
CLASS
  1
ACDBDICTIONARYWDFLT
  2
AcDbDictionaryWithDefault
  3
ObjectDBX Classes
 90
        0
 91
        1
280
     0
281
     0
  0
CLASS
  1
DICTIONARYVAR
  2
AcDbDictionaryVar
  3
ObjectDBX Classes
 90
        0
 91
       11
280
     0
281
     0
  0
CLASS
  1
MATERIAL
  2
AcDbMaterial
  3
ObjectDBX Classes
 90
     1153
 91
        3
280
     0
281
     0
  0
CLASS
  1
VISUALSTYLE
  2
AcDbVisualStyle
  3
ObjectDBX Classes
 90
     4095
 91
       24
280
     0
281
     0
  0
CLASS
  1
TABLESTYLE
  2
AcDbTableStyle
  3
ObjectDBX Classes
 90
     4095
 91
        1
280
     0
281
     0
  0
CLASS
  1
SCALE
  2
AcDbScale
  3
ObjectDBX Classes
 90
     1153
 91
       17
280
     0
281
     0
  0
CLASS
  1
MLEADERSTYLE
  2
AcDbMLeaderStyle
  3
ACDB_MLEADERSTYLE_CLASS
 90
     4095
 91
        1
280
     0
281
     0
  0
CLASS
  1
ACDBSECTIONVIEWSTYLE
  2
AcDbSectionViewStyle
  3
ObjectDBX Classes
 90
     1025
 91
        1
280
     0
281
     0
  0
CLASS
  1
ACDBDETAILVIEWSTYLE
  2
AcDbDetailViewStyle
  3
ObjectDBX Classes
 90
     1025
 91
        1
280
     0
281
     0
  0
CLASS
  1
CELLSTYLEMAP
  2
AcDbCellStyleMap
  3
ObjectDBX Classes
 90
     1152
 91
        1
280
     0
281
     0
  0
ENDSEC
  0
SECTION
  2
TABLES
  0
TABLE
  2
VPORT
  5
8
330
0
100
AcDbSymbolTable
 70
     1
1001
ACAD
1000
DbSaveVer
1071
      278
  0
VPORT
  5
C42B
330
8
100
AcDbSymbolTableRecord
100
AcDbViewportTableRecord
  2
*Active
 70
     0
 10
0.0
 20
0.0
 11
1.0
 21
1.0
 12
15195.80996978454
 22
-6124.919174254455
 13
0.0
 23
0.0
 14
5.0
 24
5.0
 15
0.0
 25
0.0
 16
0.0
 26
0.0
 36
1.0
 17
0.0
 27
0.0
 37
0.0
 40
16337.64812649528
 41
2.250314465408805
 42
50.0
 43
0.0
 44
0.0
 50
0.0
 51
0.0
 71
     0
 72
   100
 73
     1
 74
     0
 75
     0
 76
     0
 77
     0
 78
     0
281
     0
 65
     1
110
0.0
120
-0.0000000000000568
130
0.0
111
1.0
121
0.0
131
0.0
112
0.0
122
1.0
132
0.0
 79
     0
146
0.0
348
C44C
 60
     3
 61
     5
292
     1
282
     1
141
0.0
142
0.0
 63
   250
421
  3355443
1001
ACAD_NAV_VCDISPLAY
1070
     3
  0
ENDTAB
  0
TABLE
  2
LTYPE
  5
5
330
0
100
AcDbSymbolTable
 70
     3
  0
LTYPE
  5
13
330
5
100
AcDbSymbolTableRecord
100
AcDbLinetypeTableRecord
  2
BYBLOCK
 70
     0
  3

 72
    65
 73
     0
 40
0.0
  0
LTYPE
  5
14
330
5
100
AcDbSymbolTableRecord
100
AcDbLinetypeTableRecord
  2
BYLAYER
 70
     0
  3

 72
    65
 73
     0
 40
0.0
  0
LTYPE
  5
15
330
5
100
AcDbSymbolTableRecord
100
AcDbLinetypeTableRecord
  2
CONTINUOUS
 70
     0
  3
Solid line
 72
    65
 73
     0
 40
0.0
  0
LTYPE
  5
1F
330
5
100
AcDbSymbolTableRecord
100
AcDbLinetypeTableRecord
  2
CENTER
 70
     0
  3
____ _ ____ _ ____ _ ____ _ ____ _ ____ _ ____ 
 72
    65
 73
     4
 40
2.0
 49
1.25
 74
     0
 49
-0.25
 74
     0
 49
0.25
 74
     0
 49
-0.25
 74
     0
  0
LTYPE
  5
21
330
5
100
AcDbSymbolTableRecord
100
AcDbLinetypeTableRecord
  2
PHANTOM
 70
     0
  3
______  __  __  ______  __  __  ______  __  __ 
 72
    65
 73
     6
 40
2.5
 49
1.25
 74
     0
 49
-0.25
 74
     0
 49
0.25
 74
     0
 49
-0.25
 74
     0
 49
0.25
 74
     0
 49
-0.25
 74
     0
  0
ENDTAB
  0
TABLE
  2
LAYER
  5
2
102
{ACAD_XDICTIONARY
360
C49F
102
}
330
0
100
AcDbSymbolTable
 70
     7
  0
LAYER
  5
F
102
{ACAD_XDICTIONARY
360
C490
102
}
330
2
100
AcDbSymbolTableRecord
100
AcDbLayerTableRecord
  2
0
 70
     0
 62
     7
  6
CONTINUOUS
370
    -3
390
C3E4
347
C43E
348
0
  0
LAYER
  5
2F
102
{ACAD_XDICTIONARY
360
C492
102
}
330
2
100
AcDbSymbolTableRecord
100
AcDbLayerTableRecord
  2
CT
 70
     0
 62
     3
  6
CENTER
370
    -3
390
C3E4
347
C43E
348
0
  0
LAYER
  5
30
102
{ACAD_XDICTIONARY
360
C494
102
}
330
2
100
AcDbSymbolTableRecord
100
AcDbLayerTableRecord
  2
FUTO
 70
     0
 62
     4
  6
CONTINUOUS
370
    -3
390
C3E4
347
C43E
348
0
  0
LAYER
  5
35
102
{ACAD_XDICTIONARY
360
C496
102
}
330
2
100
AcDbSymbolTableRecord
100
AcDbLayerTableRecord
  2
SL
 70
     0
 62
     1
  6
PHANTOM
370
    -3
390
C3E4
347
C43E
348
0
  0
LAYER
  5
36
102
{ACAD_XDICTIONARY
360
C498
102
}
330
2
100
AcDbSymbolTableRecord
100
AcDbLayerTableRecord
  2
SP
 70
     0
 62
     2
  6
CONTINUOUS
370
    -3
390
C3E4
347
C43E
348
0
  0
LAYER
  5
5241
330
2
100
AcDbSymbolTableRecord
100
AcDbLayerTableRecord
  2
DEFPOINTS
 70
     0
 62
     7
  6
CONTINUOUS
290
     0
370
    -3
390
C3E4
347
C43E
348
0
  0
LAYER
  5
99F1
102
{ACAD_XDICTIONARY
360
C49A
102
}
330
2
100
AcDbSymbolTableRecord
100
AcDbLayerTableRecord
  2
4
 70
     0
 62
     7
  6
CONTINUOUS
370
    -3
390
C3E4
347
C43E
348
0
  0
ENDTAB
  0
TABLE
  2
STYLE
  5
3
330
0
100
AcDbSymbolTable
 70
     1
  0
STYLE
  5
10
330
3
100
AcDbSymbolTableRecord
100
AcDbTextStyleTableRecord
  2
STANDARD
 70
     0
 40
0.0
 41
1.0
 50
15.0
 71
     0
 42
137.5
  3
C:\Program Files\AutoCAD LT\simplex.shx
  4
C:\Program Files\AutoCAD LT\extfont.shx
  0
ENDTAB
  0
TABLE
  2
VIEW
  5
6
330
0
100
AcDbSymbolTable
 70
     0
  0
ENDTAB
  0
TABLE
  2
UCS
  5
7
330
0
100
AcDbSymbolTable
 70
     0
  0
ENDTAB
  0
TABLE
  2
APPID
  5
9
330
0
100
AcDbSymbolTable
 70
     3
  0
APPID
  5
11
330
9
100
AcDbSymbolTableRecord
100
AcDbRegAppTableRecord
  2
ACAD
 70
     0
  0
APPID
  5
5333
330
9
100
AcDbSymbolTableRecord
100
AcDbRegAppTableRecord
  2
CONTENTBLOCKICON
 70
     0
  0
APPID
  5
C4A5
330
9
100
AcDbSymbolTableRecord
100
AcDbRegAppTableRecord
  2
ACAD_NAV_VCDISPLAY
 70
     0
  0
ENDTAB
  0
TABLE
  2
DIMSTYLE
  5
A
330
0
100
AcDbSymbolTable
 70
     2
100
AcDbDimStyleTable
 71
     0
  0
DIMSTYLE
105
1D
330
A
100
AcDbSymbolTableRecord
100
AcDbDimStyleTableRecord
  2
STANDARD
 70
     0
340
10
  0
DIMSTYLE
105
2C
102
{ACAD_REACTORS
330
C2B4
330
C2C1
330
C2CE
330
C2DB
330
C2E8
330
C2F5
330
C302
330
C31C
330
C329
330
C336
330
C343
330
C350
330
C35D
330
C36A
330
C377
330
C384
330
C391
330
C39E
330
C3AB
330
C3D0
330
C3DF
102
}
330
A
100
AcDbSymbolTableRecord
100
AcDbDimStyleTableRecord
  2
MATSU
 70
     0
 41
2.0
 42
1.0
 43
10.0
 44
1.0
 73
     0
 74
     0
 77
     1
 78
     8
140
3.0
141
0.0
143
0.03937
147
0.5
172
     1
173
     1
176
   256
177
   256
178
   256
284
     8
289
     0
340
10
341
26
343
26
344
26
  0
ENDTAB
  0
TABLE
  2
BLOCK_RECORD
  5
1
330
0
100
AcDbSymbolTable
 70
    24
  0
BLOCK_RECORD
  5
19
102
{ACAD_XDICTIONARY
360
C412
102
}
330
1
100
AcDbSymbolTableRecord
100
AcDbBlockTableRecord
  2
*MODEL_SPACE
340
C3E7
 70
     0
280
     1
281
     0
  0
BLOCK_RECORD
  5
16
102
{ACAD_XDICTIONARY
360
C410
102
}
330
1
100
AcDbSymbolTableRecord
100
AcDbBlockTableRecord
  2
*PAPER_SPACE
340
C3E8
 70
     0
280
     1
281
     0
  0
BLOCK_RECORD
  5
26
330
1
100
AcDbSymbolTableRecord
100
AcDbBlockTableRecord
  2
_OPEN
340
0
102
{BLKREFS
331
C349
331
C34A
331
C356
331
C357
331
C363
331
C364
331
C370
331
C371
331
C37D
331
C37E
331
C38A
331
C38B
331
C3CA
331
C481
331
C482
331
C48A
331
C48B
331
C2AD
331
C2AE
331
C2BA
331
C2BB
331
C2C7
331
C2C8
331
C2D4
331
C2D5
331
C2E1
331
C2E2
331
C2EE
331
C2EF
331
C2FB
331
C2FC
331
C315
331
C316
331
C322
331
C323
331
C32F
331
C330
331
C33C
331
C33D
102
}
 70
     0
280
     1
281
     0
  0
BLOCK_RECORD
  5
C2A8
330
1
100
AcDbSymbolTableRecord
100
AcDbBlockTableRecord
  2
*D1
340
0
 70
     0
280
     1
281
     0
  0
BLOCK_RECORD
  5
C2B5
330
1
100
AcDbSymbolTableRecord
100
AcDbBlockTableRecord
  2
*D2
340
0
 70
     0
280
     1
281
     0
  0
BLOCK_RECORD
  5
C2C2
330
1
100
AcDbSymbolTableRecord
100
AcDbBlockTableRecord
  2
*D3
340
0
 70
     0
280
     1
281
     0
  0
BLOCK_RECORD
  5
C2CF
330
1
100
AcDbSymbolTableRecord
100
AcDbBlockTableRecord
  2
*D4
340
0
 70
     0
280
     1
281
     0
  0
BLOCK_RECORD
  5
C2DC
330
1
100
AcDbSymbolTableRecord
100
AcDbBlockTableRecord
  2
*D5
340
0
 70
     0
280
     1
281
     0
  0
BLOCK_RECORD
  5
C2E9
330
1
100
AcDbSymbolTableRecord
100
AcDbBlockTableRecord
  2
*D6
340
0
 70
     0
280
     1
281
     0
  0
BLOCK_RECORD
  5
C2F6
330
1
100
AcDbSymbolTableRecord
100
AcDbBlockTableRecord
  2
*D7
340
0
 70
     0
280
     1
281
     0
  0
BLOCK_RECORD
  5
C310
330
1
100
AcDbSymbolTableRecord
100
AcDbBlockTableRecord
  2
*D8
340
0
 70
     0
280
     1
281
     0
  0
BLOCK_RECORD
  5
C31D
330
1
100
AcDbSymbolTableRecord
100
AcDbBlockTableRecord
  2
*D9
340
0
 70
     0
280
     1
281
     0
  0
BLOCK_RECORD
  5
C32A
330
1
100
AcDbSymbolTableRecord
100
AcDbBlockTableRecord
  2
*D10
340
0
 70
     0
280
     1
281
     0
  0
BLOCK_RECORD
  5
C337
330
1
100
AcDbSymbolTableRecord
100
AcDbBlockTableRecord
  2
*D11
340
0
 70
     0
280
     1
281
     0
  0
BLOCK_RECORD
  5
C344
330
1
100
AcDbSymbolTableRecord
100
AcDbBlockTableRecord
  2
*D12
340
0
 70
     0
280
     1
281
     0
  0
BLOCK_RECORD
  5
C351
330
1
100
AcDbSymbolTableRecord
100
AcDbBlockTableRecord
  2
*D13
340
0
 70
     0
280
     1
281
     0
  0
BLOCK_RECORD
  5
C35E
330
1
100
AcDbSymbolTableRecord
100
AcDbBlockTableRecord
  2
*D14
340
0
 70
     0
280
     1
281
     0
  0
BLOCK_RECORD
  5
C36B
330
1
100
AcDbSymbolTableRecord
100
AcDbBlockTableRecord
  2
*D15
340
0
 70
     0
280
     1
281
     0
  0
BLOCK_RECORD
  5
C378
330
1
100
AcDbSymbolTableRecord
100
AcDbBlockTableRecord
  2
*D16
340
0
 70
     0
280
     1
281
     0
  0
BLOCK_RECORD
  5
C385
330
1
100
AcDbSymbolTableRecord
100
AcDbBlockTableRecord
  2
*D17
340
0
 70
     0
280
     1
281
     0
  0
BLOCK_RECORD
  5
C392
330
1
100
AcDbSymbolTableRecord
100
AcDbBlockTableRecord
  2
*D18
340
0
 70
     0
280
     1
281
     0
  0
BLOCK_RECORD
  5
C39F
330
1
100
AcDbSymbolTableRecord
100
AcDbBlockTableRecord
  2
*D19
340
0
 70
     0
280
     1
281
     0
  0
BLOCK_RECORD
  5
C3BA
330
1
100
AcDbSymbolTableRecord
100
AcDbBlockTableRecord
  2
_DOT
340
0
102
{BLKREFS
331
C3C9
102
}
 70
     0
280
     1
281
     0
  0
BLOCK_RECORD
  5
C3C2
330
1
100
AcDbSymbolTableRecord
100
AcDbBlockTableRecord
  2
*D21
340
0
 70
     0
280
     1
281
     0
  0
BLOCK_RECORD
  5
C3D1
330
1
100
AcDbSymbolTableRecord
100
AcDbBlockTableRecord
  2
_NONE
340
0
 70
     0
280
     1
281
     0
  0
BLOCK_RECORD
  5
C3D5
330
1
100
AcDbSymbolTableRecord
100
AcDbBlockTableRecord
  2
*D23
340
0
 70
     0
280
     1
281
     0
  0
ENDTAB
  0
ENDSEC
  0
SECTION
  2
BLOCKS
  0
BLOCK
  5
1A
330
19
100
AcDbEntity
  8
0
100
AcDbBlockBegin
  2
*MODEL_SPACE
 70
     0
 10
0.0
 20
0.0
 30
0.0
  3
*MODEL_SPACE
  1

  0
ENDBLK
  5
1B
330
19
100
AcDbEntity
  8
0
100
AcDbBlockEnd
  0
BLOCK
  5
17
330
16
100
AcDbEntity
 67
     1
  8
0
100
AcDbBlockBegin
  2
*PAPER_SPACE
 70
     0
 10
0.0
 20
0.0
 30
0.0
  3
*PAPER_SPACE
  1

  0
ENDBLK
  5
18
330
16
100
AcDbEntity
 67
     1
  8
0
100
AcDbBlockEnd
  0
BLOCK
  5
27
330
26
100
AcDbEntity
  8
0
100
AcDbBlockBegin
  2
_OPEN
 70
     0
 10
0.0
 20
0.0
 30
0.0
  3
_OPEN
  1

  0
LINE
  5
28
330
26
100
AcDbEntity
  8
0
  6
ByBlock
 62
     0
100
AcDbLine
 10
-1.0
 20
0.1666666666666666
 30
0.0
 11
0.0
 21
0.0
 31
0.0
  0
LINE
  5
29
330
26
100
AcDbEntity
  8
0
  6
ByBlock
 62
     0
100
AcDbLine
 10
0.0
 20
0.0
 30
0.0
 11
-1.0
 21
-0.1666666666666666
 31
0.0
  0
LINE
  5
2A
330
26
100
AcDbEntity
  8
0
  6
ByBlock
 62
     0
100
AcDbLine
 10
0.0
 20
0.0
 30
0.0
 11
-1.0
 21
0.0
 31
0.0
  0
ENDBLK
  5
2B
330
26
100
AcDbEntity
  8
0
100
AcDbBlockEnd
  0
BLOCK
  5
C2A9
330
C2A8
100
AcDbEntity
  8
0
100
AcDbBlockBegin
  2
*D1
 70
     1
 10
0.0
 20
0.0
 30
0.0
  3
*D1
  1

  0
LINE
  5
C2AA
330
C2A8
100
AcDbEntity
  8
0
  6
ByBlock
440
 16777216
100
AcDbLine
 10
13128.94288449963
 20
-2318.244289305851
 30
0.0
 11
13128.94288449963
 21
-1988.572296858889
 31
0.0
  0
LINE
  5
C2AB
330
C2A8
100
AcDbEntity
  8
0
  6
ByBlock
440
 16777216
100
AcDbLine
 10
10768.94288449963
 20
-2318.244289305851
 30
0.0
 11
10768.94288449963
 21
-1988.572296858889
 31
0.0
  0
LINE
  5
C2AC
330
C2A8
100
AcDbEntity
  8
0
  6
ByBlock
440
 16777216
100
AcDbLine
 10
13018.94288449964
 20
-2043.572296858889
 30
0.0
 11
10878.94288449963
 21
-2043.572296858889
 31
0.0
  0
INSERT
  5
C2AD
330
C2A8
100
AcDbEntity
  8
0
  6
ByBlock
440
 16777216
100
AcDbBlockReference
  2
_OPEN
 10
13128.94288449963
 20
-2043.572296858889
 30
0.0
 41
110.0
 42
110.0
 43
110.0
  0
INSERT
  5
C2AE
330
C2A8
100
AcDbEntity
  8
0
  6
ByBlock
440
 16777216
100
AcDbBlockReference
  2
_OPEN
 10
10768.94288449963
 20
-2043.572296858889
 30
0.0
 41
110.0
 42
110.0
 43
110.0
 50
180.0
  0
MTEXT
  5
C2AF
330
C2A8
100
AcDbEntity
  8
0
  6
ByBlock
440
 16777216
100
AcDbMText
 10
11948.94288449963
 20
-1919.822296858889
 30
0.0
 40
137.5
 41
0.0
 46
0.0
 71
     5
 72
     5
  1
\A1;2360
 73
     1
 44
1.0
  0
POINT
  5
C2B0
330
C2A8
100
AcDbEntity
  8
DEFPOINTS
  6
ByBlock
 62
     0
440
 16777216
100
AcDbPoint
 10
13128.94288449963
 20
-2373.24428930585
 30
0.0
  0
POINT
  5
C2B1
330
C2A8
100
AcDbEntity
  8
DEFPOINTS
  6
ByBlock
 62
     0
440
 16777216
100
AcDbPoint
 10
10768.94288449963
 20
-2373.24428930585
 30
0.0
  0
POINT
  5
C2B2
330
C2A8
100
AcDbEntity
  8
DEFPOINTS
  6
ByBlock
 62
     0
440
 16777216
100
AcDbPoint
 10
10768.94288449963
 20
-2043.572296858889
 30
0.0
  0
ENDBLK
  5
C2B3
330
C2A8
100
AcDbEntity
  8
0
100
AcDbBlockEnd
  0
BLOCK
  5
C2B6
330
C2B5
100
AcDbEntity
  8
0
100
AcDbBlockBegin
  2
*D2
 70
     1
 10
0.0
 20
0.0
 30
0.0
  3
*D2
  1

  0
LINE
  5
C2B7
330
C2B5
100
AcDbEntity
  8
0
  6
ByBlock
440
 16777216
100
AcDbLine
 10
10768.94288449963
 20
-2318.244289305851
 30
0.0
 11
10768.94288449963
 21
-1988.572296858889
 31
0.0
  0
LINE
  5
C2B8
330
C2B5
100
AcDbEntity
  8
0
  6
ByBlock
440
 16777216
100
AcDbLine
 10
8928.942884499631
 20
-4268.244289305846
 30
0.0
 11
8928.942884499631
 21
-1988.572296858889
 31
0.0
  0
LINE
  5
C2B9
330
C2B5
100
AcDbEntity
  8
0
  6
ByBlock
440
 16777216
100
AcDbLine
 10
10658.94288449963
 20
-2043.572296858889
 30
0.0
 11
9038.942884499633
 21
-2043.572296858889
 31
0.0
  0
INSERT
  5
C2BA
330
C2B5
100
AcDbEntity
  8
0
  6
ByBlock
440
 16777216
100
AcDbBlockReference
  2
_OPEN
 10
10768.94288449963
 20
-2043.572296858889
 30
0.0
 41
110.0
 42
110.0
 43
110.0
  0
INSERT
  5
C2BB
330
C2B5
100
AcDbEntity
  8
0
  6
ByBlock
440
 16777216
100
AcDbBlockReference
  2
_OPEN
 10
8928.942884499631
 20
-2043.572296858889
 30
0.0
 41
110.0
 42
110.0
 43
110.0
 50
180.0
  0
MTEXT
  5
C2BC
330
C2B5
100
AcDbEntity
  8
0
  6
ByBlock
440
 16777216
100
AcDbMText
 10
9848.942884499635
 20
-1919.822296858889
 30
0.0
 40
137.5
 41
0.0
 46
0.0
 71
     5
 72
     5
  1
\A1;1840
 73
     1
 44
1.0
  0
POINT
  5
C2BD
330
C2B5
100
AcDbEntity
  8
DEFPOINTS
  6
ByBlock
 62
     0
440
 16777216
100
AcDbPoint
 10
10768.94288449963
 20
-2373.24428930585
 30
0.0
  0
POINT
  5
C2BE
330
C2B5
100
AcDbEntity
  8
DEFPOINTS
  6
ByBlock
 62
     0
440
 16777216
100
AcDbPoint
 10
8928.942884499631
 20
-4323.244289305846
 30
0.0
  0
POINT
  5
C2BF
330
C2B5
100
AcDbEntity
  8
DEFPOINTS
  6
ByBlock
 62
     0
440
 16777216
100
AcDbPoint
 10
8928.942884499631
 20
-2043.572296858889
 30
0.0
  0
ENDBLK
  5
C2C0
330
C2B5
100
AcDbEntity
  8
0
100
AcDbBlockEnd
  0
BLOCK
  5
C2C3
330
C2C2
100
AcDbEntity
  8
0
100
AcDbBlockBegin
  2
*D3
 70
     1
 10
0.0
 20
0.0
 30
0.0
  3
*D3
  1

  0
LINE
  5
C2C4
330
C2C2
100
AcDbEntity
  8
0
  6
ByBlock
440
 16777216
100
AcDbLine
 10
13183.94288449963
 20
-2373.24428930585
 30
0.0
 11
13689.81692295694
 21
-2373.24428930585
 31
0.0
  0
LINE
  5
C2C5
330
C2C2
100
AcDbEntity
  8
0
  6
ByBlock
440
 16777216
100
AcDbLine
 10
13183.94288449963
 20
-5623.24428930585
 30
0.0
 11
13689.81692295694
 21
-5623.24428930585
 31
0.0
  0
LINE
  5
C2C6
330
C2C2
100
AcDbEntity
  8
0
  6
ByBlock
440
 16777216
100
AcDbLine
 10
13634.81692295694
 20
-2483.244289305851
 30
0.0
 11
13634.81692295694
 21
-5513.244289305851
 31
0.0
  0
INSERT
  5
C2C7
330
C2C2
100
AcDbEntity
  8
0
  6
ByBlock
440
 16777216
100
AcDbBlockReference
  2
_OPEN
 10
13634.81692295694
 20
-2373.24428930585
 30
0.0
 41
110.0
 42
110.0
 43
110.0
 50
90.0
  0
INSERT
  5
C2C8
330
C2C2
100
AcDbEntity
  8
0
  6
ByBlock
440
 16777216
100
AcDbBlockReference
  2
_OPEN
 10
13634.81692295694
 20
-5623.24428930585
 30
0.0
 41
110.0
 42
110.0
 43
110.0
 50
270.0
  0
MTEXT
  5
C2C9
330
C2C2
100
AcDbEntity
  8
0
  6
ByBlock
440
 16777216
100
AcDbMText
 10
13511.06692295694
 20
-3998.24428930585
 30
0.0
 40
137.5
 41
0.0
 46
0.0
 71
     5
 72
     5
  1
\A1;3250
 11
0.0
 21
1.0
 31
0.0
 73
     1
 44
1.0
  0
POINT
  5
C2CA
330
C2C2
100
AcDbEntity
  8
DEFPOINTS
  6
ByBlock
 62
     0
440
 16777216
100
AcDbPoint
 10
13128.94288449963
 20
-2373.24428930585
 30
0.0
  0
POINT
  5
C2CB
330
C2C2
100
AcDbEntity
  8
DEFPOINTS
  6
ByBlock
 62
     0
440
 16777216
100
AcDbPoint
 10
13128.94288449963
 20
-5623.24428930585
 30
0.0
  0
POINT
  5
C2CC
330
C2C2
100
AcDbEntity
  8
DEFPOINTS
  6
ByBlock
 62
     0
440
 16777216
100
AcDbPoint
 10
13634.81692295694
 20
-5623.24428930585
 30
0.0
  0
ENDBLK
  5
C2CD
330
C2C2
100
AcDbEntity
  8
0
100
AcDbBlockEnd
  0
BLOCK
  5
C2D0
330
C2CF
100
AcDbEntity
  8
0
100
AcDbBlockBegin
  2
*D4
 70
     1
 10
0.0
 20
0.0
 30
0.0
  3
*D4
  1

  0
LINE
  5
C2D1
330
C2CF
100
AcDbEntity
  8
0
  6
ByBlock
440
 16777216
100
AcDbLine
 10
13128.94288449963
 20
-5678.244289305851
 30
0.0
 11
13128.94288449963
 21
-6125.717600188262
 31
0.0
  0
LINE
  5
C2D2
330
C2CF
100
AcDbEntity
  8
0
  6
ByBlock
440
 16777216
100
AcDbLine
 10
8928.942884499631
 20
-5678.244289305848
 30
0.0
 11
8928.942884499631
 21
-6125.717600188262
 31
0.0
  0
LINE
  5
C2D3
330
C2CF
100
AcDbEntity
  8
0
  6
ByBlock
440
 16777216
100
AcDbLine
 10
13018.94288449964
 20
-6070.717600188261
 30
0.0
 11
9038.942884499633
 21
-6070.717600188261
 31
0.0
  0
INSERT
  5
C2D4
330
C2CF
100
AcDbEntity
  8
0
  6
ByBlock
440
 16777216
100
AcDbBlockReference
  2
_OPEN
 10
13128.94288449963
 20
-6070.717600188261
 30
0.0
 41
110.0
 42
110.0
 43
110.0
  0
INSERT
  5
C2D5
330
C2CF
100
AcDbEntity
  8
0
  6
ByBlock
440
 16777216
100
AcDbBlockReference
  2
_OPEN
 10
8928.942884499631
 20
-6070.717600188261
 30
0.0
 41
110.0
 42
110.0
 43
110.0
 50
180.0
  0
MTEXT
  5
C2D6
330
C2CF
100
AcDbEntity
  8
0
  6
ByBlock
440
 16777216
100
AcDbMText
 10
11028.94288449963
 20
-5946.967600188262
 30
0.0
 40
137.5
 41
0.0
 46
0.0
 71
     5
 72
     5
  1
\A1;4200
 73
     1
 44
1.0
  0
POINT
  5
C2D7
330
C2CF
100
AcDbEntity
  8
DEFPOINTS
  6
ByBlock
 62
     0
440
 16777216
100
AcDbPoint
 10
13128.94288449963
 20
-5623.24428930585
 30
0.0
  0
POINT
  5
C2D8
330
C2CF
100
AcDbEntity
  8
DEFPOINTS
  6
ByBlock
 62
     0
440
 16777216
100
AcDbPoint
 10
8928.942884499631
 20
-5623.244289305847
 30
0.0
  0
POINT
  5
C2D9
330
C2CF
100
AcDbEntity
  8
DEFPOINTS
  6
ByBlock
 62
     0
440
 16777216
100
AcDbPoint
 10
8928.942884499631
 20
-6070.717600188261
 30
0.0
  0
ENDBLK
  5
C2DA
330
C2CF
100
AcDbEntity
  8
0
100
AcDbBlockEnd
  0
BLOCK
  5
C2DD
330
C2DC
100
AcDbEntity
  8
0
100
AcDbBlockBegin
  2
*D5
 70
     1
 10
0.0
 20
0.0
 30
0.0
  3
*D5
  1

  0
LINE
  5
C2DE
330
C2DC
100
AcDbEntity
  8
0
  6
ByBlock
440
 16777216
100
AcDbLine
 10
8873.942884499632
 20
-4323.244289305846
 30
0.0
 11
8484.779303699848
 21
-4323.244289305846
 31
0.0
  0
LINE
  5
C2DF
330
C2DC
100
AcDbEntity
  8
0
  6
ByBlock
440
 16777216
100
AcDbLine
 10
8873.942884499632
 20
-5623.244289305847
 30
0.0
 11
8484.779303699848
 21
-5623.244289305847
 31
0.0
  0
LINE
  5
C2E0
330
C2DC
100
AcDbEntity
  8
0
  6
ByBlock
440
 16777216
100
AcDbLine
 10
8539.779303699848
 20
-4433.244289305847
 30
0.0
 11
8539.779303699848
 21
-5513.244289305847
 31
0.0
  0
INSERT
  5
C2E1
330
C2DC
100
AcDbEntity
  8
0
  6
ByBlock
440
 16777216
100
AcDbBlockReference
  2
_OPEN
 10
8539.779303699848
 20
-4323.244289305846
 30
0.0
 41
110.0
 42
110.0
 43
110.0
 50
90.0
  0
INSERT
  5
C2E2
330
C2DC
100
AcDbEntity
  8
0
  6
ByBlock
440
 16777216
100
AcDbBlockReference
  2
_OPEN
 10
8539.779303699848
 20
-5623.244289305847
 30
0.0
 41
110.0
 42
110.0
 43
110.0
 50
270.0
  0
MTEXT
  5
C2E3
330
C2DC
100
AcDbEntity
  8
0
  6
ByBlock
440
 16777216
100
AcDbMText
 10
8416.029303699849
 20
-4973.244289305847
 30
0.0
 40
137.5
 41
0.0
 46
0.0
 71
     5
 72
     5
  1
\A1;1300
 11
0.0
 21
1.0
 31
0.0
 73
     1
 44
1.0
  0
POINT
  5
C2E4
330
C2DC
100
AcDbEntity
  8
DEFPOINTS
  6
ByBlock
 62
     0
440
 16777216
100
AcDbPoint
 10
8928.942884499631
 20
-4323.244289305846
 30
0.0
  0
POINT
  5
C2E5
330
C2DC
100
AcDbEntity
  8
DEFPOINTS
  6
ByBlock
 62
     0
440
 16777216
100
AcDbPoint
 10
8928.942884499631
 20
-5623.244289305847
 30
0.0
  0
POINT
  5
C2E6
330
C2DC
100
AcDbEntity
  8
DEFPOINTS
  6
ByBlock
 62
     0
440
 16777216
100
AcDbPoint
 10
8539.779303699848
 20
-5623.244289305847
 30
0.0
  0
ENDBLK
  5
C2E7
330
C2DC
100
AcDbEntity
  8
0
100
AcDbBlockEnd
  0
BLOCK
  5
C2EA
330
C2E9
100
AcDbEntity
  8
0
100
AcDbBlockBegin
  2
*D6
 70
     1
 10
0.0
 20
0.0
 30
0.0
  3
*D6
  1

  0
LINE
  5
C2EB
330
C2E9
100
AcDbEntity
  8
0
  6
ByBlock
440
 16777216
100
AcDbLine
 10
15724.62794449223
 20
-7115.134883742872
 30
0.0
 11
15724.62794449223
 21
-6726.124061531066
 31
0.0
  0
LINE
  5
C2EC
330
C2E9
100
AcDbEntity
  8
0
  6
ByBlock
440
 16777216
100
AcDbLine
 10
18374.62794449223
 20
-7115.134883742872
 30
0.0
 11
18374.62794449223
 21
-6726.124061531066
 31
0.0
  0
LINE
  5
C2ED
330
C2E9
100
AcDbEntity
  8
0
  6
ByBlock
440
 16777216
100
AcDbLine
 10
15834.62794449223
 20
-6781.124061531066
 30
0.0
 11
18264.62794449223
 21
-6781.124061531066
 31
0.0
  0
INSERT
  5
C2EE
330
C2E9
100
AcDbEntity
  8
0
  6
ByBlock
440
 16777216
100
AcDbBlockReference
  2
_OPEN
 10
15724.62794449223
 20
-6781.124061531066
 30
0.0
 41
110.0
 42
110.0
 43
110.0
 50
180.0
  0
INSERT
  5
C2EF
330
C2E9
100
AcDbEntity
  8
0
  6
ByBlock
440
 16777216
100
AcDbBlockReference
  2
_OPEN
 10
18374.62794449223
 20
-6781.124061531066
 30
0.0
 41
110.0
 42
110.0
 43
110.0
  0
MTEXT
  5
C2F0
330
C2E9
100
AcDbEntity
  8
0
  6
ByBlock
440
 16777216
100
AcDbMText
 10
17049.62794449223
 20
-6657.374061531067
 30
0.0
 40
137.5
 41
0.0
 46
0.0
 71
     5
 72
     5
  1
\A1;2650
 73
     1
 44
1.0
  0
POINT
  5
C2F1
330
C2E9
100
AcDbEntity
  8
DEFPOINTS
  6
ByBlock
 62
     0
440
 16777216
100
AcDbPoint
 10
15724.62794449223
 20
-7170.134883742872
 30
0.0
  0
POINT
  5
C2F2
330
C2E9
100
AcDbEntity
  8
DEFPOINTS
  6
ByBlock
 62
     0
440
 16777216
100
AcDbPoint
 10
18374.62794449223
 20
-7170.134883742872
 30
0.0
  0
POINT
  5
C2F3
330
C2E9
100
AcDbEntity
  8
DEFPOINTS
  6
ByBlock
 62
     0
440
 16777216
100
AcDbPoint
 10
18374.62794449223
 20
-6781.124061531066
 30
0.0
  0
ENDBLK
  5
C2F4
330
C2E9
100
AcDbEntity
  8
0
100
AcDbBlockEnd
  0
BLOCK
  5
C2F7
330
C2F6
100
AcDbEntity
  8
0
100
AcDbBlockBegin
  2
*D7
 70
     1
 10
0.0
 20
0.0
 30
0.0
  3
*D7
  1

  0
LINE
  5
C2F8
330
C2F6
100
AcDbEntity
  8
0
  6
ByBlock
440
 16777216
100
AcDbLine
 10
13223.94288449964
 20
-7040.13488374287
 30
0.0
 11
13223.94288449964
 21
-6726.124061531066
 31
0.0
  0
LINE
  5
C2F9
330
C2F6
100
AcDbEntity
  8
0
  6
ByBlock
440
 16777216
100
AcDbLine
 10
11948.94288449963
 20
-6952.248623712249
 30
0.0
 11
11948.94288449963
 21
-6726.124061531066
 31
0.0
  0
LINE
  5
C2FA
330
C2F6
100
AcDbEntity
  8
0
  6
ByBlock
440
 16777216
100
AcDbLine
 10
13113.94288449964
 20
-6781.124061531066
 30
0.0
 11
12058.94288449963
 21
-6781.124061531066
 31
0.0
  0
INSERT
  5
C2FB
330
C2F6
100
AcDbEntity
  8
0
  6
ByBlock
440
 16777216
100
AcDbBlockReference
  2
_OPEN
 10
13223.94288449964
 20
-6781.124061531066
 30
0.0
 41
110.0
 42
110.0
 43
110.0
  0
INSERT
  5
C2FC
330
C2F6
100
AcDbEntity
  8
0
  6
ByBlock
440
 16777216
100
AcDbBlockReference
  2
_OPEN
 10
11948.94288449963
 20
-6781.124061531066
 30
0.0
 41
110.0
 42
110.0
 43
110.0
 50
180.0
  0
MTEXT
  5
C2FD
330
C2F6
100
AcDbEntity
  8
0
  6
ByBlock
440
 16777216
100
AcDbMText
 10
12586.44288449964
 20
-6657.374061531067
 30
0.0
 40
137.5
 41
0.0
 46
0.0
 71
     5
 72
     5
  1
\A1;1275
 73
     1
 44
1.0
  0
POINT
  5
C2FE
330
C2F6
100
AcDbEntity
  8
DEFPOINTS
  6
ByBlock
 62
     0
440
 16777216
100
AcDbPoint
 10
13223.94288449964
 20
-7095.134883742871
 30
0.0
  0
POINT
  5
C2FF
330
C2F6
100
AcDbEntity
  8
DEFPOINTS
  6
ByBlock
 62
     0
440
 16777216
100
AcDbPoint
 10
11948.94288449963
 20
-7007.248623712249
 30
0.0
  0
POINT
  5
C300
330
C2F6
100
AcDbEntity
  8
DEFPOINTS
  6
ByBlock
 62
     0
440
 16777216
100
AcDbPoint
 10
11948.94288449963
 20
-6781.124061531066
 30
0.0
  0
ENDBLK
  5
C301
330
C2F6
100
AcDbEntity
  8
0
100
AcDbBlockEnd
  0
BLOCK
  5
C311
330
C310
100
AcDbEntity
  8
0
100
AcDbBlockBegin
  2
*D8
 70
     1
 10
0.0
 20
0.0
 30
0.0
  3
*D8
  1

  0
LINE
  5
C312
330
C310
100
AcDbEntity
  8
0
  6
ByBlock
440
 16777216
100
AcDbLine
 10
11948.94288449963
 20
-6952.248623712249
 30
0.0
 11
11948.94288449963
 21
-6726.124061531066
 31
0.0
  0
LINE
  5
C313
330
C310
100
AcDbEntity
  8
0
  6
ByBlock
440
 16777216
100
AcDbLine
 10
10212.94288449963
 20
-9120.134883742871
 30
0.0
 11
10212.94288449963
 21
-6726.124061531066
 31
0.0
  0
LINE
  5
C314
330
C310
100
AcDbEntity
  8
0
  6
ByBlock
440
 16777216
100
AcDbLine
 10
11838.94288449963
 20
-6781.124061531066
 30
0.0
 11
10322.94288449963
 21
-6781.124061531066
 31
0.0
  0
INSERT
  5
C315
330
C310
100
AcDbEntity
  8
0
  6
ByBlock
440
 16777216
100
AcDbBlockReference
  2
_OPEN
 10
11948.94288449963
 20
-6781.124061531066
 30
0.0
 41
110.0
 42
110.0
 43
110.0
  0
INSERT
  5
C316
330
C310
100
AcDbEntity
  8
0
  6
ByBlock
440
 16777216
100
AcDbBlockReference
  2
_OPEN
 10
10212.94288449963
 20
-6781.124061531066
 30
0.0
 41
110.0
 42
110.0
 43
110.0
 50
180.0
  0
MTEXT
  5
C317
330
C310
100
AcDbEntity
  8
0
  6
ByBlock
440
 16777216
100
AcDbMText
 10
11080.94288449963
 20
-6657.374061531067
 30
0.0
 40
137.5
 41
0.0
 46
0.0
 71
     5
 72
     5
  1
\A1;1736
 73
     1
 44
1.0
  0
POINT
  5
C318
330
C310
100
AcDbEntity
  8
DEFPOINTS
  6
ByBlock
 62
     0
440
 16777216
100
AcDbPoint
 10
11948.94288449963
 20
-7007.248623712249
 30
0.0
  0
POINT
  5
C319
330
C310
100
AcDbEntity
  8
DEFPOINTS
  6
ByBlock
 62
     0
440
 16777216
100
AcDbPoint
 10
10212.94288449963
 20
-9175.13488374287
 30
0.0
  0
POINT
  5
C31A
330
C310
100
AcDbEntity
  8
DEFPOINTS
  6
ByBlock
 62
     0
440
 16777216
100
AcDbPoint
 10
10212.94288449963
 20
-6781.124061531066
 30
0.0
  0
ENDBLK
  5
C31B
330
C310
100
AcDbEntity
  8
0
100
AcDbBlockEnd
  0
BLOCK
  5
C31E
330
C31D
100
AcDbEntity
  8
0
100
AcDbBlockBegin
  2
*D9
 70
     1
 10
0.0
 20
0.0
 30
0.0
  3
*D9
  1

  0
LINE
  5
C31F
330
C31D
100
AcDbEntity
  8
0
  6
ByBlock
440
 16777216
100
AcDbLine
 10
13278.94288449963
 20
-7174.13488374287
 30
0.0
 11
13679.62184577542
 21
-7174.13488374287
 31
0.0
  0
LINE
  5
C320
330
C31D
100
AcDbEntity
  8
0
  6
ByBlock
440
 16777216
100
AcDbLine
 10
13278.94288449963
 20
-9234.134883742871
 30
0.0
 11
13679.62184577542
 21
-9234.134883742871
 31
0.0
  0
LINE
  5
C321
330
C31D
100
AcDbEntity
  8
0
  6
ByBlock
440
 16777216
100
AcDbLine
 10
13624.62184577542
 20
-7284.134883742871
 30
0.0
 11
13624.62184577542
 21
-9124.13488374287
 31
0.0
  0
INSERT
  5
C322
330
C31D
100
AcDbEntity
  8
0
  6
ByBlock
440
 16777216
100
AcDbBlockReference
  2
_OPEN
 10
13624.62184577542
 20
-7174.13488374287
 30
0.0
 41
110.0
 42
110.0
 43
110.0
 50
90.0
  0
INSERT
  5
C323
330
C31D
100
AcDbEntity
  8
0
  6
ByBlock
440
 16777216
100
AcDbBlockReference
  2
_OPEN
 10
13624.62184577542
 20
-9234.134883742871
 30
0.0
 41
110.0
 42
110.0
 43
110.0
 50
270.0
  0
MTEXT
  5
C324
330
C31D
100
AcDbEntity
  8
0
  6
ByBlock
440
 16777216
100
AcDbMText
 10
13500.87184577542
 20
-8204.13488374287
 30
0.0
 40
137.5
 41
0.0
 46
0.0
 71
     5
 72
     5
  1
\A1;2060
 11
0.0
 21
1.0
 31
0.0
 73
     1
 44
1.0
  0
POINT
  5
C325
330
C31D
100
AcDbEntity
  8
DEFPOINTS
  6
ByBlock
 62
     0
440
 16777216
100
AcDbPoint
 10
13223.94288449963
 20
-7174.13488374287
 30
0.0
  0
POINT
  5
C326
330
C31D
100
AcDbEntity
  8
DEFPOINTS
  6
ByBlock
 62
     0
440
 16777216
100
AcDbPoint
 10
13223.94288449963
 20
-9234.134883742871
 30
0.0
  0
POINT
  5
C327
330
C31D
100
AcDbEntity
  8
DEFPOINTS
  6
ByBlock
 62
     0
440
 16777216
100
AcDbPoint
 10
13624.62184577542
 20
-9234.134883742871
 30
0.0
  0
ENDBLK
  5
C328
330
C31D
100
AcDbEntity
  8
0
100
AcDbBlockEnd
  0
BLOCK
  5
C32B
330
C32A
100
AcDbEntity
  8
0
100
AcDbBlockBegin
  2
*D10
 70
     1
 10
0.0
 20
0.0
 30
0.0
  3
*D10
  1

  0
LINE
  5
C32C
330
C32A
100
AcDbEntity
  8
0
  6
ByBlock
440
 16777216
100
AcDbLine
 10
13278.94288449963
 20
-7174.13488374287
 30
0.0
 11
14053.25793100417
 21
-7174.13488374287
 31
0.0
  0
LINE
  5
C32D
330
C32A
100
AcDbEntity
  8
0
  6
ByBlock
440
 16777216
100
AcDbLine
 10
13382.49588261358
 20
-9322.134883742871
 30
0.0
 11
14053.25793100417
 21
-9322.134883742871
 31
0.0
  0
LINE
  5
C32E
330
C32A
100
AcDbEntity
  8
0
  6
ByBlock
440
 16777216
100
AcDbLine
 10
13998.25793100417
 20
-7284.134883742871
 30
0.0
 11
13998.25793100417
 21
-9212.134883742871
 31
0.0
  0
INSERT
  5
C32F
330
C32A
100
AcDbEntity
  8
0
  6
ByBlock
440
 16777216
100
AcDbBlockReference
  2
_OPEN
 10
13998.25793100417
 20
-7174.13488374287
 30
0.0
 41
110.0
 42
110.0
 43
110.0
 50
90.0
  0
INSERT
  5
C330
330
C32A
100
AcDbEntity
  8
0
  6
ByBlock
440
 16777216
100
AcDbBlockReference
  2
_OPEN
 10
13998.25793100417
 20
-9322.134883742871
 30
0.0
 41
110.0
 42
110.0
 43
110.0
 50
270.0
  0
MTEXT
  5
C331
330
C32A
100
AcDbEntity
  8
0
  6
ByBlock
440
 16777216
100
AcDbMText
 10
13874.50793100417
 20
-8248.134883742871
 30
0.0
 40
137.5
 41
0.0
 46
0.0
 71
     5
 72
     5
  1
\A1;2148
 11
0.0
 21
1.0
 31
0.0
 73
     1
 44
1.0
  0
POINT
  5
C332
330
C32A
100
AcDbEntity
  8
DEFPOINTS
  6
ByBlock
 62
     0
440
 16777216
100
AcDbPoint
 10
13223.94288449963
 20
-7174.13488374287
 30
0.0
  0
POINT
  5
C333
330
C32A
100
AcDbEntity
  8
DEFPOINTS
  6
ByBlock
 62
     0
440
 16777216
100
AcDbPoint
 10
13327.49588261358
 20
-9322.134883742871
 30
0.0
  0
POINT
  5
C334
330
C32A
100
AcDbEntity
  8
DEFPOINTS
  6
ByBlock
 62
     0
440
 16777216
100
AcDbPoint
 10
13998.25793100417
 20
-9322.134883742871
 30
0.0
  0
ENDBLK
  5
C335
330
C32A
100
AcDbEntity
  8
0
100
AcDbBlockEnd
  0
BLOCK
  5
C338
330
C337
100
AcDbEntity
  8
0
100
AcDbBlockBegin
  2
*D11
 70
     1
 10
0.0
 20
0.0
 30
0.0
  3
*D11
  1

  0
LINE
  5
C339
330
C337
100
AcDbEntity
  8
0
  6
ByBlock
440
 16777216
100
AcDbLine
 10
13382.49588261358
 20
-9322.134883742871
 30
0.0
 11
14053.25793100417
 21
-9322.134883742871
 31
0.0
  0
LINE
  5
C33A
330
C337
100
AcDbEntity
  8
0
  6
ByBlock
440
 16777216
100
AcDbLine
 10
13183.94288449963
 20
-10802.13488374287
 30
0.0
 11
14053.25793100417
 21
-10802.13488374287
 31
0.0
  0
LINE
  5
C33B
330
C337
100
AcDbEntity
  8
0
  6
ByBlock
440
 16777216
100
AcDbLine
 10
13998.25793100417
 20
-9432.13488374287
 30
0.0
 11
13998.25793100417
 21
-10692.13488374287
 31
0.0
  0
INSERT
  5
C33C
330
C337
100
AcDbEntity
  8
0
  6
ByBlock
440
 16777216
100
AcDbBlockReference
  2
_OPEN
 10
13998.25793100417
 20
-9322.134883742871
 30
0.0
 41
110.0
 42
110.0
 43
110.0
 50
90.0
  0
INSERT
  5
C33D
330
C337
100
AcDbEntity
  8
0
  6
ByBlock
440
 16777216
100
AcDbBlockReference
  2
_OPEN
 10
13998.25793100417
 20
-10802.13488374287
 30
0.0
 41
110.0
 42
110.0
 43
110.0
 50
270.0
  0
MTEXT
  5
C33E
330
C337
100
AcDbEntity
  8
0
  6
ByBlock
440
 16777216
100
AcDbMText
 10
13874.50793100417
 20
-10062.13488374287
 30
0.0
 40
137.5
 41
0.0
 46
0.0
 71
     5
 72
     5
  1
\A1;1480
 11
0.0
 21
1.0
 31
0.0
 73
     1
 44
1.0
  0
POINT
  5
C33F
330
C337
100
AcDbEntity
  8
DEFPOINTS
  6
ByBlock
 62
     0
440
 16777216
100
AcDbPoint
 10
13327.49588261358
 20
-9322.134883742871
 30
0.0
  0
POINT
  5
C340
330
C337
100
AcDbEntity
  8
DEFPOINTS
  6
ByBlock
 62
     0
440
 16777216
100
AcDbPoint
 10
13128.94288449963
 20
-10802.13488374287
 30
0.0
  0
POINT
  5
C341
330
C337
100
AcDbEntity
  8
DEFPOINTS
  6
ByBlock
 62
     0
440
 16777216
100
AcDbPoint
 10
13998.25793100417
 20
-10802.13488374287
 30
0.0
  0
ENDBLK
  5
C342
330
C337
100
AcDbEntity
  8
0
100
AcDbBlockEnd
  0
BLOCK
  5
C345
330
C344
100
AcDbEntity
  8
0
100
AcDbBlockBegin
  2
*D12
 70
     1
 10
0.0
 20
0.0
 30
0.0
  3
*D12
  1

  0
LINE
  5
C346
330
C344
100
AcDbEntity
  8
0
  6
ByBlock
440
 16777216
100
AcDbLine
 10
15203.62794449223
 20
-10857.13488374287
 30
0.0
 11
15203.62794449223
 21
-11202.63562283916
 31
0.0
  0
LINE
  5
C347
330
C344
100
AcDbEntity
  8
0
  6
ByBlock
440
 16777216
100
AcDbLine
 10
17049.62794449223
 20
-10857.13488374287
 30
0.0
 11
17049.62794449223
 21
-11202.63562283916
 31
0.0
  0
LINE
  5
C348
330
C344
100
AcDbEntity
  8
0
  6
ByBlock
440
 16777216
100
AcDbLine
 10
15313.62794449223
 20
-11147.63562283916
 30
0.0
 11
16939.62794449223
 21
-11147.63562283916
 31
0.0
  0
INSERT
  5
C349
330
C344
100
AcDbEntity
  8
0
  6
ByBlock
440
 16777216
100
AcDbBlockReference
  2
_OPEN
 10
15203.62794449223
 20
-11147.63562283916
 30
0.0
 41
110.0
 42
110.0
 43
110.0
 50
180.0
  0
INSERT
  5
C34A
330
C344
100
AcDbEntity
  8
0
  6
ByBlock
440
 16777216
100
AcDbBlockReference
  2
_OPEN
 10
17049.62794449223
 20
-11147.63562283916
 30
0.0
 41
110.0
 42
110.0
 43
110.0
  0
MTEXT
  5
C34B
330
C344
100
AcDbEntity
  8
0
  6
ByBlock
440
 16777216
100
AcDbMText
 10
16126.62794449223
 20
-11023.88562283916
 30
0.0
 40
137.5
 41
0.0
 46
0.0
 71
     5
 72
     5
  1
\A1;1846
 73
     1
 44
1.0
  0
POINT
  5
C34C
330
C344
100
AcDbEntity
  8
DEFPOINTS
  6
ByBlock
 62
     0
440
 16777216
100
AcDbPoint
 10
15203.62794449223
 20
-10802.13488374287
 30
0.0
  0
POINT
  5
C34D
330
C344
100
AcDbEntity
  8
DEFPOINTS
  6
ByBlock
 62
     0
440
 16777216
100
AcDbPoint
 10
17049.62794449223
 20
-10802.13488374287
 30
0.0
  0
POINT
  5
C34E
330
C344
100
AcDbEntity
  8
DEFPOINTS
  6
ByBlock
 62
     0
440
 16777216
100
AcDbPoint
 10
17049.62794449223
 20
-11147.63562283916
 30
0.0
  0
ENDBLK
  5
C34F
330
C344
100
AcDbEntity
  8
0
100
AcDbBlockEnd
  0
BLOCK
  5
C352
330
C351
100
AcDbEntity
  8
0
100
AcDbBlockBegin
  2
*D13
 70
     1
 10
0.0
 20
0.0
 30
0.0
  3
*D13
  1

  0
LINE
  5
C353
330
C351
100
AcDbEntity
  8
0
  6
ByBlock
440
 16777216
100
AcDbLine
 10
17049.62794449223
 20
-10857.13488374287
 30
0.0
 11
17049.62794449223
 21
-11202.63562283916
 31
0.0
  0
LINE
  5
C354
330
C351
100
AcDbEntity
  8
0
  6
ByBlock
440
 16777216
100
AcDbLine
 10
18453.62794449223
 20
-10857.13488374287
 30
0.0
 11
18453.62794449223
 21
-11202.63562283916
 31
0.0
  0
LINE
  5
C355
330
C351
100
AcDbEntity
  8
0
  6
ByBlock
440
 16777216
100
AcDbLine
 10
17159.62794449223
 20
-11147.63562283916
 30
0.0
 11
18343.62794449223
 21
-11147.63562283916
 31
0.0
  0
INSERT
  5
C356
330
C351
100
AcDbEntity
  8
0
  6
ByBlock
440
 16777216
100
AcDbBlockReference
  2
_OPEN
 10
17049.62794449223
 20
-11147.63562283916
 30
0.0
 41
110.0
 42
110.0
 43
110.0
 50
180.0
  0
INSERT
  5
C357
330
C351
100
AcDbEntity
  8
0
  6
ByBlock
440
 16777216
100
AcDbBlockReference
  2
_OPEN
 10
18453.62794449223
 20
-11147.63562283916
 30
0.0
 41
110.0
 42
110.0
 43
110.0
  0
MTEXT
  5
C358
330
C351
100
AcDbEntity
  8
0
  6
ByBlock
440
 16777216
100
AcDbMText
 10
17751.62794449223
 20
-11023.88562283916
 30
0.0
 40
137.5
 41
0.0
 46
0.0
 71
     5
 72
     5
  1
\A1;1404
 73
     1
 44
1.0
  0
POINT
  5
C359
330
C351
100
AcDbEntity
  8
DEFPOINTS
  6
ByBlock
 62
     0
440
 16777216
100
AcDbPoint
 10
17049.62794449223
 20
-10802.13488374287
 30
0.0
  0
POINT
  5
C35A
330
C351
100
AcDbEntity
  8
DEFPOINTS
  6
ByBlock
 62
     0
440
 16777216
100
AcDbPoint
 10
18453.62794449223
 20
-10802.13488374287
 30
0.0
  0
POINT
  5
C35B
330
C351
100
AcDbEntity
  8
DEFPOINTS
  6
ByBlock
 62
     0
440
 16777216
100
AcDbPoint
 10
18453.62794449223
 20
-11147.63562283916
 30
0.0
  0
ENDBLK
  5
C35C
330
C351
100
AcDbEntity
  8
0
100
AcDbBlockEnd
  0
BLOCK
  5
C35F
330
C35E
100
AcDbEntity
  8
0
100
AcDbBlockBegin
  2
*D14
 70
     1
 10
0.0
 20
0.0
 30
0.0
  3
*D14
  1

  0
LINE
  5
C360
330
C35E
100
AcDbEntity
  8
0
  6
ByBlock
440
 16777216
100
AcDbLine
 10
15203.62794449223
 20
-10857.13488374287
 30
0.0
 11
15203.62794449223
 21
-11532.38305444039
 31
0.0
  0
LINE
  5
C361
330
C35E
100
AcDbEntity
  8
0
  6
ByBlock
440
 16777216
100
AcDbLine
 10
18453.62794449223
 20
-10857.13488374287
 30
0.0
 11
18453.62794449223
 21
-11532.38305444039
 31
0.0
  0
LINE
  5
C362
330
C35E
100
AcDbEntity
  8
0
  6
ByBlock
440
 16777216
100
AcDbLine
 10
15313.62794449223
 20
-11477.38305444039
 30
0.0
 11
18343.62794449223
 21
-11477.38305444039
 31
0.0
  0
INSERT
  5
C363
330
C35E
100
AcDbEntity
  8
0
  6
ByBlock
440
 16777216
100
AcDbBlockReference
  2
_OPEN
 10
15203.62794449223
 20
-11477.38305444039
 30
0.0
 41
110.0
 42
110.0
 43
110.0
 50
180.0
  0
INSERT
  5
C364
330
C35E
100
AcDbEntity
  8
0
  6
ByBlock
440
 16777216
100
AcDbBlockReference
  2
_OPEN
 10
18453.62794449223
 20
-11477.38305444039
 30
0.0
 41
110.0
 42
110.0
 43
110.0
  0
MTEXT
  5
C365
330
C35E
100
AcDbEntity
  8
0
  6
ByBlock
440
 16777216
100
AcDbMText
 10
16828.62794449223
 20
-11353.63305444039
 30
0.0
 40
137.5
 41
0.0
 46
0.0
 71
     5
 72
     5
  1
\A1;3250
 73
     1
 44
1.0
  0
POINT
  5
C366
330
C35E
100
AcDbEntity
  8
DEFPOINTS
  6
ByBlock
 62
     0
440
 16777216
100
AcDbPoint
 10
15203.62794449223
 20
-10802.13488374287
 30
0.0
  0
POINT
  5
C367
330
C35E
100
AcDbEntity
  8
DEFPOINTS
  6
ByBlock
 62
     0
440
 16777216
100
AcDbPoint
 10
18453.62794449223
 20
-10802.13488374287
 30
0.0
  0
POINT
  5
C368
330
C35E
100
AcDbEntity
  8
DEFPOINTS
  6
ByBlock
 62
     0
440
 16777216
100
AcDbPoint
 10
18453.62794449223
 20
-11477.38305444039
 30
0.0
  0
ENDBLK
  5
C369
330
C35E
100
AcDbEntity
  8
0
100
AcDbBlockEnd
  0
BLOCK
  5
C36C
330
C36B
100
AcDbEntity
  8
0
100
AcDbBlockBegin
  2
*D15
 70
     1
 10
0.0
 20
0.0
 30
0.0
  3
*D15
  1

  0
LINE
  5
C36D
330
C36B
100
AcDbEntity
  8
0
  6
ByBlock
440
 16777216
100
AcDbLine
 10
11948.94288449963
 20
-10857.13488374287
 30
0.0
 11
11948.94288449963
 21
-11203.85490382888
 31
0.0
  0
LINE
  5
C36E
330
C36B
100
AcDbEntity
  8
0
  6
ByBlock
440
 16777216
100
AcDbLine
 10
13128.94288449963
 20
-10857.13488374287
 30
0.0
 11
13128.94288449963
 21
-11203.85490382888
 31
0.0
  0
LINE
  5
C36F
330
C36B
100
AcDbEntity
  8
0
  6
ByBlock
440
 16777216
100
AcDbLine
 10
12058.94288449963
 20
-11148.85490382887
 30
0.0
 11
13018.94288449964
 21
-11148.85490382887
 31
0.0
  0
INSERT
  5
C370
330
C36B
100
AcDbEntity
  8
0
  6
ByBlock
440
 16777216
100
AcDbBlockReference
  2
_OPEN
 10
11948.94288449963
 20
-11148.85490382887
 30
0.0
 41
110.0
 42
110.0
 43
110.0
 50
180.0
  0
INSERT
  5
C371
330
C36B
100
AcDbEntity
  8
0
  6
ByBlock
440
 16777216
100
AcDbBlockReference
  2
_OPEN
 10
13128.94288449963
 20
-11148.85490382887
 30
0.0
 41
110.0
 42
110.0
 43
110.0
  0
MTEXT
  5
C372
330
C36B
100
AcDbEntity
  8
0
  6
ByBlock
440
 16777216
100
AcDbMText
 10
12538.94288449963
 20
-11025.10490382887
 30
0.0
 40
137.5
 41
0.0
 46
0.0
 71
     5
 72
     5
  1
\A1;1180
 73
     1
 44
1.0
  0
POINT
  5
C373
330
C36B
100
AcDbEntity
  8
DEFPOINTS
  6
ByBlock
 62
     0
440
 16777216
100
AcDbPoint
 10
11948.94288449963
 20
-10802.13488374287
 30
0.0
  0
POINT
  5
C374
330
C36B
100
AcDbEntity
  8
DEFPOINTS
  6
ByBlock
 62
     0
440
 16777216
100
AcDbPoint
 10
13128.94288449963
 20
-10802.13488374287
 30
0.0
  0
POINT
  5
C375
330
C36B
100
AcDbEntity
  8
DEFPOINTS
  6
ByBlock
 62
     0
440
 16777216
100
AcDbPoint
 10
13128.94288449963
 20
-11148.85490382887
 30
0.0
  0
ENDBLK
  5
C376
330
C36B
100
AcDbEntity
  8
0
100
AcDbBlockEnd
  0
BLOCK
  5
C379
330
C378
100
AcDbEntity
  8
0
100
AcDbBlockBegin
  2
*D16
 70
     1
 10
0.0
 20
0.0
 30
0.0
  3
*D16
  1

  0
LINE
  5
C37A
330
C378
100
AcDbEntity
  8
0
  6
ByBlock
440
 16777216
100
AcDbLine
 10
8928.942884499631
 20
-10857.13488374286
 30
0.0
 11
8928.942884499631
 21
-11203.85490382888
 31
0.0
  0
LINE
  5
C37B
330
C378
100
AcDbEntity
  8
0
  6
ByBlock
440
 16777216
100
AcDbLine
 10
11948.94288449963
 20
-10857.13488374287
 30
0.0
 11
11948.94288449963
 21
-11203.85490382888
 31
0.0
  0
LINE
  5
C37C
330
C378
100
AcDbEntity
  8
0
  6
ByBlock
440
 16777216
100
AcDbLine
 10
9038.942884499633
 20
-11148.85490382887
 30
0.0
 11
11838.94288449963
 21
-11148.85490382887
 31
0.0
  0
INSERT
  5
C37D
330
C378
100
AcDbEntity
  8
0
  6
ByBlock
440
 16777216
100
AcDbBlockReference
  2
_OPEN
 10
8928.942884499631
 20
-11148.85490382887
 30
0.0
 41
110.0
 42
110.0
 43
110.0
 50
180.0
  0
INSERT
  5
C37E
330
C378
100
AcDbEntity
  8
0
  6
ByBlock
440
 16777216
100
AcDbBlockReference
  2
_OPEN
 10
11948.94288449963
 20
-11148.85490382887
 30
0.0
 41
110.0
 42
110.0
 43
110.0
  0
MTEXT
  5
C37F
330
C378
100
AcDbEntity
  8
0
  6
ByBlock
440
 16777216
100
AcDbMText
 10
10438.94288449963
 20
-11025.10490382887
 30
0.0
 40
137.5
 41
0.0
 46
0.0
 71
     5
 72
     5
  1
\A1;3020
 73
     1
 44
1.0
  0
POINT
  5
C380
330
C378
100
AcDbEntity
  8
DEFPOINTS
  6
ByBlock
 62
     0
440
 16777216
100
AcDbPoint
 10
8928.942884499631
 20
-10802.13488374286
 30
0.0
  0
POINT
  5
C381
330
C378
100
AcDbEntity
  8
DEFPOINTS
  6
ByBlock
 62
     0
440
 16777216
100
AcDbPoint
 10
11948.94288449963
 20
-10802.13488374287
 30
0.0
  0
POINT
  5
C382
330
C378
100
AcDbEntity
  8
DEFPOINTS
  6
ByBlock
 62
     0
440
 16777216
100
AcDbPoint
 10
11948.94288449963
 20
-11148.85490382887
 30
0.0
  0
ENDBLK
  5
C383
330
C378
100
AcDbEntity
  8
0
100
AcDbBlockEnd
  0
BLOCK
  5
C386
330
C385
100
AcDbEntity
  8
0
100
AcDbBlockBegin
  2
*D17
 70
     1
 10
0.0
 20
0.0
 30
0.0
  3
*D17
  1

  0
LINE
  5
C387
330
C385
100
AcDbEntity
  8
0
  6
ByBlock
440
 16777216
100
AcDbLine
 10
8928.942884499631
 20
-10857.13488374286
 30
0.0
 11
8928.942884499631
 21
-11532.38305444039
 31
0.0
  0
LINE
  5
C388
330
C385
100
AcDbEntity
  8
0
  6
ByBlock
440
 16777216
100
AcDbLine
 10
13128.94288449963
 20
-10857.13488374287
 30
0.0
 11
13128.94288449963
 21
-11532.38305444039
 31
0.0
  0
LINE
  5
C389
330
C385
100
AcDbEntity
  8
0
  6
ByBlock
440
 16777216
100
AcDbLine
 10
9038.942884499633
 20
-11477.38305444039
 30
0.0
 11
13018.94288449964
 21
-11477.38305444039
 31
0.0
  0
INSERT
  5
C38A
330
C385
100
AcDbEntity
  8
0
  6
ByBlock
440
 16777216
100
AcDbBlockReference
  2
_OPEN
 10
8928.942884499631
 20
-11477.38305444039
 30
0.0
 41
110.0
 42
110.0
 43
110.0
 50
180.0
  0
INSERT
  5
C38B
330
C385
100
AcDbEntity
  8
0
  6
ByBlock
440
 16777216
100
AcDbBlockReference
  2
_OPEN
 10
13128.94288449963
 20
-11477.38305444039
 30
0.0
 41
110.0
 42
110.0
 43
110.0
  0
MTEXT
  5
C38C
330
C385
100
AcDbEntity
  8
0
  6
ByBlock
440
 16777216
100
AcDbMText
 10
11028.94288449963
 20
-11353.63305444039
 30
0.0
 40
137.5
 41
0.0
 46
0.0
 71
     5
 72
     5
  1
\A1;4200
 73
     1
 44
1.0
  0
POINT
  5
C38D
330
C385
100
AcDbEntity
  8
DEFPOINTS
  6
ByBlock
 62
     0
440
 16777216
100
AcDbPoint
 10
8928.942884499631
 20
-10802.13488374286
 30
0.0
  0
POINT
  5
C38E
330
C385
100
AcDbEntity
  8
DEFPOINTS
  6
ByBlock
 62
     0
440
 16777216
100
AcDbPoint
 10
13128.94288449963
 20
-10802.13488374287
 30
0.0
  0
POINT
  5
C38F
330
C385
100
AcDbEntity
  8
DEFPOINTS
  6
ByBlock
 62
     0
440
 16777216
100
AcDbPoint
 10
13128.94288449963
 20
-11477.38305444039
 30
0.0
  0
ENDBLK
  5
C390
330
C385
100
AcDbEntity
  8
0
100
AcDbBlockEnd
  0
BLOCK
  5
C393
330
C392
100
AcDbEntity
  8
0
100
AcDbBlockBegin
  2
*D18
 70
     1
 10
0.0
 20
0.0
 30
0.0
  3
*D18
  1

  0
LINE
  5
C47E
330
C392
100
AcDbEntity
  8
SP
440
 16777216
370
    -2
100
AcDbLine
 10
17049.62794449223
 20
-6455.523338590928
 30
0.0
 11
17049.62794449223
 21
-6423.483021100256
 31
0.0
  0
LINE
  5
C47F
330
C392
100
AcDbEntity
  8
SP
440
 16777216
370
    -2
100
AcDbLine
 10
15099.62794449223
 20
-8787.134883742874
 30
0.0
 11
15099.62794449223
 21
-6423.483021100256
 31
0.0
  0
LINE
  5
C480
330
C392
100
AcDbEntity
  8
SP
440
 16777216
370
    -2
100
AcDbLine
 10
16939.62794449223
 20
-6478.483021100256
 30
0.0
 11
15209.62794449223
 21
-6478.483021100256
 31
0.0
  0
INSERT
  5
C481
330
C392
100
AcDbEntity
  8
SP
440
 16777216
370
    -2
100
AcDbBlockReference
  2
_OPEN
 10
17049.62794449223
 20
-6478.483021100256
 30
0.0
 41
110.0
 42
110.0
 43
110.0
  0
INSERT
  5
C482
330
C392
100
AcDbEntity
  8
SP
440
 16777216
370
    -2
100
AcDbBlockReference
  2
_OPEN
 10
15099.62794449223
 20
-6478.483021100256
 30
0.0
 41
110.0
 42
110.0
 43
110.0
 50
180.0
  0
MTEXT
  5
C483
330
C392
100
AcDbEntity
  8
SP
440
 16777216
100
AcDbMText
 10
16074.62794449223
 20
-6318.721116338351
 30
0.0
 40
137.5
 41
0.0
 46
0.0
 71
     5
 72
     1
  1
\A1;(1950)
 73
     1
 44
1.0
  0
POINT
  5
C484
330
C392
100
AcDbEntity
  8
DEFPOINTS
 62
     0
440
 16777216
100
AcDbPoint
 10
17049.62794449223
 20
-6510.523338590927
 30
0.0
  0
POINT
  5
C485
330
C392
100
AcDbEntity
  8
DEFPOINTS
 62
     0
440
 16777216
100
AcDbPoint
 10
15099.62794449223
 20
-8842.134883742874
 30
0.0
  0
POINT
  5
C486
330
C392
100
AcDbEntity
  8
DEFPOINTS
 62
     0
440
 16777216
100
AcDbPoint
 10
15099.62794449223
 20
-6478.483021100256
 30
0.0
  0
ENDBLK
  5
C39D
330
C392
100
AcDbEntity
  8
0
100
AcDbBlockEnd
  0
BLOCK
  5
C3A0
330
C39F
100
AcDbEntity
  8
0
100
AcDbBlockBegin
  2
*D19
 70
     1
 10
0.0
 20
0.0
 30
0.0
  3
*D19
  1

  0
LINE
  5
C487
330
C39F
100
AcDbEntity
  8
SP
440
 16777216
370
    -2
100
AcDbLine
 10
17049.62794449223
 20
-6455.523338590928
 30
0.0
 11
17049.62794449223
 21
-6423.483021100256
 31
0.0
  0
LINE
  5
C488
330
C39F
100
AcDbEntity
  8
SP
440
 16777216
370
    -2
100
AcDbLine
 10
18629.82794449224
 20
-9357.134883742869
 30
0.0
 11
18629.82794449224
 21
-6423.483021100256
 31
0.0
  0
LINE
  5
C489
330
C39F
100
AcDbEntity
  8
SP
440
 16777216
370
    -2
100
AcDbLine
 10
17159.62794449223
 20
-6478.483021100256
 30
0.0
 11
18519.82794449224
 21
-6478.483021100256
 31
0.0
  0
INSERT
  5
C48A
330
C39F
100
AcDbEntity
  8
SP
440
 16777216
370
    -2
100
AcDbBlockReference
  2
_OPEN
 10
17049.62794449223
 20
-6478.483021100256
 30
0.0
 41
110.0
 42
110.0
 43
110.0
 50
180.0
  0
INSERT
  5
C48B
330
C39F
100
AcDbEntity
  8
SP
440
 16777216
370
    -2
100
AcDbBlockReference
  2
_OPEN
 10
18629.82794449224
 20
-6478.483021100256
 30
0.0
 41
110.0
 42
110.0
 43
110.0
  0
MTEXT
  5
C48C
330
C39F
100
AcDbEntity
  8
SP
440
 16777216
100
AcDbMText
 10
17839.72794449223
 20
-6318.721116338351
 30
0.0
 40
137.5
 41
0.0
 46
0.0
 71
     5
 72
     1
  1
\A1;(1580)
 73
     1
 44
1.0
  0
POINT
  5
C48D
330
C39F
100
AcDbEntity
  8
DEFPOINTS
 62
     0
440
 16777216
100
AcDbPoint
 10
17049.62794449223
 20
-6510.523338590927
 30
0.0
  0
POINT
  5
C48E
330
C39F
100
AcDbEntity
  8
DEFPOINTS
 62
     0
440
 16777216
100
AcDbPoint
 10
18629.82794449224
 20
-9412.134883742869
 30
0.0
  0
POINT
  5
C48F
330
C39F
100
AcDbEntity
  8
DEFPOINTS
 62
     0
440
 16777216
100
AcDbPoint
 10
18629.82794449224
 20
-6478.483021100256
 30
0.0
  0
ENDBLK
  5
C3AA
330
C39F
100
AcDbEntity
  8
0
100
AcDbBlockEnd
  0
BLOCK
  5
C3BB
330
C3BA
100
AcDbEntity
  8
0
100
AcDbBlockBegin
  2
_DOT
 70
     0
 10
0.0
 20
0.0
 30
0.0
  3
_DOT
  1

  0
LWPOLYLINE
  5
C3BC
330
C3BA
100
AcDbEntity
  8
0
  6
ByBlock
 62
     0
100
AcDbPolyline
 90
        2
 70
     1
 43
0.5
 10
-0.25
 20
0.0
 42
1.0
 10
0.25
 20
0.0
 42
1.0
  0
LINE
  5
C3C0
330
C3BA
100
AcDbEntity
  8
0
  6
ByBlock
 62
     0
100
AcDbLine
 10
-0.5
 20
0.0
 30
0.0
 11
-1.0
 21
0.0
 31
0.0
  0
ENDBLK
  5
C3C1
330
C3BA
100
AcDbEntity
  8
0
100
AcDbBlockEnd
  0
BLOCK
  5
C3C3
330
C3C2
100
AcDbEntity
  8
0
100
AcDbBlockBegin
  2
*D21
 70
     1
 10
0.0
 20
0.0
 30
0.0
  3
*D21
  1

  0
LINE
  5
C3C4
330
C3C2
100
AcDbEntity
  8
0
  6
ByBlock
440
 16777216
100
AcDbLine
 10
13183.94288449963
 20
-10822.13488374287
 30
0.0
 11
14057.78749060879
 21
-10822.13488374287
 31
0.0
  0
LINE
  5
C3C5
330
C3C2
100
AcDbEntity
  8
0
  6
ByBlock
440
 16777216
100
AcDbLine
 10
13183.94288449963
 20
-11002.13488374287
 30
0.0
 11
14057.78749060879
 21
-11002.13488374287
 31
0.0
  0
LINE
  5
C3C6
330
C3C2
100
AcDbEntity
  8
0
  6
ByBlock
440
 16777216
100
AcDbLine
 10
14002.78749060879
 20
-10712.13488374287
 30
0.0
 11
14002.78749060879
 21
-10602.13488374287
 31
0.0
  0
LINE
  5
C3C7
330
C3C2
100
AcDbEntity
  8
0
  6
ByBlock
440
 16777216
100
AcDbLine
 10
14002.78749060879
 20
-11112.13488374287
 30
0.0
 11
14002.78749060879
 21
-11669.22817809861
 31
0.0
  0
LINE
  5
C3C8
330
C3C2
100
AcDbEntity
  8
0
  6
ByBlock
440
 16777216
100
AcDbLine
 10
14002.78749060879
 20
-10822.13488374287
 30
0.0
 11
14002.78749060879
 21
-11002.13488374287
 31
0.0
  0
INSERT
  5
C3C9
330
C3C2
100
AcDbEntity
  8
0
  6
ByBlock
440
 16777216
100
AcDbBlockReference
  2
_DOT
 10
14002.78749060879
 20
-10822.13488374287
 30
0.0
 41
110.0
 42
110.0
 43
110.0
 50
270.0
  0
INSERT
  5
C3CA
330
C3C2
100
AcDbEntity
  8
0
  6
ByBlock
440
 16777216
100
AcDbBlockReference
  2
_OPEN
 10
14002.78749060879
 20
-11002.13488374287
 30
0.0
 41
110.0
 42
110.0
 43
110.0
 50
90.0
  0
MTEXT
  5
C3CB
330
C3C2
100
AcDbEntity
  8
0
  6
ByBlock
440
 16777216
100
AcDbMText
 10
13879.03749060879
 20
-11445.68153092074
 30
0.0
 40
137.5
 41
0.0
 46
0.0
 71
     5
 72
     5
  1
\A1;180
 11
0.0
 21
1.0
 31
0.0
 73
     1
 44
1.0
  0
POINT
  5
C3CC
330
C3C2
100
AcDbEntity
  8
DEFPOINTS
  6
ByBlock
 62
     0
440
 16777216
100
AcDbPoint
 10
13128.94288449963
 20
-10822.13488374287
 30
0.0
  0
POINT
  5
C3CD
330
C3C2
100
AcDbEntity
  8
DEFPOINTS
  6
ByBlock
 62
     0
440
 16777216
100
AcDbPoint
 10
13128.94288449963
 20
-11002.13488374287
 30
0.0
  0
POINT
  5
C3CE
330
C3C2
100
AcDbEntity
  8
DEFPOINTS
  6
ByBlock
 62
     0
440
 16777216
100
AcDbPoint
 10
14002.78749060879
 20
-11002.13488374287
 30
0.0
  0
ENDBLK
  5
C3CF
330
C3C2
100
AcDbEntity
  8
0
100
AcDbBlockEnd
  0
BLOCK
  5
C3D2
330
C3D1
100
AcDbEntity
  8
0
100
AcDbBlockBegin
  2
_NONE
 70
     0
 10
0.0
 20
0.0
 30
0.0
  3
_NONE
  1

  0
CIRCLE
  5
C3D3
330
C3D1
100
AcDbEntity
  8
0
  6
ByBlock
 62
     0
100
AcDbCircle
 10
0.0
 20
0.0
 30
0.0
 40
0.25
  0
ENDBLK
  5
C3D4
330
C3D1
100
AcDbEntity
  8
0
100
AcDbBlockEnd
  0
BLOCK
  5
C3D6
330
C3D5
100
AcDbEntity
  8
0
100
AcDbBlockBegin
  2
*D23
 70
     1
 10
0.0
 20
0.0
 30
0.0
  3
*D23
  1

  0
LINE
  5
C41B
330
C3D5
100
AcDbEntity
  8
SP
440
 16777216
100
AcDbLine
 10
14002.78749060879
 20
-10822.13488374287
 30
0.0
 11
14002.78749060879
 21
-10932.13488374287
 31
0.0
  0
LINE
  5
C41C
330
C3D5
100
AcDbEntity
  8
SP
440
 16777216
100
AcDbLine
 10
14002.78749060879
 20
-10802.13488374287
 30
0.0
 11
14002.78749060879
 21
-10692.13488374287
 31
0.0
  0
MTEXT
  5
C41D
330
C3D5
100
AcDbEntity
  8
SP
440
 16777216
100
AcDbMText
 10
14454.5732048945
 20
-10812.13488374286
 30
0.0
 40
137.5
 41
0.0
 46
0.0
 71
     5
 72
     5
  1
\A1;(20)
 11
0.0000000000000001
 21
1.0
 31
0.0
 73
     1
 44
1.0
  0
LINE
  5
C41E
330
C3D5
100
AcDbEntity
  8
SP
440
 16777216
100
AcDbLine
 10
14002.78749060879
 20
-10822.13488374287
 30
0.0
 11
14002.78749060879
 21
-10802.13488374287
 31
0.0
  0
POINT
  5
C41F
330
C3D5
100
AcDbEntity
  8
DEFPOINTS
 62
     0
440
 16777216
100
AcDbPoint
 10
13128.94288449963
 20
-10822.13488374287
 30
0.0
  0
POINT
  5
C420
330
C3D5
100
AcDbEntity
  8
DEFPOINTS
 62
     0
440
 16777216
100
AcDbPoint
 10
13128.94288449963
 20
-10802.13488374287
 30
0.0
  0
POINT
  5
C421
330
C3D5
100
AcDbEntity
  8
DEFPOINTS
 62
     0
440
 16777216
100
AcDbPoint
 10
14002.78749060879
 20
-10802.13488374287
 30
0.0
  0
ENDBLK
  5
C3DE
330
C3D5
100
AcDbEntity
  8
0
100
AcDbBlockEnd
  0
ENDSEC
  0
SECTION
  2
ENTITIES
  0
LINE
  5
7AB6
330
19
100
AcDbEntity
  8
FUTO
100
AcDbLine
 10
9898.942884499637
 20
-10552.13488374287
 30
0.0
 11
9828.942884499637
 21
-10552.13488374287
 31
0.0
  0
LINE
  5
7AB7
330
19
100
AcDbEntity
  8
FUTO
100
AcDbLine
 10
9198.942884499636
 20
-10552.13488374287
 30
0.0
 11
9198.942884499636
 21
-10622.13488374287
 31
0.0
  0
LINE
  5
7AB8
330
19
100
AcDbEntity
  8
FUTO
100
AcDbLine
 10
9898.942884499637
 20
-10552.13488374287
 30
0.0
 11
9898.942884499637
 21
-10622.13488374287
 31
0.0
  0
LINE
  5
7AC0
330
19
100
AcDbEntity
  8
FUTO
100
AcDbLine
 10
9278.942884499636
 20
-4198.290027528359
 30
0.0
 11
9818.942884499637
 21
-4198.290027528359
 31
0.0
  0
LINE
  5
7AC6
330
19
100
AcDbEntity
  8
FUTO
100
AcDbLine
 10
9818.942884499637
 20
-5101.790027528359
 30
0.0
 11
9278.942884499636
 21
-5101.790027528359
 31
0.0
  0
LINE
  5
7AFE
330
19
100
AcDbEntity
  8
FUTO
100
AcDbLine
 10
9506.442884499637
 20
-5168.290027528359
 30
0.0
 11
9506.442884499637
 21
-5101.790027528359
 31
0.0
  0
LINE
  5
7AFF
330
19
100
AcDbEntity
  8
FUTO
100
AcDbLine
 10
9591.442884499636
 20
-5101.790027528359
 30
0.0
 11
9591.442884499636
 21
-5168.290027528359
 31
0.0
  0
ARC
  5
7B35
330
19
100
AcDbEntity
  8
FUTO
100
AcDbCircle
 10
9548.942884499636
 20
-10272.13488374287
 30
0.0
 40
287.5
100
AcDbArc
 50
329.6527345159927
 51
210.3472655873382
  0
LINE
  5
7B36
330
19
100
AcDbEntity
  8
CT
100
AcDbLine
 10
9548.942884499638
 20
-11002.13488374287
 30
0.0
 11
9548.942884499636
 21
-9888.972563742871
 31
0.0
  0
LINE
  5
7B38
330
19
100
AcDbEntity
  8
CT
100
AcDbLine
 10
9228.942884499636
 20
-10272.13488374287
 30
0.0
 11
9868.942884499638
 21
-10272.13488374287
 31
0.0
  0
LINE
  5
7B3B
330
19
100
AcDbEntity
  8
FUTO
100
AcDbLine
 10
9278.574164499637
 20
-10430.88834674287
 30
0.0
 11
9300.836407499636
 21
-10417.39129774287
 31
0.0
  0
LINE
  5
7B3C
330
19
100
AcDbEntity
  8
FUTO
100
AcDbLine
 10
9268.942884499637
 20
-10552.13488374287
 30
0.0
 11
9268.942884499637
 21
-10447.99067574287
 31
0.0
  0
ARC
  5
7B3E
330
19
100
AcDbEntity
  8
FUTO
100
AcDbCircle
 10
9288.942884499636
 20
-10447.99067574287
 30
0.0
 40
20.0
100
AcDbArc
 50
121.227401
 51
180.0
  0
LINE
  5
7B4A
330
19
100
AcDbEntity
  8
FUTO
100
AcDbLine
 10
9828.942884499637
 20
-10552.13488374287
 30
0.0
 11
9828.942884499637
 21
-10447.99067574287
 31
0.0
  0
LINE
  5
7B57
330
19
100
AcDbEntity
  8
FUTO
100
AcDbLine
 10
9819.311605499635
 20
-10430.88834674287
 30
0.0
 11
9797.049362152044
 21
-10417.39129753213
 31
0.0
  0
ARC
  5
7B5A
330
19
100
AcDbEntity
  8
FUTO
100
AcDbCircle
 10
9808.942884499636
 20
-10447.99067574287
 30
0.0
 40
20.0
100
AcDbArc
 50
0.0
 51
58.77259899999999
  0
CIRCLE
  5
7B75
330
19
100
AcDbEntity
  8
SL
100
AcDbCircle
 10
9548.942884499636
 20
-10272.13488374287
 30
0.0
 40
140.0
  0
LINE
  5
7B82
330
19
100
AcDbEntity
  8
FUTO
100
AcDbLine
 10
9268.942884499637
 20
-10552.13488374287
 30
0.0
 11
9198.942884499636
 21
-10552.13488374287
 31
0.0
  0
LINE
  5
98B6
330
19
100
AcDbEntity
  8
SL
100
AcDbLine
 10
15199.62794449223
 20
-9072.134883742874
 30
0.0
 11
15339.62794449223
 21
-9072.134883742876
 31
0.0
  0
LINE
  5
98B7
330
19
100
AcDbEntity
  8
SL
100
AcDbLine
 10
15199.62794449223
 20
-9872.134883742877
 30
0.0
 11
15339.62794449223
 21
-9872.134883742877
 31
0.0
  0
LINE
  5
98B8
330
19
100
AcDbEntity
  8
SL
100
AcDbLine
 10
15339.62794449223
 20
-10132.13488374287
 30
0.0
 11
15199.62794449223
 21
-10132.13488374287
 31
0.0
  0
LINE
  5
98B9
330
19
100
AcDbEntity
  8
SL
100
AcDbLine
 10
15339.62794449223
 20
-10412.13488374287
 30
0.0
 11
15199.62794449223
 21
-10412.13488374287
 31
0.0
  0
LINE
  5
98BA
330
19
100
AcDbEntity
  8
SL
100
AcDbLine
 10
15199.62794449223
 20
-9072.134883742874
 30
0.0
 11
15199.62794449223
 21
-10412.13488374287
 31
0.0
  0
LINE
  5
98BC
330
19
100
AcDbEntity
  8
SL
100
AcDbLine
 10
15339.62794449223
 20
-9072.134883742874
 30
0.0
 11
15339.62794449223
 21
-10412.13488374287
 31
0.0
  0
LINE
  5
98C4
330
19
100
AcDbEntity
  8
FUTO
100
AcDbLine
 10
9818.942884499637
 20
-5101.790027528359
 30
0.0
 11
9818.942884499637
 21
-4198.290027528359
 31
0.0
  0
LINE
  5
98C5
330
19
100
AcDbEntity
  8
FUTO
100
AcDbLine
 10
9278.942884499636
 20
-5101.790027528359
 30
0.0
 11
9278.942884499636
 21
-4198.290027528359
 31
0.0
  0
LINE
  5
98C6
330
19
100
AcDbEntity
  8
FUTO
100
AcDbLine
 10
15406.12794449223
 20
-10542.13488374287
 30
0.0
 11
15719.62794449223
 21
-10542.13488374287
 31
0.0
  0
LINE
  5
98C7
330
19
100
AcDbEntity
  8
FUTO
100
AcDbLine
 10
15406.12794449223
 20
-10002.13488374287
 30
0.0
 11
15719.62794449223
 21
-10002.13488374287
 31
0.0
  0
LINE
  5
98CA
330
19
100
AcDbEntity
  8
FUTO
100
AcDbLine
 10
15406.12794449223
 20
-10542.13488374287
 30
0.0
 11
15406.12794449223
 21
-10002.13488374287
 31
0.0
  0
LINE
  5
98CC
330
19
100
AcDbEntity
  8
FUTO
100
AcDbLine
 10
15339.62794449223
 20
-10229.63488374286
 30
0.0
 11
15406.12794449223
 21
-10229.63488374287
 31
0.0
  0
LINE
  5
98CD
330
19
100
AcDbEntity
  8
FUTO
100
AcDbLine
 10
15406.12794449223
 20
-10314.63488374287
 30
0.0
 11
15339.62794449223
 21
-10314.63488374287
 31
0.0
  0
LINE
  5
98E8
330
19
100
AcDbEntity
  8
SL
100
AcDbLine
 10
9378.942884499636
 20
-5118.29002752836
 30
0.0
 11
9328.942884499637
 21
-5118.29002752836
 31
0.0
  0
LINE
  5
A0E7
330
19
100
AcDbEntity
  8
4
100
AcDbLine
 10
17961.16669783403
 20
-12040.48813421171
 30
0.0
 11
17961.16669783403
 21
-13140.48813421171
 31
0.0
  0
LINE
  5
A0E8
330
19
100
AcDbEntity
  8
4
100
AcDbLine
 10
14111.16669783403
 20
-12040.48813421171
 30
0.0
 11
14111.16669783403
 21
-13140.48813421171
 31
0.0
  0
LINE
  5
A0E9
330
19
100
AcDbEntity
  8
4
100
AcDbLine
 10
11361.16669783403
 20
-12040.48813421171
 30
0.0
 11
11361.16669783403
 21
-13140.48813421171
 31
0.0
  0
LINE
  5
A0EC
330
19
100
AcDbEntity
  8
4
100
AcDbLine
 10
11361.16669783403
 20
-13140.48813421171
 30
0.0
 11
17961.16669783403
 21
-13140.48813421171
 31
0.0
  0
LINE
  5
A0ED
330
19
100
AcDbEntity
  8
4
100
AcDbLine
 10
11361.16669783403
 20
-12590.48813421171
 30
0.0
 11
17961.16669783403
 21
-12590.48813421171
 31
0.0
  0
TEXT
  5
A0EE
330
19
100
AcDbEntity
  8
4
100
AcDbText
 10
11572.92814249199
 20
-12417.00149194534
 30
0.0
 40
275.0
  1
機器名称
100
AcDbText
  0
TEXT
  5
A0EF
330
19
100
AcDbEntity
  8
4
100
AcDbText
 10
11560.58628097042
 20
-13021.43977218565
 30
0.0
 40
275.0
  1
機器型番
100
AcDbText
  0
TEXT
  5
A0F0
330
19
100
AcDbEntity
  8
4
100
AcDbText
 10
14274.28609399308
 20
-12457.34307415221
 30
0.0
 40
233.75
  1
ミツヤリミットロ－ドファン
100
AcDbText
  0
TEXT
  5
A0F1
330
19
100
AcDbEntity
  8
4
100
AcDbText
 10
14312.76642355418
 20
-13046.11042067202
 30
0.0
 40
275.0
  1
LL#12-5
100
AcDbText
  0
TEXT
  5
A0F3
330
19
100
AcDbEntity
  8
4
100
AcDbText
 10
12185.97715136576
 20
-1128.56058470239
 30
0.0
 40
297.0
  1
床置防振ベット
100
AcDbText
  0
TEXT
  5
A0F4
330
19
100
AcDbEntity
  8
4
100
AcDbText
 10
9429.003240898744
 20
-301.0738429350895
 30
0.0
 40
396.0000000000001
  1
遠心式両吸込両持リミットロ－ドファン
100
AcDbText
  0
LINE
  5
A0F5
330
19
100
AcDbEntity
  8
4
100
AcDbLine
 10
9161.166697834037
 20
-655.6710635748004
 30
0.0
 11
17961.16669783403
 21
-655.6710635748004
 31
0.0
  0
LINE
  5
A0F6
330
19
100
AcDbEntity
  8
4
100
AcDbLine
 10
9161.166697834037
 20
444.3289364251995
 30
0.0
 11
17961.16669783403
 21
444.3289364251995
 31
0.0
  0
LINE
  5
A0F7
330
19
100
AcDbEntity
  8
4
100
AcDbLine
 10
11361.16669783403
 20
-12040.48813421171
 30
0.0
 11
17961.16669783403
 21
-12040.48813421171
 31
0.0
  0
LINE
  5
A0F8
330
19
100
AcDbEntity
  8
4
100
AcDbLine
 10
9161.166697834037
 20
444.3289364251995
 30
0.0
 11
9161.166697834037
 21
-655.6710635748004
 31
0.0
  0
TEXT
  5
A0F9
330
19
100
AcDbEntity
  8
4
100
AcDbText
 10
9788.753574030897
 20
-1134.662085526339
 30
0.0
 40
297.0
  1
右回転右横向
100
AcDbText
  0
TEXT
  5
A0FA
330
19
100
AcDbEntity
  8
4
100
AcDbText
 10
15865.49927370513
 20
645.9167361929703
 30
0.0
 40
308.0
  1
No.
100
AcDbText
  0
TEXT
  5
A0FB
330
19
100
AcDbEntity
  8
4
100
AcDbText
 10
14998.29504213411
 20
-1128.56058470239
 30
0.0
 40
297.0
  1
縮尺：1/55
100
AcDbText
  0
LINE
  5
A0FC
330
19
100
AcDbEntity
  8
4
100
AcDbLine
 10
17961.16669783403
 20
444.3289364251995
 30
0.0
 11
17961.16669783403
 21
-655.6710635748004
 31
0.0
  0
LINE
  5
A0FD
330
19
100
AcDbEntity
  8
4
100
AcDbLine
 10
19336.16669783403
 20
1987.580787968773
 30
0.0
 11
19336.16669783403
 21
1987.580787968773
 31
0.0
  0
LINE
  5
A0FE
330
19
100
AcDbEntity
  8
4
100
AcDbLine
 10
15709.56252081329
 20
509.5304951584785
 30
0.0
 11
15709.56252081329
 21
1089.168226492411
 31
0.0
  0
LINE
  5
A0FF
330
19
100
AcDbEntity
  8
4
100
AcDbLine
 10
15709.56252081329
 20
1089.168226492411
 30
0.0
 11
17961.16669783403
 21
1089.168226492411
 31
0.0
  0
LINE
  5
A100
330
19
100
AcDbEntity
  8
4
100
AcDbLine
 10
17961.16669783403
 20
1089.168226492411
 30
0.0
 11
17961.16669783403
 21
509.5304951584785
 31
0.0
  0
LINE
  5
A101
330
19
100
AcDbEntity
  8
4
100
AcDbLine
 10
17961.16669783403
 20
509.5304951584785
 30
0.0
 11
15709.56252081329
 21
509.5304951584785
 31
0.0
  0
LINE
  5
A102
330
19
100
AcDbEntity
  8
4
100
AcDbLine
 10
7786.166697834037
 20
-14237.41921203123
 30
0.0
 11
7786.166697834037
 21
1987.580787968773
 31
0.0
  0
LINE
  5
A103
330
19
100
AcDbEntity
  8
4
100
AcDbLine
 10
7786.166697834037
 20
1987.580787968773
 30
0.0
 11
19336.16669783403
 21
1987.580787968773
 31
0.0
  0
LINE
  5
A104
330
19
100
AcDbEntity
  8
4
100
AcDbLine
 10
19336.16669783403
 20
1987.580787968773
 30
0.0
 11
19336.16669783403
 21
-14237.41921203123
 31
0.0
  0
LINE
  5
A105
330
19
100
AcDbEntity
  8
4
100
AcDbLine
 10
19336.16669783403
 20
-14237.41921203123
 30
0.0
 11
7786.166697834037
 21
-14237.41921203123
 31
0.0
  0
LINE
  5
B009
330
19
100
AcDbEntity
  8
FUTO
100
AcDbLine
 10
13128.94288449963
 20
-10622.13488374287
 30
0.0
 11
8928.942884499631
 21
-10622.13488374287
 31
0.0
  0
LINE
  5
B00A
330
19
100
AcDbEntity
  8
FUTO
100
AcDbLine
 10
13128.94288449963
 20
-10802.13488374287
 30
0.0
 11
8928.942884499631
 21
-10802.13488374286
 31
0.0
  0
LINE
  5
B00B
330
19
100
AcDbEntity
  8
FUTO
100
AcDbLine
 10
11948.94288449963
 20
-7297.881571054357
 30
0.0
 11
13223.94288449963
 21
-7174.13488374287
 31
0.0
  0
LINE
  5
B00D
330
19
100
AcDbEntity
  8
CT
100
AcDbLine
 10
10076.94977588762
 20
-9322.134883742871
 30
0.0
 11
13327.49588261358
 21
-9322.134883742871
 31
0.0
  0
ARC
  5
B00E
330
19
100
AcDbEntity
  8
FUTO
100
AcDbCircle
 10
12095.94288449963
 20
-9175.13488374287
 30
0.0
 40
1883.0
100
AcDbArc
 50
94.47746053634855
 51
180.0
  0
LINE
  5
B00F
330
19
100
AcDbEntity
  8
CT
100
AcDbLine
 10
11948.94288449963
 20
-7007.248623712249
 30
0.0
 11
11948.94288449964
 21
-11002.13488374287
 31
0.0
  0
LINE
  5
B013
330
19
100
AcDbEntity
  8
FUTO
100
AcDbLine
 10
13148.94288449963
 20
-7181.414100643547
 30
0.0
 11
13148.94288449963
 21
-9234.134883742871
 31
0.0
  0
LINE
  5
B014
330
19
100
AcDbEntity
  8
FUTO
100
AcDbLine
 10
13223.94288449964
 20
-7095.134883742871
 30
0.0
 11
13223.94288449963
 21
-9313.134883742868
 31
0.0
  0
LINE
  5
B019
330
19
100
AcDbEntity
  8
FUTO
100
AcDbLine
 10
13125.12215258836
 20
-9234.134883742871
 30
0.0
 11
13223.94288449963
 21
-9234.134883742871
 31
0.0
  0
LINE
  5
B029
330
19
100
AcDbEntity
  8
CT
100
AcDbLine
 10
17049.62794449223
 20
-6874.166444067071
 30
0.0
 11
17049.62794449224
 21
-11002.13488374287
 31
0.0
  0
LINE
  5
B02A
330
19
100
AcDbEntity
  8
CT
100
AcDbLine
 10
15099.62794449223
 20
-9322.134883742871
 30
0.0
 11
18688.17916685943
 21
-9322.134883742871
 31
0.0
  0
LINE
  5
B02B
330
19
100
AcDbEntity
  8
FUTO
100
AcDbLine
 10
18453.62794449222
 20
-10622.13488374286
 30
0.0
 11
15203.62794449223
 21
-10622.13488374287
 31
0.0
  0
LINE
  5
B02C
330
19
100
AcDbEntity
  8
FUTO
100
AcDbLine
 10
18453.62794449223
 20
-10802.13488374287
 30
0.0
 11
15203.62794449223
 21
-10802.13488374287
 31
0.0
  0
LINE
  5
B02D
330
19
100
AcDbEntity
  8
FUTO
100
AcDbLine
 10
15645.62794449223
 20
-7095.134883742871
 30
0.0
 11
18453.62794449223
 21
-7095.134883742871
 31
0.0
  0
LINE
  5
B02E
330
19
100
AcDbEntity
  8
FUTO
100
AcDbLine
 10
15645.62794449223
 20
-9313.134883742868
 30
0.0
 11
18453.62794449223
 21
-9313.13488374287
 31
0.0
  0
LINE
  5
B02F
330
19
100
AcDbEntity
  8
FUTO
100
AcDbLine
 10
15724.62794449223
 20
-7170.134883742871
 30
0.0
 11
15724.62794449223
 21
-9238.134883742871
 31
0.0
  0
LINE
  5
B030
330
19
100
AcDbEntity
  8
FUTO
100
AcDbLine
 10
18374.62794449223
 20
-7170.134883742871
 30
0.0
 11
18374.62794449223
 21
-9238.134883742871
 31
0.0
  0
LINE
  5
B031
330
19
100
AcDbEntity
  8
FUTO
100
AcDbLine
 10
15645.62794449223
 20
-7095.134883742871
 30
0.0
 11
15645.62794449223
 21
-9313.13488374287
 31
0.0
  0
LINE
  5
B032
330
19
100
AcDbEntity
  8
FUTO
100
AcDbLine
 10
18453.62794449223
 20
-7095.134883742871
 30
0.0
 11
18453.62794449223
 21
-9313.13488374287
 31
0.0
  0
LINE
  5
B033
330
19
100
AcDbEntity
  8
FUTO
100
AcDbLine
 10
15724.62794449223
 20
-7170.134883742872
 30
0.0
 11
18374.62794449223
 21
-7170.134883742872
 31
0.0
  0
LINE
  5
B034
330
19
100
AcDbEntity
  8
FUTO
100
AcDbLine
 10
15724.62794449223
 20
-9238.134883742871
 30
0.0
 11
18374.62794449223
 21
-9238.134883742871
 31
0.0
  0
LINE
  5
B03F
330
19
100
AcDbEntity
  8
FUTO
100
AcDbLine
 10
18453.62794449223
 20
-10622.13488374287
 30
0.0
 11
18453.62794449223
 21
-10802.13488374287
 31
0.0
  0
LINE
  5
B044
330
19
100
AcDbEntity
  8
FUTO
100
AcDbLine
 10
10778.94288449963
 20
-7832.13488374287
 30
0.0
 11
10787.94288449963
 21
-7832.13488374287
 31
0.0
  0
LINE
  5
B168
330
19
100
AcDbEntity
  8
FUTO
100
AcDbLine
 10
18374.62794449223
 20
-9412.134883742869
 30
0.0
 11
18629.82794449224
 21
-9412.134883742869
 31
0.0
  0
LINE
  5
B169
330
19
100
AcDbEntity
  8
FUTO
100
AcDbLine
 10
18374.62794449223
 20
-9662.134883742872
 30
0.0
 11
18629.82794449224
 21
-9662.134883742869
 31
0.0
  0
LINE
  5
B16A
330
19
100
AcDbEntity
  8
FUTO
100
AcDbLine
 10
18629.82794449224
 20
-9412.134883742869
 30
0.0
 11
18629.82794449224
 21
-9662.134883742872
 31
0.0
  0
LINE
  5
B171
330
19
100
AcDbEntity
  8
FUTO
100
AcDbLine
 10
18374.62794449223
 20
-9313.134883742872
 30
0.0
 11
18374.62794449223
 21
-10622.13488374287
 31
0.0
  0
LINE
  5
B175
330
19
100
AcDbEntity
  8
FUTO
100
AcDbLine
 10
15724.62794449223
 20
-9313.134883742868
 30
0.0
 11
15724.62794449223
 21
-10622.13488374287
 31
0.0
  0
LINE
  5
B189
330
19
100
AcDbEntity
  8
FUTO
100
AcDbLine
 10
15481.42794449223
 20
-9662.134883742872
 30
0.0
 11
15724.62794449223
 21
-9662.134883742872
 31
0.0
  0
LINE
  5
B18A
330
19
100
AcDbEntity
  8
FUTO
100
AcDbLine
 10
15481.42794449223
 20
-9412.134883742869
 30
0.0
 11
15481.42794449223
 21
-9662.134883742872
 31
0.0
  0
CIRCLE
  5
B18C
330
19
100
AcDbEntity
  8
SL
100
AcDbCircle
 10
11948.94288449963
 20
-9322.134883742871
 30
0.0
 40
400.0
  0
LINE
  5
B196
330
19
100
AcDbEntity
  8
FUTO
100
AcDbLine
 10
15203.62794449223
 20
-10622.13488374287
 30
0.0
 11
15203.62794449223
 21
-10802.13488374287
 31
0.0
  0
LINE
  5
B1DD
330
19
100
AcDbEntity
  8
FUTO
100
AcDbLine
 10
15339.62794449223
 20
-9264.63488374287
 30
0.0
 11
15645.62794449223
 21
-9264.63488374287
 31
0.0
  0
LINE
  5
B1DE
330
19
100
AcDbEntity
  8
FUTO
100
AcDbLine
 10
15339.62794449223
 20
-9379.634883742872
 30
0.0
 11
15724.62794449223
 21
-9379.634883742873
 31
0.0
  0
LINE
  5
B1EA
330
19
100
AcDbEntity
  8
SP
100
AcDbLine
 10
17049.62794449223
 20
-6510.523338590927
 30
0.0
 11
17049.62794449223
 21
-6450.523338590926
 31
0.0
  0
ARC
  5
B1F2
330
19
100
AcDbEntity
  8
FUTO
100
AcDbCircle
 10
11801.94288449963
 20
-9175.13488374287
 30
0.0
 40
1589.0
100
AcDbArc
 50
179.9999999999998
 51
245.5933377882234
  0
ARC
  5
B1FA
330
19
100
AcDbEntity
  8
FUTO
100
AcDbCircle
 10
12071.44288449963
 20
-9444.634883742869
 30
0.0
 40
1074.5
100
AcDbArc
 50
0.0
 51
11.29760023059804
  0
ARC
  5
B32D
330
19
100
AcDbEntity
  8
FUTO
100
AcDbCircle
 10
11826.44288449963
 20
-9444.634883742869
 30
0.0
 40
1319.5
100
AcDbArc
 50
296.8257011588347
 51
0.0
  0
LINE
  5
C236
330
19
100
AcDbEntity
  8
FUTO
100
AcDbLine
 10
15481.42794449223
 20
-9412.134883742869
 30
0.0
 11
15724.62794449224
 21
-9412.13488374287
 31
0.0
  0
LINE
  5
C237
330
19
100
AcDbEntity
  8
FUTO
100
AcDbLine
 10
15724.62794449223
 20
-9238.134883742871
 30
0.0
 11
18374.62794449223
 21
-7170.134883742872
 31
0.0
  0
LINE
  5
C238
330
19
100
AcDbEntity
  8
FUTO
100
AcDbLine
 10
15724.62794449223
 20
-7170.134883742872
 30
0.0
 11
18374.62794449223
 21
-9238.134883742871
 31
0.0
  0
LINE
  5
C239
330
19
100
AcDbEntity
  8
SL
100
AcDbLine
 10
15099.62794449223
 20
-8842.134883742874
 30
0.0
 11
15099.62794449223
 21
-10492.13488374287
 31
0.0
  0
CIRCLE
  5
C26F
330
19
100
AcDbEntity
  8
FUTO
100
AcDbCircle
 10
11948.94288449963
 20
-9322.134883742871
 30
0.0
 40
1075.0
  0
CIRCLE
  5
C270
330
19
100
AcDbEntity
  8
FUTO
100
AcDbCircle
 10
11948.94288449963
 20
-9322.134883742871
 30
0.0
 40
1000.0
  0
LINE
  5
C271
330
19
100
AcDbEntity
  8
FUTO
100
AcDbLine
 10
13128.94288449963
 20
-10802.13488374287
 30
0.0
 11
13128.94288449963
 21
-10622.13488374287
 31
0.0
  0
LINE
  5
C272
330
19
100
AcDbEntity
  8
FUTO
100
AcDbLine
 10
8928.942884499637
 20
-10802.13488374287
 30
0.0
 11
8928.942884499637
 21
-10622.13488374287
 31
0.0
  0
ARC
  5
C275
330
19
100
AcDbEntity
  8
SL
100
AcDbCircle
 10
11948.94288449963
 20
-9322.134883742871
 30
0.0
 40
480.0
100
AcDbArc
 50
285.8141565113641
 51
117.3764643865713
  0
ARC
  5
C276
330
19
100
AcDbEntity
  8
SL
100
AcDbCircle
 10
9548.942884499636
 20
-10272.13488374287
 30
0.0
 40
220.0
100
AcDbArc
 50
117.3764643865712
 51
285.8141565113643
  0
LINE
  5
C277
330
19
100
AcDbEntity
  8
SL
100
AcDbLine
 10
9447.779172501004
 20
-10076.77392711474
 30
0.0
 11
11728.2220583208
 21
-8895.892796554226
 31
0.0
  0
LINE
  5
C278
330
19
100
AcDbEntity
  8
SL
100
AcDbLine
 10
9484.565976864143
 20
-10147.81427497951
 30
0.0
 11
11765.00886268394
 21
-8966.933144419
 31
0.0
  0
LINE
  5
C279
330
19
100
AcDbEntity
  8
SL
100
AcDbLine
 10
9587.095401891227
 20
-10406.8359803111
 30
0.0
 11
12057.95007704704
 21
-9706.995159652107
 31
0.0
  0
LINE
  5
C27A
330
19
100
AcDbEntity
  8
SL
100
AcDbLine
 10
9608.89684040071
 20
-10483.80803549295
 30
0.0
 11
12079.75151555652
 21
-9783.967214833955
 31
0.0
  0
LINE
  5
C27B
330
19
100
AcDbEntity
  8
CT
100
AcDbLine
 10
15724.62794449223
 20
-10272.13488374287
 30
0.0
 11
15099.62794449223
 21
-10272.13488374287
 31
0.0
  0
LINE
  5
C27C
330
19
100
AcDbEntity
  8
SL
100
AcDbLine
 10
15099.62794449223
 20
-8842.13488374287
 30
0.0
 11
15389.62794449223
 21
-8842.13488374287
 31
0.0
  0
LINE
  5
C27D
330
19
100
AcDbEntity
  8
SL
100
AcDbLine
 10
15389.62794449223
 20
-10492.13488374287
 30
0.0
 11
15099.62794449223
 21
-10492.13488374287
 31
0.0
  0
LINE
  5
C27E
330
19
100
AcDbEntity
  8
SL
100
AcDbLine
 10
15389.62794449223
 20
-8842.134883742874
 30
0.0
 11
15389.62794449223
 21
-8892.134883742867
 31
0.0
  0
LINE
  5
C282
330
19
100
AcDbEntity
  8
SL
100
AcDbLine
 10
15389.62794449223
 20
-10442.13488374286
 30
0.0
 11
15389.62794449223
 21
-10492.13488374287
 31
0.0
  0
LINE
  5
C283
330
19
100
AcDbEntity
  8
FUTO
100
AcDbLine
 10
13128.94288449963
 20
-5304.290027528357
 30
0.0
 11
8928.942884499631
 21
-5304.290027528353
 31
0.0
  0
LINE
  5
C284
330
19
100
AcDbEntity
  8
FUTO
100
AcDbLine
 10
13128.94288449963
 20
-5304.290027528357
 30
0.0
 11
13128.94288449964
 21
-4783.290027528358
 31
0.0
  0
LINE
  5
C285
330
19
100
AcDbEntity
  8
FUTO
100
AcDbLine
 10
13128.94288449963
 20
-2054.290027528358
 30
0.0
 11
10768.94288449963
 21
-2054.290027528358
 31
0.0
  0
LINE
  5
C286
330
19
100
AcDbEntity
  8
FUTO
100
AcDbLine
 10
10768.94288449963
 20
-2054.290027528358
 30
0.0
 11
10768.94288449963
 21
-2133.290027528357
 31
0.0
  0
LINE
  5
C287
330
19
100
AcDbEntity
  8
FUTO
100
AcDbLine
 10
8928.942884499631
 20
-5304.290027528353
 30
0.0
 11
8928.942884499631
 21
-4004.290027528353
 31
0.0
  0
LINE
  5
C288
330
19
100
AcDbEntity
  8
FUTO
100
AcDbLine
 10
8928.942884499631
 20
-4004.290027528353
 30
0.0
 11
10212.94288449963
 21
-4004.290027528354
 31
0.0
  0
LINE
  5
C28B
330
19
100
AcDbEntity
  8
CT
100
AcDbLine
 10
11948.94288449963
 20
-1951.25560928831
 30
0.0
 11
11948.94288449963
 21
-5408.290027528358
 31
0.0
  0
LINE
  5
C28C
330
19
100
AcDbEntity
  8
CT
100
AcDbLine
 10
9548.942884499636
 20
-5408.290027528359
 30
0.0
 11
9548.942884499632
 21
-4163.458375330086
 31
0.0
  0
LINE
  5
C28D
330
19
100
AcDbEntity
  8
CT
100
AcDbLine
 10
13312.12048167865
 20
-3458.290027528357
 30
0.0
 11
10090.83845802632
 21
-3458.290027528357
 31
0.0
  0
LINE
  5
C28E
330
19
100
AcDbEntity
  8
SL
100
AcDbLine
 10
12428.94288449963
 20
-5408.290027528358
 30
0.0
 11
9328.942884499637
 21
-5408.290027528359
 31
0.0
  0
LINE
  5
C290
330
19
100
AcDbEntity
  8
SL
100
AcDbLine
 10
9328.942884499641
 20
-5408.290027528359
 30
0.0
 11
9328.942884499641
 21
-5118.29002752836
 31
0.0
  0
LINE
  5
C291
330
19
100
AcDbEntity
  8
SL
100
AcDbLine
 10
12428.94288449963
 20
-5118.290027528357
 30
0.0
 11
12428.94288449963
 21
-5408.290027528358
 31
0.0
  0
LINE
  5
C292
330
19
100
AcDbEntity
  8
SL
100
AcDbLine
 10
12428.94288449963
 20
-5118.290027528357
 30
0.0
 11
12378.94288449963
 21
-5118.29002752836
 31
0.0
  0
LINE
  5
C295
330
19
100
AcDbEntity
  8
SL
100
AcDbLine
 10
9378.942884499641
 20
-5118.29002752836
 30
0.0
 11
9328.942884499637
 21
-5118.29002752836
 31
0.0
  0
LINE
  5
C297
330
19
100
AcDbEntity
  8
SL
100
AcDbLine
 10
12348.94288449963
 20
-5308.290027528357
 30
0.0
 11
9408.942884499635
 21
-5308.290027528359
 31
0.0
  0
LINE
  5
C298
330
19
100
AcDbEntity
  8
SL
100
AcDbLine
 10
12348.94288449963
 20
-5168.290027528357
 30
0.0
 11
9408.942884499635
 21
-5168.290027528359
 31
0.0
  0
LINE
  5
C299
330
19
100
AcDbEntity
  8
SL
100
AcDbLine
 10
12348.94288449964
 20
-5168.290027528357
 30
0.0
 11
12348.94288449963
 21
-5308.290027528359
 31
0.0
  0
LINE
  5
C29A
330
19
100
AcDbEntity
  8
SL
100
AcDbLine
 10
11548.94288449963
 20
-5168.290027528357
 30
0.0
 11
11548.94288449964
 21
-5308.290027528357
 31
0.0
  0
LINE
  5
C29B
330
19
100
AcDbEntity
  8
SL
100
AcDbLine
 10
9408.942884499641
 20
-5308.290027528359
 30
0.0
 11
9408.942884499641
 21
-5168.290027528359
 31
0.0
  0
LINE
  5
C29C
330
19
100
AcDbEntity
  8
SL
100
AcDbLine
 10
9688.942884499637
 20
-5308.290027528359
 30
0.0
 11
9688.942884499637
 21
-5168.290027528357
 31
0.0
  0
LINE
  5
C29E
330
19
100
AcDbEntity
  8
FUTO
100
AcDbLine
 10
13223.94288449964
 20
-4862.290027528358
 30
0.0
 11
13223.94288449964
 21
-2054.290027528358
 31
0.0
  0
LINE
  5
C29F
330
19
100
AcDbEntity
  8
FUTO
100
AcDbLine
 10
10212.94288449963
 20
-4783.290027528358
 30
0.0
 11
10212.94288449963
 21
-2133.290027528358
 31
0.0
  0
LINE
  5
C2A0
330
19
100
AcDbEntity
  8
FUTO
100
AcDbLine
 10
13223.94288449964
 20
-2133.290027528357
 30
0.0
 11
10212.94288449963
 21
-2133.290027528357
 31
0.0
  0
LINE
  5
C2A1
330
19
100
AcDbEntity
  8
FUTO
100
AcDbLine
 10
13223.94288449963
 20
-4783.290027528358
 30
0.0
 11
10212.94288449963
 21
-4783.290027528358
 31
0.0
  0
LINE
  5
C2A2
330
19
100
AcDbEntity
  8
FUTO
100
AcDbLine
 10
13128.94288449964
 20
-2133.290027528358
 30
0.0
 11
13128.94288449963
 21
-2054.290027528358
 31
0.0
  0
LINE
  5
C2A6
330
19
100
AcDbEntity
  8
FUTO
100
AcDbLine
 10
13148.94288449964
 20
-4783.290027528358
 30
0.0
 11
13148.94288449964
 21
-2133.290027528357
 31
0.0
  0
DIMENSION
  5
C2B4
330
19
100
AcDbEntity
  8
SP
100
AcDbDimension
280
     0
  2
*D1
 10
10768.94288449963
 20
-1724.618035081396
 30
0.0
 11
11948.94288449963
 21
-1600.868035081395
 31
0.0
 12
0.0
 22
318.9542617774932
 32
0.0
 70
    32
 71
     5
 42
-1.0
 73
     0
 74
     0
 75
     0
  3
MATSU
100
AcDbAlignedDimension
 13
13128.94288449963
 23
-2054.290027528358
 33
0.0
 14
10768.94288449963
 24
-2054.290027528358
 34
0.0
100
AcDbRotatedDimension
1001
ACAD
1000
DSTYLE
1002
{
1070
   140
1040
2.5
1070
    40
1040
55.0
1070
   147
1040
1.0
1070
   271
1070
     0
1002
}
  0
DIMENSION
  5
C2C1
330
19
100
AcDbEntity
  8
SP
100
AcDbDimension
280
     0
  2
*D2
 10
8928.942884499631
 20
-1724.618035081396
 30
0.0
 11
9848.942884499635
 21
-1600.868035081395
 31
0.0
 12
0.0
 22
318.9542617774932
 32
0.0
 70
    32
 71
     5
 42
-1.0
 73
     0
 74
     0
 75
     0
  3
MATSU
100
AcDbAlignedDimension
 13
10768.94288449963
 23
-2054.290027528358
 33
0.0
 14
8928.942884499631
 24
-4004.290027528353
 34
0.0
100
AcDbRotatedDimension
1001
ACAD
1000
DSTYLE
1002
{
1070
   140
1040
2.5
1070
    40
1040
55.0
1070
   147
1040
1.0
1070
   271
1070
     0
1002
}
  0
DIMENSION
  5
C2CE
330
19
100
AcDbEntity
  8
SP
100
AcDbDimension
280
     0
  2
*D3
 10
13634.81692295694
 20
-5304.290027528357
 30
0.0
 11
13511.06692295694
 21
-3679.290027528357
 31
0.0
 12
0.0
 22
318.9542617774932
 32
0.0
 70
    32
 71
     5
 42
-1.0
 73
     0
 74
     0
 75
     0
  3
MATSU
100
AcDbAlignedDimension
 13
13128.94288449963
 23
-2054.290027528358
 33
0.0
 14
13128.94288449963
 24
-5304.290027528357
 34
0.0
 50
90.0
100
AcDbRotatedDimension
1001
ACAD
1000
DSTYLE
1002
{
1070
   140
1040
2.5
1070
    40
1040
55.0
1070
   147
1040
1.0
1070
   271
1070
     0
1002
}
  0
DIMENSION
  5
C2DB
330
19
100
AcDbEntity
  8
SP
100
AcDbDimension
280
     0
  2
*D4
 10
8928.942884499631
 20
-5751.763338410768
 30
0.0
 11
11028.94288449963
 21
-5628.013338410768
 31
0.0
 12
0.0
 22
318.9542617774932
 32
0.0
 70
    32
 71
     5
 42
-1.0
 73
     0
 74
     0
 75
     0
  3
MATSU
100
AcDbAlignedDimension
 13
13128.94288449963
 23
-5304.290027528357
 33
0.0
 14
8928.942884499631
 24
-5304.290027528353
 34
0.0
100
AcDbRotatedDimension
1001
ACAD
1000
DSTYLE
1002
{
1070
   140
1040
2.5
1070
    40
1040
55.0
1070
   147
1040
1.0
1070
   271
1070
     0
1002
}
  0
DIMENSION
  5
C2E8
330
19
100
AcDbEntity
  8
SP
100
AcDbDimension
280
     0
  2
*D5
 10
8539.779303699848
 20
-5304.290027528353
 30
0.0
 11
8416.029303699849
 21
-4654.290027528353
 31
0.0
 12
0.0
 22
318.9542617774932
 32
0.0
 70
    32
 71
     5
 42
-1.0
 73
     0
 74
     0
 75
     0
  3
MATSU
100
AcDbAlignedDimension
 13
8928.942884499631
 23
-4004.290027528353
 33
0.0
 14
8928.942884499631
 24
-5304.290027528353
 34
0.0
 50
90.0
100
AcDbRotatedDimension
1001
ACAD
1000
DSTYLE
1002
{
1070
   140
1040
2.5
1070
    40
1040
55.0
1070
   147
1040
1.0
1070
   271
1070
     0
1002
}
  0
DIMENSION
  5
C2F5
330
19
100
AcDbEntity
  8
SP
100
AcDbDimension
280
     0
  2
*D6
 10
18374.62794449223
 20
-6781.124061531066
 30
0.0
 11
17049.62794449223
 21
-6657.374061531067
 31
0.0
 70
    32
 71
     5
 42
-1.0
 73
     0
 74
     0
 75
     0
  3
MATSU
100
AcDbAlignedDimension
 13
15724.62794449223
 23
-7170.134883742872
 33
0.0
 14
18374.62794449223
 24
-7170.134883742872
 34
0.0
100
AcDbRotatedDimension
1001
ACAD
1000
DSTYLE
1002
{
1070
   140
1040
2.5
1070
    40
1040
55.0
1070
   147
1040
1.0
1070
   271
1070
     0
1002
}
  0
DIMENSION
  5
C302
330
19
100
AcDbEntity
  8
SP
100
AcDbDimension
280
     0
  2
*D7
 10
11948.94288449963
 20
-6781.124061531066
 30
0.0
 11
12586.44288449964
 21
-6657.374061531067
 31
0.0
 70
    32
 71
     5
 42
-1.0
 73
     0
 74
     0
 75
     0
  3
MATSU
100
AcDbAlignedDimension
 13
13223.94288449964
 23
-7095.134883742871
 33
0.0
 14
11948.94288449963
 24
-7007.248623712249
 34
0.0
100
AcDbRotatedDimension
1001
ACAD
1000
DSTYLE
1002
{
1070
   140
1040
2.5
1070
    40
1040
55.0
1070
   147
1040
1.0
1070
   271
1070
     0
1002
}
  0
DIMENSION
  5
C31C
330
19
100
AcDbEntity
  8
SP
100
AcDbDimension
280
     0
  2
*D8
 10
10212.94288449963
 20
-6781.124061531066
 30
0.0
 11
11080.94288449963
 21
-6657.374061531067
 31
0.0
 70
    32
 71
     5
 42
-1.0
 73
     0
 74
     0
 75
     0
  3
MATSU
100
AcDbAlignedDimension
 13
11948.94288449963
 23
-7007.248623712249
 33
0.0
 14
10212.94288449963
 24
-9175.13488374287
 34
0.0
100
AcDbRotatedDimension
1001
ACAD
1000
DSTYLE
1002
{
1070
   140
1040
2.5
1070
    40
1040
55.0
1070
   147
1040
1.0
1070
   271
1070
     0
1002
}
  0
DIMENSION
  5
C329
330
19
100
AcDbEntity
  8
SP
100
AcDbDimension
280
     0
  2
*D9
 10
13624.62184577542
 20
-9234.134883742871
 30
0.0
 11
13500.87184577542
 21
-8204.13488374287
 31
0.0
 70
    32
 71
     5
 42
-1.0
 73
     0
 74
     0
 75
     0
  3
MATSU
100
AcDbAlignedDimension
 13
13223.94288449963
 23
-7174.13488374287
 33
0.0
 14
13223.94288449963
 24
-9234.134883742871
 34
0.0
 50
90.0
100
AcDbRotatedDimension
1001
ACAD
1000
DSTYLE
1002
{
1070
   140
1040
2.5
1070
    40
1040
55.0
1070
   147
1040
1.0
1070
   271
1070
     0
1002
}
  0
DIMENSION
  5
C336
330
19
100
AcDbEntity
  8
SP
100
AcDbDimension
280
     0
  2
*D10
 10
13998.25793100417
 20
-9322.134883742871
 30
0.0
 11
13874.50793100417
 21
-8248.134883742871
 31
0.0
 70
    32
 71
     5
 42
-1.0
 73
     0
 74
     0
 75
     0
  3
MATSU
100
AcDbAlignedDimension
 13
13223.94288449963
 23
-7174.13488374287
 33
0.0
 14
13327.49588261358
 24
-9322.134883742871
 34
0.0
 50
90.0
100
AcDbRotatedDimension
1001
ACAD
1000
DSTYLE
1002
{
1070
   140
1040
2.5
1070
    40
1040
55.0
1070
   147
1040
1.0
1070
   271
1070
     0
1002
}
  0
DIMENSION
  5
C343
330
19
100
AcDbEntity
  8
SP
100
AcDbDimension
280
     0
  2
*D11
 10
13998.25793100417
 20
-10802.13488374287
 30
0.0
 11
13874.50793100417
 21
-10062.13488374287
 31
0.0
 70
    32
 71
     5
 42
-1.0
 73
     0
 74
     0
 75
     0
  3
MATSU
100
AcDbAlignedDimension
 13
13327.49588261358
 23
-9322.134883742871
 33
0.0
 14
13128.94288449963
 24
-10802.13488374287
 34
0.0
 50
90.0
100
AcDbRotatedDimension
1001
ACAD
1000
DSTYLE
1002
{
1070
   140
1040
2.5
1070
    40
1040
55.0
1070
   147
1040
1.0
1070
   271
1070
     0
1002
}
  0
DIMENSION
  5
C350
330
19
100
AcDbEntity
  8
SP
100
AcDbDimension
280
     0
  2
*D12
 10
17049.62794449223
 20
-11347.63562283916
 30
0.0
 11
16126.62794449223
 21
-11223.88562283916
 31
0.0
 12
0.0
 22
-200.0
 32
0.0
 70
    32
 71
     5
 42
-1.0
 73
     0
 74
     0
 75
     0
  3
MATSU
100
AcDbAlignedDimension
 13
15203.62794449223
 23
-11002.13488374287
 33
0.0
 14
17049.62794449223
 24
-11002.13488374287
 34
0.0
100
AcDbRotatedDimension
1001
ACAD
1000
DSTYLE
1002
{
1070
   140
1040
2.5
1070
    40
1040
55.0
1070
   147
1040
1.0
1070
   271
1070
     0
1002
}
  0
DIMENSION
  5
C35D
330
19
100
AcDbEntity
  8
SP
100
AcDbDimension
280
     0
  2
*D13
 10
18453.62794449223
 20
-11347.63562283916
 30
0.0
 11
17751.62794449223
 21
-11223.88562283916
 31
0.0
 12
0.0
 22
-200.0
 32
0.0
 70
    32
 71
     5
 42
-1.0
 73
     0
 74
     0
 75
     0
  3
MATSU
100
AcDbAlignedDimension
 13
17049.62794449223
 23
-11002.13488374287
 33
0.0
 14
18453.62794449223
 24
-11002.13488374287
 34
0.0
100
AcDbRotatedDimension
1001
ACAD
1000
DSTYLE
1002
{
1070
   140
1040
2.5
1070
    40
1040
55.0
1070
   147
1040
1.0
1070
   271
1070
     0
1002
}
  0
DIMENSION
  5
C36A
330
19
100
AcDbEntity
  8
SP
100
AcDbDimension
280
     0
  2
*D14
 10
18453.62794449223
 20
-11677.38305444039
 30
0.0
 11
16828.62794449223
 21
-11553.63305444039
 31
0.0
 12
0.0
 22
-200.0
 32
0.0
 70
    32
 71
     5
 42
-1.0
 73
     0
 74
     0
 75
     0
  3
MATSU
100
AcDbAlignedDimension
 13
15203.62794449223
 23
-11002.13488374287
 33
0.0
 14
18453.62794449223
 24
-11002.13488374287
 34
0.0
100
AcDbRotatedDimension
1001
ACAD
1000
DSTYLE
1002
{
1070
   140
1040
2.5
1070
    40
1040
55.0
1070
   147
1040
1.0
1070
   271
1070
     0
1002
}
  0
DIMENSION
  5
C377
330
19
100
AcDbEntity
  8
SP
100
AcDbDimension
280
     0
  2
*D15
 10
13128.94288449963
 20
-11348.85490382887
 30
0.0
 11
12538.94288449963
 21
-11225.10490382887
 31
0.0
 12
0.0
 22
-200.0
 32
0.0
 70
    32
 71
     5
 42
-1.0
 73
     0
 74
     0
 75
     0
  3
MATSU
100
AcDbAlignedDimension
 13
11948.94288449963
 23
-11002.13488374287
 33
0.0
 14
13128.94288449963
 24
-11002.13488374287
 34
0.0
100
AcDbRotatedDimension
1001
ACAD
1000
DSTYLE
1002
{
1070
   140
1040
2.5
1070
    40
1040
55.0
1070
   147
1040
1.0
1070
   271
1070
     0
1002
}
  0
DIMENSION
  5
C384
330
19
100
AcDbEntity
  8
SP
100
AcDbDimension
280
     0
  2
*D16
 10
11948.94288449963
 20
-11348.85490382887
 30
0.0
 11
10438.94288449963
 21
-11225.10490382887
 31
0.0
 12
0.0
 22
-200.0
 32
0.0
 70
    32
 71
     5
 42
-1.0
 73
     0
 74
     0
 75
     0
  3
MATSU
100
AcDbAlignedDimension
 13
8928.942884499631
 23
-11002.13488374286
 33
0.0
 14
11948.94288449963
 24
-11002.13488374287
 34
0.0
100
AcDbRotatedDimension
1001
ACAD
1000
DSTYLE
1002
{
1070
   140
1040
2.5
1070
    40
1040
55.0
1070
   147
1040
1.0
1070
   271
1070
     0
1002
}
  0
DIMENSION
  5
C391
330
19
100
AcDbEntity
  8
SP
100
AcDbDimension
280
     0
  2
*D17
 10
13128.94288449963
 20
-11677.38305444039
 30
0.0
 11
11028.94288449963
 21
-11553.63305444039
 31
0.0
 12
0.0
 22
-200.0
 32
0.0
 70
    32
 71
     5
 42
-1.0
 73
     0
 74
     0
 75
     0
  3
MATSU
100
AcDbAlignedDimension
 13
8928.942884499631
 23
-11002.13488374286
 33
0.0
 14
13128.94288449963
 24
-11002.13488374287
 34
0.0
100
AcDbRotatedDimension
1001
ACAD
1000
DSTYLE
1002
{
1070
   140
1040
2.5
1070
    40
1040
55.0
1070
   147
1040
1.0
1070
   271
1070
     0
1002
}
  0
DIMENSION
  5
C39E
330
19
100
AcDbEntity
  8
SP
100
AcDbDimension
280
     0
  2
*D18
 10
15099.62794449223
 20
-6478.483021100256
 30
0.0
 11
16074.62794449223
 21
-6318.721116338351
 31
0.0
 70
    32
 71
     5
 42
1949.999999999996
 73
     0
 74
     0
 75
     0
  3
MATSU
100
AcDbAlignedDimension
 13
17049.62794449223
 23
-6510.523338590927
 33
0.0
 14
15099.62794449223
 24
-8842.134883742874
 34
0.0
100
AcDbRotatedDimension
1001
ACAD
1000
DSTYLE
1002
{
1070
   140
1040
2.5
1070
    40
1040
55.0
1070
     3
1000
(<>)
1070
   147
1040
1.0
1070
   271
1070
     0
1002
}
  0
DIMENSION
  5
C3AB
330
19
100
AcDbEntity
  8
SP
100
AcDbDimension
280
     0
  2
*D19
 10
18629.82794449224
 20
-6478.483021100256
 30
0.0
 11
17839.72794449223
 21
-6318.721116338351
 31
0.0
 70
    32
 71
     5
 42
1580.200000000004
 73
     0
 74
     0
 75
     0
  3
MATSU
100
AcDbAlignedDimension
 13
17049.62794449223
 23
-6510.523338590927
 33
0.0
 14
18629.82794449224
 24
-9412.134883742869
 34
0.0
100
AcDbRotatedDimension
1001
ACAD
1000
DSTYLE
1002
{
1070
   140
1040
2.5
1070
    40
1040
55.0
1070
     3
1000
(<>)
1070
   147
1040
1.0
1070
   271
1070
     0
1002
}
  0
LINE
  5
C3B2
330
19
100
AcDbEntity
  8
FUTO
100
AcDbLine
 10
18453.62794449223
 20
-11002.13488374287
 30
0.0
 11
15203.62794449223
 21
-11002.13488374287
 31
0.0
  0
LINE
  5
C3B3
330
19
100
AcDbEntity
  8
FUTO
100
AcDbLine
 10
18453.62794449222
 20
-10822.13488374286
 30
0.0
 11
15203.62794449223
 21
-10822.13488374287
 31
0.0
  0
LINE
  5
C3B4
330
19
100
AcDbEntity
  8
FUTO
100
AcDbLine
 10
18453.62794449223
 20
-10822.13488374287
 30
0.0
 11
18453.62794449223
 21
-11002.13488374287
 31
0.0
  0
LINE
  5
C3B5
330
19
100
AcDbEntity
  8
FUTO
100
AcDbLine
 10
15203.62794449223
 20
-10822.13488374287
 30
0.0
 11
15203.62794449223
 21
-11002.13488374287
 31
0.0
  0
LINE
  5
C3B6
330
19
100
AcDbEntity
  8
FUTO
100
AcDbLine
 10
13128.94288449963
 20
-10822.13488374287
 30
0.0
 11
8928.942884499631
 21
-10822.13488374287
 31
0.0
  0
LINE
  5
C3B7
330
19
100
AcDbEntity
  8
FUTO
100
AcDbLine
 10
13128.94288449963
 20
-11002.13488374287
 30
0.0
 11
13128.94288449963
 21
-10822.13488374287
 31
0.0
  0
LINE
  5
C3B8
330
19
100
AcDbEntity
  8
FUTO
100
AcDbLine
 10
13128.94288449963
 20
-11002.13488374287
 30
0.0
 11
8928.942884499631
 21
-11002.13488374286
 31
0.0
  0
LINE
  5
C3B9
330
19
100
AcDbEntity
  8
FUTO
100
AcDbLine
 10
8928.942884499637
 20
-11002.13488374287
 30
0.0
 11
8928.942884499637
 21
-10822.13488374287
 31
0.0
  0
DIMENSION
  5
C3D0
330
19
100
AcDbEntity
  8
SP
100
AcDbDimension
280
     0
  2
*D21
 10
14002.78749060879
 20
-11002.13488374287
 30
0.0
 11
13879.03749060879
 21
-11445.68153092074
 31
0.0
 70
    32
 71
     5
 42
-1.0
 73
     0
 74
     0
 75
     0
  3
MATSU
100
AcDbAlignedDimension
 13
13128.94288449963
 23
-10822.13488374287
 33
0.0
 14
13128.94288449963
 24
-11002.13488374287
 34
0.0
 50
90.0
100
AcDbRotatedDimension
1001
ACAD
1000
DSTYLE
1002
{
1070
   140
1040
2.5
1070
    40
1040
55.0
1070
   147
1040
1.0
1070
   271
1070
     0
1070
     6
1000
_DOT
1002
}
  0
DIMENSION
  5
C3DF
330
19
100
AcDbEntity
  8
SP
100
AcDbDimension
280
     0
  2
*D23
 10
14002.78749060879
 20
-10802.13488374287
 30
0.0
 11
14454.5732048945
 21
-10812.13488374286
 31
0.0
 70
    32
 71
     5
 42
-1.0
 73
     0
 74
     0
 75
     0
  3
MATSU
100
AcDbAlignedDimension
 13
13128.94288449963
 23
-10822.13488374287
 33
0.0
 14
13128.94288449963
 24
-10802.13488374287
 34
0.0
 50
90.0
100
AcDbRotatedDimension
1001
ACAD
1000
DSTYLE
1002
{
1070
   287
1070
     5
1070
     3
1000
(<>)
1070
    40
1040
55.0
1070
    75
1070
     1
1070
    76
1070
     1
1070
   140
1040
2.5
1070
   147
1040
1.0
1070
   271
1070
     0
1070
   279
1070
     2
1070
   289
1070
     3
1070
     6
1000
NONE
1070
     7
1000
NONE
1002
}
  0
ENDSEC
  0
SECTION
  2
OBJECTS
  0
DICTIONARY
  5
C
330
0
100
AcDbDictionary
281
     1
  3
ACAD_CIP_PREVIOUS_PRODUCT_INFO
350
C47D
  3
ACAD_COLOR
350
C45F
  3
ACAD_DETAILVIEWSTYLE
350
C478
  3
ACAD_GROUP
350
D
  3
ACAD_LAYOUT
350
C3E5
  3
ACAD_MATERIAL
350
C42D
  3
ACAD_MLEADERSTYLE
350
C474
  3
ACAD_MLINESTYLE
350
E
  3
ACAD_PLOTSETTINGS
350
C3E6
  3
ACAD_PLOTSTYLENAME
350
C3E3
  3
ACAD_SCALELIST
350
C462
  3
ACAD_SECTIONVIEWSTYLE
350
C476
  3
ACAD_TABLESTYLE
350
C460
  3
ACAD_VISUALSTYLE
350
C446
  3
ACDB_RECOMPOSE_DATA
350
C4D2
  3
AcDbVariableDictionary
350
C424
  3
AcDsDecomposeData
350
C4D8
  0
DICTIONARY
  5
C49F
330
2
100
AcDbDictionary
280
     1
281
     1
  3
ACAD_LAYERSTATES
360
C4A0
  0
DICTIONARY
  5
C490
330
F
100
AcDbDictionary
280
     1
281
     1
  3
ADSK_XREC_LAYER_RECONCILED
360
C491
  0
DICTIONARY
  5
C492
330
2F
100
AcDbDictionary
280
     1
281
     1
  3
ADSK_XREC_LAYER_RECONCILED
360
C493
  0
DICTIONARY
  5
C494
330
30
100
AcDbDictionary
280
     1
281
     1
  3
ADSK_XREC_LAYER_RECONCILED
360
C495
  0
DICTIONARY
  5
C496
330
35
100
AcDbDictionary
280
     1
281
     1
  3
ADSK_XREC_LAYER_RECONCILED
360
C497
  0
DICTIONARY
  5
C498
330
36
100
AcDbDictionary
280
     1
281
     1
  3
ADSK_XREC_LAYER_RECONCILED
360
C499
  0
DICTIONARY
  5
C49A
330
99F1
100
AcDbDictionary
280
     1
281
     1
  3
ADSK_XREC_LAYER_RECONCILED
360
C49B
  0
DICTIONARY
  5
C412
330
19
100
AcDbDictionary
280
     1
281
     1
  3
ACAD_LAYOUTSELFREF
360
C413
  0
DICTIONARY
  5
C410
330
16
100
AcDbDictionary
280
     1
281
     1
  3
ACAD_LAYOUTSELFREF
360
C411
  0
XRECORD
  5
C47D
102
{ACAD_REACTORS
330
C
102
}
330
C
100
AcDbXrecord
280
     1
300
ACDLT
300
2023
300

  0
DICTIONARY
  5
C45F
102
{ACAD_REACTORS
330
C
102
}
330
C
100
AcDbDictionary
281
     1
  0
DICTIONARY
  5
C478
102
{ACAD_REACTORS
330
C
102
}
330
C
100
AcDbDictionary
281
     1
  3
Metric50
350
C479
  0
DICTIONARY
  5
D
102
{ACAD_REACTORS
330
C
102
}
330
C
100
AcDbDictionary
281
     1
  0
DICTIONARY
  5
C3E5
102
{ACAD_REACTORS
330
C
102
}
330
C
100
AcDbDictionary
281
     1
  3
Model
350
C3E7
  3
ﾚｲｱｳﾄ1
350
C3E8
  0
DICTIONARY
  5
C42D
102
{ACAD_REACTORS
330
C
102
}
330
C
100
AcDbDictionary
281
     1
  3
ByBlock
350
C436
  3
ByLayer
350
C42E
  3
Global
350
C43E
  0
DICTIONARY
  5
C474
102
{ACAD_REACTORS
330
C
102
}
330
C
100
AcDbDictionary
281
     1
  3
Standard
350
C475
  0
DICTIONARY
  5
E
102
{ACAD_REACTORS
330
C
102
}
330
C
100
AcDbDictionary
281
     1
  3
STANDARD
350
1C
  0
DICTIONARY
  5
C3E6
102
{ACAD_REACTORS
330
C
102
}
330
C
100
AcDbDictionary
281
     1
  0
ACDBDICTIONARYWDFLT
  5
C3E3
102
{ACAD_REACTORS
330
C
102
}
330
C
100
AcDbDictionary
281
     1
  3
Normal
350
C3E4
100
AcDbDictionaryWithDefault
340
C3E4
  0
DICTIONARY
  5
C462
102
{ACAD_REACTORS
330
C
102
}
330
C
100
AcDbDictionary
281
     1
  3
A0
350
C463
  3
A1
350
C464
  3
A2
350
C465
  3
A3
350
C466
  3
A4
350
C467
  3
A5
350
C468
  3
A6
350
C469
  3
A7
350
C46A
  3
A8
350
C46B
  3
A9
350
C46C
  3
B0
350
C46D
  3
B1
350
C46E
  3
B2
350
C46F
  3
B3
350
C470
  3
B4
350
C471
  3
B5
350
C472
  3
B6
350
C473
  0
DICTIONARY
  5
C476
102
{ACAD_REACTORS
330
C
102
}
330
C
100
AcDbDictionary
281
     1
  3
Metric50
350
C477
  0
DICTIONARY
  5
C460
102
{ACAD_REACTORS
330
C
102
}
330
C
100
AcDbDictionary
281
     1
  3
Standard
350
C461
  0
DICTIONARY
  5
C446
102
{ACAD_REACTORS
330
C
102
}
330
C
100
AcDbDictionary
281
     1
  3
2dWireframe
350
C44C
  3
Basic
350
C44B
  3
Brighten
350
C452
  3
ColorChange
350
C456
  3
Conceptual
350
C44F
  3
Dim
350
C451
  3
EdgeColorOff
350
C45E
  3
Facepattern
350
C455
  3
Flat
350
C447
  3
FlatWithEdges
350
C448
  3
Gouraud
350
C449
  3
GouraudWithEdges
350
C44A
  3
Hidden
350
C44E
  3
JitterOff
350
C45C
  3
Linepattern
350
C454
  3
OverhangOff
350
C45D
  3
Realistic
350
C450
  3
Shaded
350
C45B
  3
Shaded with edges
350
C45A
  3
Shades of Gray
350
C457
  3
Sketchy
350
C458
  3
Thicken
350
C453
  3
Wireframe
350
C44D
  3
X-Ray
350
C459
  0
XRECORD
  5
C4D2
102
{ACAD_REACTORS
330
C
102
}
330
C
100
AcDbXrecord
280
     1
 90
        1
330
C3DF
330
C461
  0
DICTIONARY
  5
C424
102
{ACAD_REACTORS
330
C
102
}
330
C
100
AcDbDictionary
281
     1
  3
CANNOSCALE
350
C4C6
  3
CMLEADERSTYLE
350
C4C2
  3
CTABLESTYLE
350
C4C1
  3
CVIEWDETAILSTYLE
350
C4C3
  3
CVIEWSECTIONSTYLE
350
C4C4
  3
DIMASSOC
350
C425
  3
LAYEREVAL
350
C4C8
  3
LAYERNOTIFY
350
C4C9
  3
LIGHTINGUNITS
350
C4C7
  3
MARKUPASSISTMODE
350
C4CF
  3
MSLTSCALE
350
C4C5
  0
DICTIONARY
  5
C4D8
102
{ACAD_REACTORS
330
C
102
}
330
C
100
AcDbDictionary
281
     1
  3
AcDsRecords
350
C4DA
  3
AcDsSchemas
350
C4D9
1001
ACAD
1070
     2
  0
DICTIONARY
  5
C4A0
102
{ACAD_REACTORS
330
C49F
102
}
330
C49F
100
AcDbDictionary
281
     1
  0
XRECORD
  5
C491
102
{ACAD_REACTORS
330
C490
102
}
330
C490
100
AcDbXrecord
280
     1
290
     1
  0
XRECORD
  5
C493
102
{ACAD_REACTORS
330
C492
102
}
330
C492
100
AcDbXrecord
280
     1
290
     1
  0
XRECORD
  5
C495
102
{ACAD_REACTORS
330
C494
102
}
330
C494
100
AcDbXrecord
280
     1
290
     1
  0
XRECORD
  5
C497
102
{ACAD_REACTORS
330
C496
102
}
330
C496
100
AcDbXrecord
280
     1
290
     1
  0
XRECORD
  5
C499
102
{ACAD_REACTORS
330
C498
102
}
330
C498
100
AcDbXrecord
280
     1
290
     1
  0
XRECORD
  5
C49B
102
{ACAD_REACTORS
330
C49A
102
}
330
C49A
100
AcDbXrecord
280
     1
290
     1
  0
XRECORD
  5
C413
102
{ACAD_REACTORS
330
C412
102
}
330
C412
100
AcDbXrecord
280
     1
340
19
  0
XRECORD
  5
C411
102
{ACAD_REACTORS
330
C410
102
}
330
C410
100
AcDbXrecord
280
     1
340
16
  0
ACDBDETAILVIEWSTYLE
  5
C479
102
{ACAD_XDICTIONARY
360
C4DD
102
}
102
{ACAD_REACTORS
330
C478
102
}
330
C478
100
AcDbModelDocViewStyle
 70
     0
  3
Metric50
290
     0
100
AcDbDetailViewStyle
 70
     0
 71
     0
 90
        3
 71
     1
340
10
 62
   256
 40
5.0
340
0
 62
   256
 40
5.0
300

 40
0.0
280
     1
 71
     2
340
15
 90
       25
 62
   256
 71
     3
340
10
 62
   256
 40
5.0
 90
        0
 40
15.0
 90
        1
300
%<\AcVar ViewDetailId>% (%<\AcVar ViewScale \f "%sn">%)
 71
     4
340
15
 90
       25
 62
   256
340
15
 90
       25
 62
   256
280
     0
  0
LAYOUT
  5
C3E7
102
{ACAD_REACTORS
330
C3E5
102
}
330
C3E5
100
AcDbPlotSettings
  1

  2
\\Txbo34x8944cqyd\EPSON LP-6100
  4

  6

 40
0.0
 41
0.0
 42
0.0
 43
0.0
 44
0.0
 45
0.0
 46
0.0
 47
0.0
 48
0.0
 49
0.0
140
0.0
141
0.0
142
1.0
143
1.0
 70
  1712
 72
     0
 73
     0
 74
     0
  7
GOD2000TABLE.ctb
 75
     0
147
1.0
 76
     0
 77
     2
 78
   300
148
0.0
149
0.0
100
AcDbLayout
  1
Model
 70
     1
 71
     0
 10
0.0
 20
0.0
 11
12.0
 21
9.0
 12
0.0
 22
0.0
 32
0.0
 14
0.0
 24
0.0
 34
0.0
 15
0.0
 25
0.0
 35
0.0
146
0.0
 13
0.0
 23
0.0
 33
0.0
 16
1.0
 26
0.0
 36
0.0
 17
0.0
 27
1.0
 37
0.0
 76
     0
330
19
331
C42B
  0
LAYOUT
  5
C3E8
102
{ACAD_REACTORS
330
C3E5
102
}
330
C3E5
100
AcDbPlotSettings
  1

  2
\\Txbo34x8944cqyd\EPSON LP-6100
  4

  6

 40
0.0
 41
0.0
 42
0.0
 43
0.0
 44
0.0
 45
0.0
 46
0.0
 47
0.0
 48
0.0
 49
0.0
140
0.0
141
0.0
142
1.0
143
1.0
 70
   688
 72
     0
 73
     0
 74
     5
  7
GOD2000TABLE.ctb
 75
    16
147
1.0
 76
     0
 77
     2
 78
   300
148
0.0
149
0.0
100
AcDbLayout
  1
ﾚｲｱｳﾄ1
 70
     0
 71
     1
 10
0.0
 20
0.0
 11
12.0
 21
9.0
 12
0.0
 22
0.0
 32
0.0
 14
1.000000000000000E+20
 24
1.000000000000000E+20
 34
1.000000000000000E+20
 15
-1.000000000000000E+20
 25
-1.000000000000000E+20
 35
-1.000000000000000E+20
146
0.0
 13
0.0
 23
0.0
 33
0.0
 16
1.0
 26
0.0
 36
0.0
 17
0.0
 27
1.0
 37
0.0
 76
     0
330
16
  0
MATERIAL
  5
C436
102
{ACAD_XDICTIONARY
360
C437
102
}
102
{ACAD_REACTORS
330
C42D
102
}
330
C42D
100
AcDbMaterial
  1
ByBlock
 72
     0
 43
0.0208333333333333
 43
0.0
 43
0.0
 43
0.0
 43
0.0
 43
0.0208333333333333
 43
0.0
 43
0.0
 43
0.0
 43
0.0
 43
1.0
 43
0.0
 43
0.0
 43
0.0
 43
0.0
 43
1.0
 77
     0
 47
0.0208333333333333
 47
0.0
 47
0.0
 47
0.0
 47
0.0
 47
0.0208333333333333
 47
0.0
 47
0.0
 47
0.0
 47
0.0
 47
1.0
 47
0.0
 47
0.0
 47
0.0
 47
0.0
 47
1.0
171
     0
 49
0.0208333333333333
 49
0.0
 49
0.0
 49
0.0
 49
0.0
 49
0.0208333333333333
 49
0.0
 49
0.0
 49
0.0
 49
0.0
 49
1.0
 49
0.0
 49
0.0
 49
0.0
 49
0.0
 49
1.0
175
     0
142
0.0208333333333333
142
0.0
142
0.0
142
0.0
142
0.0
142
0.0208333333333333
142
0.0
142
0.0
142
0.0
142
0.0
142
1.0
142
0.0
142
0.0
142
0.0
142
0.0
142
1.0
179
     0
144
0.0208333333333333
144
0.0
144
0.0
144
0.0
144
0.0
144
0.0208333333333333
144
0.0
144
0.0
144
0.0
144
0.0
144
1.0
144
0.0
144
0.0
144
0.0
144
0.0
144
1.0
147
0.0208333333333333
147
0.0
147
0.0
147
0.0
147
0.0
147
0.0208333333333333
147
0.0
147
0.0
147
0.0
147
0.0
147
1.0
147
0.0
147
0.0
147
0.0
147
0.0
147
1.0
  0
MATERIAL
  5
C42E
102
{ACAD_XDICTIONARY
360
C42F
102
}
102
{ACAD_REACTORS
330
C42D
102
}
330
C42D
100
AcDbMaterial
  1
ByLayer
 72
     0
 43
0.0208333333333333
 43
0.0
 43
0.0
 43
0.0
 43
0.0
 43
0.0208333333333333
 43
0.0
 43
0.0
 43
0.0
 43
0.0
 43
1.0
 43
0.0
 43
0.0
 43
0.0
 43
0.0
 43
1.0
 77
     0
 47
0.0208333333333333
 47
0.0
 47
0.0
 47
0.0
 47
0.0
 47
0.0208333333333333
 47
0.0
 47
0.0
 47
0.0
 47
0.0
 47
1.0
 47
0.0
 47
0.0
 47
0.0
 47
0.0
 47
1.0
171
     0
 49
0.0208333333333333
 49
0.0
 49
0.0
 49
0.0
 49
0.0
 49
0.0208333333333333
 49
0.0
 49
0.0
 49
0.0
 49
0.0
 49
1.0
 49
0.0
 49
0.0
 49
0.0
 49
0.0
 49
1.0
175
     0
142
0.0208333333333333
142
0.0
142
0.0
142
0.0
142
0.0
142
0.0208333333333333
142
0.0
142
0.0
142
0.0
142
0.0
142
1.0
142
0.0
142
0.0
142
0.0
142
0.0
142
1.0
179
     0
144
0.0208333333333333
144
0.0
144
0.0
144
0.0
144
0.0
144
0.0208333333333333
144
0.0
144
0.0
144
0.0
144
0.0
144
1.0
144
0.0
144
0.0
144
0.0
144
0.0
144
1.0
147
0.0208333333333333
147
0.0
147
0.0
147
0.0
147
0.0
147
0.0208333333333333
147
0.0
147
0.0
147
0.0
147
0.0
147
1.0
147
0.0
147
0.0
147
0.0
147
0.0
147
1.0
  0
MATERIAL
  5
C43E
102
{ACAD_XDICTIONARY
360
C43F
102
}
102
{ACAD_REACTORS
330
C42D
102
}
330
C42D
100
AcDbMaterial
  1
Global
 72
     0
 43
0.0208333333333333
 43
0.0
 43
0.0
 43
0.0
 43
0.0
 43
0.0208333333333333
 43
0.0
 43
0.0
 43
0.0
 43
0.0
 43
1.0
 43
0.0
 43
0.0
 43
0.0
 43
0.0
 43
1.0
 77
     0
 47
0.0208333333333333
 47
0.0
 47
0.0
 47
0.0
 47
0.0
 47
0.0208333333333333
 47
0.0
 47
0.0
 47
0.0
 47
0.0
 47
1.0
 47
0.0
 47
0.0
 47
0.0
 47
0.0
 47
1.0
171
     0
 49
0.0208333333333333
 49
0.0
 49
0.0
 49
0.0
 49
0.0
 49
0.0208333333333333
 49
0.0
 49
0.0
 49
0.0
 49
0.0
 49
1.0
 49
0.0
 49
0.0
 49
0.0
 49
0.0
 49
1.0
175
     0
142
0.0208333333333333
142
0.0
142
0.0
142
0.0
142
0.0
142
0.0208333333333333
142
0.0
142
0.0
142
0.0
142
0.0
142
1.0
142
0.0
142
0.0
142
0.0
142
0.0
142
1.0
179
     0
144
0.0208333333333333
144
0.0
144
0.0
144
0.0
144
0.0
144
0.0208333333333333
144
0.0
144
0.0
144
0.0
144
0.0
144
1.0
144
0.0
144
0.0
144
0.0
144
0.0
144
1.0
147
0.0208333333333333
147
0.0
147
0.0
147
0.0
147
0.0
147
0.0208333333333333
147
0.0
147
0.0
147
0.0
147
0.0
147
1.0
147
0.0
147
0.0
147
0.0
147
0.0
147
1.0
  0
MLEADERSTYLE
  5
C475
102
{ACAD_REACTORS
330
C474
102
}
330
C474
100
AcDbMLeaderStyle
179
     2
170
     2
171
     1
172
     0
 90
        2
 40
0.0
 41
0.0
173
     1
 91
-1056964608
340
13
 92
       -2
290
     1
 42
2.0
291
     1
 43
0.36
  3
Standard
 44
4.0
300

342
10
174
     1
178
     6
175
     1
176
     0
 93
-1056964608
 45
4.0
292
     0
297
     0
 46
4.0
 94
-1056964608
 47
1.0
 49
1.0
140
1.0
293
     1
141
0.0
294
     1
177
     0
142
1.0
295
     0
296
     0
143
0.125
271
     0
272
     9
273
     9
298
     1
  0
MLINESTYLE
  5
1C
102
{ACAD_REACTORS
330
E
102
}
330
E
100
AcDbMlineStyle
  2
STANDARD
 70
     0
  3

 62
     0
 51
90.0
 52
90.0
 71
     2
 49
0.5
 62
   256
  6
BYLAYER
 49
-0.5
 62
   256
  6
BYLAYER
  0
ACDBPLACEHOLDER
  5
C3E4
102
{ACAD_REACTORS
330
C3E3
102
}
330
C3E3
  0
SCALE
  5
C463
102
{ACAD_REACTORS
330
C462
102
}
330
C462
100
AcDbScale
 70
     0
300
1:1
140
1.0
141
1.0
290
     1
  0
SCALE
  5
C464
102
{ACAD_REACTORS
330
C462
102
}
330
C462
100
AcDbScale
 70
     0
300
1:2
140
1.0
141
2.0
290
     0
  0
SCALE
  5
C465
102
{ACAD_REACTORS
330
C462
102
}
330
C462
100
AcDbScale
 70
     0
300
1:4
140
1.0
141
4.0
290
     0
  0
SCALE
  5
C466
102
{ACAD_REACTORS
330
C462
102
}
330
C462
100
AcDbScale
 70
     0
300
1:5
140
1.0
141
5.0
290
     0
  0
SCALE
  5
C467
102
{ACAD_REACTORS
330
C462
102
}
330
C462
100
AcDbScale
 70
     0
300
1:8
140
1.0
141
8.0
290
     0
  0
SCALE
  5
C468
102
{ACAD_REACTORS
330
C462
102
}
330
C462
100
AcDbScale
 70
     0
300
1:10
140
1.0
141
10.0
290
     0
  0
SCALE
  5
C469
102
{ACAD_REACTORS
330
C462
102
}
330
C462
100
AcDbScale
 70
     0
300
1:16
140
1.0
141
16.0
290
     0
  0
SCALE
  5
C46A
102
{ACAD_REACTORS
330
C462
102
}
330
C462
100
AcDbScale
 70
     0
300
1:20
140
1.0
141
20.0
290
     0
  0
SCALE
  5
C46B
102
{ACAD_REACTORS
330
C462
102
}
330
C462
100
AcDbScale
 70
     0
300
1:30
140
1.0
141
30.0
290
     0
  0
SCALE
  5
C46C
102
{ACAD_REACTORS
330
C462
102
}
330
C462
100
AcDbScale
 70
     0
300
1:40
140
1.0
141
40.0
290
     0
  0
SCALE
  5
C46D
102
{ACAD_REACTORS
330
C462
102
}
330
C462
100
AcDbScale
 70
     0
300
1:50
140
1.0
141
50.0
290
     0
  0
SCALE
  5
C46E
102
{ACAD_REACTORS
330
C462
102
}
330
C462
100
AcDbScale
 70
     0
300
1:100
140
1.0
141
100.0
290
     0
  0
SCALE
  5
C46F
102
{ACAD_REACTORS
330
C462
102
}
330
C462
100
AcDbScale
 70
     0
300
2:1
140
2.0
141
1.0
290
     0
  0
SCALE
  5
C470
102
{ACAD_REACTORS
330
C462
102
}
330
C462
100
AcDbScale
 70
     0
300
4:1
140
4.0
141
1.0
290
     0
  0
SCALE
  5
C471
102
{ACAD_REACTORS
330
C462
102
}
330
C462
100
AcDbScale
 70
     0
300
8:1
140
8.0
141
1.0
290
     0
  0
SCALE
  5
C472
102
{ACAD_REACTORS
330
C462
102
}
330
C462
100
AcDbScale
 70
     0
300
10:1
140
10.0
141
1.0
290
     0
  0
SCALE
  5
C473
102
{ACAD_REACTORS
330
C462
102
}
330
C462
100
AcDbScale
 70
     0
300
100:1
140
100.0
141
1.0
290
     0
  0
ACDBSECTIONVIEWSTYLE
  5
C477
102
{ACAD_XDICTIONARY
360
C4DB
102
}
102
{ACAD_REACTORS
330
C476
102
}
330
C476
100
AcDbModelDocViewStyle
 70
     0
  3
Metric50
290
     0
100
AcDbSectionViewStyle
 70
     0
 71
     0
 90
      102
 71
     1
340
10
 62
   256
 40
5.0
340
0
340
0
 62
   256
 40
5.0
300
I, O, Q, S, X, Z
 40
10.0
 90
        0
 40
2.5
 90
        0
 71
     2
340
15
 90
       25
 62
   256
340
15
 90
       50
 62
   256
 40
5.0
 40
2.5
 40
5.0
 71
     3
340
10
 62
   256
 40
5.0
 90
        0
 40
15.0
 90
        1
300
%<\AcVar ViewSectionStartId>%-%<\AcVar ViewSectionEndId>% (%<\AcVar ViewScale \f "%sn">%)
 71
     4
 62
   256
 62
   257
300
ANSI31
 40
1.0
 90
        0
290
     0
290
     0
 90
        6
 40
0.0
 40
1.570796326794896
 40
0.2617993877991494
 40
1.308996938995747
 40
-0.2617993877991494
 40
1.832595714594046
  0
TABLESTYLE
  5
C461
102
{ACAD_XDICTIONARY
360
C4D0
102
}
102
{ACAD_REACTORS
330
C460
102
}
330
C460
100
AcDbTableStyle
280
     0
  3
Standard
 70
     0
 71
     0
 40
1.5
 41
1.5
280
     0
281
     0
  7
STANDARD
140
4.5
170
     2
 62
     0
 63
     7
283
     0
 90
      512
 91
        0
  1

274
    -2
284
     1
 64
     0
275
    -2
285
     1
 65
     0
276
    -2
286
     1
 66
     0
277
    -2
287
     1
 67
     0
278
    -2
288
     1
 68
     0
279
    -2
289
     1
 69
     0
  7
STANDARD
140
6.0
170
     5
 62
     0
 63
     7
283
     0
 90
      512
 91
        0
  1

274
    -2
284
     1
 64
     0
275
    -2
285
     1
 65
     0
276
    -2
286
     1
 66
     0
277
    -2
287
     1
 67
     0
278
    -2
288
     1
 68
     0
279
    -2
289
     1
 69
     0
  7
STANDARD
140
4.5
170
     5
 62
     0
 63
     7
283
     0
 90
      512
 91
        0
  1

274
    -2
284
     1
 64
     0
275
    -2
285
     1
 65
     0
276
    -2
286
     1
 66
     0
277
    -2
287
     1
 67
     0
278
    -2
288
     1
 68
     0
279
    -2
289
     1
 69
     0
  0
VISUALSTYLE
  5
C44C
102
{ACAD_REACTORS
330
C446
102
}
330
C446
100
AcDbVisualStyle
  2
2dWireframe
 70
     4
177
     3
291
     0
 70
    58
 90
        0
176
     1
 90
        2
176
     1
 90
        0
176
     1
 90
        0
176
     1
 40
0.6
176
     1
 40
30.0
176
     1
 62
     7
420
 16777215
176
     1
 90
        1
176
     1
 90
        4
176
     1
 62
     7
176
     1
 62
   257
176
     1
 90
        1
176
     1
 90
        1
176
     1
 40
1.0
176
     1
 90
        0
176
     1
 62
   257
176
     1
 40
1.0
176
     1
 90
        1
176
     1
 90
        6
176
     1
 90
        2
176
     1
 62
     7
176
     1
 90
        5
176
     1
 90
        0
176
     1
 90
        0
176
     1
290
     0
176
     1
 90
        1
176
     1
 40
0.0
176
     1
 90
        0
176
     1
290
     1
176
     1
290
     1
176
     1
290
     0
176
     1
290
     0
176
     1
290
     0
176
     1
290
     0
176
     1
290
     0
176
     1
290
     0
176
     1
290
     0
176
     1
 90
       50
176
     1
 40
0.0
176
     1
 40
1.0
176
     1
 90
        0
176
     1
 62
    18
420
        0
176
     1
 90
       50
176
     1
 90
        3
176
     1
 62
     5
420
      255
176
     1
290
     0
176
     1
 90
       50
176
     1
 90
       50
176
     1
 90
       50
176
     1
290
     0
176
     1
 90
       50
176
     1
 62
   256
176
     0
 40
1.0
176
     0
 90
        2
176
     1
  1
strokes_ogs.tif
176
     1
290
     0
176
     1
 40
1.0
176
     1
 40
1.0
176
     1
1001
ACAD
1000
AcDbSavedByObjectVersion
1070
     0
  0
VISUALSTYLE
  5
C44B
102
{ACAD_REACTORS
330
C446
102
}
330
C446
100
AcDbVisualStyle
  2
Basic
 70
     7
177
     3
291
     1
 70
    58
 90
        1
176
     1
 90
        0
176
     1
 90
        1
176
     1
 90
        0
176
     1
 40
0.6
176
     1
 40
30.0
176
     1
 62
     7
420
 16777215
176
     1
 90
        0
176
     1
 90
        4
176
     1
 62
     7
176
     1
 62
   257
176
     1
 90
        1
176
     1
 90
        1
176
     1
 40
1.0
176
     1
 90
        8
176
     1
 62
     7
176
     1
 40
1.0
176
     1
 90
        1
176
     1
 90
        6
176
     1
 90
        2
176
     1
 62
     7
176
     1
 90
        5
176
     1
 90
        0
176
     1
 90
        0
176
     1
290
     0
176
     1
 90
        1
176
     1
 40
0.0
176
     1
 90
        0
176
     1
290
     0
176
     1
290
     1
176
     1
290
     1
176
     1
290
     0
176
     1
290
     0
176
     1
290
     0
176
     1
290
     0
176
     1
290
     0
176
     1
290
     0
176
     1
 90
       50
176
     1
 40
0.0
176
     1
 40
1.0
176
     1
 90
        0
176
     1
 62
    18
420
        0
176
     1
 90
       50
176
     1
 90
        3
176
     1
 62
     5
420
      255
176
     1
290
     0
176
     1
 90
       50
176
     1
 90
       50
176
     1
 90
       50
176
     1
290
     0
176
     1
 90
       50
176
     1
 62
   256
176
     0
 40
1.0
176
     0
 90
        2
176
     1
  1
strokes_ogs.tif
176
     1
290
     0
176
     1
 40
1.0
176
     1
 40
1.0
176
     1
1001
ACAD
1000
AcDbSavedByObjectVersion
1070
     0
  0
VISUALSTYLE
  5
C452
102
{ACAD_REACTORS
330
C446
102
}
330
C446
100
AcDbVisualStyle
  2
Brighten
 70
    12
177
     3
291
     1
 70
    58
 90
        2
176
     1
 90
        2
176
     1
 90
        0
176
     1
 90
        0
176
     1
 40
0.6
176
     1
 40
30.0
176
     1
 62
     7
420
 16777215
176
     1
 90
        1
176
     1
 90
        4
176
     1
 62
     7
176
     1
 62
   257
176
     1
 90
        1
176
     1
 90
        1
176
     1
 40
1.0
176
     1
 90
        8
176
     1
 62
     7
176
     1
 40
1.0
176
     1
 90
        1
176
     1
 90
        6
176
     1
 90
        2
176
     1
 62
     7
176
     1
 90
        5
176
     1
 90
        0
176
     1
 90
        0
176
     1
290
     0
176
     1
 90
        1
176
     1
 40
50.0
176
     1
 90
        0
176
     1
290
     0
176
     1
290
     1
176
     1
290
     1
176
     1
290
     0
176
     1
290
     0
176
     1
290
     0
176
     1
290
     0
176
     1
290
     0
176
     1
290
     0
176
     1
 90
       50
176
     1
 40
0.0
176
     1
 40
1.0
176
     1
 90
        0
176
     1
 62
    18
420
        0
176
     1
 90
       50
176
     1
 90
        3
176
     1
 62
     5
420
      255
176
     1
290
     0
176
     1
 90
       50
176
     1
 90
       50
176
     1
 90
       50
176
     1
290
     0
176
     1
 90
       50
176
     1
 62
   256
176
     0
 40
1.0
176
     0
 90
        2
176
     1
  1
strokes_ogs.tif
176
     1
290
     0
176
     1
 40
1.0
176
     1
 40
1.0
176
     1
1001
ACAD
1000
AcDbSavedByObjectVersion
1070
     0
  0
VISUALSTYLE
  5
C456
102
{ACAD_REACTORS
330
C446
102
}
330
C446
100
AcDbVisualStyle
  2
ColorChange
 70
    16
177
     3
291
     1
 70
    58
 90
        2
176
     1
 90
        2
176
     1
 90
        3
176
     1
 90
        0
176
     1
 40
0.6
176
     1
 40
30.0
176
     1
 62
     8
420
  8421504
176
     1
 90
        1
176
     1
 90
        4
176
     1
 62
     7
176
     1
 62
   257
176
     1
 90
        1
176
     1
 90
        1
176
     1
 40
1.0
176
     1
 90
        8
176
     1
 62
     8
420
  8421504
176
     1
 40
1.0
176
     1
 90
        1
176
     1
 90
        6
176
     1
 90
        2
176
     1
 62
     7
176
     1
 90
        5
176
     1
 90
        0
176
     1
 90
        0
176
     1
290
     0
176
     1
 90
        1
176
     1
 40
0.0
176
     1
 90
        0
176
     1
290
     0
176
     1
290
     1
176
     1
290
     1
176
     1
290
     0
176
     1
290
     0
176
     1
290
     0
176
     1
290
     0
176
     1
290
     0
176
     1
290
     0
176
     1
 90
       50
176
     1
 40
0.0
176
     1
 40
1.0
176
     1
 90
        0
176
     1
 62
    18
420
        0
176
     1
 90
       50
176
     1
 90
        3
176
     1
 62
     5
420
      255
176
     1
290
     0
176
     1
 90
       50
176
     1
 90
       50
176
     1
 90
       50
176
     1
290
     0
176
     1
 90
       50
176
     1
 62
   256
176
     0
 40
1.0
176
     0
 90
        2
176
     1
  1
strokes_ogs.tif
176
     1
290
     0
176
     1
 40
1.0
176
     1
 40
1.0
176
     1
1001
ACAD
1000
AcDbSavedByObjectVersion
1070
     0
  0
VISUALSTYLE
  5
C44F
102
{ACAD_REACTORS
330
C446
102
}
330
C446
100
AcDbVisualStyle
  2
Conceptual
 70
     9
177
     3
291
     0
 70
    58
 90
        3
176
     1
 90
        2
176
     1
 90
        0
176
     1
 90
        0
176
     1
 40
0.6
176
     1
 40
30.0
176
     1
 62
     7
420
 16777215
176
     1
 90
        2
176
     1
 90
        2
176
     1
 62
     7
176
     1
 62
   257
176
     1
 90
        1
176
     1
 90
        1
176
     1
 40
179.0
176
     1
 90
        8
176
     1
 62
     7
176
     1
 40
1.0
176
     1
 90
        1
176
     1
 90
        6
176
     1
 90
        2
176
     1
 62
     7
176
     1
 90
        3
176
     1
 90
        0
176
     1
 90
        0
176
     1
290
     0
176
     1
 90
        1
176
     1
 40
0.0
176
     1
 90
        0
176
     1
290
     0
176
     1
290
     1
176
     1
290
     1
176
     1
290
     0
176
     1
290
     0
176
     1
290
     0
176
     1
290
     0
176
     1
290
     0
176
     1
290
     0
176
     1
 90
       50
176
     1
 40
0.0
176
     1
 40
1.0
176
     1
 90
        0
176
     1
 62
    18
420
        0
176
     1
 90
       50
176
     1
 90
        3
176
     1
 62
     5
420
      255
176
     1
290
     0
176
     1
 90
       50
176
     1
 90
       50
176
     1
 90
       50
176
     1
290
     0
176
     1
 90
       50
176
     1
 62
   256
176
     0
 40
1.0
176
     0
 90
        2
176
     1
  1
strokes_ogs.tif
176
     1
290
     0
176
     1
 40
1.0
176
     1
 40
1.0
176
     1
1001
ACAD
1000
AcDbSavedByObjectVersion
1070
     0
  0
VISUALSTYLE
  5
C451
102
{ACAD_REACTORS
330
C446
102
}
330
C446
100
AcDbVisualStyle
  2
Dim
 70
    11
177
     3
291
     1
 70
    58
 90
        2
176
     1
 90
        2
176
     1
 90
        0
176
     1
 90
        0
176
     1
 40
0.6
176
     1
 40
30.0
176
     1
 62
     7
420
 16777215
176
     1
 90
        1
176
     1
 90
        4
176
     1
 62
     7
176
     1
 62
   257
176
     1
 90
        1
176
     1
 90
        1
176
     1
 40
1.0
176
     1
 90
        8
176
     1
 62
     7
176
     1
 40
1.0
176
     1
 90
        1
176
     1
 90
        6
176
     1
 90
        2
176
     1
 62
     7
176
     1
 90
        5
176
     1
 90
        0
176
     1
 90
        0
176
     1
290
     0
176
     1
 90
        1
176
     1
 40
-50.0
176
     1
 90
        0
176
     1
290
     0
176
     1
290
     1
176
     1
290
     1
176
     1
290
     0
176
     1
290
     0
176
     1
290
     0
176
     1
290
     0
176
     1
290
     0
176
     1
290
     0
176
     1
 90
       50
176
     1
 40
0.0
176
     1
 40
1.0
176
     1
 90
        0
176
     1
 62
    18
420
        0
176
     1
 90
       50
176
     1
 90
        3
176
     1
 62
     5
420
      255
176
     1
290
     0
176
     1
 90
       50
176
     1
 90
       50
176
     1
 90
       50
176
     1
290
     0
176
     1
 90
       50
176
     1
 62
   256
176
     0
 40
1.0
176
     0
 90
        2
176
     1
  1
strokes_ogs.tif
176
     1
290
     0
176
     1
 40
1.0
176
     1
 40
1.0
176
     1
1001
ACAD
1000
AcDbSavedByObjectVersion
1070
     0
  0
VISUALSTYLE
  5
C45E
102
{ACAD_REACTORS
330
C446
102
}
330
C446
100
AcDbVisualStyle
  2
EdgeColorOff
 70
    22
177
     3
291
     1
 70
    58
 90
        2
176
     0
 90
        2
176
     0
 90
        0
176
     0
 90
        0
176
     0
 40
0.6
176
     0
 40
30.0
176
     0
 62
     7
420
 16777215
176
     0
 90
        1
176
     0
 90
        4
176
     0
 62
     7
176
     0
 62
   257
176
     0
 90
        1
176
     0
 90
        1
176
     0
 40
1.0
176
     0
 90
        8
176
     2
 62
     7
176
     0
 40
1.0
176
     0
 90
        1
176
     0
 90
        6
176
     0
 90
        2
176
     0
 62
     7
176
     0
 90
        5
176
     0
 90
        0
176
     0
 90
        0
176
     0
290
     0
176
     0
 90
        1
176
     0
 40
0.0
176
     0
 90
        0
176
     0
290
     0
176
     0
290
     1
176
     0
290
     1
176
     0
290
     0
176
     0
290
     0
176
     0
290
     0
176
     0
290
     0
176
     0
290
     0
176
     0
290
     0
176
     0
 90
       50
176
     0
 40
0.0
176
     0
 40
1.0
176
     0
 90
        0
176
     0
 62
    18
420
        0
176
     0
 90
       50
176
     0
 90
        3
176
     0
 62
     5
420
      255
176
     0
290
     0
176
     0
 90
       50
176
     0
 90
       50
176
     0
 90
       50
176
     0
290
     0
176
     0
 90
       50
176
     0
 62
   256
176
     0
 40
1.0
176
     0
 90
        2
176
     0
  1
strokes_ogs.tif
176
     0
290
     0
176
     0
 40
1.0
176
     0
 40
1.0
176
     0
1001
ACAD
1000
AcDbSavedByObjectVersion
1070
     0
  0
VISUALSTYLE
  5
C455
102
{ACAD_REACTORS
330
C446
102
}
330
C446
100
AcDbVisualStyle
  2
Facepattern
 70
    15
177
     3
291
     1
 70
    58
 90
        2
176
     1
 90
        2
176
     1
 90
        0
176
     1
 90
        0
176
     1
 40
0.6
176
     1
 40
30.0
176
     1
 62
     7
420
 16777215
176
     1
 90
        1
176
     1
 90
        4
176
     1
 62
     7
176
     1
 62
   257
176
     1
 90
        1
176
     1
 90
        1
176
     1
 40
1.0
176
     1
 90
        8
176
     1
 62
     7
176
     1
 40
1.0
176
     1
 90
        1
176
     1
 90
        6
176
     1
 90
        2
176
     1
 62
     7
176
     1
 90
        5
176
     1
 90
        0
176
     1
 90
        0
176
     1
290
     0
176
     1
 90
        1
176
     1
 40
0.0
176
     1
 90
        0
176
     1
290
     0
176
     1
290
     1
176
     1
290
     1
176
     1
290
     0
176
     1
290
     0
176
     1
290
     0
176
     1
290
     0
176
     1
290
     0
176
     1
290
     0
176
     1
 90
       50
176
     1
 40
0.0
176
     1
 40
1.0
176
     1
 90
        0
176
     1
 62
    18
420
        0
176
     1
 90
       50
176
     1
 90
        3
176
     1
 62
     5
420
      255
176
     1
290
     0
176
     1
 90
       50
176
     1
 90
       50
176
     1
 90
       50
176
     1
290
     0
176
     1
 90
       50
176
     1
 62
   256
176
     0
 40
1.0
176
     0
 90
        2
176
     1
  1
strokes_ogs.tif
176
     1
290
     0
176
     1
 40
1.0
176
     1
 40
1.0
176
     1
1001
ACAD
1000
AcDbSavedByObjectVersion
1070
     0
  0
VISUALSTYLE
  5
C447
102
{ACAD_REACTORS
330
C446
102
}
330
C446
100
AcDbVisualStyle
  2
Flat
 70
     0
177
     3
291
     1
 70
    58
 90
        2
176
     1
 90
        1
176
     1
 90
        1
176
     1
 90
        2
176
     1
 40
0.6
176
     1
 40
30.0
176
     1
 62
     7
420
 16777215
176
     1
 90
        0
176
     1
 90
        0
176
     1
 62
     7
176
     1
 62
   257
176
     1
 90
        1
176
     1
 90
        1
176
     1
 40
1.0
176
     1
 90
        8
176
     1
 62
     7
176
     1
 40
1.0
176
     1
 90
        1
176
     1
 90
        6
176
     1
 90
        2
176
     1
 62
     7
176
     1
 90
        5
176
     1
 90
        0
176
     1
 90
        0
176
     1
290
     0
176
     1
 90
       13
176
     1
 40
0.0
176
     1
 90
        0
176
     1
290
     0
176
     1
290
     1
176
     1
290
     1
176
     1
290
     0
176
     1
290
     0
176
     1
290
     0
176
     1
290
     0
176
     1
290
     0
176
     1
290
     0
176
     1
 90
       50
176
     1
 40
0.0
176
     1
 40
1.0
176
     1
 90
        0
176
     1
 62
    18
420
        0
176
     1
 90
       50
176
     1
 90
        3
176
     1
 62
     5
420
      255
176
     1
290
     0
176
     1
 90
       50
176
     1
 90
       50
176
     1
 90
       50
176
     1
290
     0
176
     1
 90
       50
176
     1
 62
   256
176
     0
 40
1.0
176
     0
 90
        2
176
     1
  1
strokes_ogs.tif
176
     1
290
     0
176
     1
 40
1.0
176
     1
 40
1.0
176
     1
1001
ACAD
1000
AcDbSavedByObjectVersion
1070
     0
  0
VISUALSTYLE
  5
C448
102
{ACAD_REACTORS
330
C446
102
}
330
C446
100
AcDbVisualStyle
  2
FlatWithEdges
 70
     1
177
     3
291
     1
 70
    58
 90
        2
176
     1
 90
        1
176
     1
 90
        1
176
     1
 90
        2
176
     1
 40
0.6
176
     1
 40
30.0
176
     1
 62
     7
420
 16777215
176
     1
 90
        1
176
     1
 90
        0
176
     1
 62
     7
176
     1
 62
   257
176
     1
 90
        1
176
     1
 90
        1
176
     1
 40
1.0
176
     1
 90
        0
176
     1
 62
   257
176
     1
 40
1.0
176
     1
 90
        1
176
     1
 90
        6
176
     1
 90
        2
176
     1
 62
     7
176
     1
 90
        5
176
     1
 90
        0
176
     1
 90
        0
176
     1
290
     0
176
     1
 90
       13
176
     1
 40
0.0
176
     1
 90
        0
176
     1
290
     0
176
     1
290
     1
176
     1
290
     1
176
     1
290
     0
176
     1
290
     0
176
     1
290
     0
176
     1
290
     0
176
     1
290
     0
176
     1
290
     0
176
     1
 90
       50
176
     1
 40
0.0
176
     1
 40
1.0
176
     1
 90
        0
176
     1
 62
    18
420
        0
176
     1
 90
       50
176
     1
 90
        3
176
     1
 62
     5
420
      255
176
     1
290
     0
176
     1
 90
       50
176
     1
 90
       50
176
     1
 90
       50
176
     1
290
     0
176
     1
 90
       50
176
     1
 62
   256
176
     0
 40
1.0
176
     0
 90
        2
176
     1
  1
strokes_ogs.tif
176
     1
290
     0
176
     1
 40
1.0
176
     1
 40
1.0
176
     1
1001
ACAD
1000
AcDbSavedByObjectVersion
1070
     0
  0
VISUALSTYLE
  5
C449
102
{ACAD_REACTORS
330
C446
102
}
330
C446
100
AcDbVisualStyle
  2
Gouraud
 70
     2
177
     3
291
     1
 70
    58
 90
        2
176
     1
 90
        2
176
     1
 90
        1
176
     1
 90
        2
176
     1
 40
0.6
176
     1
 40
30.0
176
     1
 62
     7
420
 16777215
176
     1
 90
        0
176
     1
 90
        0
176
     1
 62
     7
176
     1
 62
   257
176
     1
 90
        1
176
     1
 90
        1
176
     1
 40
1.0
176
     1
 90
        0
176
     1
 62
     7
176
     1
 40
1.0
176
     1
 90
        1
176
     1
 90
        6
176
     1
 90
        2
176
     1
 62
     7
176
     1
 90
        5
176
     1
 90
        0
176
     1
 90
        0
176
     1
290
     0
176
     1
 90
       13
176
     1
 40
0.0
176
     1
 90
        0
176
     1
290
     0
176
     1
290
     1
176
     1
290
     1
176
     1
290
     0
176
     1
290
     0
176
     1
290
     0
176
     1
290
     0
176
     1
290
     0
176
     1
290
     0
176
     1
 90
       50
176
     1
 40
0.0
176
     1
 40
1.0
176
     1
 90
        0
176
     1
 62
    18
420
        0
176
     1
 90
       50
176
     1
 90
        3
176
     1
 62
     5
420
      255
176
     1
290
     0
176
     1
 90
       50
176
     1
 90
       50
176
     1
 90
       50
176
     1
290
     0
176
     1
 90
       50
176
     1
 62
   256
176
     0
 40
1.0
176
     0
 90
        2
176
     1
  1
strokes_ogs.tif
176
     1
290
     0
176
     1
 40
1.0
176
     1
 40
1.0
176
     1
1001
ACAD
1000
AcDbSavedByObjectVersion
1070
     0
  0
VISUALSTYLE
  5
C44A
102
{ACAD_REACTORS
330
C446
102
}
330
C446
100
AcDbVisualStyle
  2
GouraudWithEdges
 70
     3
177
     3
291
     1
 70
    58
 90
        2
176
     1
 90
        2
176
     1
 90
        1
176
     1
 90
        2
176
     1
 40
0.6
176
     1
 40
30.0
176
     1
 62
     7
420
 16777215
176
     1
 90
        1
176
     1
 90
        0
176
     1
 62
     7
176
     1
 62
   257
176
     1
 90
        1
176
     1
 90
        1
176
     1
 40
1.0
176
     1
 90
        0
176
     1
 62
   257
176
     1
 40
1.0
176
     1
 90
        1
176
     1
 90
        6
176
     1
 90
        2
176
     1
 62
     7
176
     1
 90
        5
176
     1
 90
        0
176
     1
 90
        0
176
     1
290
     0
176
     1
 90
       13
176
     1
 40
0.0
176
     1
 90
        0
176
     1
290
     0
176
     1
290
     1
176
     1
290
     1
176
     1
290
     0
176
     1
290
     0
176
     1
290
     0
176
     1
290
     0
176
     1
290
     0
176
     1
290
     0
176
     1
 90
       50
176
     1
 40
0.0
176
     1
 40
1.0
176
     1
 90
        0
176
     1
 62
    18
420
        0
176
     1
 90
       50
176
     1
 90
        3
176
     1
 62
     5
420
      255
176
     1
290
     0
176
     1
 90
       50
176
     1
 90
       50
176
     1
 90
       50
176
     1
290
     0
176
     1
 90
       50
176
     1
 62
   256
176
     0
 40
1.0
176
     0
 90
        2
176
     1
  1
strokes_ogs.tif
176
     1
290
     0
176
     1
 40
1.0
176
     1
 40
1.0
176
     1
1001
ACAD
1000
AcDbSavedByObjectVersion
1070
     0
  0
VISUALSTYLE
  5
C44E
102
{ACAD_REACTORS
330
C446
102
}
330
C446
100
AcDbVisualStyle
  2
Hidden
 70
     6
177
     3
291
     0
 70
    58
 90
        1
176
     1
 90
        2
176
     1
 90
        2
176
     1
 90
        0
176
     1
 40
0.6
176
     1
 40
30.0
176
     1
 62
     7
420
 16777215
176
     1
 90
        2
176
     1
 90
        2
176
     1
 62
     7
176
     1
 62
   257
176
     1
 90
        2
176
     1
 90
        1
176
     1
 40
40.0
176
     1
 90
        0
176
     1
 62
   257
176
     1
 40
1.0
176
     1
 90
        1
176
     1
 90
        6
176
     1
 90
        2
176
     1
 62
     7
176
     1
 90
        3
176
     1
 90
        0
176
     1
 90
        0
176
     1
290
     0
176
     1
 90
        1
176
     1
 40
0.0
176
     1
 90
        0
176
     1
290
     0
176
     1
290
     1
176
     1
290
     1
176
     1
290
     0
176
     1
290
     0
176
     1
290
     0
176
     1
290
     0
176
     1
290
     0
176
     1
290
     0
176
     1
 90
       50
176
     1
 40
0.0
176
     1
 40
1.0
176
     1
 90
        0
176
     1
 62
    18
420
        0
176
     1
 90
       50
176
     1
 90
        3
176
     1
 62
     5
420
      255
176
     1
290
     0
176
     1
 90
       50
176
     1
 90
       50
176
     1
 90
       50
176
     1
290
     0
176
     1
 90
       50
176
     1
 62
   256
176
     0
 40
1.0
176
     0
 90
        2
176
     1
  1
strokes_ogs.tif
176
     1
290
     0
176
     1
 40
1.0
176
     1
 40
1.0
176
     1
1001
ACAD
1000
AcDbSavedByObjectVersion
1070
     0
  0
VISUALSTYLE
  5
C45C
102
{ACAD_REACTORS
330
C446
102
}
330
C446
100
AcDbVisualStyle
  2
JitterOff
 70
    20
177
     3
291
     1
 70
    58
 90
        2
176
     0
 90
        2
176
     0
 90
        0
176
     0
 90
        0
176
     0
 40
0.6
176
     0
 40
30.0
176
     0
 62
     7
420
 16777215
176
     0
 90
        1
176
     0
 90
        4
176
     0
 62
     7
176
     0
 62
   257
176
     0
 90
        1
176
     0
 90
        1
176
     0
 40
1.0
176
     0
 90
       10
176
     2
 62
     7
176
     0
 40
1.0
176
     0
 90
        1
176
     0
 90
        6
176
     0
 90
        2
176
     0
 62
     7
176
     0
 90
        5
176
     0
 90
        0
176
     0
 90
        0
176
     0
290
     0
176
     0
 90
        1
176
     0
 40
0.0
176
     0
 90
        0
176
     0
290
     0
176
     0
290
     1
176
     0
290
     1
176
     0
290
     0
176
     0
290
     0
176
     0
290
     0
176
     0
290
     0
176
     0
290
     0
176
     0
290
     0
176
     0
 90
       50
176
     0
 40
0.0
176
     0
 40
1.0
176
     0
 90
        0
176
     0
 62
    18
420
        0
176
     0
 90
       50
176
     0
 90
        3
176
     0
 62
     5
420
      255
176
     0
290
     0
176
     0
 90
       50
176
     0
 90
       50
176
     0
 90
       50
176
     0
290
     0
176
     0
 90
       50
176
     0
 62
   256
176
     0
 40
1.0
176
     0
 90
        2
176
     0
  1
strokes_ogs.tif
176
     0
290
     0
176
     0
 40
1.0
176
     0
 40
1.0
176
     0
1001
ACAD
1000
AcDbSavedByObjectVersion
1070
     0
  0
VISUALSTYLE
  5
C454
102
{ACAD_REACTORS
330
C446
102
}
330
C446
100
AcDbVisualStyle
  2
Linepattern
 70
    14
177
     3
291
     1
 70
    58
 90
        2
176
     1
 90
        2
176
     1
 90
        0
176
     1
 90
        0
176
     1
 40
0.6
176
     1
 40
30.0
176
     1
 62
     7
420
 16777215
176
     1
 90
        1
176
     1
 90
        4
176
     1
 62
     7
176
     1
 62
   257
176
     1
 90
        7
176
     1
 90
        7
176
     1
 40
1.0
176
     1
 90
        8
176
     1
 62
     7
176
     1
 40
1.0
176
     1
 90
        1
176
     1
 90
        6
176
     1
 90
        2
176
     1
 62
     7
176
     1
 90
        5
176
     1
 90
        0
176
     1
 90
        0
176
     1
290
     0
176
     1
 90
        1
176
     1
 40
0.0
176
     1
 90
        0
176
     1
290
     0
176
     1
290
     1
176
     1
290
     1
176
     1
290
     0
176
     1
290
     0
176
     1
290
     0
176
     1
290
     0
176
     1
290
     0
176
     1
290
     0
176
     1
 90
       50
176
     1
 40
0.0
176
     1
 40
1.0
176
     1
 90
        0
176
     1
 62
    18
420
        0
176
     1
 90
       50
176
     1
 90
        3
176
     1
 62
     5
420
      255
176
     1
290
     0
176
     1
 90
       50
176
     1
 90
       50
176
     1
 90
       50
176
     1
290
     0
176
     1
 90
       50
176
     1
 62
   256
176
     0
 40
1.0
176
     0
 90
        2
176
     1
  1
strokes_ogs.tif
176
     1
290
     0
176
     1
 40
1.0
176
     1
 40
1.0
176
     1
1001
ACAD
1000
AcDbSavedByObjectVersion
1070
     0
  0
VISUALSTYLE
  5
C45D
102
{ACAD_REACTORS
330
C446
102
}
330
C446
100
AcDbVisualStyle
  2
OverhangOff
 70
    21
177
     3
291
     1
 70
    58
 90
        2
176
     0
 90
        2
176
     0
 90
        0
176
     0
 90
        0
176
     0
 40
0.6
176
     0
 40
30.0
176
     0
 62
     7
420
 16777215
176
     0
 90
        1
176
     0
 90
        4
176
     0
 62
     7
176
     0
 62
   257
176
     0
 90
        1
176
     0
 90
        1
176
     0
 40
1.0
176
     0
 90
        9
176
     2
 62
     7
176
     0
 40
1.0
176
     0
 90
        1
176
     0
 90
        6
176
     0
 90
        2
176
     0
 62
     7
176
     0
 90
        5
176
     0
 90
        0
176
     0
 90
        0
176
     0
290
     0
176
     0
 90
        1
176
     0
 40
0.0
176
     0
 90
        0
176
     0
290
     0
176
     0
290
     1
176
     0
290
     1
176
     0
290
     0
176
     0
290
     0
176
     0
290
     0
176
     0
290
     0
176
     0
290
     0
176
     0
290
     0
176
     0
 90
       50
176
     0
 40
0.0
176
     0
 40
1.0
176
     0
 90
        0
176
     0
 62
    18
420
        0
176
     0
 90
       50
176
     0
 90
        3
176
     0
 62
     5
420
      255
176
     0
290
     0
176
     0
 90
       50
176
     0
 90
       50
176
     0
 90
       50
176
     0
290
     0
176
     0
 90
       50
176
     0
 62
   256
176
     0
 40
1.0
176
     0
 90
        2
176
     0
  1
strokes_ogs.tif
176
     0
290
     0
176
     0
 40
1.0
176
     0
 40
1.0
176
     0
1001
ACAD
1000
AcDbSavedByObjectVersion
1070
     0
  0
VISUALSTYLE
  5
C450
102
{ACAD_REACTORS
330
C446
102
}
330
C446
100
AcDbVisualStyle
  2
Realistic
 70
     8
177
     3
291
     0
 70
    58
 90
        2
176
     1
 90
        3
176
     1
 90
        0
176
     1
 90
        2
176
     1
 40
0.6
176
     1
 40
30.0
176
     1
 62
     7
420
 16777215
176
     1
 90
        0
176
     1
 90
        0
176
     1
 62
     7
176
     1
 62
   257
176
     1
 90
        1
176
     1
 90
        1
176
     1
 40
1.0
176
     1
 90
        8
176
     1
 62
   257
176
     1
 40
1.0
176
     1
 90
        1
176
     1
 90
        6
176
     1
 90
        2
176
     1
 62
     7
176
     1
 90
        3
176
     1
 90
        0
176
     1
 90
        0
176
     1
290
     0
176
     1
 90
       13
176
     1
 40
0.0
176
     1
 90
        0
176
     1
290
     0
176
     1
290
     1
176
     1
290
     1
176
     1
290
     0
176
     1
290
     0
176
     1
290
     0
176
     1
290
     0
176
     1
290
     0
176
     1
290
     0
176
     1
 90
       50
176
     1
 40
0.0
176
     1
 40
1.0
176
     1
 90
        0
176
     1
 62
    18
420
        0
176
     1
 90
       50
176
     1
 90
        3
176
     1
 62
     5
420
      255
176
     1
290
     0
176
     1
 90
       50
176
     1
 90
       50
176
     1
 90
       50
176
     1
290
     0
176
     1
 90
       50
176
     1
 62
   256
176
     0
 40
1.0
176
     0
 90
        2
176
     1
  1
strokes_ogs.tif
176
     1
290
     0
176
     1
 40
1.0
176
     1
 40
1.0
176
     1
1001
ACAD
1000
AcDbSavedByObjectVersion
1070
     0
  0
VISUALSTYLE
  5
C45B
102
{ACAD_REACTORS
330
C446
102
}
330
C446
100
AcDbVisualStyle
  2
Shaded
 70
    27
177
     3
291
     0
 70
    58
 90
        2
176
     1
 90
        2
176
     1
 90
        1
176
     1
 90
        2
176
     1
 40
0.6
176
     1
 40
30.0
176
     1
 62
     7
420
 16777215
176
     1
 90
        0
176
     1
 90
        4
176
     1
 62
     7
176
     1
 62
   257
176
     1
 90
        1
176
     1
 90
        1
176
     1
 40
1.0
176
     1
 90
        8
176
     1
 62
   257
176
     1
 40
1.0
176
     1
 90
        1
176
     1
 90
        6
176
     1
 90
        2
176
     1
 62
     8
420
  7895160
176
     1
 90
        3
176
     1
 90
        0
176
     1
 90
        0
176
     1
290
     0
176
     1
 90
        5
176
     1
 40
0.0
176
     1
 90
        0
176
     1
290
     0
176
     1
290
     1
176
     1
290
     1
176
     1
290
     0
176
     1
290
     0
176
     1
290
     0
176
     1
290
     0
176
     1
290
     0
176
     1
290
     0
176
     1
 90
       50
176
     1
 40
0.0
176
     1
 40
1.0
176
     1
 90
        0
176
     1
 62
    18
420
        0
176
     1
 90
       50
176
     1
 90
        3
176
     1
 62
     5
420
      255
176
     1
290
     0
176
     1
 90
       50
176
     1
 90
       50
176
     1
 90
       50
176
     1
290
     0
176
     1
 90
       50
176
     1
 62
   256
176
     0
 40
1.0
176
     0
 90
        2
176
     1
  1
strokes_ogs.tif
176
     1
290
     0
176
     1
 40
1.0
176
     1
 40
1.0
176
     1
1001
ACAD
1000
AcDbSavedByObjectVersion
1070
     0
  0
VISUALSTYLE
  5
C45A
102
{ACAD_REACTORS
330
C446
102
}
330
C446
100
AcDbVisualStyle
  2
Shaded with edges
 70
    26
177
     3
291
     0
 70
    58
 90
        2
176
     1
 90
        2
176
     1
 90
        1
176
     1
 90
        2
176
     1
 40
0.6
176
     1
 40
30.0
176
     1
 62
     7
420
 16777215
176
     1
 90
        1
176
     1
 90
        2
176
     1
 62
     7
176
     1
 62
   257
176
     1
 90
        2
176
     1
 90
        1
176
     1
 40
1.0
176
     1
 90
        8
176
     1
 62
   257
176
     1
 40
1.0
176
     1
 90
        1
176
     1
 90
        6
176
     1
 90
        2
176
     1
 62
     7
176
     1
 90
        3
176
     1
 90
        0
176
     1
 90
        0
176
     1
290
     0
176
     1
 90
        5
176
     1
 40
0.0
176
     1
 90
        0
176
     1
290
     0
176
     1
290
     1
176
     1
290
     1
176
     1
290
     0
176
     1
290
     0
176
     1
290
     0
176
     1
290
     0
176
     1
290
     0
176
     1
290
     0
176
     1
 90
       50
176
     1
 40
0.0
176
     1
 40
1.0
176
     1
 90
        0
176
     1
 62
    18
420
        0
176
     1
 90
       50
176
     1
 90
        3
176
     1
 62
     5
420
      255
176
     1
290
     0
176
     1
 90
       50
176
     1
 90
       50
176
     1
 90
       50
176
     1
290
     0
176
     1
 90
       50
176
     1
 62
   256
176
     0
 40
1.0
176
     0
 90
        2
176
     1
  1
strokes_ogs.tif
176
     1
290
     0
176
     1
 40
1.0
176
     1
 40
1.0
176
     1
1001
ACAD
1000
AcDbSavedByObjectVersion
1070
     0
  0
VISUALSTYLE
  5
C457
102
{ACAD_REACTORS
330
C446
102
}
330
C446
100
AcDbVisualStyle
  2
Shades of Gray
 70
    23
177
     3
291
     0
 70
    58
 90
        2
176
     1
 90
        2
176
     1
 90
        3
176
     1
 90
        0
176
     1
 40
0.6
176
     1
 40
30.0
176
     1
 62
     7
420
 16777215
176
     1
 90
        2
176
     1
 90
        2
176
     1
 62
     7
176
     1
 62
     7
176
     1
 90
        1
176
     1
 90
        1
176
     1
 40
40.0
176
     1
 90
        8
176
     1
 62
     7
176
     1
 40
1.0
176
     1
 90
        1
176
     1
 90
        6
176
     1
 90
        2
176
     1
 62
     7
176
     1
 90
        3
176
     1
 90
        0
176
     1
 90
        0
176
     1
290
     0
176
     1
 90
        1
176
     1
 40
0.0
176
     1
 90
        0
176
     1
290
     0
176
     1
290
     1
176
     1
290
     1
176
     1
290
     0
176
     1
290
     0
176
     1
290
     0
176
     1
290
     0
176
     1
290
     0
176
     1
290
     0
176
     1
 90
       50
176
     1
 40
0.0
176
     1
 40
1.0
176
     1
 90
        0
176
     1
 62
    18
420
        0
176
     1
 90
       50
176
     1
 90
        3
176
     1
 62
     5
420
      255
176
     1
290
     0
176
     1
 90
       50
176
     1
 90
       50
176
     1
 90
       50
176
     1
290
     0
176
     1
 90
       50
176
     1
 62
   256
176
     0
 40
1.0
176
     0
 90
        2
176
     1
  1
strokes_ogs.tif
176
     1
290
     0
176
     1
 40
1.0
176
     1
 40
1.0
176
     1
1001
ACAD
1000
AcDbSavedByObjectVersion
1070
     0
  0
VISUALSTYLE
  5
C458
102
{ACAD_REACTORS
330
C446
102
}
330
C446
100
AcDbVisualStyle
  2
Sketchy
 70
    24
177
     3
291
     0
 70
    58
 90
        1
176
     1
 90
        2
176
     1
 90
        2
176
     1
 90
        0
176
     1
 40
0.6
176
     1
 40
30.0
176
     1
 62
     7
420
 16777215
176
     1
 90
        2
176
     1
 90
        2
176
     1
 62
     7
176
     1
 62
     7
176
     1
 90
        1
176
     1
 90
        1
176
     1
 40
40.0
176
     1
 90
       11
176
     1
 62
     7
176
     1
 40
1.0
176
     1
 90
        1
176
     1
 90
        6
176
     1
 90
        2
176
     1
 62
     7
176
     1
 90
        6
176
     1
 90
        0
176
     1
 90
        0
176
     1
290
     0
176
     1
 90
        1
176
     1
 40
0.0
176
     1
 90
        0
176
     1
290
     0
176
     1
290
     1
176
     1
290
     1
176
     1
290
     0
176
     1
290
     0
176
     1
290
     0
176
     1
290
     0
176
     1
290
     0
176
     1
290
     0
176
     1
 90
       50
176
     1
 40
0.0
176
     1
 40
1.0
176
     1
 90
        0
176
     1
 62
    18
420
        0
176
     1
 90
       50
176
     1
 90
        3
176
     1
 62
     5
420
      255
176
     1
290
     0
176
     1
 90
       50
176
     1
 90
       50
176
     1
 90
       50
176
     1
290
     0
176
     1
 90
       50
176
     1
 62
   256
176
     0
 40
1.0
176
     0
 90
        2
176
     1
  1
strokes_ogs.tif
176
     1
290
     0
176
     1
 40
1.0
176
     1
 40
1.0
176
     1
1001
ACAD
1000
AcDbSavedByObjectVersion
1070
     0
  0
VISUALSTYLE
  5
C453
102
{ACAD_REACTORS
330
C446
102
}
330
C446
100
AcDbVisualStyle
  2
Thicken
 70
    13
177
     3
291
     1
 70
    58
 90
        2
176
     1
 90
        2
176
     1
 90
        0
176
     1
 90
        0
176
     1
 40
0.6
176
     1
 40
30.0
176
     1
 62
     7
420
 16777215
176
     1
 90
        1
176
     1
 90
        4
176
     1
 62
     7
176
     1
 62
   257
176
     1
 90
        1
176
     1
 90
        1
176
     1
 40
1.0
176
     1
 90
       12
176
     1
 62
     7
176
     1
 40
1.0
176
     1
 90
        1
176
     1
 90
        6
176
     1
 90
        2
176
     1
 62
     7
176
     1
 90
        5
176
     1
 90
        0
176
     1
 90
        0
176
     1
290
     0
176
     1
 90
        1
176
     1
 40
0.0
176
     1
 90
        0
176
     1
290
     0
176
     1
290
     1
176
     1
290
     1
176
     1
290
     0
176
     1
290
     0
176
     1
290
     0
176
     1
290
     0
176
     1
290
     0
176
     1
290
     0
176
     1
 90
       50
176
     1
 40
0.0
176
     1
 40
1.0
176
     1
 90
        0
176
     1
 62
    18
420
        0
176
     1
 90
       50
176
     1
 90
        3
176
     1
 62
     5
420
      255
176
     1
290
     0
176
     1
 90
       50
176
     1
 90
       50
176
     1
 90
       50
176
     1
290
     0
176
     1
 90
       50
176
     1
 62
   256
176
     0
 40
1.0
176
     0
 90
        2
176
     1
  1
strokes_ogs.tif
176
     1
290
     0
176
     1
 40
1.0
176
     1
 40
1.0
176
     1
1001
ACAD
1000
AcDbSavedByObjectVersion
1070
     0
  0
VISUALSTYLE
  5
C44D
102
{ACAD_REACTORS
330
C446
102
}
330
C446
100
AcDbVisualStyle
  2
Wireframe
 70
     5
177
     3
291
     0
 70
    58
 90
        0
176
     1
 90
        2
176
     1
 90
        0
176
     1
 90
        0
176
     1
 40
0.6
176
     1
 40
30.0
176
     1
 62
     7
420
 16777215
176
     1
 90
        1
176
     1
 90
        4
176
     1
 62
     7
176
     1
 62
   257
176
     1
 90
        1
176
     1
 90
        1
176
     1
 40
1.0
176
     1
 90
        0
176
     1
 62
   257
176
     1
 40
1.0
176
     1
 90
        1
176
     1
 90
        6
176
     1
 90
        2
176
     1
 62
     7
176
     1
 90
        3
176
     1
 90
        0
176
     1
 90
        0
176
     1
290
     0
176
     1
 90
        1
176
     1
 40
0.0
176
     1
 90
        0
176
     1
290
     0
176
     1
290
     1
176
     1
290
     1
176
     1
290
     0
176
     1
290
     0
176
     1
290
     0
176
     1
290
     0
176
     1
290
     0
176
     1
290
     0
176
     1
 90
       50
176
     1
 40
0.0
176
     1
 40
1.0
176
     1
 90
        0
176
     1
 62
    18
420
        0
176
     1
 90
       50
176
     1
 90
        3
176
     1
 62
     5
420
      255
176
     1
290
     0
176
     1
 90
       50
176
     1
 90
       50
176
     1
 90
       50
176
     1
290
     0
176
     1
 90
       50
176
     1
 62
   256
176
     0
 40
1.0
176
     0
 90
        2
176
     1
  1
strokes_ogs.tif
176
     1
290
     0
176
     1
 40
1.0
176
     1
 40
1.0
176
     1
1001
ACAD
1000
AcDbSavedByObjectVersion
1070
     0
  0
VISUALSTYLE
  5
C459
102
{ACAD_REACTORS
330
C446
102
}
330
C446
100
AcDbVisualStyle
  2
X-Ray
 70
    25
177
     3
291
     0
 70
    58
 90
        2
176
     1
 90
        2
176
     1
 90
        1
176
     1
 90
        1
176
     1
 40
0.5
176
     1
 40
30.0
176
     1
 62
     7
420
 16777215
176
     1
 90
        1
176
     1
 90
        0
176
     1
 62
     7
176
     1
 62
   257
176
     1
 90
        1
176
     1
 90
        1
176
     1
 40
1.0
176
     1
 90
        8
176
     1
 62
     7
176
     1
 40
1.0
176
     1
 90
        1
176
     1
 90
        6
176
     1
 90
        2
176
     1
 62
     7
176
     1
 90
        3
176
     1
 90
        0
176
     1
 90
        0
176
     1
290
     0
176
     1
 90
       13
176
     1
 40
0.0
176
     1
 90
        0
176
     1
290
     0
176
     1
290
     1
176
     1
290
     1
176
     1
290
     0
176
     1
290
     0
176
     1
290
     0
176
     1
290
     0
176
     1
290
     0
176
     1
290
     0
176
     1
 90
       50
176
     1
 40
0.0
176
     1
 40
1.0
176
     1
 90
        0
176
     1
 62
    18
420
        0
176
     1
 90
       50
176
     1
 90
        3
176
     1
 62
     5
420
      255
176
     1
290
     0
176
     1
 90
       50
176
     1
 90
       50
176
     1
 90
       50
176
     1
290
     0
176
     1
 90
       50
176
     1
 62
   256
176
     0
 40
1.0
176
     0
 90
        2
176
     1
  1
strokes_ogs.tif
176
     1
290
     0
176
     1
 40
1.0
176
     1
 40
1.0
176
     1
1001
ACAD
1000
AcDbSavedByObjectVersion
1070
     0
  0
DICTIONARYVAR
  5
C4C6
102
{ACAD_REACTORS
330
C424
102
}
330
C424
100
DictionaryVariables
280
     0
  1
1:1
  0
DICTIONARYVAR
  5
C4C2
102
{ACAD_REACTORS
330
C424
102
}
330
C424
100
DictionaryVariables
280
     0
  1
STANDARD
  0
DICTIONARYVAR
  5
C4C1
102
{ACAD_REACTORS
330
C424
102
}
330
C424
100
DictionaryVariables
280
     0
  1
STANDARD
  0
DICTIONARYVAR
  5
C4C3
102
{ACAD_REACTORS
330
C424
102
}
330
C424
100
DictionaryVariables
280
     0
  1
Metric50
  0
DICTIONARYVAR
  5
C4C4
102
{ACAD_REACTORS
330
C424
102
}
330
C424
100
DictionaryVariables
280
     0
  1
Metric50
  0
DICTIONARYVAR
  5
C425
102
{ACAD_REACTORS
330
C424
102
}
330
C424
100
DictionaryVariables
280
     0
  1
1
  0
DICTIONARYVAR
  5
C4C8
102
{ACAD_REACTORS
330
C424
102
}
330
C424
100
DictionaryVariables
280
     0
  1
1
  0
DICTIONARYVAR
  5
C4C9
102
{ACAD_REACTORS
330
C424
102
}
330
C424
100
DictionaryVariables
280
     0
  1
15
  0
DICTIONARYVAR
  5
C4C7
102
{ACAD_REACTORS
330
C424
102
}
330
C424
100
DictionaryVariables
280
     0
  1
0
  0
DICTIONARYVAR
  5
C4CF
102
{ACAD_REACTORS
330
C424
102
}
330
C424
100
DictionaryVariables
280
     0
  1
0
  0
DICTIONARYVAR
  5
C4C5
102
{ACAD_REACTORS
330
C424
102
}
330
C424
100
DictionaryVariables
280
     0
  1
0
  0
DICTIONARY
  5
C4DA
102
{ACAD_REACTORS
330
C4D8
102
}
330
C4D8
100
AcDbDictionary
281
     1
  0
DICTIONARY
  5
C4D9
102
{ACAD_REACTORS
330
C4D8
102
}
330
C4D8
100
AcDbDictionary
281
     1
  3
2047286804272
350
C4D3
  3
2047286804288
350
C4D4
  3
2047286804304
350
C4D5
  3
2047286804320
350
C4D6
  3
2047286804336
350
C4D7
  0
DICTIONARY
  5
C4DD
330
C479
100
AcDbDictionary
280
     1
281
     1
  3
ACAD_XREC_ROUNDTRIP
360
C4DE
  0
DICTIONARY
  5
C437
330
C436
100
AcDbDictionary
280
     1
281
     1
  3
BUMPTILE
360
C439
  3
DIFFUSETILE
360
C438
  3
OPACITYTILE
360
C43C
  3
REFLECTIONTILE
360
C43B
  3
REFRACTIONTILE
360
C43D
  3
SPECULARTILE
360
C43A
  0
DICTIONARY
  5
C42F
330
C42E
100
AcDbDictionary
280
     1
281
     1
  3
BUMPTILE
360
C431
  3
DIFFUSETILE
360
C430
  3
OPACITYTILE
360
C434
  3
REFLECTIONTILE
360
C433
  3
REFRACTIONTILE
360
C435
  3
SPECULARTILE
360
C432
  0
DICTIONARY
  5
C43F
330
C43E
100
AcDbDictionary
280
     1
281
     1
  3
BUMPTILE
360
C441
  3
DIFFUSETILE
360
C440
  3
OPACITYTILE
360
C444
  3
REFLECTIONTILE
360
C443
  3
REFRACTIONTILE
360
C445
  3
SPECULARTILE
360
C442
  0
DICTIONARY
  5
C4DB
330
C477
100
AcDbDictionary
280
     1
281
     1
  3
ACAD_XREC_ROUNDTRIP
360
C4DC
  0
DICTIONARY
  5
C4D0
330
C461
100
AcDbDictionary
280
     1
281
     1
  3
ACAD_ROUNDTRIP_2008_TABLESTYLE_CELLSTYLEMAP
360
C4D1
  0
XRECORD
  5
C4D3
102
{ACAD_REACTORS
330
C4D9
102
}
330
C4D9
100
AcDbXrecord
280
     1
  1
AcDb_Thumbnail_Schema
102
{ATTRRECORD
341
C4D4
  2
AcDbDs::TreatedAsObjectData
280
     1
291
     1
102
ATTRRECORD}
102
{ATTRRECORD
341
C4D5
  2
AcDbDs::Legacy
280
     1
291
     1
102
ATTRRECORD}
  2
AcDbDs::ID
280
    10
 91
        8
102
{ATTRRECORD
341
C4D6
  2
AcDs:Indexable
280
     1
291
     1
102
ATTRRECORD}
102
{ATTRRECORD
341
C4D7
  2
AcDbDs::HandleAttribute
280
     7
282
     1
102
ATTRRECORD}
  2
Thumbnail_Data
280
    15
 91
        0
  0
XRECORD
  5
C4D4
102
{ACAD_REACTORS
330
C4D9
102
}
330
C4D9
100
AcDbXrecord
280
     1
  1
AcDbDs::TreatedAsObjectDataSchema
  2
AcDbDs::TreatedAsObjectData
280
     1
 91
        0
  0
XRECORD
  5
C4D5
102
{ACAD_REACTORS
330
C4D9
102
}
330
C4D9
100
AcDbXrecord
280
     1
  1
AcDbDs::LegacySchema
  2
AcDbDs::Legacy
280
     1
 91
        0
  0
XRECORD
  5
C4D6
102
{ACAD_REACTORS
330
C4D9
102
}
330
C4D9
100
AcDbXrecord
280
     1
  1
AcDbDs::IndexedPropertySchema
  2
AcDs:Indexable
280
     1
 91
        0
  0
XRECORD
  5
C4D7
102
{ACAD_REACTORS
330
C4D9
102
}
330
C4D9
100
AcDbXrecord
280
     1
  1
AcDbDs::HandleAttributeSchema
  2
AcDbDs::HandleAttribute
280
     7
 91
        1
284
     1
  0
XRECORD
  5
C4DE
102
{ACAD_REACTORS
330
C4DD
102
}
330
C4DD
100
AcDbXrecord
280
     1
102
DISPLAYNAME
  1
Metric50
102
FLAGS
 90
        0
  0
XRECORD
  5
C439
102
{ACAD_REACTORS
330
C437
102
}
330
C437
100
AcDbXrecord
280
     1
270
     1
271
     1
  0
XRECORD
  5
C438
102
{ACAD_REACTORS
330
C437
102
}
330
C437
100
AcDbXrecord
280
     1
270
     1
271
     1
  0
XRECORD
  5
C43C
102
{ACAD_REACTORS
330
C437
102
}
330
C437
100
AcDbXrecord
280
     1
270
     1
271
     1
  0
XRECORD
  5
C43B
102
{ACAD_REACTORS
330
C437
102
}
330
C437
100
AcDbXrecord
280
     1
270
     1
271
     1
  0
XRECORD
  5
C43D
102
{ACAD_REACTORS
330
C437
102
}
330
C437
100
AcDbXrecord
280
     1
270
     1
271
     1
  0
XRECORD
  5
C43A
102
{ACAD_REACTORS
330
C437
102
}
330
C437
100
AcDbXrecord
280
     1
270
     1
271
     1
  0
XRECORD
  5
C431
102
{ACAD_REACTORS
330
C42F
102
}
330
C42F
100
AcDbXrecord
280
     1
270
     1
271
     1
  0
XRECORD
  5
C430
102
{ACAD_REACTORS
330
C42F
102
}
330
C42F
100
AcDbXrecord
280
     1
270
     1
271
     1
  0
XRECORD
  5
C434
102
{ACAD_REACTORS
330
C42F
102
}
330
C42F
100
AcDbXrecord
280
     1
270
     1
271
     1
  0
XRECORD
  5
C433
102
{ACAD_REACTORS
330
C42F
102
}
330
C42F
100
AcDbXrecord
280
     1
270
     1
271
     1
  0
XRECORD
  5
C435
102
{ACAD_REACTORS
330
C42F
102
}
330
C42F
100
AcDbXrecord
280
     1
270
     1
271
     1
  0
XRECORD
  5
C432
102
{ACAD_REACTORS
330
C42F
102
}
330
C42F
100
AcDbXrecord
280
     1
270
     1
271
     1
  0
XRECORD
  5
C441
102
{ACAD_REACTORS
330
C43F
102
}
330
C43F
100
AcDbXrecord
280
     1
270
     1
271
     1
  0
XRECORD
  5
C440
102
{ACAD_REACTORS
330
C43F
102
}
330
C43F
100
AcDbXrecord
280
     1
270
     1
271
     1
  0
XRECORD
  5
C444
102
{ACAD_REACTORS
330
C43F
102
}
330
C43F
100
AcDbXrecord
280
     1
270
     1
271
     1
  0
XRECORD
  5
C443
102
{ACAD_REACTORS
330
C43F
102
}
330
C43F
100
AcDbXrecord
280
     1
270
     1
271
     1
  0
XRECORD
  5
C445
102
{ACAD_REACTORS
330
C43F
102
}
330
C43F
100
AcDbXrecord
280
     1
270
     1
271
     1
  0
XRECORD
  5
C442
102
{ACAD_REACTORS
330
C43F
102
}
330
C43F
100
AcDbXrecord
280
     1
270
     1
271
     1
  0
XRECORD
  5
C4DC
102
{ACAD_REACTORS
330
C4DB
102
}
330
C4DB
100
AcDbXrecord
280
     1
102
DISPLAYNAME
  1
Metric50
102
FLAGS
 90
        0
  0
CELLSTYLEMAP
  5
C4D1
102
{ACAD_REACTORS
330
C4D0
102
}
330
C4D0
100
AcDbCellStyleMap
 90
        3
300
CELLSTYLE
  1
TABLEFORMAT_BEGIN
 90
        5
170
     1
 91
        0
 92
    32768
 62
   257
 93
        1
300
CONTENTFORMAT
  1
CONTENTFORMAT_BEGIN
 90
        0
 91
        0
 92
      512
 93
        0
300

 40
0.0
140
1.0
 94
        5
 62
     0
340
10
144
6.0
309
CONTENTFORMAT_END
171
     1
301
MARGIN
  1
CELLMARGIN_BEGIN
 40
1.5
 40
1.5
 40
1.5
 40
1.5
 40
4.5
 40
4.5
309
CELLMARGIN_END
 94
        6
 95
        1
302
GRIDFORMAT
  1
GRIDFORMAT_BEGIN
 90
        0
 91
        1
 62
     0
 92
       -2
340
0
 93
        0
 40
1.125
309
GRIDFORMAT_END
 95
        2
302
GRIDFORMAT
  1
GRIDFORMAT_BEGIN
 90
        0
 91
        1
 62
     0
 92
       -2
340
0
 93
        0
 40
1.125
309
GRIDFORMAT_END
 95
        4
302
GRIDFORMAT
  1
GRIDFORMAT_BEGIN
 90
        0
 91
        1
 62
     0
 92
       -2
340
0
 93
        0
 40
1.125
309
GRIDFORMAT_END
 95
        8
302
GRIDFORMAT
  1
GRIDFORMAT_BEGIN
 90
        0
 91
        1
 62
     0
 92
       -2
340
0
 93
        0
 40
1.125
309
GRIDFORMAT_END
 95
       16
302
GRIDFORMAT
  1
GRIDFORMAT_BEGIN
 90
        0
 91
        1
 62
     0
 92
       -2
340
0
 93
        0
 40
1.125
309
GRIDFORMAT_END
 95
       32
302
GRIDFORMAT
  1
GRIDFORMAT_BEGIN
 90
        0
 91
        1
 62
     0
 92
       -2
340
0
 93
        0
 40
1.125
309
GRIDFORMAT_END
309
TABLEFORMAT_END
  1
CELLSTYLE_BEGIN
 90
        1
 91
        1
300
_TITLE
309
CELLSTYLE_END
300
CELLSTYLE
  1
TABLEFORMAT_BEGIN
 90
        5
170
     1
 91
        0
 92
        0
 62
   257
 93
        1
300
CONTENTFORMAT
  1
CONTENTFORMAT_BEGIN
 90
        0
 91
        0
 92
      512
 93
        0
300

 40
0.0
140
1.0
 94
        5
 62
     0
340
10
144
4.5
309
CONTENTFORMAT_END
171
     1
301
MARGIN
  1
CELLMARGIN_BEGIN
 40
1.5
 40
1.5
 40
1.5
 40
1.5
 40
4.5
 40
4.5
309
CELLMARGIN_END
 94
        6
 95
        1
302
GRIDFORMAT
  1
GRIDFORMAT_BEGIN
 90
        0
 91
        1
 62
     0
 92
       -2
340
0
 93
        0
 40
1.125
309
GRIDFORMAT_END
 95
        2
302
GRIDFORMAT
  1
GRIDFORMAT_BEGIN
 90
        0
 91
        1
 62
     0
 92
       -2
340
0
 93
        0
 40
1.125
309
GRIDFORMAT_END
 95
        4
302
GRIDFORMAT
  1
GRIDFORMAT_BEGIN
 90
        0
 91
        1
 62
     0
 92
       -2
340
0
 93
        0
 40
1.125
309
GRIDFORMAT_END
 95
        8
302
GRIDFORMAT
  1
GRIDFORMAT_BEGIN
 90
        0
 91
        1
 62
     0
 92
       -2
340
0
 93
        0
 40
1.125
309
GRIDFORMAT_END
 95
       16
302
GRIDFORMAT
  1
GRIDFORMAT_BEGIN
 90
        0
 91
        1
 62
     0
 92
       -2
340
0
 93
        0
 40
1.125
309
GRIDFORMAT_END
 95
       32
302
GRIDFORMAT
  1
GRIDFORMAT_BEGIN
 90
        0
 91
        1
 62
     0
 92
       -2
340
0
 93
        0
 40
1.125
309
GRIDFORMAT_END
309
TABLEFORMAT_END
  1
CELLSTYLE_BEGIN
 90
        2
 91
        1
300
_HEADER
309
CELLSTYLE_END
300
CELLSTYLE
  1
TABLEFORMAT_BEGIN
 90
        5
170
     1
 91
        0
 92
        0
 62
   257
 93
        1
300
CONTENTFORMAT
  1
CONTENTFORMAT_BEGIN
 90
        0
 91
        0
 92
      512
 93
        0
300

 40
0.0
140
1.0
 94
        2
 62
     0
340
10
144
4.5
309
CONTENTFORMAT_END
171
     1
301
MARGIN
  1
CELLMARGIN_BEGIN
 40
1.5
 40
1.5
 40
1.5
 40
1.5
 40
4.5
 40
4.5
309
CELLMARGIN_END
 94
        6
 95
        1
302
GRIDFORMAT
  1
GRIDFORMAT_BEGIN
 90
        0
 91
        1
 62
     0
 92
       -2
340
0
 93
        0
 40
1.125
309
GRIDFORMAT_END
 95
        2
302
GRIDFORMAT
  1
GRIDFORMAT_BEGIN
 90
        0
 91
        1
 62
     0
 92
       -2
340
0
 93
        0
 40
1.125
309
GRIDFORMAT_END
 95
        4
302
GRIDFORMAT
  1
GRIDFORMAT_BEGIN
 90
        0
 91
        1
 62
     0
 92
       -2
340
0
 93
        0
 40
1.125
309
GRIDFORMAT_END
 95
        8
302
GRIDFORMAT
  1
GRIDFORMAT_BEGIN
 90
        0
 91
        1
 62
     0
 92
       -2
340
0
 93
        0
 40
1.125
309
GRIDFORMAT_END
 95
       16
302
GRIDFORMAT
  1
GRIDFORMAT_BEGIN
 90
        0
 91
        1
 62
     0
 92
       -2
340
0
 93
        0
 40
1.125
309
GRIDFORMAT_END
 95
       32
302
GRIDFORMAT
  1
GRIDFORMAT_BEGIN
 90
        0
 91
        1
 62
     0
 92
       -2
340
0
 93
        0
 40
1.125
309
GRIDFORMAT_END
309
TABLEFORMAT_END
  1
CELLSTYLE_BEGIN
 90
        3
 91
        2
300
_DATA
309
CELLSTYLE_END
  0
ENDSEC
  0
SECTION
  2
ACDSDATA
 70
     2
 71
     8
  0
ACDSSCHEMA
 90
        0
  1
AcDb_Thumbnail_Schema
  2
AcDbDs::ID
280
    10
 91
        8
  2
Thumbnail_Data
280
    15
 91
        0
101
ACDSRECORD
 95
        0
 90
        1
  2
AcDbDs::TreatedAsObjectData
280
     1
291
     1
101
ACDSRECORD
 95
        0
 90
        2
  2
AcDbDs::Legacy
280
     1
291
     1
101
ACDSRECORD
  1
AcDbDs::ID
 90
        3
  2
AcDs:Indexable
280
     1
291
     1
101
ACDSRECORD
  1
AcDbDs::ID
 90
        4
  2
AcDbDs::HandleAttribute
280
     7
282
     1
  0
ACDSSCHEMA
 90
        1
  1
AcDbDs::TreatedAsObjectDataSchema
  2
AcDbDs::TreatedAsObjectData
280
     1
 91
        0
  0
ACDSSCHEMA
 90
        2
  1
AcDbDs::LegacySchema
  2
AcDbDs::Legacy
280
     1
 91
        0
  0
ACDSSCHEMA
 90
        3
  1
AcDbDs::IndexedPropertySchema
  2
AcDs:Indexable
280
     1
 91
        0
  0
ACDSSCHEMA
 90
        4
  1
AcDbDs::HandleAttributeSchema
  2
AcDbDs::HandleAttribute
280
     7
 91
        1
284
     1
  0
ACDSRECORD
 90
        0
  2
AcDbDs::ID
280
    10
320
C3E7
  2
Thumbnail_Data
280
    15
 94
     1768
310
89504E470D0A1A0A0000000D49484452000001000000007C0803000000B13B9E5A00000300504C5445000000000000C8C8C80000000000000000000000000000000000000000000000000000330000660000990000CC0000FF0033000033330033660033990033CC0033FF0066000066330066660066990066CC0066FF0099
310
000099330099660099990099CC0099FF00CC0000CC3300CC6600CC9900CCCC00CCFF00FF0000FF3300FF6600FF9900FFCC00FFFF3300003300333300663300993300CC3300FF3333003333333333663333993333CC3333FF3366003366333366663366993366CC3366FF3399003399333399663399993399CC3399FF33CC00
310
33CC3333CC6633CC9933CCCC33CCFF33FF0033FF3333FF6633FF9933FFCC33FFFF6600006600336600666600996600CC6600FF6633006633336633666633996633CC6633FF6666006666336666666666996666CC6666FF6699006699336699666699996699CC6699FF66CC0066CC3366CC6666CC9966CCCC66CCFF66FF0066
310
FF3366FF6666FF9966FFCC66FFFF9900009900339900669900999900CC9900FF9933009933339933669933999933CC9933FF9966009966339966669966999966CC9966FF9999009999339999669999999999CC9999FF99CC0099CC3399CC6699CC9999CCCC99CCFF99FF0099FF3399FF6699FF9999FFCC99FFFFCC0000CC00
310
33CC0066CC0099CC00CCCC00FFCC3300CC3333CC3366CC3399CC33CCCC33FFCC6600CC6633CC6666CC6699CC66CCCC66FFCC9900CC9933CC9966CC9999CC99CCCC99FFCCCC00CCCC33CCCC66CCCC99CCCCCCCCCCFFCCFF00CCFF33CCFF66CCFF99CCFFCCCCFFFFFF0000FF0033FF0066FF0099FF00CCFF00FFFF3300FF3333
310
FF3366FF3399FF33CCFF33FFFF6600FF6633FF6666FF6699FF66CCFF66FFFF9900FF9933FF9966FF9999FF99CCFF99FFFFCC00FFCC33FFCC66FFCC99FFCCCCFFCCFFFFFF00FFFF33FFFF66FFFF99FFFFCCFFFFFF0000000D0D0D1A1A1A2828283535354343435050505D5D5D6B6B6B787878868686939393A1A1A1AEAEAEBB
310
BBBBC9C9C9D6D6D6E4E4E4F1F1F1FFFFFF00000000000000000000000000000000000000000000000000000000000008F1915C000003A34944415478DAED9D4992C3200C45751C36BAFFCE27E11AECDB661E84E354255DD1C0A2DBD8D8159E3E12531C802FA4F0A5045C5260F5580360000C80013000BFF3496F829F1600D3
310
ED41A502D403089A014CAD8037808F8E005802F8B1871980FF0790653CA9BAFD8FAD3EDF54F49E2FE4FBF903C8186004001500140E011A92741D4210A100A0CC9F010C1C3A31947F1200241D4F55EF8D1B6E1E634ED0FA011A87C341D4707835E962E250CBC55000E424B05800B53F500164DF290D4035312CE60FB9188804
310
F0A9FB6D4E9029007FA6BBBC6000FE55920F6034FC544C0180B1BEE5C001795D34003C93C739BDD90C5803E82FBB86E52D1518000360000C8001300006C0003004E0D05109D1A9EF091A00036000A402B886BA6DE4AB300AF868F7D3D15FD5540CE0ACAE4E00DE0018801EC026A90100DA9DE00600C80770EC920200B123B4
310
05A0655DE05601CA96C6D665616D6B830A01685F1EE7F15803F0639F74681B43460700BF02F05A00BC7297EC0174C6246380DF074DF6001EC541BF2D2901C0008338DB002C83461100E80C05601D358334002E4D8694E16013C475DA13F3461E4501B826CAD342419E111A00B425846EE2481200C4654A6C04000581AB85E4
310
0048F67D01A0CC21A762312F05002EDAA601A482AE1E0901505BF76B0050849273420010DE2D867D024072152D230100020D600A83D8058B564E0000ECE2003E0130DC210840BF5F4093025AD3CEDE0DEF0188F301D8EADF02BCB228300100D4D60F28B56B2B833380F3BCE89E2076ABA5351C74000EE96381B32AB1EE2ED5
310
75051015207334D8B47FC49A1DC9DA29043400BB8D24EC01C4CDD2071EC7F9376E93BE8E5C9D112900DC1E8063AF80B8272035F4A68071B22096207ACC90CF720610DD5E0B02C509AE00900480CC0164E3C71AD7EA577FE7FD408954003006E0628D1380647D3708DB0B0750ECDD6D8D7125BCC30260D3041803C024FF2BFE
310
253780B166D87650F70010C529E0147C313D76A3E16E07790390BE48245301D07B7D8471E6E34118640A60D3AB71D3D7287C51C1B61F845C018C865C3BF9550119005DAC5C10A380F10D1269382054014F01486D02DD3AF8B0F1A76C16F153315FCB965C3EF692018C17BAA212003CD929BAEC09DB6EA511BA597A56005556
310
B402408F02E899C29B3C7B05F078ECFF7E52F56F957DBF66D2000009607DF5362CAF9F16A780E924F42F614F54840350EA03DA4F0B804E1F409A36D4F7F003CCEF13D60400A8DF55341F200B80FA9EA001300006C000180003201E00A39FDEFE039071BE3B6F21C47F0000000049454E44AE426082
  0
ENDSEC
  0
EOF
