  0
SECTION
  2
HEADER
  9
$ACADVER
  1
AC1027
  9
$ACADMAINTVER
 70
   125
  9
$DWGCODEPAGE
  3
ANSI_932
  9
$LASTSAVEDBY
  1
yasukiyo.ogawa
  9
$REQUIREDVERSIONS
160
                 0
  9
$INSBASE
 10
0.0
 20
0.0
 30
0.0
  9
$EXTMIN
 10
7786.166697834037
 20
-14237.41921203123
 30
0.0
  9
$EXTMAX
 10
19336.16669783403
 20
1987.580787968773
 30
0.0
  9
$LIMMIN
 10
0.0
 20
0.0
  9
$LIMMAX
 10
297.0
 20
210.0
  9
$ORTHOMODE
 70
     1
  9
$REGENMODE
 70
     1
  9
$FILLMODE
 70
     1
  9
$QTEXTMODE
 70
     0
  9
$MIRRTEXT
 70
     0
  9
$LTSCALE
 40
275.0
  9
$ATTMODE
 70
     1
  9
$TEXTSIZE
 40
137.5
  9
$TRACEWID
 40
0.05
  9
$TEXTSTYLE
  7
STANDARD
  9
$CLAYER
  8
SP
  9
$CELTYPE
  6
BYLAYER
  9
$CECOLOR
 62
   256
  9
$CELTSCALE
 40
1.0
  9
$DISPSILH
 70
     0
  9
$DIMSCALE
 40
55.0
  9
$DIMASZ
 40
2.0
  9
$DIMEXO
 40
1.0
  9
$DIMDLI
 40
10.0
  9
$DIMRND
 40
0.0
  9
$DIMDLE
 40
0.0
  9
$DIMEXE
 40
1.0
  9
$DIMTP
 40
0.0
  9
$DIMTM
 40
0.0
  9
$DIMTXT
 40
2.5
  9
$DIMCEN
 40
0.0
  9
$DIMTSZ
 40
0.0
  9
$DIMTOL
 70
     0
  9
$DIMLIM
 70
     0
  9
$DIMTIH
 70
     0
  9
$DIMTOH
 70
     0
  9
$DIMSE1
 70
     1
  9
$DIMSE2
 70
     1
  9
$DIMTAD
 70
     1
  9
$DIMZIN
 70
     8
  9
$DIMBLK
  1

  9
$DIMASO
 70
     1
  9
$DIMSHO
 70
     1
  9
$DIMPOST
  1
(<>)
  9
$DIMAPOST
  1

  9
$DIMALT
 70
     0
  9
$DIMALTD
 70
     2
  9
$DIMALTF
 40
0.03937
  9
$DIMLFAC
 40
1.0
  9
$DIMTOFL
 70
     1
  9
$DIMTVP
 40
0.0
  9
$DIMTIX
 70
     0
  9
$DIMSOXD
 70
     0
  9
$DIMSAH
 70
     1
  9
$DIMBLK1
  1
NONE
  9
$DIMBLK2
  1
NONE
  9
$DIMSTYLE
  2
MATSU
  9
$DIMCLRD
 70
   256
  9
$DIMCLRE
 70
   256
  9
$DIMCLRT
 70
   256
  9
$DIMTFAC
 40
1.0
  9
$DIMGAP
 40
1.0
  9
$DIMJUST
 70
     0
  9
$DIMSD1
 70
     0
  9
$DIMSD2
 70
     0
  9
$DIMTOLJ
 70
     1
  9
$DIMTZIN
 70
     8
  9
$DIMALTZ
 70
     0
  9
$DIMALTTZ
 70
     0
  9
$DIMUPT
 70
     0
  9
$DIMDEC
 70
     0
  9
$DIMTDEC
 70
     4
  9
$DIMALTU
 70
     2
  9
$DIMALTTD
 70
     2
  9
$DIMTXSTY
  7
STANDARD
  9
$DIMAUNIT
 70
     0
  9
$DIMADEC
 70
     0
  9
$DIMALTRND
 40
0.0
  9
$DIMAZIN
 70
     0
  9
$DIMDSEP
 70
    46
  9
$DIMATFIT
 70
     3
  9
$DIMFRAC
 70
     0
  9
$DIMLDRBLK
  1
NONE
  9
$DIMLUNIT
 70
     2
  9
$DIMLWD
 70
    -2
  9
$DIMLWE
 70
    -2
  9
$DIMTMOVE
 70
     2
  9
$DIMFXL
 40
1.0
  9
$DIMFXLON
 70
     0
  9
$DIMJOGANG
 40
0.7853981633974483
  9
$DIMTFILL
 70
     0
  9
$DIMTFILLCLR
 70
     0
  9
$DIMARCSYM
 70
     0
  9
$DIMLTYPE
  6

  9
$DIMLTEX1
  6

  9
$DIMLTEX2
  6

  9
$DIMTXTDIRECTION
 70
     0
  9
$LUNITS
 70
     2
  9
$LUPREC
 70
     4
  9
$SKETCHINC
 40
0.1
  9
$FILLETRAD
 40
0.0
  9
$AUNITS
 70
     0
  9
$AUPREC
 70
     2
  9
$MENU
  1
acad
  9
$ELEVATION
 40
0.0
  9
$PELEVATION
 40
0.0
  9
$THICKNESS
 40
0.0
  9
$LIMCHECK
 70
     0
  9
$CHAMFERA
 40
20.0
  9
$CHAMFERB
 40
20.0
  9
$CHAMFERC
 40
20.0
  9
$CHAMFERD
 40
0.0
  9
$SKPOLY
 70
     0
  9
$TDCREATE
 40
2453950.639282407
  9
$TDUCREATE
 40
2453950.264283854
  9
$TDUPDATE
 40
2460245.779537037
  9
$TDUUPDATE
 40
2460245.404547848
  9
$TDINDWG
 40
0.5253879282
  9
$TDUSRTIMER
 40
0.5253879282
  9
$USRTIMER
 70
     1
  9
$ANGBASE
 50
0.0
  9
$ANGDIR
 70
     0
  9
$PDMODE
 70
     0
  9
$PDSIZE
 40
1.0
  9
$PLINEWID
 40
0.0
  9
$SPLFRAME
 70
     0
  9
$SPLINETYPE
 70
     6
  9
$SPLINESEGS
 70
     8
  9
$HANDSEED
  5
C631
  9
$SURFTAB1
 70
     6
  9
$SURFTAB2
 70
     6
  9
$SURFTYPE
 70
     6
  9
$SURFU
 70
     6
  9
$SURFV
 70
     6
  9
$UCSBASE
  2

  9
$UCSNAME
  2

  9
$UCSORG
 10
0.0
 20
-0.0000000000000568
 30
0.0
  9
$UCSXDIR
 10
1.0
 20
0.0
 30
0.0
  9
$UCSYDIR
 10
0.0
 20
1.0
 30
0.0
  9
$UCSORTHOREF
  2

  9
$UCSORTHOVIEW
 70
     0
  9
$UCSORGTOP
 10
0.0
 20
0.0
 30
0.0
  9
$UCSORGBOTTOM
 10
0.0
 20
0.0
 30
0.0
  9
$UCSORGLEFT
 10
0.0
 20
0.0
 30
0.0
  9
$UCSORGRIGHT
 10
0.0
 20
0.0
 30
0.0
  9
$UCSORGFRONT
 10
0.0
 20
0.0
 30
0.0
  9
$UCSORGBACK
 10
0.0
 20
0.0
 30
0.0
  9
$PUCSBASE
  2

  9
$PUCSNAME
  2

  9
$PUCSORG
 10
0.0
 20
0.0
 30
0.0
  9
$PUCSXDIR
 10
1.0
 20
0.0
 30
0.0
  9
$PUCSYDIR
 10
0.0
 20
1.0
 30
0.0
  9
$PUCSORTHOREF
  2

  9
$PUCSORTHOVIEW
 70
     0
  9
$PUCSORGTOP
 10
0.0
 20
0.0
 30
0.0
  9
$PUCSORGBOTTOM
 10
0.0
 20
0.0
 30
0.0
  9
$PUCSORGLEFT
 10
0.0
 20
0.0
 30
0.0
  9
$PUCSORGRIGHT
 10
0.0
 20
0.0
 30
0.0
  9
$PUCSORGFRONT
 10
0.0
 20
0.0
 30
0.0
  9
$PUCSORGBACK
 10
0.0
 20
0.0
 30
0.0
  9
$USERI1
 70
     0
  9
$USERI2
 70
     0
  9
$USERI3
 70
     0
  9
$USERI4
 70
     0
  9
$USERI5
 70
     0
  9
$USERR1
 40
0.0
  9
$USERR2
 40
0.0
  9
$USERR3
 40
0.0
  9
$USERR4
 40
0.0
  9
$USERR5
 40
0.0
  9
$WORLDVIEW
 70
     1
  9
$SHADEDGE
 70
     3
  9
$SHADEDIF
 70
    70
  9
$TILEMODE
 70
     1
  9
$MAXACTVP
 70
    16
  9
$PINSBASE
 10
0.0
 20
0.0
 30
0.0
  9
$PLIMCHECK
 70
     0
  9
$PEXTMIN
 10
1.000000000000000E+20
 20
1.000000000000000E+20
 30
1.000000000000000E+20
  9
$PEXTMAX
 10
-1.000000000000000E+20
 20
-1.000000000000000E+20
 30
-1.000000000000000E+20
  9
$PLIMMIN
 10
0.0
 20
0.0
  9
$PLIMMAX
 10
12.0
 20
9.0
  9
$UNITMODE
 70
     0
  9
$VISRETAIN
 70
     0
  9
$PLINEGEN
 70
     0
  9
$PSLTSCALE
 70
     0
  9
$TREEDEPTH
 70
  3020
  9
$CMLSTYLE
  2
STANDARD
  9
$CMLJUST
 70
     0
  9
$CMLSCALE
 40
20.0
  9
$PROXYGRAPHICS
 70
     1
  9
$MEASUREMENT
 70
     1
  9
$CELWEIGHT
370
    -1
  9
$ENDCAPS
280
     0
  9
$JOINSTYLE
280
     0
  9
$LWDISPLAY
290
     0
  9
$INSUNITS
 70
     0
  9
$HYPERLINKBASE
  1

  9
$STYLESHEET
  1

  9
$XEDIT
290
     1
  9
$CEPSNTYPE
380
     0
  9
$PSTYLEMODE
290
     1
  9
$FINGERPRINTGUID
  2
{3726158A-BD41-40BC-A86F-F342238B7F4F}
  9
$VERSIONGUID
  2
{FA6C357F-F9DE-4287-96C6-C693FB468330}
  9
$EXTNAMES
290
     1
  9
$PSVPSCALE
 40
0.0
  9
$OLESTARTUP
290
     0
  9
$SORTENTS
280
   127
  9
$INDEXCTL
280
     0
  9
$HIDETEXT
280
     0
  9
$XCLIPFRAME
280
     2
  9
$HALOGAP
280
     0
  9
$OBSCOLOR
 70
   257
  9
$OBSLTYPE
280
     0
  9
$INTERSECTIONDISPLAY
280
     0
  9
$INTERSECTIONCOLOR
 70
   257
  9
$DIMASSOC
280
     1
  9
$PROJECTNAME
  1

  9
$CAMERADISPLAY
290
     0
  9
$LENSLENGTH
 40
50.0
  9
$CAMERAHEIGHT
 40
0.0
  9
$STEPSPERSEC
 40
2.0
  9
$STEPSIZE
 40
6.0
  9
$3DDWFPREC
 40
2.0
  9
$PSOLWIDTH
 40
0.25
  9
$PSOLHEIGHT
 40
4.0
  9
$LOFTANG1
 40
1.570796326794896
  9
$LOFTANG2
 40
1.570796326794896
  9
$LOFTMAG1
 40
0.0
  9
$LOFTMAG2
 40
0.0
  9
$LOFTPARAM
 70
     7
  9
$LOFTNORMALS
280
     1
  9
$LATITUDE
 40
37.795
  9
$LONGITUDE
 40
-122.394
  9
$NORTHDIRECTION
 40
0.0
  9
$TIMEZONE
 70
 -8000
  9
$LIGHTGLYPHDISPLAY
280
     1
  9
$TILEMODELIGHTSYNCH
280
     1
  9
$CMATERIAL
347
C580
  9
$SOLIDHIST
280
     0
  9
$SHOWHIST
280
     1
  9
$DWFFRAME
280
     2
  9
$DGNFRAME
280
     0
  9
$REALWORLDSCALE
290
     1
  9
$INTERFERECOLOR
 62
     1
  9
$INTERFEREOBJVS
345
C5A2
  9
$INTERFEREVPVS
346
C59F
  9
$CSHADOW
280
     0
  9
$SHADOWPLANELOCATION
 40
0.0
  0
ENDSEC
  0
SECTION
  2
CLASSES
  0
CLASS
  1
ACDBDICTIONARYWDFLT
  2
AcDbDictionaryWithDefault
  3
ObjectDBX Classes
 90
        0
 91
        1
280
     0
281
     0
  0
CLASS
  1
DICTIONARYVAR
  2
AcDbDictionaryVar
  3
ObjectDBX Classes
 90
        0
 91
       11
280
     0
281
     0
  0
CLASS
  1
MATERIAL
  2
AcDbMaterial
  3
ObjectDBX Classes
 90
     1153
 91
        3
280
     0
281
     0
  0
CLASS
  1
VISUALSTYLE
  2
AcDbVisualStyle
  3
ObjectDBX Classes
 90
     4095
 91
       24
280
     0
281
     0
  0
CLASS
  1
TABLESTYLE
  2
AcDbTableStyle
  3
ObjectDBX Classes
 90
     4095
 91
        1
280
     0
281
     0
  0
CLASS
  1
SCALE
  2
AcDbScale
  3
ObjectDBX Classes
 90
     1153
 91
       17
280
     0
281
     0
  0
CLASS
  1
MLEADERSTYLE
  2
AcDbMLeaderStyle
  3
ACDB_MLEADERSTYLE_CLASS
 90
     4095
 91
        1
280
     0
281
     0
  0
CLASS
  1
ACDBSECTIONVIEWSTYLE
  2
AcDbSectionViewStyle
  3
ObjectDBX Classes
 90
     1025
 91
        1
280
     0
281
     0
  0
CLASS
  1
ACDBDETAILVIEWSTYLE
  2
AcDbDetailViewStyle
  3
ObjectDBX Classes
 90
     1025
 91
        1
280
     0
281
     0
  0
CLASS
  1
CELLSTYLEMAP
  2
AcDbCellStyleMap
  3
ObjectDBX Classes
 90
     1152
 91
        1
280
     0
281
     0
  0
ENDSEC
  0
SECTION
  2
TABLES
  0
TABLE
  2
VPORT
  5
8
330
0
100
AcDbSymbolTable
 70
     1
1001
ACAD
1000
DbSaveVer
1071
      278
  0
VPORT
  5
C57D
330
8
100
AcDbSymbolTableRecord
100
AcDbViewportTableRecord
  2
*Active
 70
     0
 10
0.0
 20
0.0
 11
1.0
 21
1.0
 12
15195.63071414259
 22
-6124.919174254455
 13
0.0
 23
0.0
 14
5.0
 24
5.0
 15
0.0
 25
0.0
 16
0.0
 26
0.0
 36
1.0
 17
0.0
 27
0.0
 37
0.0
 40
16335.85647298134
 41
2.250314465408805
 42
50.0
 43
0.0
 44
0.0
 50
0.0
 51
0.0
 71
     0
 72
   100
 73
     1
 74
     0
 75
     0
 76
     0
 77
     0
 78
     0
281
     0
 65
     1
110
0.0
120
-0.0000000000000568
130
0.0
111
1.0
121
0.0
131
0.0
112
0.0
122
1.0
132
0.0
 79
     0
146
0.0
348
C59E
 60
     3
 61
     5
292
     1
282
     1
141
0.0
142
0.0
 63
   250
421
  3355443
1001
ACAD_NAV_VCDISPLAY
1070
     3
  0
ENDTAB
  0
TABLE
  2
LTYPE
  5
5
330
0
100
AcDbSymbolTable
 70
     3
  0
LTYPE
  5
13
330
5
100
AcDbSymbolTableRecord
100
AcDbLinetypeTableRecord
  2
BYBLOCK
 70
     0
  3

 72
    65
 73
     0
 40
0.0
  0
LTYPE
  5
14
330
5
100
AcDbSymbolTableRecord
100
AcDbLinetypeTableRecord
  2
BYLAYER
 70
     0
  3

 72
    65
 73
     0
 40
0.0
  0
LTYPE
  5
15
330
5
100
AcDbSymbolTableRecord
100
AcDbLinetypeTableRecord
  2
CONTINUOUS
 70
     0
  3
Solid line
 72
    65
 73
     0
 40
0.0
  0
LTYPE
  5
1F
330
5
100
AcDbSymbolTableRecord
100
AcDbLinetypeTableRecord
  2
CENTER
 70
     0
  3
____ _ ____ _ ____ _ ____ _ ____ _ ____ _ ____ 
 72
    65
 73
     4
 40
2.0
 49
1.25
 74
     0
 49
-0.25
 74
     0
 49
0.25
 74
     0
 49
-0.25
 74
     0
  0
LTYPE
  5
21
330
5
100
AcDbSymbolTableRecord
100
AcDbLinetypeTableRecord
  2
PHANTOM
 70
     0
  3
______  __  __  ______  __  __  ______  __  __ 
 72
    65
 73
     6
 40
2.5
 49
1.25
 74
     0
 49
-0.25
 74
     0
 49
0.25
 74
     0
 49
-0.25
 74
     0
 49
0.25
 74
     0
 49
-0.25
 74
     0
  0
ENDTAB
  0
TABLE
  2
LAYER
  5
2
102
{ACAD_XDICTIONARY
360
C5F1
102
}
330
0
100
AcDbSymbolTable
 70
     7
  0
LAYER
  5
F
102
{ACAD_XDICTIONARY
360
C5E2
102
}
330
2
100
AcDbSymbolTableRecord
100
AcDbLayerTableRecord
  2
0
 70
     0
 62
     7
  6
CONTINUOUS
370
    -3
390
C536
347
C590
348
0
  0
LAYER
  5
2F
102
{ACAD_XDICTIONARY
360
C5E4
102
}
330
2
100
AcDbSymbolTableRecord
100
AcDbLayerTableRecord
  2
CT
 70
     0
 62
     3
  6
CENTER
370
    -3
390
C536
347
C590
348
0
  0
LAYER
  5
30
102
{ACAD_XDICTIONARY
360
C5E6
102
}
330
2
100
AcDbSymbolTableRecord
100
AcDbLayerTableRecord
  2
FUTO
 70
     0
 62
     4
  6
CONTINUOUS
370
    -3
390
C536
347
C590
348
0
  0
LAYER
  5
35
102
{ACAD_XDICTIONARY
360
C5E8
102
}
330
2
100
AcDbSymbolTableRecord
100
AcDbLayerTableRecord
  2
SL
 70
     0
 62
     1
  6
PHANTOM
370
    -3
390
C536
347
C590
348
0
  0
LAYER
  5
36
102
{ACAD_XDICTIONARY
360
C5EA
102
}
330
2
100
AcDbSymbolTableRecord
100
AcDbLayerTableRecord
  2
SP
 70
     0
 62
     2
  6
CONTINUOUS
370
    -3
390
C536
347
C590
348
0
  0
LAYER
  5
5241
330
2
100
AcDbSymbolTableRecord
100
AcDbLayerTableRecord
  2
DEFPOINTS
 70
     0
 62
     7
  6
CONTINUOUS
290
     0
370
    -3
390
C536
347
C590
348
0
  0
LAYER
  5
99F1
102
{ACAD_XDICTIONARY
360
C5EC
102
}
330
2
100
AcDbSymbolTableRecord
100
AcDbLayerTableRecord
  2
4
 70
     0
 62
     7
  6
CONTINUOUS
370
    -3
390
C536
347
C590
348
0
  0
ENDTAB
  0
TABLE
  2
STYLE
  5
3
330
0
100
AcDbSymbolTable
 70
     1
  0
STYLE
  5
10
330
3
100
AcDbSymbolTableRecord
100
AcDbTextStyleTableRecord
  2
STANDARD
 70
     0
 40
0.0
 41
1.0
 50
15.0
 71
     0
 42
137.5
  3
C:\Program Files\AutoCAD LT\simplex.shx
  4
C:\Program Files\AutoCAD LT\extfont.shx
  0
ENDTAB
  0
TABLE
  2
VIEW
  5
6
330
0
100
AcDbSymbolTable
 70
     0
  0
ENDTAB
  0
TABLE
  2
UCS
  5
7
330
0
100
AcDbSymbolTable
 70
     0
  0
ENDTAB
  0
TABLE
  2
APPID
  5
9
330
0
100
AcDbSymbolTable
 70
     3
  0
APPID
  5
11
330
9
100
AcDbSymbolTableRecord
100
AcDbRegAppTableRecord
  2
ACAD
 70
     0
  0
APPID
  5
5333
330
9
100
AcDbSymbolTableRecord
100
AcDbRegAppTableRecord
  2
CONTENTBLOCKICON
 70
     0
  0
APPID
  5
C5F7
330
9
100
AcDbSymbolTableRecord
100
AcDbRegAppTableRecord
  2
ACAD_NAV_VCDISPLAY
 70
     0
  0
ENDTAB
  0
TABLE
  2
DIMSTYLE
  5
A
330
0
100
AcDbSymbolTable
 70
     2
100
AcDbDimStyleTable
 71
     1
340
2C
  0
DIMSTYLE
105
1D
330
A
100
AcDbSymbolTableRecord
100
AcDbDimStyleTableRecord
  2
STANDARD
 70
     0
340
10
  0
DIMSTYLE
105
2C
102
{ACAD_REACTORS
330
C2B4
330
C2C1
330
C2DB
330
C2E8
330
C350
330
C35D
330
C36A
330
C377
330
C384
330
C391
330
C3E2
330
C3F5
330
C402
330
C41C
330
C429
330
C436
330
C443
330
C450
330
C466
330
C522
330
C531
102
}
330
A
100
AcDbSymbolTableRecord
100
AcDbDimStyleTableRecord
  2
MATSU
 70
     0
 41
2.0
 42
1.0
 43
10.0
 44
1.0
 73
     0
 74
     0
 77
     1
 78
     8
140
3.0
141
0.0
143
0.03937
147
0.5
172
     1
173
     1
176
   256
177
   256
178
   256
284
     8
289
     0
340
10
341
26
343
26
344
26
  0
ENDTAB
  0
TABLE
  2
BLOCK_RECORD
  5
1
330
0
100
AcDbSymbolTable
 70
    24
  0
BLOCK_RECORD
  5
19
102
{ACAD_XDICTIONARY
360
C564
102
}
330
1
100
AcDbSymbolTableRecord
100
AcDbBlockTableRecord
  2
*MODEL_SPACE
340
C539
 70
     0
280
     1
281
     0
  0
BLOCK_RECORD
  5
16
102
{ACAD_XDICTIONARY
360
C562
102
}
330
1
100
AcDbSymbolTableRecord
100
AcDbBlockTableRecord
  2
*PAPER_SPACE
340
C53A
 70
     0
280
     1
281
     0
  0
BLOCK_RECORD
  5
26
330
1
100
AcDbSymbolTableRecord
100
AcDbBlockTableRecord
  2
_OPEN
340
0
102
{BLKREFS
331
C5D3
331
C5D4
331
C5DC
331
C5DD
331
C349
331
C34A
331
C356
331
C357
331
C363
331
C364
331
C3DB
331
C3DC
331
C473
331
C474
331
C47E
331
C47F
331
C489
331
C48A
331
C494
331
C495
331
C49F
331
C4A0
331
C4AA
331
C4AB
331
C4B5
331
C4B6
331
C4C0
331
C4C1
331
C4CB
331
C4CC
331
C4D6
331
C4D7
331
C4E1
331
C4E2
331
C4EC
331
C4ED
331
C4F7
331
C4F8
331
C51C
102
}
 70
     0
280
     1
281
     0
  0
BLOCK_RECORD
  5
C2A8
330
1
100
AcDbSymbolTableRecord
100
AcDbBlockTableRecord
  2
*D1
340
0
 70
     0
280
     1
281
     0
  0
BLOCK_RECORD
  5
C2B5
330
1
100
AcDbSymbolTableRecord
100
AcDbBlockTableRecord
  2
*D2
340
0
 70
     0
280
     1
281
     0
  0
BLOCK_RECORD
  5
C2CF
330
1
100
AcDbSymbolTableRecord
100
AcDbBlockTableRecord
  2
*D3
340
0
 70
     0
280
     1
281
     0
  0
BLOCK_RECORD
  5
C2DC
330
1
100
AcDbSymbolTableRecord
100
AcDbBlockTableRecord
  2
*D4
340
0
 70
     0
280
     1
281
     0
  0
BLOCK_RECORD
  5
C344
330
1
100
AcDbSymbolTableRecord
100
AcDbBlockTableRecord
  2
*D5
340
0
 70
     0
280
     1
281
     0
  0
BLOCK_RECORD
  5
C351
330
1
100
AcDbSymbolTableRecord
100
AcDbBlockTableRecord
  2
*D6
340
0
 70
     0
280
     1
281
     0
  0
BLOCK_RECORD
  5
C35E
330
1
100
AcDbSymbolTableRecord
100
AcDbBlockTableRecord
  2
*D7
340
0
 70
     0
280
     1
281
     0
  0
BLOCK_RECORD
  5
C36B
330
1
100
AcDbSymbolTableRecord
100
AcDbBlockTableRecord
  2
*D8
340
0
 70
     0
280
     1
281
     0
  0
BLOCK_RECORD
  5
C378
330
1
100
AcDbSymbolTableRecord
100
AcDbBlockTableRecord
  2
*D9
340
0
 70
     0
280
     1
281
     0
  0
BLOCK_RECORD
  5
C385
330
1
100
AcDbSymbolTableRecord
100
AcDbBlockTableRecord
  2
*D10
340
0
 70
     0
280
     1
281
     0
  0
BLOCK_RECORD
  5
C3D6
330
1
100
AcDbSymbolTableRecord
100
AcDbBlockTableRecord
  2
*D11
340
0
 70
     0
280
     1
281
     0
  0
BLOCK_RECORD
  5
C3E9
330
1
100
AcDbSymbolTableRecord
100
AcDbBlockTableRecord
  2
*D12
340
0
 70
     0
280
     1
281
     0
  0
BLOCK_RECORD
  5
C3F6
330
1
100
AcDbSymbolTableRecord
100
AcDbBlockTableRecord
  2
*D13
340
0
 70
     0
280
     1
281
     0
  0
BLOCK_RECORD
  5
C410
330
1
100
AcDbSymbolTableRecord
100
AcDbBlockTableRecord
  2
*D14
340
0
 70
     0
280
     1
281
     0
  0
BLOCK_RECORD
  5
C41D
330
1
100
AcDbSymbolTableRecord
100
AcDbBlockTableRecord
  2
*D15
340
0
 70
     0
280
     1
281
     0
  0
BLOCK_RECORD
  5
C42A
330
1
100
AcDbSymbolTableRecord
100
AcDbBlockTableRecord
  2
*D16
340
0
 70
     0
280
     1
281
     0
  0
BLOCK_RECORD
  5
C437
330
1
100
AcDbSymbolTableRecord
100
AcDbBlockTableRecord
  2
*D17
340
0
 70
     0
280
     1
281
     0
  0
BLOCK_RECORD
  5
C444
330
1
100
AcDbSymbolTableRecord
100
AcDbBlockTableRecord
  2
*D18
340
0
 70
     0
280
     1
281
     0
  0
BLOCK_RECORD
  5
C45A
330
1
100
AcDbSymbolTableRecord
100
AcDbBlockTableRecord
  2
*D19
340
0
 70
     0
280
     1
281
     0
  0
BLOCK_RECORD
  5
C50C
330
1
100
AcDbSymbolTableRecord
100
AcDbBlockTableRecord
  2
_DOT
340
0
102
{BLKREFS
331
C51B
102
}
 70
     0
280
     1
281
     0
  0
BLOCK_RECORD
  5
C514
330
1
100
AcDbSymbolTableRecord
100
AcDbBlockTableRecord
  2
*D21
340
0
 70
     0
280
     1
281
     0
  0
BLOCK_RECORD
  5
C523
330
1
100
AcDbSymbolTableRecord
100
AcDbBlockTableRecord
  2
_NONE
340
0
 70
     0
280
     1
281
     0
  0
BLOCK_RECORD
  5
C527
330
1
100
AcDbSymbolTableRecord
100
AcDbBlockTableRecord
  2
*D23
340
0
 70
     0
280
     1
281
     0
  0
ENDTAB
  0
ENDSEC
  0
SECTION
  2
BLOCKS
  0
BLOCK
  5
1A
330
19
100
AcDbEntity
  8
0
100
AcDbBlockBegin
  2
*MODEL_SPACE
 70
     0
 10
0.0
 20
0.0
 30
0.0
  3
*MODEL_SPACE
  1

  0
ENDBLK
  5
1B
330
19
100
AcDbEntity
  8
0
100
AcDbBlockEnd
  0
BLOCK
  5
17
330
16
100
AcDbEntity
 67
     1
  8
0
100
AcDbBlockBegin
  2
*PAPER_SPACE
 70
     0
 10
0.0
 20
0.0
 30
0.0
  3
*PAPER_SPACE
  1

  0
ENDBLK
  5
18
330
16
100
AcDbEntity
 67
     1
  8
0
100
AcDbBlockEnd
  0
BLOCK
  5
27
330
26
100
AcDbEntity
  8
0
100
AcDbBlockBegin
  2
_OPEN
 70
     0
 10
0.0
 20
0.0
 30
0.0
  3
_OPEN
  1

  0
LINE
  5
28
330
26
100
AcDbEntity
  8
0
  6
ByBlock
 62
     0
100
AcDbLine
 10
-1.0
 20
0.1666666666666666
 30
0.0
 11
0.0
 21
0.0
 31
0.0
  0
LINE
  5
29
330
26
100
AcDbEntity
  8
0
  6
ByBlock
 62
     0
100
AcDbLine
 10
0.0
 20
0.0
 30
0.0
 11
-1.0
 21
-0.1666666666666666
 31
0.0
  0
LINE
  5
2A
330
26
100
AcDbEntity
  8
0
  6
ByBlock
 62
     0
100
AcDbLine
 10
0.0
 20
0.0
 30
0.0
 11
-1.0
 21
0.0
 31
0.0
  0
ENDBLK
  5
2B
330
26
100
AcDbEntity
  8
0
100
AcDbBlockEnd
  0
BLOCK
  5
C4E8
330
C2A8
100
AcDbEntity
  8
0
100
AcDbBlockBegin
  2
*D1
 70
     1
 10
0.0
 20
0.0
 30
0.0
  3
*D1
  1

  0
LINE
  5
C4E9
330
C2A8
100
AcDbEntity
  8
0
  6
ByBlock
440
 16777216
100
AcDbLine
 10
10379.97317813102
 20
-1999.290027528357
 30
0.0
 11
10379.97317813102
 21
-1669.618035081396
 31
0.0
  0
LINE
  5
C4EA
330
C2A8
100
AcDbEntity
  8
0
  6
ByBlock
440
 16777216
100
AcDbLine
 10
12739.97317813102
 20
-1999.290027528357
 30
0.0
 11
12739.97317813102
 21
-1669.618035081396
 31
0.0
  0
LINE
  5
C4EB
330
C2A8
100
AcDbEntity
  8
0
  6
ByBlock
440
 16777216
100
AcDbLine
 10
10489.97317813102
 20
-1724.618035081396
 30
0.0
 11
12629.97317813102
 21
-1724.618035081396
 31
0.0
  0
INSERT
  5
C4EC
330
C2A8
100
AcDbEntity
  8
0
  6
ByBlock
440
 16777216
100
AcDbBlockReference
  2
_OPEN
 10
10379.97317813102
 20
-1724.618035081396
 30
0.0
 41
110.0
 42
110.0
 43
110.0
 50
180.0
  0
INSERT
  5
C4ED
330
C2A8
100
AcDbEntity
  8
0
  6
ByBlock
440
 16777216
100
AcDbBlockReference
  2
_OPEN
 10
12739.97317813102
 20
-1724.618035081396
 30
0.0
 41
110.0
 42
110.0
 43
110.0
  0
MTEXT
  5
C4EE
330
C2A8
100
AcDbEntity
  8
0
  6
ByBlock
440
 16777216
100
AcDbMText
 10
11559.97317813102
 20
-1600.868035081395
 30
0.0
 40
137.5
 41
0.0
 46
0.0
 71
     5
 72
     5
  1
\A1;2360
 73
     1
 44
1.0
  0
POINT
  5
C4EF
330
C2A8
100
AcDbEntity
  8
DEFPOINTS
  6
ByBlock
 62
     0
440
 16777216
100
AcDbPoint
 10
10379.97317813102
 20
-2054.290027528358
 30
0.0
  0
POINT
  5
C4F0
330
C2A8
100
AcDbEntity
  8
DEFPOINTS
  6
ByBlock
 62
     0
440
 16777216
100
AcDbPoint
 10
12739.97317813102
 20
-2054.290027528358
 30
0.0
  0
POINT
  5
C4F1
330
C2A8
100
AcDbEntity
  8
DEFPOINTS
  6
ByBlock
 62
     0
440
 16777216
100
AcDbPoint
 10
12739.97317813102
 20
-1724.618035081396
 30
0.0
  0
ENDBLK
  5
C4F2
330
C2A8
100
AcDbEntity
  8
0
100
AcDbBlockEnd
  0
BLOCK
  5
C485
330
C2B5
100
AcDbEntity
  8
0
100
AcDbBlockBegin
  2
*D2
 70
     1
 10
0.0
 20
0.0
 30
0.0
  3
*D2
  1

  0
LINE
  5
C486
330
C2B5
100
AcDbEntity
  8
0
  6
ByBlock
440
 16777216
100
AcDbLine
 10
12739.97317813102
 20
-1999.290027528357
 30
0.0
 11
12739.97317813102
 21
-1669.618035081396
 31
0.0
  0
LINE
  5
C487
330
C2B5
100
AcDbEntity
  8
0
  6
ByBlock
440
 16777216
100
AcDbLine
 10
14579.97317813103
 20
-3949.290027528354
 30
0.0
 11
14579.97317813103
 21
-1669.618035081396
 31
0.0
  0
LINE
  5
C488
330
C2B5
100
AcDbEntity
  8
0
  6
ByBlock
440
 16777216
100
AcDbLine
 10
12849.97317813102
 20
-1724.618035081396
 30
0.0
 11
14469.97317813103
 21
-1724.618035081396
 31
0.0
  0
INSERT
  5
C489
330
C2B5
100
AcDbEntity
  8
0
  6
ByBlock
440
 16777216
100
AcDbBlockReference
  2
_OPEN
 10
12739.97317813102
 20
-1724.618035081396
 30
0.0
 41
110.0
 42
110.0
 43
110.0
 50
180.0
  0
INSERT
  5
C48A
330
C2B5
100
AcDbEntity
  8
0
  6
ByBlock
440
 16777216
100
AcDbBlockReference
  2
_OPEN
 10
14579.97317813103
 20
-1724.618035081396
 30
0.0
 41
110.0
 42
110.0
 43
110.0
  0
MTEXT
  5
C48B
330
C2B5
100
AcDbEntity
  8
0
  6
ByBlock
440
 16777216
100
AcDbMText
 10
13659.97317813103
 20
-1600.868035081395
 30
0.0
 40
137.5
 41
0.0
 46
0.0
 71
     5
 72
     5
  1
\A1;1840
 73
     1
 44
1.0
  0
POINT
  5
C48C
330
C2B5
100
AcDbEntity
  8
DEFPOINTS
  6
ByBlock
 62
     0
440
 16777216
100
AcDbPoint
 10
12739.97317813102
 20
-2054.290027528358
 30
0.0
  0
POINT
  5
C48D
330
C2B5
100
AcDbEntity
  8
DEFPOINTS
  6
ByBlock
 62
     0
440
 16777216
100
AcDbPoint
 10
14579.97317813103
 20
-4004.290027528353
 30
0.0
  0
POINT
  5
C48E
330
C2B5
100
AcDbEntity
  8
DEFPOINTS
  6
ByBlock
 62
     0
440
 16777216
100
AcDbPoint
 10
14579.97317813103
 20
-1724.618035081396
 30
0.0
  0
ENDBLK
  5
C48F
330
C2B5
100
AcDbEntity
  8
0
100
AcDbBlockEnd
  0
BLOCK
  5
C490
330
C2CF
100
AcDbEntity
  8
0
100
AcDbBlockBegin
  2
*D3
 70
     1
 10
0.0
 20
0.0
 30
0.0
  3
*D3
  1

  0
LINE
  5
C491
330
C2CF
100
AcDbEntity
  8
0
  6
ByBlock
440
 16777216
100
AcDbLine
 10
10379.97317813102
 20
-5359.290027528357
 30
0.0
 11
10379.97317813102
 21
-5806.763338410768
 31
0.0
  0
LINE
  5
C492
330
C2CF
100
AcDbEntity
  8
0
  6
ByBlock
440
 16777216
100
AcDbLine
 10
14579.97317813103
 20
-5359.290027528354
 30
0.0
 11
14579.97317813103
 21
-5806.763338410768
 31
0.0
  0
LINE
  5
C493
330
C2CF
100
AcDbEntity
  8
0
  6
ByBlock
440
 16777216
100
AcDbLine
 10
10489.97317813102
 20
-5751.763338410768
 30
0.0
 11
14469.97317813103
 21
-5751.763338410768
 31
0.0
  0
INSERT
  5
C494
330
C2CF
100
AcDbEntity
  8
0
  6
ByBlock
440
 16777216
100
AcDbBlockReference
  2
_OPEN
 10
10379.97317813102
 20
-5751.763338410768
 30
0.0
 41
110.0
 42
110.0
 43
110.0
 50
180.0
  0
INSERT
  5
C495
330
C2CF
100
AcDbEntity
  8
0
  6
ByBlock
440
 16777216
100
AcDbBlockReference
  2
_OPEN
 10
14579.97317813103
 20
-5751.763338410768
 30
0.0
 41
110.0
 42
110.0
 43
110.0
  0
MTEXT
  5
C496
330
C2CF
100
AcDbEntity
  8
0
  6
ByBlock
440
 16777216
100
AcDbMText
 10
12479.97317813102
 20
-5628.013338410768
 30
0.0
 40
137.5
 41
0.0
 46
0.0
 71
     5
 72
     5
  1
\A1;4200
 73
     1
 44
1.0
  0
POINT
  5
C497
330
C2CF
100
AcDbEntity
  8
DEFPOINTS
  6
ByBlock
 62
     0
440
 16777216
100
AcDbPoint
 10
10379.97317813102
 20
-5304.290027528357
 30
0.0
  0
POINT
  5
C498
330
C2CF
100
AcDbEntity
  8
DEFPOINTS
  6
ByBlock
 62
     0
440
 16777216
100
AcDbPoint
 10
14579.97317813103
 20
-5304.290027528353
 30
0.0
  0
POINT
  5
C499
330
C2CF
100
AcDbEntity
  8
DEFPOINTS
  6
ByBlock
 62
     0
440
 16777216
100
AcDbPoint
 10
14579.97317813103
 20
-5751.763338410768
 30
0.0
  0
ENDBLK
  5
C49A
330
C2CF
100
AcDbEntity
  8
0
100
AcDbBlockEnd
  0
BLOCK
  5
C4B1
330
C2DC
100
AcDbEntity
  8
0
100
AcDbBlockBegin
  2
*D4
 70
     1
 10
0.0
 20
0.0
 30
0.0
  3
*D4
  1

  0
LINE
  5
C4B2
330
C2DC
100
AcDbEntity
  8
0
  6
ByBlock
440
 16777216
100
AcDbLine
 10
14634.97317813103
 20
-4004.290027528353
 30
0.0
 11
15024.13675893081
 21
-4004.290027528353
 31
0.0
  0
LINE
  5
C4B3
330
C2DC
100
AcDbEntity
  8
0
  6
ByBlock
440
 16777216
100
AcDbLine
 10
14634.97317813103
 20
-5304.290027528353
 30
0.0
 11
15024.13675893081
 21
-5304.290027528353
 31
0.0
  0
LINE
  5
C4B4
330
C2DC
100
AcDbEntity
  8
0
  6
ByBlock
440
 16777216
100
AcDbLine
 10
14969.13675893081
 20
-4114.290027528354
 30
0.0
 11
14969.13675893081
 21
-5194.290027528353
 31
0.0
  0
INSERT
  5
C4B5
330
C2DC
100
AcDbEntity
  8
0
  6
ByBlock
440
 16777216
100
AcDbBlockReference
  2
_OPEN
 10
14969.13675893081
 20
-4004.290027528353
 30
0.0
 41
110.0
 42
110.0
 43
110.0
 50
90.0
  0
INSERT
  5
C4B6
330
C2DC
100
AcDbEntity
  8
0
  6
ByBlock
440
 16777216
100
AcDbBlockReference
  2
_OPEN
 10
14969.13675893081
 20
-5304.290027528353
 30
0.0
 41
110.0
 42
110.0
 43
110.0
 50
270.0
  0
MTEXT
  5
C4B7
330
C2DC
100
AcDbEntity
  8
0
  6
ByBlock
440
 16777216
100
AcDbMText
 10
14845.38675893081
 20
-4654.290027528353
 30
0.0
 40
137.5
 41
0.0
 46
0.0
 71
     5
 72
     5
  1
\A1;1300
 11
0.0
 21
1.0
 31
0.0
 73
     1
 44
1.0
  0
POINT
  5
C4B8
330
C2DC
100
AcDbEntity
  8
DEFPOINTS
  6
ByBlock
 62
     0
440
 16777216
100
AcDbPoint
 10
14579.97317813103
 20
-4004.290027528353
 30
0.0
  0
POINT
  5
C4B9
330
C2DC
100
AcDbEntity
  8
DEFPOINTS
  6
ByBlock
 62
     0
440
 16777216
100
AcDbPoint
 10
14579.97317813103
 20
-5304.290027528353
 30
0.0
  0
POINT
  5
C4BA
330
C2DC
100
AcDbEntity
  8
DEFPOINTS
  6
ByBlock
 62
     0
440
 16777216
100
AcDbPoint
 10
14969.13675893081
 20
-5304.290027528353
 30
0.0
  0
ENDBLK
  5
C4BB
330
C2DC
100
AcDbEntity
  8
0
100
AcDbBlockEnd
  0
BLOCK
  5
C345
330
C344
100
AcDbEntity
  8
0
100
AcDbBlockBegin
  2
*D5
 70
     1
 10
0.0
 20
0.0
 30
0.0
  3
*D5
  1

  0
LINE
  5
C346
330
C344
100
AcDbEntity
  8
0
  6
ByBlock
440
 16777216
100
AcDbLine
 10
15203.62794449223
 20
-10857.13488374287
 30
0.0
 11
15203.62794449223
 21
-11202.63562283916
 31
0.0
  0
LINE
  5
C347
330
C344
100
AcDbEntity
  8
0
  6
ByBlock
440
 16777216
100
AcDbLine
 10
17049.62794449223
 20
-10857.13488374287
 30
0.0
 11
17049.62794449223
 21
-11202.63562283916
 31
0.0
  0
LINE
  5
C348
330
C344
100
AcDbEntity
  8
0
  6
ByBlock
440
 16777216
100
AcDbLine
 10
15313.62794449223
 20
-11147.63562283916
 30
0.0
 11
16939.62794449223
 21
-11147.63562283916
 31
0.0
  0
INSERT
  5
C349
330
C344
100
AcDbEntity
  8
0
  6
ByBlock
440
 16777216
100
AcDbBlockReference
  2
_OPEN
 10
15203.62794449223
 20
-11147.63562283916
 30
0.0
 41
110.0
 42
110.0
 43
110.0
 50
180.0
  0
INSERT
  5
C34A
330
C344
100
AcDbEntity
  8
0
  6
ByBlock
440
 16777216
100
AcDbBlockReference
  2
_OPEN
 10
17049.62794449223
 20
-11147.63562283916
 30
0.0
 41
110.0
 42
110.0
 43
110.0
  0
MTEXT
  5
C34B
330
C344
100
AcDbEntity
  8
0
  6
ByBlock
440
 16777216
100
AcDbMText
 10
16126.62794449223
 20
-11023.88562283916
 30
0.0
 40
137.5
 41
0.0
 46
0.0
 71
     5
 72
     5
  1
\A1;1846
 73
     1
 44
1.0
  0
POINT
  5
C34C
330
C344
100
AcDbEntity
  8
DEFPOINTS
  6
ByBlock
 62
     0
440
 16777216
100
AcDbPoint
 10
15203.62794449223
 20
-10802.13488374287
 30
0.0
  0
POINT
  5
C34D
330
C344
100
AcDbEntity
  8
DEFPOINTS
  6
ByBlock
 62
     0
440
 16777216
100
AcDbPoint
 10
17049.62794449223
 20
-10802.13488374287
 30
0.0
  0
POINT
  5
C34E
330
C344
100
AcDbEntity
  8
DEFPOINTS
  6
ByBlock
 62
     0
440
 16777216
100
AcDbPoint
 10
17049.62794449223
 20
-11147.63562283916
 30
0.0
  0
ENDBLK
  5
C34F
330
C344
100
AcDbEntity
  8
0
100
AcDbBlockEnd
  0
BLOCK
  5
C352
330
C351
100
AcDbEntity
  8
0
100
AcDbBlockBegin
  2
*D6
 70
     1
 10
0.0
 20
0.0
 30
0.0
  3
*D6
  1

  0
LINE
  5
C353
330
C351
100
AcDbEntity
  8
0
  6
ByBlock
440
 16777216
100
AcDbLine
 10
17049.62794449223
 20
-10857.13488374287
 30
0.0
 11
17049.62794449223
 21
-11202.63562283916
 31
0.0
  0
LINE
  5
C354
330
C351
100
AcDbEntity
  8
0
  6
ByBlock
440
 16777216
100
AcDbLine
 10
18453.62794449223
 20
-10857.13488374287
 30
0.0
 11
18453.62794449223
 21
-11202.63562283916
 31
0.0
  0
LINE
  5
C355
330
C351
100
AcDbEntity
  8
0
  6
ByBlock
440
 16777216
100
AcDbLine
 10
17159.62794449223
 20
-11147.63562283916
 30
0.0
 11
18343.62794449223
 21
-11147.63562283916
 31
0.0
  0
INSERT
  5
C356
330
C351
100
AcDbEntity
  8
0
  6
ByBlock
440
 16777216
100
AcDbBlockReference
  2
_OPEN
 10
17049.62794449223
 20
-11147.63562283916
 30
0.0
 41
110.0
 42
110.0
 43
110.0
 50
180.0
  0
INSERT
  5
C357
330
C351
100
AcDbEntity
  8
0
  6
ByBlock
440
 16777216
100
AcDbBlockReference
  2
_OPEN
 10
18453.62794449223
 20
-11147.63562283916
 30
0.0
 41
110.0
 42
110.0
 43
110.0
  0
MTEXT
  5
C358
330
C351
100
AcDbEntity
  8
0
  6
ByBlock
440
 16777216
100
AcDbMText
 10
17751.62794449223
 20
-11023.88562283916
 30
0.0
 40
137.5
 41
0.0
 46
0.0
 71
     5
 72
     5
  1
\A1;1404
 73
     1
 44
1.0
  0
POINT
  5
C359
330
C351
100
AcDbEntity
  8
DEFPOINTS
  6
ByBlock
 62
     0
440
 16777216
100
AcDbPoint
 10
17049.62794449223
 20
-10802.13488374287
 30
0.0
  0
POINT
  5
C35A
330
C351
100
AcDbEntity
  8
DEFPOINTS
  6
ByBlock
 62
     0
440
 16777216
100
AcDbPoint
 10
18453.62794449223
 20
-10802.13488374287
 30
0.0
  0
POINT
  5
C35B
330
C351
100
AcDbEntity
  8
DEFPOINTS
  6
ByBlock
 62
     0
440
 16777216
100
AcDbPoint
 10
18453.62794449223
 20
-11147.63562283916
 30
0.0
  0
ENDBLK
  5
C35C
330
C351
100
AcDbEntity
  8
0
100
AcDbBlockEnd
  0
BLOCK
  5
C35F
330
C35E
100
AcDbEntity
  8
0
100
AcDbBlockBegin
  2
*D7
 70
     1
 10
0.0
 20
0.0
 30
0.0
  3
*D7
  1

  0
LINE
  5
C360
330
C35E
100
AcDbEntity
  8
0
  6
ByBlock
440
 16777216
100
AcDbLine
 10
15203.62794449223
 20
-10857.13488374287
 30
0.0
 11
15203.62794449223
 21
-11532.38305444039
 31
0.0
  0
LINE
  5
C361
330
C35E
100
AcDbEntity
  8
0
  6
ByBlock
440
 16777216
100
AcDbLine
 10
18453.62794449223
 20
-10857.13488374287
 30
0.0
 11
18453.62794449223
 21
-11532.38305444039
 31
0.0
  0
LINE
  5
C362
330
C35E
100
AcDbEntity
  8
0
  6
ByBlock
440
 16777216
100
AcDbLine
 10
15313.62794449223
 20
-11477.38305444039
 30
0.0
 11
18343.62794449223
 21
-11477.38305444039
 31
0.0
  0
INSERT
  5
C363
330
C35E
100
AcDbEntity
  8
0
  6
ByBlock
440
 16777216
100
AcDbBlockReference
  2
_OPEN
 10
15203.62794449223
 20
-11477.38305444039
 30
0.0
 41
110.0
 42
110.0
 43
110.0
 50
180.0
  0
INSERT
  5
C364
330
C35E
100
AcDbEntity
  8
0
  6
ByBlock
440
 16777216
100
AcDbBlockReference
  2
_OPEN
 10
18453.62794449223
 20
-11477.38305444039
 30
0.0
 41
110.0
 42
110.0
 43
110.0
  0
MTEXT
  5
C365
330
C35E
100
AcDbEntity
  8
0
  6
ByBlock
440
 16777216
100
AcDbMText
 10
16828.62794449223
 20
-11353.63305444039
 30
0.0
 40
137.5
 41
0.0
 46
0.0
 71
     5
 72
     5
  1
\A1;3250
 73
     1
 44
1.0
  0
POINT
  5
C366
330
C35E
100
AcDbEntity
  8
DEFPOINTS
  6
ByBlock
 62
     0
440
 16777216
100
AcDbPoint
 10
15203.62794449223
 20
-10802.13488374287
 30
0.0
  0
POINT
  5
C367
330
C35E
100
AcDbEntity
  8
DEFPOINTS
  6
ByBlock
 62
     0
440
 16777216
100
AcDbPoint
 10
18453.62794449223
 20
-10802.13488374287
 30
0.0
  0
POINT
  5
C368
330
C35E
100
AcDbEntity
  8
DEFPOINTS
  6
ByBlock
 62
     0
440
 16777216
100
AcDbPoint
 10
18453.62794449223
 20
-11477.38305444039
 30
0.0
  0
ENDBLK
  5
C369
330
C35E
100
AcDbEntity
  8
0
100
AcDbBlockEnd
  0
BLOCK
  5
C4BC
330
C36B
100
AcDbEntity
  8
0
100
AcDbBlockBegin
  2
*D8
 70
     1
 10
0.0
 20
0.0
 30
0.0
  3
*D8
  1

  0
LINE
  5
C4BD
330
C36B
100
AcDbEntity
  8
0
  6
ByBlock
440
 16777216
100
AcDbLine
 10
11559.97317813102
 20
-10547.13488374287
 30
0.0
 11
11559.97317813102
 21
-10893.85490382887
 31
0.0
  0
LINE
  5
C4BE
330
C36B
100
AcDbEntity
  8
0
  6
ByBlock
440
 16777216
100
AcDbLine
 10
10379.97317813102
 20
-10547.13488374287
 30
0.0
 11
10379.97317813102
 21
-10893.85490382887
 31
0.0
  0
LINE
  5
C4BF
330
C36B
100
AcDbEntity
  8
0
  6
ByBlock
440
 16777216
100
AcDbLine
 10
11449.97317813102
 20
-10838.85490382887
 30
0.0
 11
10489.97317813102
 21
-10838.85490382887
 31
0.0
  0
INSERT
  5
C4C0
330
C36B
100
AcDbEntity
  8
0
  6
ByBlock
440
 16777216
100
AcDbBlockReference
  2
_OPEN
 10
11559.97317813102
 20
-10838.85490382887
 30
0.0
 41
110.0
 42
110.0
 43
110.0
  0
INSERT
  5
C4C1
330
C36B
100
AcDbEntity
  8
0
  6
ByBlock
440
 16777216
100
AcDbBlockReference
  2
_OPEN
 10
10379.97317813102
 20
-10838.85490382887
 30
0.0
 41
110.0
 42
110.0
 43
110.0
 50
180.0
  0
MTEXT
  5
C4C2
330
C36B
100
AcDbEntity
  8
0
  6
ByBlock
440
 16777216
100
AcDbMText
 10
10969.97317813102
 20
-10715.10490382888
 30
0.0
 40
137.5
 41
0.0
 46
0.0
 71
     5
 72
     5
  1
\A1;1180
 73
     1
 44
1.0
  0
POINT
  5
C4C3
330
C36B
100
AcDbEntity
  8
DEFPOINTS
  6
ByBlock
 62
     0
440
 16777216
100
AcDbPoint
 10
11559.97317813102
 20
-10492.13488374287
 30
0.0
  0
POINT
  5
C4C4
330
C36B
100
AcDbEntity
  8
DEFPOINTS
  6
ByBlock
 62
     0
440
 16777216
100
AcDbPoint
 10
10379.97317813102
 20
-10492.13488374287
 30
0.0
  0
POINT
  5
C4C5
330
C36B
100
AcDbEntity
  8
DEFPOINTS
  6
ByBlock
 62
     0
440
 16777216
100
AcDbPoint
 10
10379.97317813102
 20
-10838.85490382887
 30
0.0
  0
ENDBLK
  5
C4C6
330
C36B
100
AcDbEntity
  8
0
100
AcDbBlockEnd
  0
BLOCK
  5
C49B
330
C378
100
AcDbEntity
  8
0
100
AcDbBlockBegin
  2
*D9
 70
     1
 10
0.0
 20
0.0
 30
0.0
  3
*D9
  1

  0
LINE
  5
C49C
330
C378
100
AcDbEntity
  8
0
  6
ByBlock
440
 16777216
100
AcDbLine
 10
14579.97317813103
 20
-10547.13488374287
 30
0.0
 11
14579.97317813103
 21
-10893.85490382887
 31
0.0
  0
LINE
  5
C49D
330
C378
100
AcDbEntity
  8
0
  6
ByBlock
440
 16777216
100
AcDbLine
 10
11559.97317813102
 20
-10547.13488374287
 30
0.0
 11
11559.97317813102
 21
-10893.85490382887
 31
0.0
  0
LINE
  5
C49E
330
C378
100
AcDbEntity
  8
0
  6
ByBlock
440
 16777216
100
AcDbLine
 10
14469.97317813103
 20
-10838.85490382887
 30
0.0
 11
11669.97317813102
 21
-10838.85490382887
 31
0.0
  0
INSERT
  5
C49F
330
C378
100
AcDbEntity
  8
0
  6
ByBlock
440
 16777216
100
AcDbBlockReference
  2
_OPEN
 10
14579.97317813103
 20
-10838.85490382887
 30
0.0
 41
110.0
 42
110.0
 43
110.0
  0
INSERT
  5
C4A0
330
C378
100
AcDbEntity
  8
0
  6
ByBlock
440
 16777216
100
AcDbBlockReference
  2
_OPEN
 10
11559.97317813102
 20
-10838.85490382887
 30
0.0
 41
110.0
 42
110.0
 43
110.0
 50
180.0
  0
MTEXT
  5
C4A1
330
C378
100
AcDbEntity
  8
0
  6
ByBlock
440
 16777216
100
AcDbMText
 10
13069.97317813103
 20
-10715.10490382888
 30
0.0
 40
137.5
 41
0.0
 46
0.0
 71
     5
 72
     5
  1
\A1;3020
 73
     1
 44
1.0
  0
POINT
  5
C4A2
330
C378
100
AcDbEntity
  8
DEFPOINTS
  6
ByBlock
 62
     0
440
 16777216
100
AcDbPoint
 10
14579.97317813103
 20
-10492.13488374286
 30
0.0
  0
POINT
  5
C4A3
330
C378
100
AcDbEntity
  8
DEFPOINTS
  6
ByBlock
 62
     0
440
 16777216
100
AcDbPoint
 10
11559.97317813102
 20
-10492.13488374287
 30
0.0
  0
POINT
  5
C4A4
330
C378
100
AcDbEntity
  8
DEFPOINTS
  6
ByBlock
 62
     0
440
 16777216
100
AcDbPoint
 10
11559.97317813102
 20
-10838.85490382887
 30
0.0
  0
ENDBLK
  5
C4A5
330
C378
100
AcDbEntity
  8
0
100
AcDbBlockEnd
  0
BLOCK
  5
C4A6
330
C385
100
AcDbEntity
  8
0
100
AcDbBlockBegin
  2
*D10
 70
     1
 10
0.0
 20
0.0
 30
0.0
  3
*D10
  1

  0
LINE
  5
C4A7
330
C385
100
AcDbEntity
  8
0
  6
ByBlock
440
 16777216
100
AcDbLine
 10
14579.97317813103
 20
-10547.13488374287
 30
0.0
 11
14579.97317813103
 21
-11222.38305444039
 31
0.0
  0
LINE
  5
C4A8
330
C385
100
AcDbEntity
  8
0
  6
ByBlock
440
 16777216
100
AcDbLine
 10
10379.97317813102
 20
-10547.13488374287
 30
0.0
 11
10379.97317813102
 21
-11222.38305444039
 31
0.0
  0
LINE
  5
C4A9
330
C385
100
AcDbEntity
  8
0
  6
ByBlock
440
 16777216
100
AcDbLine
 10
14469.97317813103
 20
-11167.38305444039
 30
0.0
 11
10489.97317813102
 21
-11167.38305444039
 31
0.0
  0
INSERT
  5
C4AA
330
C385
100
AcDbEntity
  8
0
  6
ByBlock
440
 16777216
100
AcDbBlockReference
  2
_OPEN
 10
14579.97317813103
 20
-11167.38305444039
 30
0.0
 41
110.0
 42
110.0
 43
110.0
  0
INSERT
  5
C4AB
330
C385
100
AcDbEntity
  8
0
  6
ByBlock
440
 16777216
100
AcDbBlockReference
  2
_OPEN
 10
10379.97317813102
 20
-11167.38305444039
 30
0.0
 41
110.0
 42
110.0
 43
110.0
 50
180.0
  0
MTEXT
  5
C4AC
330
C385
100
AcDbEntity
  8
0
  6
ByBlock
440
 16777216
100
AcDbMText
 10
12479.97317813102
 20
-11043.63305444039
 30
0.0
 40
137.5
 41
0.0
 46
0.0
 71
     5
 72
     5
  1
\A1;4200
 73
     1
 44
1.0
  0
POINT
  5
C4AD
330
C385
100
AcDbEntity
  8
DEFPOINTS
  6
ByBlock
 62
     0
440
 16777216
100
AcDbPoint
 10
14579.97317813103
 20
-10492.13488374286
 30
0.0
  0
POINT
  5
C4AE
330
C385
100
AcDbEntity
  8
DEFPOINTS
  6
ByBlock
 62
     0
440
 16777216
100
AcDbPoint
 10
10379.97317813102
 20
-10492.13488374287
 30
0.0
  0
POINT
  5
C4AF
330
C385
100
AcDbEntity
  8
DEFPOINTS
  6
ByBlock
 62
     0
440
 16777216
100
AcDbPoint
 10
10379.97317813102
 20
-11167.38305444039
 30
0.0
  0
ENDBLK
  5
C4B0
330
C385
100
AcDbEntity
  8
0
100
AcDbBlockEnd
  0
BLOCK
  5
C3D7
330
C3D6
100
AcDbEntity
  8
0
100
AcDbBlockBegin
  2
*D11
 70
     1
 10
0.0
 20
0.0
 30
0.0
  3
*D11
  1

  0
LINE
  5
C3D8
330
C3D6
100
AcDbEntity
  8
0
  6
ByBlock
440
 16777216
100
AcDbLine
 10
15724.62794449223
 20
-7992.13488374287
 30
0.0
 11
15724.62794449223
 21
-7717.732239980833
 31
0.0
  0
LINE
  5
C3D9
330
C3D6
100
AcDbEntity
  8
0
  6
ByBlock
440
 16777216
100
AcDbLine
 10
18374.62794449223
 20
-7992.13488374287
 30
0.0
 11
18374.62794449223
 21
-7717.732239980833
 31
0.0
  0
LINE
  5
C3DA
330
C3D6
100
AcDbEntity
  8
0
  6
ByBlock
440
 16777216
100
AcDbLine
 10
15834.62794449223
 20
-7772.732239980832
 30
0.0
 11
18264.62794449223
 21
-7772.732239980832
 31
0.0
  0
INSERT
  5
C3DB
330
C3D6
100
AcDbEntity
  8
0
  6
ByBlock
440
 16777216
100
AcDbBlockReference
  2
_OPEN
 10
15724.62794449223
 20
-7772.732239980832
 30
0.0
 41
110.0
 42
110.0
 43
110.0
 50
180.0
  0
INSERT
  5
C3DC
330
C3D6
100
AcDbEntity
  8
0
  6
ByBlock
440
 16777216
100
AcDbBlockReference
  2
_OPEN
 10
18374.62794449223
 20
-7772.732239980832
 30
0.0
 41
110.0
 42
110.0
 43
110.0
  0
MTEXT
  5
C3DD
330
C3D6
100
AcDbEntity
  8
0
  6
ByBlock
440
 16777216
100
AcDbMText
 10
17049.62794449223
 20
-7648.982239980833
 30
0.0
 40
137.5
 41
0.0
 46
0.0
 71
     5
 72
     5
  1
\A1;2650
 73
     1
 44
1.0
  0
POINT
  5
C3DE
330
C3D6
100
AcDbEntity
  8
DEFPOINTS
  6
ByBlock
 62
     0
440
 16777216
100
AcDbPoint
 10
15724.62794449223
 20
-8047.13488374287
 30
0.0
  0
POINT
  5
C3DF
330
C3D6
100
AcDbEntity
  8
DEFPOINTS
  6
ByBlock
 62
     0
440
 16777216
100
AcDbPoint
 10
18374.62794449223
 20
-8047.134883742872
 30
0.0
  0
POINT
  5
C3E0
330
C3D6
100
AcDbEntity
  8
DEFPOINTS
  6
ByBlock
 62
     0
440
 16777216
100
AcDbPoint
 10
18374.62794449223
 20
-7772.732239980832
 30
0.0
  0
ENDBLK
  5
C3E1
330
C3D6
100
AcDbEntity
  8
0
100
AcDbBlockEnd
  0
BLOCK
  5
C46F
330
C3E9
100
AcDbEntity
  8
0
100
AcDbBlockBegin
  2
*D12
 70
     1
 10
0.0
 20
0.0
 30
0.0
  3
*D12
  1

  0
LINE
  5
C470
330
C3E9
100
AcDbEntity
  8
0
  6
ByBlock
440
 16777216
100
AcDbLine
 10
13707.97317813102
 20
-7392.134883742871
 30
0.0
 11
13707.97317813102
 21
-7121.387860427407
 31
0.0
  0
LINE
  5
C471
330
C3E9
100
AcDbEntity
  8
0
  6
ByBlock
440
 16777216
100
AcDbLine
 10
11647.97317813102
 20
-7392.134883742871
 30
0.0
 11
11647.97317813102
 21
-7121.387860427407
 31
0.0
  0
LINE
  5
C472
330
C3E9
100
AcDbEntity
  8
0
  6
ByBlock
440
 16777216
100
AcDbLine
 10
13597.97317813102
 20
-7176.387860427407
 30
0.0
 11
11757.97317813102
 21
-7176.387860427407
 31
0.0
  0
INSERT
  5
C473
330
C3E9
100
AcDbEntity
  8
0
  6
ByBlock
440
 16777216
100
AcDbBlockReference
  2
_OPEN
 10
13707.97317813102
 20
-7176.387860427407
 30
0.0
 41
110.0
 42
110.0
 43
110.0
  0
INSERT
  5
C474
330
C3E9
100
AcDbEntity
  8
0
  6
ByBlock
440
 16777216
100
AcDbBlockReference
  2
_OPEN
 10
11647.97317813102
 20
-7176.387860427407
 30
0.0
 41
110.0
 42
110.0
 43
110.0
 50
180.0
  0
MTEXT
  5
C475
330
C3E9
100
AcDbEntity
  8
0
  6
ByBlock
440
 16777216
100
AcDbMText
 10
12677.97317813102
 20
-7052.637860427407
 30
0.0
 40
137.5
 41
0.0
 46
0.0
 71
     5
 72
     5
  1
\A1;2060
 73
     1
 44
1.0
  0
POINT
  5
C476
330
C3E9
100
AcDbEntity
  8
DEFPOINTS
  6
ByBlock
 62
     0
440
 16777216
100
AcDbPoint
 10
13707.97317813102
 20
-7447.134883742871
 30
0.0
  0
POINT
  5
C477
330
C3E9
100
AcDbEntity
  8
DEFPOINTS
  6
ByBlock
 62
     0
440
 16777216
100
AcDbPoint
 10
11647.97317813102
 20
-7447.134883742871
 30
0.0
  0
POINT
  5
C478
330
C3E9
100
AcDbEntity
  8
DEFPOINTS
  6
ByBlock
 62
     0
440
 16777216
100
AcDbPoint
 10
11647.97317813102
 20
-7176.387860427407
 30
0.0
  0
ENDBLK
  5
C479
330
C3E9
100
AcDbEntity
  8
0
100
AcDbBlockEnd
  0
BLOCK
  5
C47A
330
C3F6
100
AcDbEntity
  8
0
100
AcDbBlockBegin
  2
*D13
 70
     1
 10
0.0
 20
0.0
 30
0.0
  3
*D13
  1

  0
LINE
  5
C47B
330
C3F6
100
AcDbEntity
  8
0
  6
ByBlock
440
 16777216
100
AcDbLine
 10
13707.97317813102
 20
-7392.134883742871
 30
0.0
 11
13707.97317813102
 21
-6763.429297771138
 31
0.0
  0
LINE
  5
C47C
330
C3F6
100
AcDbEntity
  8
0
  6
ByBlock
440
 16777216
100
AcDbLine
 10
11559.97317813102
 20
-7288.581885628926
 30
0.0
 11
11559.97317813102
 21
-6763.429297771138
 31
0.0
  0
LINE
  5
C47D
330
C3F6
100
AcDbEntity
  8
0
  6
ByBlock
440
 16777216
100
AcDbLine
 10
13597.97317813102
 20
-6818.429297771138
 30
0.0
 11
11669.97317813102
 21
-6818.429297771138
 31
0.0
  0
INSERT
  5
C47E
330
C3F6
100
AcDbEntity
  8
0
  6
ByBlock
440
 16777216
100
AcDbBlockReference
  2
_OPEN
 10
13707.97317813102
 20
-6818.429297771138
 30
0.0
 41
110.0
 42
110.0
 43
110.0
  0
INSERT
  5
C47F
330
C3F6
100
AcDbEntity
  8
0
  6
ByBlock
440
 16777216
100
AcDbBlockReference
  2
_OPEN
 10
11559.97317813102
 20
-6818.429297771138
 30
0.0
 41
110.0
 42
110.0
 43
110.0
 50
180.0
  0
MTEXT
  5
C480
330
C3F6
100
AcDbEntity
  8
0
  6
ByBlock
440
 16777216
100
AcDbMText
 10
12633.97317813102
 20
-6694.679297771138
 30
0.0
 40
137.5
 41
0.0
 46
0.0
 71
     5
 72
     5
  1
\A1;2148
 73
     1
 44
1.0
  0
POINT
  5
C481
330
C3F6
100
AcDbEntity
  8
DEFPOINTS
  6
ByBlock
 62
     0
440
 16777216
100
AcDbPoint
 10
13707.97317813102
 20
-7447.134883742871
 30
0.0
  0
POINT
  5
C482
330
C3F6
100
AcDbEntity
  8
DEFPOINTS
  6
ByBlock
 62
     0
440
 16777216
100
AcDbPoint
 10
11559.97317813102
 20
-7343.581885628926
 30
0.0
  0
POINT
  5
C483
330
C3F6
100
AcDbEntity
  8
DEFPOINTS
  6
ByBlock
 62
     0
440
 16777216
100
AcDbPoint
 10
11559.97317813102
 20
-6818.429297771138
 30
0.0
  0
ENDBLK
  5
C484
330
C3F6
100
AcDbEntity
  8
0
100
AcDbBlockEnd
  0
BLOCK
  5
C4C7
330
C410
100
AcDbEntity
  8
0
100
AcDbBlockBegin
  2
*D14
 70
     1
 10
0.0
 20
0.0
 30
0.0
  3
*D14
  1

  0
LINE
  5
C4C8
330
C410
100
AcDbEntity
  8
0
  6
ByBlock
440
 16777216
100
AcDbLine
 10
11559.97317813102
 20
-7288.581885628926
 30
0.0
 11
11559.97317813102
 21
-6763.429297771138
 31
0.0
  0
LINE
  5
C4C9
330
C410
100
AcDbEntity
  8
0
  6
ByBlock
440
 16777216
100
AcDbLine
 10
10117.97317813102
 20
-8789.634883742868
 30
0.0
 11
10117.97317813102
 21
-6763.429297771138
 31
0.0
  0
LINE
  5
C4CA
330
C410
100
AcDbEntity
  8
0
  6
ByBlock
440
 16777216
100
AcDbLine
 10
11449.97317813102
 20
-6818.429297771138
 30
0.0
 11
10227.97317813102
 21
-6818.429297771138
 31
0.0
  0
INSERT
  5
C4CB
330
C410
100
AcDbEntity
  8
0
  6
ByBlock
440
 16777216
100
AcDbBlockReference
  2
_OPEN
 10
11559.97317813102
 20
-6818.429297771138
 30
0.0
 41
110.0
 42
110.0
 43
110.0
  0
INSERT
  5
C4CC
330
C410
100
AcDbEntity
  8
0
  6
ByBlock
440
 16777216
100
AcDbBlockReference
  2
_OPEN
 10
10117.97317813102
 20
-6818.429297771138
 30
0.0
 41
110.0
 42
110.0
 43
110.0
 50
180.0
  0
MTEXT
  5
C4CD
330
C410
100
AcDbEntity
  8
0
  6
ByBlock
440
 16777216
100
AcDbMText
 10
10838.97317813102
 20
-6694.679297771138
 30
0.0
 40
137.5
 41
0.0
 46
0.0
 71
     5
 72
     5
  1
\A1;1442
 73
     1
 44
1.0
  0
POINT
  5
C4CE
330
C410
100
AcDbEntity
  8
DEFPOINTS
  6
ByBlock
 62
     0
440
 16777216
100
AcDbPoint
 10
11559.97317813102
 20
-7343.581885628926
 30
0.0
  0
POINT
  5
C4CF
330
C410
100
AcDbEntity
  8
DEFPOINTS
  6
ByBlock
 62
     0
440
 16777216
100
AcDbPoint
 10
10117.97317813102
 20
-8844.634883742868
 30
0.0
  0
POINT
  5
C4D0
330
C410
100
AcDbEntity
  8
DEFPOINTS
  6
ByBlock
 62
     0
440
 16777216
100
AcDbPoint
 10
10117.97317813102
 20
-6818.429297771138
 30
0.0
  0
ENDBLK
  5
C4D1
330
C410
100
AcDbEntity
  8
0
100
AcDbBlockEnd
  0
BLOCK
  5
C4D2
330
C41D
100
AcDbEntity
  8
0
100
AcDbBlockBegin
  2
*D15
 70
     1
 10
0.0
 20
0.0
 30
0.0
  3
*D15
  1

  0
LINE
  5
C4D3
330
C41D
100
AcDbEntity
  8
0
  6
ByBlock
440
 16777216
100
AcDbLine
 10
11513.97317813102
 20
-7447.134883742871
 30
0.0
 11
9709.549774628788
 21
-7447.134883742871
 31
0.0
  0
LINE
  5
C4D4
330
C41D
100
AcDbEntity
  8
0
  6
ByBlock
440
 16777216
100
AcDbLine
 10
9981.262627261481
 20
-8722.134883742871
 30
0.0
 11
9709.549774628788
 21
-8722.134883742871
 31
0.0
  0
LINE
  5
C4D5
330
C41D
100
AcDbEntity
  8
0
  6
ByBlock
440
 16777216
100
AcDbLine
 10
9764.549774628788
 20
-7557.13488374287
 30
0.0
 11
9764.549774628788
 21
-8612.134883742871
 31
0.0
  0
INSERT
  5
C4D6
330
C41D
100
AcDbEntity
  8
0
  6
ByBlock
440
 16777216
100
AcDbBlockReference
  2
_OPEN
 10
9764.549774628788
 20
-7447.134883742871
 30
0.0
 41
110.0
 42
110.0
 43
110.0
 50
90.0
  0
INSERT
  5
C4D7
330
C41D
100
AcDbEntity
  8
0
  6
ByBlock
440
 16777216
100
AcDbBlockReference
  2
_OPEN
 10
9764.549774628788
 20
-8722.134883742871
 30
0.0
 41
110.0
 42
110.0
 43
110.0
 50
270.0
  0
MTEXT
  5
C4D8
330
C41D
100
AcDbEntity
  8
0
  6
ByBlock
440
 16777216
100
AcDbMText
 10
9640.799774628789
 20
-8084.63488374287
 30
0.0
 40
137.5
 41
0.0
 46
0.0
 71
     5
 72
     5
  1
\A1;1275
 11
0.0
 21
1.0
 31
0.0
 73
     1
 44
1.0
  0
POINT
  5
C4D9
330
C41D
100
AcDbEntity
  8
DEFPOINTS
  6
ByBlock
 62
     0
440
 16777216
100
AcDbPoint
 10
11568.97317813103
 20
-7447.134883742871
 30
0.0
  0
POINT
  5
C4DA
330
C41D
100
AcDbEntity
  8
DEFPOINTS
  6
ByBlock
 62
     0
440
 16777216
100
AcDbPoint
 10
10036.26262726148
 20
-8722.134883742871
 30
0.0
  0
POINT
  5
C4DB
330
C41D
100
AcDbEntity
  8
DEFPOINTS
  6
ByBlock
 62
     0
440
 16777216
100
AcDbPoint
 10
9764.549774628788
 20
-8722.134883742871
 30
0.0
  0
ENDBLK
  5
C4DC
330
C41D
100
AcDbEntity
  8
0
100
AcDbBlockEnd
  0
BLOCK
  5
C4DD
330
C42A
100
AcDbEntity
  8
0
100
AcDbBlockBegin
  2
*D16
 70
     1
 10
0.0
 20
0.0
 30
0.0
  3
*D16
  1

  0
LINE
  5
C4DE
330
C42A
100
AcDbEntity
  8
0
  6
ByBlock
440
 16777216
100
AcDbLine
 10
9981.262627261481
 20
-8722.134883742871
 30
0.0
 11
9709.549774628788
 21
-8722.134883742871
 31
0.0
  0
LINE
  5
C4DF
330
C42A
100
AcDbEntity
  8
0
  6
ByBlock
440
 16777216
100
AcDbLine
 10
10324.97317813102
 20
-10492.13488374287
 30
0.0
 11
9709.549774628788
 21
-10492.13488374287
 31
0.0
  0
LINE
  5
C4E0
330
C42A
100
AcDbEntity
  8
0
  6
ByBlock
440
 16777216
100
AcDbLine
 10
9764.549774628788
 20
-8832.13488374287
 30
0.0
 11
9764.549774628788
 21
-10382.13488374287
 31
0.0
  0
INSERT
  5
C4E1
330
C42A
100
AcDbEntity
  8
0
  6
ByBlock
440
 16777216
100
AcDbBlockReference
  2
_OPEN
 10
9764.549774628788
 20
-8722.134883742871
 30
0.0
 41
110.0
 42
110.0
 43
110.0
 50
90.0
  0
INSERT
  5
C4E2
330
C42A
100
AcDbEntity
  8
0
  6
ByBlock
440
 16777216
100
AcDbBlockReference
  2
_OPEN
 10
9764.549774628788
 20
-10492.13488374287
 30
0.0
 41
110.0
 42
110.0
 43
110.0
 50
270.0
  0
MTEXT
  5
C4E3
330
C42A
100
AcDbEntity
  8
0
  6
ByBlock
440
 16777216
100
AcDbMText
 10
9640.799774628789
 20
-9607.134883742871
 30
0.0
 40
137.5
 41
0.0
 46
0.0
 71
     5
 72
     5
  1
\A1;1770
 11
0.0
 21
1.0
 31
0.0
 73
     1
 44
1.0
  0
POINT
  5
C4E4
330
C42A
100
AcDbEntity
  8
DEFPOINTS
  6
ByBlock
 62
     0
440
 16777216
100
AcDbPoint
 10
10036.26262726148
 20
-8722.134883742871
 30
0.0
  0
POINT
  5
C4E5
330
C42A
100
AcDbEntity
  8
DEFPOINTS
  6
ByBlock
 62
     0
440
 16777216
100
AcDbPoint
 10
10379.97317813102
 20
-10492.13488374287
 30
0.0
  0
POINT
  5
C4E6
330
C42A
100
AcDbEntity
  8
DEFPOINTS
  6
ByBlock
 62
     0
440
 16777216
100
AcDbPoint
 10
9764.549774628788
 20
-10492.13488374287
 30
0.0
  0
ENDBLK
  5
C4E7
330
C42A
100
AcDbEntity
  8
0
100
AcDbBlockEnd
  0
BLOCK
  5
C438
330
C437
100
AcDbEntity
  8
0
100
AcDbBlockBegin
  2
*D17
 70
     1
 10
0.0
 20
0.0
 30
0.0
  3
*D17
  1

  0
LINE
  5
C5D0
330
C437
100
AcDbEntity
  8
SP
440
 16777216
370
    -2
100
AcDbLine
 10
17049.62794449223
 20
-6844.311872012437
 30
0.0
 11
17049.62794449223
 21
-6763.429297771138
 31
0.0
  0
LINE
  5
C5D1
330
C437
100
AcDbEntity
  8
SP
440
 16777216
370
    -2
100
AcDbLine
 10
15099.62794449223
 20
-8187.134883742871
 30
0.0
 11
15099.62794449223
 21
-6763.429297771138
 31
0.0
  0
LINE
  5
C5D2
330
C437
100
AcDbEntity
  8
SP
440
 16777216
370
    -2
100
AcDbLine
 10
16939.62794449223
 20
-6818.429297771138
 30
0.0
 11
15209.62794449223
 21
-6818.429297771138
 31
0.0
  0
INSERT
  5
C5D3
330
C437
100
AcDbEntity
  8
SP
440
 16777216
370
    -2
100
AcDbBlockReference
  2
_OPEN
 10
17049.62794449223
 20
-6818.429297771138
 30
0.0
 41
110.0
 42
110.0
 43
110.0
  0
INSERT
  5
C5D4
330
C437
100
AcDbEntity
  8
SP
440
 16777216
370
    -2
100
AcDbBlockReference
  2
_OPEN
 10
15099.62794449223
 20
-6818.429297771138
 30
0.0
 41
110.0
 42
110.0
 43
110.0
 50
180.0
  0
MTEXT
  5
C5D5
330
C437
100
AcDbEntity
  8
SP
440
 16777216
100
AcDbMText
 10
16074.62794449223
 20
-6658.667393009233
 30
0.0
 40
137.5
 41
0.0
 46
0.0
 71
     5
 72
     1
  1
\A1;(1950)
 73
     1
 44
1.0
  0
POINT
  5
C5D6
330
C437
100
AcDbEntity
  8
DEFPOINTS
 62
     0
440
 16777216
100
AcDbPoint
 10
17049.62794449223
 20
-6899.311872012437
 30
0.0
  0
POINT
  5
C5D7
330
C437
100
AcDbEntity
  8
DEFPOINTS
 62
     0
440
 16777216
100
AcDbPoint
 10
15099.62794449223
 20
-8242.13488374287
 30
0.0
  0
POINT
  5
C5D8
330
C437
100
AcDbEntity
  8
DEFPOINTS
 62
     0
440
 16777216
100
AcDbPoint
 10
15099.62794449223
 20
-6818.429297771138
 30
0.0
  0
ENDBLK
  5
C442
330
C437
100
AcDbEntity
  8
0
100
AcDbBlockEnd
  0
BLOCK
  5
C445
330
C444
100
AcDbEntity
  8
0
100
AcDbBlockBegin
  2
*D18
 70
     1
 10
0.0
 20
0.0
 30
0.0
  3
*D18
  1

  0
LINE
  5
C5D9
330
C444
100
AcDbEntity
  8
SP
440
 16777216
370
    -2
100
AcDbLine
 10
17049.62794449223
 20
-6844.311872012437
 30
0.0
 11
17049.62794449223
 21
-6763.429297771138
 31
0.0
  0
LINE
  5
C5DA
330
C444
100
AcDbEntity
  8
SP
440
 16777216
370
    -2
100
AcDbLine
 10
18629.82794449224
 20
-8757.134883742869
 30
0.0
 11
18629.82794449224
 21
-6763.429297771138
 31
0.0
  0
LINE
  5
C5DB
330
C444
100
AcDbEntity
  8
SP
440
 16777216
370
    -2
100
AcDbLine
 10
17159.62794449223
 20
-6818.429297771138
 30
0.0
 11
18519.82794449224
 21
-6818.429297771138
 31
0.0
  0
INSERT
  5
C5DC
330
C444
100
AcDbEntity
  8
SP
440
 16777216
370
    -2
100
AcDbBlockReference
  2
_OPEN
 10
17049.62794449223
 20
-6818.429297771138
 30
0.0
 41
110.0
 42
110.0
 43
110.0
 50
180.0
  0
INSERT
  5
C5DD
330
C444
100
AcDbEntity
  8
SP
440
 16777216
370
    -2
100
AcDbBlockReference
  2
_OPEN
 10
18629.82794449224
 20
-6818.429297771138
 30
0.0
 41
110.0
 42
110.0
 43
110.0
  0
MTEXT
  5
C5DE
330
C444
100
AcDbEntity
  8
SP
440
 16777216
100
AcDbMText
 10
17839.72794449223
 20
-6658.667393009233
 30
0.0
 40
137.5
 41
0.0
 46
0.0
 71
     5
 72
     1
  1
\A1;(1580)
 73
     1
 44
1.0
  0
POINT
  5
C5DF
330
C444
100
AcDbEntity
  8
DEFPOINTS
 62
     0
440
 16777216
100
AcDbPoint
 10
17049.62794449223
 20
-6899.311872012437
 30
0.0
  0
POINT
  5
C5E0
330
C444
100
AcDbEntity
  8
DEFPOINTS
 62
     0
440
 16777216
100
AcDbPoint
 10
18629.82794449224
 20
-8812.134883742869
 30
0.0
  0
POINT
  5
C5E1
330
C444
100
AcDbEntity
  8
DEFPOINTS
 62
     0
440
 16777216
100
AcDbPoint
 10
18629.82794449224
 20
-6818.429297771138
 30
0.0
  0
ENDBLK
  5
C44F
330
C444
100
AcDbEntity
  8
0
100
AcDbBlockEnd
  0
BLOCK
  5
C4F3
330
C45A
100
AcDbEntity
  8
0
100
AcDbBlockBegin
  2
*D19
 70
     1
 10
0.0
 20
0.0
 30
0.0
  3
*D19
  1

  0
LINE
  5
C4F4
330
C45A
100
AcDbEntity
  8
0
  6
ByBlock
440
 16777216
100
AcDbLine
 10
10324.97317813102
 20
-2054.290027528358
 30
0.0
 11
9689.753585615108
 21
-2054.290027528358
 31
0.0
  0
LINE
  5
C4F5
330
C45A
100
AcDbEntity
  8
0
  6
ByBlock
440
 16777216
100
AcDbLine
 10
10324.97317813102
 20
-5304.290027528357
 30
0.0
 11
9689.753585615108
 21
-5304.290027528357
 31
0.0
  0
LINE
  5
C4F6
330
C45A
100
AcDbEntity
  8
0
  6
ByBlock
440
 16777216
100
AcDbLine
 10
9744.753585615107
 20
-2164.290027528357
 30
0.0
 11
9744.753585615107
 21
-5194.290027528357
 31
0.0
  0
INSERT
  5
C4F7
330
C45A
100
AcDbEntity
  8
0
  6
ByBlock
440
 16777216
100
AcDbBlockReference
  2
_OPEN
 10
9744.753585615107
 20
-2054.290027528358
 30
0.0
 41
110.0
 42
110.0
 43
110.0
 50
90.0
  0
INSERT
  5
C4F8
330
C45A
100
AcDbEntity
  8
0
  6
ByBlock
440
 16777216
100
AcDbBlockReference
  2
_OPEN
 10
9744.753585615107
 20
-5304.290027528357
 30
0.0
 41
110.0
 42
110.0
 43
110.0
 50
270.0
  0
MTEXT
  5
C4F9
330
C45A
100
AcDbEntity
  8
0
  6
ByBlock
440
 16777216
100
AcDbMText
 10
9621.003585615108
 20
-3679.290027528357
 30
0.0
 40
137.5
 41
0.0
 46
0.0
 71
     5
 72
     5
  1
\A1;3250
 11
0.0
 21
1.0
 31
0.0
 73
     1
 44
1.0
  0
POINT
  5
C4FA
330
C45A
100
AcDbEntity
  8
DEFPOINTS
  6
ByBlock
 62
     0
440
 16777216
100
AcDbPoint
 10
10379.97317813102
 20
-2054.290027528358
 30
0.0
  0
POINT
  5
C4FB
330
C45A
100
AcDbEntity
  8
DEFPOINTS
  6
ByBlock
 62
     0
440
 16777216
100
AcDbPoint
 10
10379.97317813102
 20
-5304.290027528357
 30
0.0
  0
POINT
  5
C4FC
330
C45A
100
AcDbEntity
  8
DEFPOINTS
  6
ByBlock
 62
     0
440
 16777216
100
AcDbPoint
 10
9744.753585615107
 20
-5304.290027528357
 30
0.0
  0
ENDBLK
  5
C4FD
330
C45A
100
AcDbEntity
  8
0
100
AcDbBlockEnd
  0
BLOCK
  5
C50D
330
C50C
100
AcDbEntity
  8
0
100
AcDbBlockBegin
  2
_DOT
 70
     0
 10
0.0
 20
0.0
 30
0.0
  3
_DOT
  1

  0
LWPOLYLINE
  5
C50E
330
C50C
100
AcDbEntity
  8
0
  6
ByBlock
 62
     0
100
AcDbPolyline
 90
        2
 70
     1
 43
0.5
 10
-0.25
 20
0.0
 42
1.0
 10
0.25
 20
0.0
 42
1.0
  0
LINE
  5
C512
330
C50C
100
AcDbEntity
  8
0
  6
ByBlock
 62
     0
100
AcDbLine
 10
-0.5
 20
0.0
 30
0.0
 11
-1.0
 21
0.0
 31
0.0
  0
ENDBLK
  5
C513
330
C50C
100
AcDbEntity
  8
0
100
AcDbBlockEnd
  0
BLOCK
  5
C515
330
C514
100
AcDbEntity
  8
0
100
AcDbBlockBegin
  2
*D21
 70
     1
 10
0.0
 20
0.0
 30
0.0
  3
*D21
  1

  0
LINE
  5
C516
330
C514
100
AcDbEntity
  8
0
  6
ByBlock
440
 16777216
100
AcDbLine
 10
10033.24583005417
 20
-10512.13488374287
 30
0.0
 11
9417.310997027133
 21
-10512.13488374287
 31
0.0
  0
LINE
  5
C517
330
C514
100
AcDbEntity
  8
0
  6
ByBlock
440
 16777216
100
AcDbLine
 10
10033.24583005417
 20
-10692.13488374287
 30
0.0
 11
9417.310997027133
 21
-10692.13488374287
 31
0.0
  0
LINE
  5
C518
330
C514
100
AcDbEntity
  8
0
  6
ByBlock
440
 16777216
100
AcDbLine
 10
9472.310997027133
 20
-10402.13488374287
 30
0.0
 11
9472.310997027133
 21
-10292.13488374287
 31
0.0
  0
LINE
  5
C519
330
C514
100
AcDbEntity
  8
0
  6
ByBlock
440
 16777216
100
AcDbLine
 10
9472.310997027133
 20
-10802.13488374287
 30
0.0
 11
9472.310997027133
 21
-11359.22817809861
 31
0.0
  0
LINE
  5
C51A
330
C514
100
AcDbEntity
  8
0
  6
ByBlock
440
 16777216
100
AcDbLine
 10
9472.310997027133
 20
-10512.13488374287
 30
0.0
 11
9472.310997027133
 21
-10692.13488374287
 31
0.0
  0
INSERT
  5
C51B
330
C514
100
AcDbEntity
  8
0
  6
ByBlock
440
 16777216
100
AcDbBlockReference
  2
_DOT
 10
9472.310997027133
 20
-10512.13488374287
 30
0.0
 41
110.0
 42
110.0
 43
110.0
 50
270.0
  0
INSERT
  5
C51C
330
C514
100
AcDbEntity
  8
0
  6
ByBlock
440
 16777216
100
AcDbBlockReference
  2
_OPEN
 10
9472.310997027133
 20
-10692.13488374287
 30
0.0
 41
110.0
 42
110.0
 43
110.0
 50
90.0
  0
MTEXT
  5
C51D
330
C514
100
AcDbEntity
  8
0
  6
ByBlock
440
 16777216
100
AcDbMText
 10
9348.560997027133
 20
-11135.68153092074
 30
0.0
 40
137.5
 41
0.0
 46
0.0
 71
     5
 72
     5
  1
\A1;180
 11
0.0
 21
1.0
 31
0.0
 73
     1
 44
1.0
  0
POINT
  5
C51E
330
C514
100
AcDbEntity
  8
DEFPOINTS
  6
ByBlock
 62
     0
440
 16777216
100
AcDbPoint
 10
10088.24583005417
 20
-10512.13488374287
 30
0.0
  0
POINT
  5
C51F
330
C514
100
AcDbEntity
  8
DEFPOINTS
  6
ByBlock
 62
     0
440
 16777216
100
AcDbPoint
 10
10088.24583005417
 20
-10692.13488374287
 30
0.0
  0
POINT
  5
C520
330
C514
100
AcDbEntity
  8
DEFPOINTS
  6
ByBlock
 62
     0
440
 16777216
100
AcDbPoint
 10
9472.310997027133
 20
-10692.13488374287
 30
0.0
  0
ENDBLK
  5
C521
330
C514
100
AcDbEntity
  8
0
100
AcDbBlockEnd
  0
BLOCK
  5
C524
330
C523
100
AcDbEntity
  8
0
100
AcDbBlockBegin
  2
_NONE
 70
     0
 10
0.0
 20
0.0
 30
0.0
  3
_NONE
  1

  0
CIRCLE
  5
C525
330
C523
100
AcDbEntity
  8
0
  6
ByBlock
 62
     0
100
AcDbCircle
 10
0.0
 20
0.0
 30
0.0
 40
0.25
  0
ENDBLK
  5
C526
330
C523
100
AcDbEntity
  8
0
100
AcDbBlockEnd
  0
BLOCK
  5
C528
330
C527
100
AcDbEntity
  8
0
100
AcDbBlockBegin
  2
*D23
 70
     1
 10
0.0
 20
0.0
 30
0.0
  3
*D23
  1

  0
LINE
  5
C56D
330
C527
100
AcDbEntity
  8
SP
440
 16777216
100
AcDbLine
 10
9472.310997027133
 20
-10512.13488374287
 30
0.0
 11
9472.310997027133
 21
-10622.13488374287
 31
0.0
  0
LINE
  5
C56E
330
C527
100
AcDbEntity
  8
SP
440
 16777216
100
AcDbLine
 10
9472.310997027133
 20
-10492.13488374287
 30
0.0
 11
9472.310997027133
 21
-10382.13488374287
 31
0.0
  0
MTEXT
  5
C56F
330
C527
100
AcDbEntity
  8
SP
440
 16777216
100
AcDbMText
 10
9230.049092265231
 20
-10502.13488374287
 30
0.0
 40
137.5
 41
0.0
 46
0.0
 71
     5
 72
     5
  1
\A1;(20)
 11
0.0000000000000001
 21
1.0
 31
0.0
 73
     1
 44
1.0
  0
LINE
  5
C570
330
C527
100
AcDbEntity
  8
SP
440
 16777216
100
AcDbLine
 10
9472.310997027133
 20
-10512.13488374287
 30
0.0
 11
9472.310997027133
 21
-10492.13488374287
 31
0.0
  0
POINT
  5
C571
330
C527
100
AcDbEntity
  8
DEFPOINTS
 62
     0
440
 16777216
100
AcDbPoint
 10
10088.24583005417
 20
-10512.13488374287
 30
0.0
  0
POINT
  5
C572
330
C527
100
AcDbEntity
  8
DEFPOINTS
 62
     0
440
 16777216
100
AcDbPoint
 10
10088.24583005417
 20
-10492.13488374287
 30
0.0
  0
POINT
  5
C573
330
C527
100
AcDbEntity
  8
DEFPOINTS
 62
     0
440
 16777216
100
AcDbPoint
 10
9472.310997027133
 20
-10492.13488374287
 30
0.0
  0
ENDBLK
  5
C530
330
C527
100
AcDbEntity
  8
0
100
AcDbBlockEnd
  0
ENDSEC
  0
SECTION
  2
ENTITIES
  0
LINE
  5
7AB6
330
19
100
AcDbEntity
  8
FUTO
100
AcDbLine
 10
13318.24583005417
 20
-10242.13488374287
 30
0.0
 11
13388.24583005417
 21
-10242.13488374287
 31
0.0
  0
LINE
  5
7AB7
330
19
100
AcDbEntity
  8
FUTO
100
AcDbLine
 10
14018.24583005417
 20
-10242.13488374287
 30
0.0
 11
14018.24583005417
 21
-10312.13488374287
 31
0.0
  0
LINE
  5
7AB8
330
19
100
AcDbEntity
  8
FUTO
100
AcDbLine
 10
13318.24583005417
 20
-10242.13488374287
 30
0.0
 11
13318.24583005417
 21
-10312.13488374287
 31
0.0
  0
LINE
  5
7AC0
330
19
100
AcDbEntity
  8
FUTO
100
AcDbLine
 10
13938.24583005417
 20
-4198.290027528359
 30
0.0
 11
13495.24583005417
 21
-4198.290027528359
 31
0.0
  0
LINE
  5
7AC6
330
19
100
AcDbEntity
  8
FUTO
100
AcDbLine
 10
13398.24583005417
 20
-5101.790027528359
 30
0.0
 11
13938.24583005417
 21
-5101.790027528359
 31
0.0
  0
LINE
  5
7AFE
330
19
100
AcDbEntity
  8
FUTO
100
AcDbLine
 10
13710.74583005417
 20
-5168.290027528359
 30
0.0
 11
13710.74583005417
 21
-5101.790027528359
 31
0.0
  0
LINE
  5
7AFF
330
19
100
AcDbEntity
  8
FUTO
100
AcDbLine
 10
13625.74583005417
 20
-5101.790027528359
 30
0.0
 11
13625.74583005417
 21
-5168.290027528359
 31
0.0
  0
ARC
  5
7B35
330
19
100
AcDbEntity
  8
FUTO
100
AcDbCircle
 10
13668.24583005417
 20
-9962.134883742871
 30
0.0
 40
287.5
100
AcDbArc
 50
329.6527344126618
 51
210.3472654840073
  0
LINE
  5
7B36
330
19
100
AcDbEntity
  8
CT
100
AcDbLine
 10
13668.24583005417
 20
-10692.13488374286
 30
0.0
 11
13668.24583005417
 21
-9578.972563742871
 31
0.0
  0
LINE
  5
7B38
330
19
100
AcDbEntity
  8
CT
100
AcDbLine
 10
13988.24583005417
 20
-9962.134883742871
 30
0.0
 11
13348.24583005417
 21
-9962.134883742871
 31
0.0
  0
LINE
  5
7B3B
330
19
100
AcDbEntity
  8
FUTO
100
AcDbLine
 10
13938.61455005417
 20
-10120.88834674287
 30
0.0
 11
13916.35230705417
 21
-10107.39129774287
 31
0.0
  0
LINE
  5
7B3C
330
19
100
AcDbEntity
  8
FUTO
100
AcDbLine
 10
13948.24583005417
 20
-10242.13488374287
 30
0.0
 11
13948.24583005417
 21
-10137.99067574287
 31
0.0
  0
ARC
  5
7B3E
330
19
100
AcDbEntity
  8
FUTO
100
AcDbCircle
 10
13928.24583005417
 20
-10137.99067574287
 30
0.0
 40
20.0
100
AcDbArc
 50
0.0
 51
58.77259900000001
  0
LINE
  5
7B4A
330
19
100
AcDbEntity
  8
FUTO
100
AcDbLine
 10
13388.24583005417
 20
-10242.13488374287
 30
0.0
 11
13388.24583005417
 21
-10137.99067574287
 31
0.0
  0
LINE
  5
7B57
330
19
100
AcDbEntity
  8
FUTO
100
AcDbLine
 10
13397.87710905417
 20
-10120.88834674287
 30
0.0
 11
13420.13935240176
 21
-10107.39129753213
 31
0.0
  0
ARC
  5
7B5A
330
19
100
AcDbEntity
  8
FUTO
100
AcDbCircle
 10
13408.24583005417
 20
-10137.99067574287
 30
0.0
 40
20.0
100
AcDbArc
 50
121.227401
 51
180.0
  0
CIRCLE
  5
7B75
330
19
100
AcDbEntity
  8
SL
100
AcDbCircle
 10
13668.24583005417
 20
-9962.134883742871
 30
0.0
 40
140.0
  0
LINE
  5
7B82
330
19
100
AcDbEntity
  8
FUTO
100
AcDbLine
 10
13948.24583005417
 20
-10242.13488374287
 30
0.0
 11
14018.24583005417
 21
-10242.13488374287
 31
0.0
  0
LINE
  5
98B6
330
19
100
AcDbEntity
  8
SL
100
AcDbLine
 10
15199.62794449223
 20
-8472.134883742874
 30
0.0
 11
15339.62794449223
 21
-8472.134883742876
 31
0.0
  0
LINE
  5
98B7
330
19
100
AcDbEntity
  8
SL
100
AcDbLine
 10
15199.62794449223
 20
-9272.134883742877
 30
0.0
 11
15339.62794449223
 21
-9272.134883742877
 31
0.0
  0
LINE
  5
98B8
330
19
100
AcDbEntity
  8
SL
100
AcDbLine
 10
15339.62794449223
 20
-9822.134883742872
 30
0.0
 11
15199.62794449223
 21
-9822.134883742871
 31
0.0
  0
LINE
  5
98B9
330
19
100
AcDbEntity
  8
SL
100
AcDbLine
 10
15339.62794449223
 20
-10102.13488374287
 30
0.0
 11
15199.62794449223
 21
-10102.13488374287
 31
0.0
  0
LINE
  5
98BA
330
19
100
AcDbEntity
  8
SL
100
AcDbLine
 10
15199.62794449223
 20
-8472.134883742874
 30
0.0
 11
15199.62794449223
 21
-10102.13488374287
 31
0.0
  0
LINE
  5
98BC
330
19
100
AcDbEntity
  8
SL
100
AcDbLine
 10
15339.62794449223
 20
-8472.134883742874
 30
0.0
 11
15339.62794449223
 21
-10102.13488374287
 31
0.0
  0
LINE
  5
98C4
330
19
100
AcDbEntity
  8
FUTO
100
AcDbLine
 10
13398.24583005417
 20
-5101.790027528359
 30
0.0
 11
13398.24583005416
 21
-4862.290027528356
 31
0.0
  0
LINE
  5
98C5
330
19
100
AcDbEntity
  8
FUTO
100
AcDbLine
 10
13938.24583005417
 20
-5101.790027528359
 30
0.0
 11
13938.24583005417
 21
-4198.290027528359
 31
0.0
  0
LINE
  5
98C6
330
19
100
AcDbEntity
  8
FUTO
100
AcDbLine
 10
15406.12794449223
 20
-10232.13488374287
 30
0.0
 11
16309.62794449223
 21
-10232.13488374287
 31
0.0
  0
LINE
  5
98C7
330
19
100
AcDbEntity
  8
FUTO
100
AcDbLine
 10
15406.12794449223
 20
-9692.13488374287
 30
0.0
 11
16309.62794449223
 21
-9692.13488374287
 31
0.0
  0
LINE
  5
98CA
330
19
100
AcDbEntity
  8
FUTO
100
AcDbLine
 10
15406.12794449223
 20
-10232.13488374287
 30
0.0
 11
15406.12794449223
 21
-9692.13488374287
 31
0.0
  0
LINE
  5
98CC
330
19
100
AcDbEntity
  8
FUTO
100
AcDbLine
 10
15339.62794449223
 20
-9919.634883742867
 30
0.0
 11
15406.12794449223
 21
-9919.634883742869
 31
0.0
  0
LINE
  5
98CD
330
19
100
AcDbEntity
  8
FUTO
100
AcDbLine
 10
15406.12794449223
 20
-10004.63488374287
 30
0.0
 11
15339.62794449223
 21
-10004.63488374287
 31
0.0
  0
LINE
  5
98E8
330
19
100
AcDbEntity
  8
SL
100
AcDbLine
 10
13838.24583005417
 20
-5118.29002752836
 30
0.0
 11
13888.24583005417
 21
-5118.29002752836
 31
0.0
  0
LINE
  5
A0E7
330
19
100
AcDbEntity
  8
4
100
AcDbLine
 10
17961.16669783403
 20
-12040.48813421171
 30
0.0
 11
17961.16669783403
 21
-13140.48813421171
 31
0.0
  0
LINE
  5
A0E8
330
19
100
AcDbEntity
  8
4
100
AcDbLine
 10
14111.16669783403
 20
-12040.48813421171
 30
0.0
 11
14111.16669783403
 21
-13140.48813421171
 31
0.0
  0
LINE
  5
A0E9
330
19
100
AcDbEntity
  8
4
100
AcDbLine
 10
11361.16669783403
 20
-12040.48813421171
 30
0.0
 11
11361.16669783403
 21
-13140.48813421171
 31
0.0
  0
LINE
  5
A0EC
330
19
100
AcDbEntity
  8
4
100
AcDbLine
 10
11361.16669783403
 20
-13140.48813421171
 30
0.0
 11
17961.16669783403
 21
-13140.48813421171
 31
0.0
  0
LINE
  5
A0ED
330
19
100
AcDbEntity
  8
4
100
AcDbLine
 10
11361.16669783403
 20
-12590.48813421171
 30
0.0
 11
17961.16669783403
 21
-12590.48813421171
 31
0.0
  0
TEXT
  5
A0EE
330
19
100
AcDbEntity
  8
4
100
AcDbText
 10
11572.92814249199
 20
-12417.00149194534
 30
0.0
 40
275.0
  1
機器名称
100
AcDbText
  0
TEXT
  5
A0EF
330
19
100
AcDbEntity
  8
4
100
AcDbText
 10
11560.58628097042
 20
-13021.43977218565
 30
0.0
 40
275.0
  1
機器型番
100
AcDbText
  0
TEXT
  5
A0F0
330
19
100
AcDbEntity
  8
4
100
AcDbText
 10
14274.28609399308
 20
-12457.34307415221
 30
0.0
 40
233.75
  1
ミツヤリミットロ－ドファン
100
AcDbText
  0
TEXT
  5
A0F1
330
19
100
AcDbEntity
  8
4
100
AcDbText
 10
14312.76642355418
 20
-13046.11042067202
 30
0.0
 40
275.0
  1
LL#12-5
100
AcDbText
  0
TEXT
  5
A0F3
330
19
100
AcDbEntity
  8
4
100
AcDbText
 10
12185.97715136576
 20
-1128.56058470239
 30
0.0
 40
297.0
  1
床置防振ベット
100
AcDbText
  0
TEXT
  5
A0F4
330
19
100
AcDbEntity
  8
4
100
AcDbText
 10
9429.003240898744
 20
-301.0738429350895
 30
0.0
 40
396.0000000000001
  1
遠心式両吸込両持リミットロ－ドファン
100
AcDbText
  0
LINE
  5
A0F5
330
19
100
AcDbEntity
  8
4
100
AcDbLine
 10
9161.166697834037
 20
-655.6710635748004
 30
0.0
 11
17961.16669783403
 21
-655.6710635748004
 31
0.0
  0
LINE
  5
A0F6
330
19
100
AcDbEntity
  8
4
100
AcDbLine
 10
9161.166697834037
 20
444.3289364251995
 30
0.0
 11
17961.16669783403
 21
444.3289364251995
 31
0.0
  0
LINE
  5
A0F7
330
19
100
AcDbEntity
  8
4
100
AcDbLine
 10
11361.16669783403
 20
-12040.48813421171
 30
0.0
 11
17961.16669783403
 21
-12040.48813421171
 31
0.0
  0
LINE
  5
A0F8
330
19
100
AcDbEntity
  8
4
100
AcDbLine
 10
9161.166697834037
 20
444.3289364251995
 30
0.0
 11
9161.166697834037
 21
-655.6710635748004
 31
0.0
  0
TEXT
  5
A0F9
330
19
100
AcDbEntity
  8
4
100
AcDbText
 10
9788.753574030897
 20
-1134.662085526339
 30
0.0
 40
297.0
  1
左回転上向
100
AcDbText
  0
TEXT
  5
A0FA
330
19
100
AcDbEntity
  8
4
100
AcDbText
 10
15865.49927370513
 20
645.9167361929703
 30
0.0
 40
308.0
  1
No.
100
AcDbText
  0
TEXT
  5
A0FB
330
19
100
AcDbEntity
  8
4
100
AcDbText
 10
14998.29504213411
 20
-1128.56058470239
 30
0.0
 40
297.0
  1
縮尺：1/55
100
AcDbText
  0
LINE
  5
A0FC
330
19
100
AcDbEntity
  8
4
100
AcDbLine
 10
17961.16669783403
 20
444.3289364251995
 30
0.0
 11
17961.16669783403
 21
-655.6710635748004
 31
0.0
  0
LINE
  5
A0FD
330
19
100
AcDbEntity
  8
4
100
AcDbLine
 10
19336.16669783403
 20
1987.580787968773
 30
0.0
 11
19336.16669783403
 21
1987.580787968773
 31
0.0
  0
LINE
  5
A0FE
330
19
100
AcDbEntity
  8
4
100
AcDbLine
 10
15709.56252081329
 20
509.5304951584785
 30
0.0
 11
15709.56252081329
 21
1089.168226492411
 31
0.0
  0
LINE
  5
A0FF
330
19
100
AcDbEntity
  8
4
100
AcDbLine
 10
15709.56252081329
 20
1089.168226492411
 30
0.0
 11
17961.16669783403
 21
1089.168226492411
 31
0.0
  0
LINE
  5
A100
330
19
100
AcDbEntity
  8
4
100
AcDbLine
 10
17961.16669783403
 20
1089.168226492411
 30
0.0
 11
17961.16669783403
 21
509.5304951584785
 31
0.0
  0
LINE
  5
A101
330
19
100
AcDbEntity
  8
4
100
AcDbLine
 10
17961.16669783403
 20
509.5304951584785
 30
0.0
 11
15709.56252081329
 21
509.5304951584785
 31
0.0
  0
LINE
  5
A102
330
19
100
AcDbEntity
  8
4
100
AcDbLine
 10
7786.166697834037
 20
-14237.41921203123
 30
0.0
 11
7786.166697834037
 21
1987.580787968773
 31
0.0
  0
LINE
  5
A103
330
19
100
AcDbEntity
  8
4
100
AcDbLine
 10
7786.166697834037
 20
1987.580787968773
 30
0.0
 11
19336.16669783403
 21
1987.580787968773
 31
0.0
  0
LINE
  5
A104
330
19
100
AcDbEntity
  8
4
100
AcDbLine
 10
19336.16669783403
 20
1987.580787968773
 30
0.0
 11
19336.16669783403
 21
-14237.41921203123
 31
0.0
  0
LINE
  5
A105
330
19
100
AcDbEntity
  8
4
100
AcDbLine
 10
19336.16669783403
 20
-14237.41921203123
 30
0.0
 11
7786.166697834037
 21
-14237.41921203123
 31
0.0
  0
LINE
  5
B009
330
19
100
AcDbEntity
  8
FUTO
100
AcDbLine
 10
10088.24583005417
 20
-10312.13488374287
 30
0.0
 11
14288.24583005417
 21
-10312.13488374287
 31
0.0
  0
LINE
  5
B00A
330
19
100
AcDbEntity
  8
FUTO
100
AcDbLine
 10
10088.24583005417
 20
-10492.13488374287
 30
0.0
 11
14288.24583005417
 21
-10492.13488374286
 31
0.0
  0
LINE
  5
B00B
330
19
100
AcDbEntity
  8
FUTO
100
AcDbLine
 10
13292.49914274268
 20
-8722.134883742871
 30
0.0
 11
13416.24583005417
 21
-7447.134883742871
 31
0.0
  0
LINE
  5
B00D
330
19
100
AcDbEntity
  8
CT
100
AcDbLine
 10
11268.24583005417
 20
-10692.13488374287
 30
0.0
 11
11268.24583005417
 21
-7343.581885628926
 31
0.0
  0
ARC
  5
B00E
330
19
100
AcDbEntity
  8
FUTO
100
AcDbCircle
 10
11415.24583005417
 20
-8575.134883742871
 30
0.0
 40
1883.0
100
AcDbArc
 50
292.7109749000509
 51
355.5225394636515
  0
LINE
  5
B00F
330
19
100
AcDbEntity
  8
CT
100
AcDbLine
 10
13539.42153921524
 20
-8722.134883742871
 30
0.0
 11
9744.535279184624
 21
-8722.134883742871
 31
0.0
  0
LINE
  5
B013
330
19
100
AcDbEntity
  8
FUTO
100
AcDbLine
 10
13408.96661315349
 20
-7522.134883742871
 30
0.0
 11
11356.24583005417
 21
-7522.134883742871
 31
0.0
  0
LINE
  5
B014
330
19
100
AcDbEntity
  8
FUTO
100
AcDbLine
 10
13495.24583005417
 20
-7447.134883742866
 30
0.0
 11
11277.24583005417
 21
-7447.134883742871
 31
0.0
  0
LINE
  5
B019
330
19
100
AcDbEntity
  8
FUTO
100
AcDbLine
 10
11356.24583005417
 20
-7545.955615654141
 30
0.0
 11
11356.24583005417
 21
-7447.134883742871
 31
0.0
  0
LINE
  5
B029
330
19
100
AcDbEntity
  8
CT
100
AcDbLine
 10
17049.62794449223
 20
-7184.712312121503
 30
0.0
 11
17049.62794449223
 21
-10692.13488374287
 31
0.0
  0
LINE
  5
B02A
330
19
100
AcDbEntity
  8
CT
100
AcDbLine
 10
15099.62794449223
 20
-8722.134883742871
 30
0.0
 11
18688.17916685943
 21
-8722.134883742871
 31
0.0
  0
LINE
  5
B02B
330
19
100
AcDbEntity
  8
FUTO
100
AcDbLine
 10
18453.62794449222
 20
-10312.13488374286
 30
0.0
 11
15203.62794449223
 21
-10312.13488374287
 31
0.0
  0
LINE
  5
B02C
330
19
100
AcDbEntity
  8
FUTO
100
AcDbLine
 10
18453.62794449223
 20
-10492.13488374287
 30
0.0
 11
15203.62794449223
 21
-10492.13488374287
 31
0.0
  0
LINE
  5
B031
330
19
100
AcDbEntity
  8
FUTO
100
AcDbLine
 10
15645.62794449223
 20
-7447.134883742871
 30
0.0
 11
15645.62794449223
 21
-7522.134883742872
 31
0.0
  0
LINE
  5
B032
330
19
100
AcDbEntity
  8
FUTO
100
AcDbLine
 10
18453.62794449223
 20
-7447.134883742871
 30
0.0
 11
18453.62794449223
 21
-7522.134883742872
 31
0.0
  0
LINE
  5
B03F
330
19
100
AcDbEntity
  8
FUTO
100
AcDbLine
 10
18453.62794449223
 20
-10312.13488374287
 30
0.0
 11
18453.62794449223
 21
-10492.13488374287
 31
0.0
  0
LINE
  5
B044
330
19
100
AcDbEntity
  8
FUTO
100
AcDbLine
 10
12758.24583005417
 20
-9892.134883742871
 30
0.0
 11
12758.24583005417
 21
-9883.13488374287
 31
0.0
  0
LINE
  5
B168
330
19
100
AcDbEntity
  8
FUTO
100
AcDbLine
 10
18374.62794449223
 20
-8812.134883742869
 30
0.0
 11
18629.82794449224
 21
-8812.134883742869
 31
0.0
  0
LINE
  5
B169
330
19
100
AcDbEntity
  8
FUTO
100
AcDbLine
 10
18374.62794449223
 20
-9062.134883742873
 30
0.0
 11
18629.82794449224
 21
-9062.134883742869
 31
0.0
  0
LINE
  5
B16A
330
19
100
AcDbEntity
  8
FUTO
100
AcDbLine
 10
18629.82794449224
 20
-8812.134883742869
 30
0.0
 11
18629.82794449224
 21
-9062.134883742871
 31
0.0
  0
LINE
  5
B171
330
19
100
AcDbEntity
  8
FUTO
100
AcDbLine
 10
18374.62794449223
 20
-7447.134883742872
 30
0.0
 11
18374.62794449223
 21
-10312.13488374286
 31
0.0
  0
LINE
  5
B175
330
19
100
AcDbEntity
  8
FUTO
100
AcDbLine
 10
15724.62794449223
 20
-7447.134883742871
 30
0.0
 11
15724.62794449223
 21
-9692.13488374287
 31
0.0
  0
LINE
  5
B189
330
19
100
AcDbEntity
  8
FUTO
100
AcDbLine
 10
15481.42794449223
 20
-9062.134883742871
 30
0.0
 11
15724.62794449223
 21
-9062.134883742871
 31
0.0
  0
LINE
  5
B18A
330
19
100
AcDbEntity
  8
FUTO
100
AcDbLine
 10
15481.42794449223
 20
-8812.134883742869
 30
0.0
 11
15481.42794449223
 21
-9062.134883742871
 31
0.0
  0
CIRCLE
  5
B18C
330
19
100
AcDbEntity
  8
SL
100
AcDbCircle
 10
11268.24583005417
 20
-8722.134883742871
 30
0.0
 40
400.0
  0
LINE
  5
B196
330
19
100
AcDbEntity
  8
FUTO
100
AcDbLine
 10
15203.62794449223
 20
-10312.13488374287
 30
0.0
 11
15203.62794449223
 21
-10492.13488374287
 31
0.0
  0
LINE
  5
B1DD
330
19
100
AcDbEntity
  8
FUTO
100
AcDbLine
 10
15339.62794449223
 20
-8664.634883742868
 30
0.0
 11
15724.62794449223
 21
-8664.63488374287
 31
0.0
  0
LINE
  5
B1DE
330
19
100
AcDbEntity
  8
FUTO
100
AcDbLine
 10
15339.62794449223
 20
-8779.634883742872
 30
0.0
 11
15724.62794449223
 21
-8779.634883742874
 31
0.0
  0
LINE
  5
B1EA
330
19
100
AcDbEntity
  8
SP
100
AcDbLine
 10
17049.62794449223
 20
-6899.311872012437
 30
0.0
 11
17049.62794449223
 21
-6839.311872012436
 31
0.0
  0
ARC
  5
B1F2
330
19
100
AcDbEntity
  8
FUTO
100
AcDbCircle
 10
11415.24583005417
 20
-8869.134883742871
 30
0.0
 40
1589.0
100
AcDbArc
 50
180.0000000000002
 51
245.2465979402465
  0
ARC
  5
B1FA
330
19
100
AcDbEntity
  8
FUTO
100
AcDbCircle
 10
11145.74583005417
 20
-8599.63488374287
 30
0.0
 40
1074.5
100
AcDbArc
 50
78.70239976940196
 51
90.0
  0
ARC
  5
B32D
330
19
100
AcDbEntity
  8
FUTO
100
AcDbCircle
 10
11145.74583005417
 20
-8844.63488374287
 30
0.0
 40
1319.5
100
AcDbArc
 50
90.0
 51
179.9999999999999
  0
LINE
  5
C236
330
19
100
AcDbEntity
  8
FUTO
100
AcDbLine
 10
15481.42794449223
 20
-8812.134883742869
 30
0.0
 11
15724.62794449224
 21
-8812.134883742871
 31
0.0
  0
LINE
  5
C239
330
19
100
AcDbEntity
  8
SL
100
AcDbLine
 10
15099.62794449223
 20
-8242.134883742874
 30
0.0
 11
15099.62794449223
 21
-10182.13488374287
 31
0.0
  0
CIRCLE
  5
C26F
330
19
100
AcDbEntity
  8
FUTO
100
AcDbCircle
 10
11268.24583005417
 20
-8722.134883742871
 30
0.0
 40
1075.0
  0
CIRCLE
  5
C270
330
19
100
AcDbEntity
  8
FUTO
100
AcDbCircle
 10
11268.24583005417
 20
-8722.134883742871
 30
0.0
 40
1000.0
  0
LINE
  5
C271
330
19
100
AcDbEntity
  8
FUTO
100
AcDbLine
 10
10088.24583005417
 20
-10492.13488374287
 30
0.0
 11
10088.24583005417
 21
-10312.13488374287
 31
0.0
  0
LINE
  5
C272
330
19
100
AcDbEntity
  8
FUTO
100
AcDbLine
 10
14288.24583005417
 20
-10492.13488374287
 30
0.0
 11
14288.24583005417
 21
-10312.13488374287
 31
0.0
  0
LINE
  5
C27B
330
19
100
AcDbEntity
  8
CT
100
AcDbLine
 10
16352.84961383672
 20
-9962.134883742873
 30
0.0
 11
15099.62794449223
 21
-9962.134883742869
 31
0.0
  0
LINE
  5
C27C
330
19
100
AcDbEntity
  8
SL
100
AcDbLine
 10
15099.62794449223
 20
-8242.13488374287
 30
0.0
 11
15389.62794449223
 21
-8242.13488374287
 31
0.0
  0
LINE
  5
C27D
330
19
100
AcDbEntity
  8
SL
100
AcDbLine
 10
15389.62794449223
 20
-10182.13488374287
 30
0.0
 11
15099.62794449223
 21
-10182.13488374287
 31
0.0
  0
LINE
  5
C27E
330
19
100
AcDbEntity
  8
SL
100
AcDbLine
 10
15389.62794449223
 20
-8242.134883742874
 30
0.0
 11
15389.62794449223
 21
-8292.134883742868
 31
0.0
  0
LINE
  5
C282
330
19
100
AcDbEntity
  8
SL
100
AcDbLine
 10
15389.62794449223
 20
-10132.13488374286
 30
0.0
 11
15389.62794449223
 21
-10182.13488374287
 31
0.0
  0
LINE
  5
C283
330
19
100
AcDbEntity
  8
FUTO
100
AcDbLine
 10
10088.24583005417
 20
-5304.290027528357
 30
0.0
 11
14288.24583005417
 21
-5304.290027528353
 31
0.0
  0
LINE
  5
C284
330
19
100
AcDbEntity
  8
FUTO
100
AcDbLine
 10
10088.24583005417
 20
-5304.290027528357
 30
0.0
 11
10088.24583005416
 21
-4783.290027528358
 31
0.0
  0
LINE
  5
C285
330
19
100
AcDbEntity
  8
FUTO
100
AcDbLine
 10
10088.24583005417
 20
-2054.290027528358
 30
0.0
 11
12448.24583005417
 21
-2054.290027528358
 31
0.0
  0
LINE
  5
C286
330
19
100
AcDbEntity
  8
FUTO
100
AcDbLine
 10
12448.24583005417
 20
-2054.290027528358
 30
0.0
 11
12448.24583005417
 21
-2133.290027528357
 31
0.0
  0
LINE
  5
C287
330
19
100
AcDbEntity
  8
FUTO
100
AcDbLine
 10
14288.24583005417
 20
-5304.290027528353
 30
0.0
 11
14288.24583005417
 21
-4004.290027528353
 31
0.0
  0
LINE
  5
C288
330
19
100
AcDbEntity
  8
FUTO
100
AcDbLine
 10
14288.24583005417
 20
-4004.290027528353
 30
0.0
 11
13495.24583005417
 21
-4004.290027528353
 31
0.0
  0
LINE
  5
C28B
330
19
100
AcDbEntity
  8
CT
100
AcDbLine
 10
11268.24583005417
 20
-1951.25560928831
 30
0.0
 11
11268.24583005417
 21
-5408.290027528358
 31
0.0
  0
LINE
  5
C28C
330
19
100
AcDbEntity
  8
CT
100
AcDbLine
 10
13668.24583005417
 20
-5408.290027528359
 30
0.0
 11
13668.24583005417
 21
-4163.458375330086
 31
0.0
  0
LINE
  5
C28D
330
19
100
AcDbEntity
  8
CT
100
AcDbLine
 10
9768.966010432807
 20
-3458.290027528357
 30
0.0
 11
13607.78231743361
 21
-3458.290027528357
 31
0.0
  0
LINE
  5
C28E
330
19
100
AcDbEntity
  8
SL
100
AcDbLine
 10
10788.24583005417
 20
-5408.290027528358
 30
0.0
 11
13888.24583005417
 21
-5408.290027528359
 31
0.0
  0
LINE
  5
C290
330
19
100
AcDbEntity
  8
SL
100
AcDbLine
 10
13888.24583005416
 20
-5408.290027528359
 30
0.0
 11
13888.24583005416
 21
-5118.29002752836
 31
0.0
  0
LINE
  5
C291
330
19
100
AcDbEntity
  8
SL
100
AcDbLine
 10
10788.24583005417
 20
-5118.290027528357
 30
0.0
 11
10788.24583005417
 21
-5408.290027528358
 31
0.0
  0
LINE
  5
C292
330
19
100
AcDbEntity
  8
SL
100
AcDbLine
 10
10788.24583005417
 20
-5118.290027528357
 30
0.0
 11
10838.24583005417
 21
-5118.29002752836
 31
0.0
  0
LINE
  5
C295
330
19
100
AcDbEntity
  8
SL
100
AcDbLine
 10
13838.24583005416
 20
-5118.29002752836
 30
0.0
 11
13888.24583005417
 21
-5118.29002752836
 31
0.0
  0
LINE
  5
C297
330
19
100
AcDbEntity
  8
SL
100
AcDbLine
 10
10868.24583005417
 20
-5308.290027528357
 30
0.0
 11
13808.24583005417
 21
-5308.290027528359
 31
0.0
  0
LINE
  5
C298
330
19
100
AcDbEntity
  8
SL
100
AcDbLine
 10
10868.24583005417
 20
-5168.290027528357
 30
0.0
 11
13808.24583005417
 21
-5168.290027528359
 31
0.0
  0
LINE
  5
C299
330
19
100
AcDbEntity
  8
SL
100
AcDbLine
 10
10868.24583005416
 20
-5168.290027528357
 30
0.0
 11
10868.24583005417
 21
-5308.290027528359
 31
0.0
  0
LINE
  5
C29A
330
19
100
AcDbEntity
  8
SL
100
AcDbLine
 10
11668.24583005417
 20
-5168.290027528357
 30
0.0
 11
11668.24583005417
 21
-5308.290027528357
 31
0.0
  0
LINE
  5
C29B
330
19
100
AcDbEntity
  8
SL
100
AcDbLine
 10
13808.24583005416
 20
-5308.290027528359
 30
0.0
 11
13808.24583005416
 21
-5168.290027528359
 31
0.0
  0
LINE
  5
C29C
330
19
100
AcDbEntity
  8
SL
100
AcDbLine
 10
13528.24583005417
 20
-5308.290027528359
 30
0.0
 11
13528.24583005417
 21
-5168.290027528357
 31
0.0
  0
LINE
  5
C2A0
330
19
100
AcDbEntity
  8
FUTO
100
AcDbLine
 10
9826.245830054169
 20
-2133.290027528357
 30
0.0
 11
11277.24583005417
 21
-2133.290027528357
 31
0.0
  0
LINE
  5
C2A1
330
19
100
AcDbEntity
  8
FUTO
100
AcDbLine
 10
9826.245830054169
 20
-4783.290027528358
 30
0.0
 11
11277.24583005417
 21
-4783.290027528358
 31
0.0
  0
LINE
  5
C2A2
330
19
100
AcDbEntity
  8
FUTO
100
AcDbLine
 10
10088.24583005416
 20
-2133.290027528357
 30
0.0
 11
10088.24583005417
 21
-2054.290027528358
 31
0.0
  0
DIMENSION
  5
C2B4
330
19
100
AcDbEntity
  8
SP
100
AcDbDimension
280
     0
  2
*D1
 10
12448.24583005417
 20
-1724.618035081396
 30
0.0
 11
11268.24583005417
 21
-1600.868035081395
 31
0.0
 12
-291.7273480768563
 22
0.0
 32
0.0
 70
    32
 71
     5
 42
-1.0
 73
     0
 74
     0
 75
     0
  3
MATSU
100
AcDbAlignedDimension
 13
10088.24583005417
 23
-2054.290027528358
 33
0.0
 14
12448.24583005417
 24
-2054.290027528358
 34
0.0
100
AcDbRotatedDimension
1001
ACAD
1000
DSTYLE
1002
{
1070
   140
1040
2.5
1070
    40
1040
55.0
1070
   147
1040
1.0
1070
   271
1070
     0
1002
}
  0
DIMENSION
  5
C2C1
330
19
100
AcDbEntity
  8
SP
100
AcDbDimension
280
     0
  2
*D2
 10
14288.24583005417
 20
-1724.618035081396
 30
0.0
 11
13368.24583005417
 21
-1600.868035081395
 31
0.0
 12
-291.7273480768563
 22
0.0
 32
0.0
 70
    32
 71
     5
 42
-1.0
 73
     0
 74
     0
 75
     0
  3
MATSU
100
AcDbAlignedDimension
 13
12448.24583005417
 23
-2054.290027528358
 33
0.0
 14
14288.24583005417
 24
-4004.290027528353
 34
0.0
100
AcDbRotatedDimension
1001
ACAD
1000
DSTYLE
1002
{
1070
   140
1040
2.5
1070
    40
1040
55.0
1070
   147
1040
1.0
1070
   271
1070
     0
1002
}
  0
DIMENSION
  5
C2DB
330
19
100
AcDbEntity
  8
SP
100
AcDbDimension
280
     0
  2
*D3
 10
14288.24583005417
 20
-5751.763338410768
 30
0.0
 11
12188.24583005417
 21
-5628.013338410768
 31
0.0
 12
-291.7273480768563
 22
0.0
 32
0.0
 70
    32
 71
     5
 42
-1.0
 73
     0
 74
     0
 75
     0
  3
MATSU
100
AcDbAlignedDimension
 13
10088.24583005417
 23
-5304.290027528357
 33
0.0
 14
14288.24583005417
 24
-5304.290027528353
 34
0.0
100
AcDbRotatedDimension
1001
ACAD
1000
DSTYLE
1002
{
1070
   140
1040
2.5
1070
    40
1040
55.0
1070
   147
1040
1.0
1070
   271
1070
     0
1002
}
  0
DIMENSION
  5
C2E8
330
19
100
AcDbEntity
  8
SP
100
AcDbDimension
280
     0
  2
*D4
 10
14677.40941085396
 20
-5304.290027528353
 30
0.0
 11
14553.65941085396
 21
-4654.290027528353
 31
0.0
 12
-291.7273480768563
 22
0.0
 32
0.0
 70
    32
 71
     5
 42
-1.0
 73
     0
 74
     0
 75
     0
  3
MATSU
100
AcDbAlignedDimension
 13
14288.24583005417
 23
-4004.290027528353
 33
0.0
 14
14288.24583005417
 24
-5304.290027528353
 34
0.0
 50
270.0
100
AcDbRotatedDimension
1001
ACAD
1000
DSTYLE
1002
{
1070
   140
1040
2.5
1070
    40
1040
55.0
1070
   147
1040
1.0
1070
   271
1070
     0
1002
}
  0
DIMENSION
  5
C350
330
19
100
AcDbEntity
  8
SP
100
AcDbDimension
280
     0
  2
*D5
 10
17049.62794449223
 20
-11037.63562283916
 30
0.0
 11
16126.62794449223
 21
-10913.88562283916
 31
0.0
 12
0.0
 22
110.0
 32
0.0
 70
    32
 71
     5
 42
-1.0
 73
     0
 74
     0
 75
     0
  3
MATSU
100
AcDbAlignedDimension
 13
15203.62794449223
 23
-10692.13488374287
 33
0.0
 14
17049.62794449223
 24
-10692.13488374287
 34
0.0
100
AcDbRotatedDimension
1001
ACAD
1000
DSTYLE
1002
{
1070
   140
1040
2.5
1070
    40
1040
55.0
1070
   147
1040
1.0
1070
   271
1070
     0
1002
}
  0
DIMENSION
  5
C35D
330
19
100
AcDbEntity
  8
SP
100
AcDbDimension
280
     0
  2
*D6
 10
18453.62794449223
 20
-11037.63562283916
 30
0.0
 11
17751.62794449223
 21
-10913.88562283916
 31
0.0
 12
0.0
 22
110.0
 32
0.0
 70
    32
 71
     5
 42
-1.0
 73
     0
 74
     0
 75
     0
  3
MATSU
100
AcDbAlignedDimension
 13
17049.62794449223
 23
-10692.13488374287
 33
0.0
 14
18453.62794449223
 24
-10692.13488374287
 34
0.0
100
AcDbRotatedDimension
1001
ACAD
1000
DSTYLE
1002
{
1070
   140
1040
2.5
1070
    40
1040
55.0
1070
   147
1040
1.0
1070
   271
1070
     0
1002
}
  0
DIMENSION
  5
C36A
330
19
100
AcDbEntity
  8
SP
100
AcDbDimension
280
     0
  2
*D7
 10
18453.62794449223
 20
-11367.38305444039
 30
0.0
 11
16828.62794449223
 21
-11243.63305444039
 31
0.0
 12
0.0
 22
110.0
 32
0.0
 70
    32
 71
     5
 42
-1.0
 73
     0
 74
     0
 75
     0
  3
MATSU
100
AcDbAlignedDimension
 13
15203.62794449223
 23
-10692.13488374287
 33
0.0
 14
18453.62794449223
 24
-10692.13488374287
 34
0.0
100
AcDbRotatedDimension
1001
ACAD
1000
DSTYLE
1002
{
1070
   140
1040
2.5
1070
    40
1040
55.0
1070
   147
1040
1.0
1070
   271
1070
     0
1002
}
  0
DIMENSION
  5
C377
330
19
100
AcDbEntity
  8
SP
100
AcDbDimension
280
     0
  2
*D8
 10
10088.24583005417
 20
-11038.85490382887
 30
0.0
 11
10678.24583005417
 21
-10915.10490382887
 31
0.0
 12
-291.7273480768563
 22
-200.0
 32
0.0
 70
    32
 71
     5
 42
-1.0
 73
     0
 74
     0
 75
     0
  3
MATSU
100
AcDbAlignedDimension
 13
11268.24583005417
 23
-10692.13488374287
 33
0.0
 14
10088.24583005417
 24
-10692.13488374287
 34
0.0
100
AcDbRotatedDimension
1001
ACAD
1000
DSTYLE
1002
{
1070
   140
1040
2.5
1070
    40
1040
55.0
1070
   147
1040
1.0
1070
   271
1070
     0
1002
}
  0
DIMENSION
  5
C384
330
19
100
AcDbEntity
  8
SP
100
AcDbDimension
280
     0
  2
*D9
 10
11268.24583005417
 20
-11038.85490382887
 30
0.0
 11
12778.24583005417
 21
-10915.10490382887
 31
0.0
 12
-291.7273480768563
 22
-200.0
 32
0.0
 70
    32
 71
     5
 42
-1.0
 73
     0
 74
     0
 75
     0
  3
MATSU
100
AcDbAlignedDimension
 13
14288.24583005417
 23
-10692.13488374286
 33
0.0
 14
11268.24583005417
 24
-10692.13488374287
 34
0.0
100
AcDbRotatedDimension
1001
ACAD
1000
DSTYLE
1002
{
1070
   140
1040
2.5
1070
    40
1040
55.0
1070
   147
1040
1.0
1070
   271
1070
     0
1002
}
  0
DIMENSION
  5
C391
330
19
100
AcDbEntity
  8
SP
100
AcDbDimension
280
     0
  2
*D10
 10
10088.24583005417
 20
-11367.38305444039
 30
0.0
 11
12188.24583005417
 21
-11243.63305444039
 31
0.0
 12
-291.7273480768563
 22
-200.0
 32
0.0
 70
    32
 71
     5
 42
-1.0
 73
     0
 74
     0
 75
     0
  3
MATSU
100
AcDbAlignedDimension
 13
14288.24583005417
 23
-10692.13488374286
 33
0.0
 14
10088.24583005417
 24
-10692.13488374287
 34
0.0
100
AcDbRotatedDimension
1001
ACAD
1000
DSTYLE
1002
{
1070
   140
1040
2.5
1070
    40
1040
55.0
1070
   147
1040
1.0
1070
   271
1070
     0
1002
}
  0
LINE
  5
C3C5
330
19
100
AcDbEntity
  8
FUTO
100
AcDbLine
 10
9826.245830054169
 20
-8869.134883742878
 30
0.0
 11
9826.245830054169
 21
-8844.634883742868
 31
0.0
  0
LINE
  5
C3C6
330
19
100
AcDbEntity
  8
FUTO
100
AcDbLine
 10
15645.62794449223
 20
-7447.134883742871
 30
0.0
 11
18453.62794449223
 21
-7447.134883742871
 31
0.0
  0
LINE
  5
C3C7
330
19
100
AcDbEntity
  8
FUTO
100
AcDbLine
 10
15645.62794449224
 20
-7522.134883742872
 30
0.0
 11
18453.62794449223
 21
-7522.134883742872
 31
0.0
  0
DIMENSION
  5
C3E2
330
19
100
AcDbEntity
  8
SP
100
AcDbDimension
280
     0
  2
*D11
 10
18374.62794449223
 20
-7172.732239980833
 30
0.0
 11
17049.62794449223
 21
-7048.982239980833
 31
0.0
 12
0.0
 22
600.0
 32
0.0
 70
    32
 71
     5
 42
-1.0
 73
     0
 74
     0
 75
     0
  3
MATSU
100
AcDbAlignedDimension
 13
15724.62794449223
 23
-7447.134883742871
 33
0.0
 14
18374.62794449223
 24
-7447.134883742872
 34
0.0
100
AcDbRotatedDimension
1001
ACAD
1000
DSTYLE
1002
{
1070
   140
1040
2.5
1070
    40
1040
55.0
1070
   147
1040
1.0
1070
   271
1070
     0
1002
}
  0
ARC
  5
C3E3
330
19
100
AcDbEntity
  8
SL
100
AcDbCircle
 10
11268.24583005417
 20
-8722.134883742871
 30
0.0
 40
480.0
100
AcDbArc
 50
57.15306164210501
 51
248.1991557552019
  0
ARC
  5
C3E4
330
19
100
AcDbEntity
  8
SL
100
AcDbCircle
 10
13668.24583005417
 20
-9962.134883742871
 30
0.0
 40
220.0
100
AcDbArc
 50
248.1991557552017
 51
57.15306164210486
  0
LINE
  5
C3E5
330
19
100
AcDbEntity
  8
SL
100
AcDbLine
 10
13787.573091926
 20
-9777.307925281256
 30
0.0
 11
11528.59621959271
 21
-8318.87606528117
 31
0.0
  0
LINE
  5
C3E6
330
19
100
AcDbEntity
  8
SL
100
AcDbLine
 10
13744.18136033624
 20
-9844.517728358207
 30
0.0
 11
11485.20448800296
 21
-8386.08586835812
 31
0.0
  0
LINE
  5
C3E7
330
19
100
AcDbEntity
  8
SL
100
AcDbLine
 10
13616.25241772868
 20
-10092.1221334051
 30
0.0
 11
11119.69322340992
 21
-9093.527025634967
 31
0.0
  0
LINE
  5
C3E8
330
19
100
AcDbEntity
  8
SL
100
AcDbLine
 10
13586.54189639983
 20
-10166.40056178352
 30
0.0
 11
11089.98270208107
 21
-9167.805454013386
 31
0.0
  0
DIMENSION
  5
C3F5
330
19
100
AcDbEntity
  8
SP
100
AcDbDimension
280
     0
  2
*D12
 10
11356.24583005417
 20
-7176.387860427407
 30
0.0
 11
12386.24583005417
 21
-7052.637860427407
 31
0.0
 12
-291.7273480768563
 22
0.0
 32
0.0
 70
    32
 71
     5
 42
-1.0
 73
     0
 74
     0
 75
     0
  3
MATSU
100
AcDbAlignedDimension
 13
13416.24583005417
 23
-7447.134883742871
 33
0.0
 14
11356.24583005417
 24
-7447.134883742871
 34
0.0
100
AcDbRotatedDimension
1001
ACAD
1000
DSTYLE
1002
{
1070
   140
1040
2.5
1070
    40
1040
55.0
1070
   147
1040
1.0
1070
   271
1070
     0
1002
}
  0
DIMENSION
  5
C402
330
19
100
AcDbEntity
  8
SP
100
AcDbDimension
280
     0
  2
*D13
 10
11268.24583005417
 20
-6818.429297771138
 30
0.0
 11
12342.24583005417
 21
-6694.679297771138
 31
0.0
 12
-291.7273480768563
 22
0.0
 32
0.0
 70
    32
 71
     5
 42
-1.0
 73
     0
 74
     0
 75
     0
  3
MATSU
100
AcDbAlignedDimension
 13
13416.24583005417
 23
-7447.134883742871
 33
0.0
 14
11268.24583005417
 24
-7343.581885628926
 34
0.0
100
AcDbRotatedDimension
1001
ACAD
1000
DSTYLE
1002
{
1070
   140
1040
2.5
1070
    40
1040
55.0
1070
   147
1040
1.0
1070
   271
1070
     0
1002
}
  0
DIMENSION
  5
C41C
330
19
100
AcDbEntity
  8
SP
100
AcDbDimension
280
     0
  2
*D14
 10
9826.245830054169
 20
-6818.429297771138
 30
0.0
 11
10547.24583005417
 21
-6694.679297771138
 31
0.0
 12
-291.7273480768563
 22
0.0
 32
0.0
 70
    32
 71
     5
 42
-1.0
 73
     0
 74
     0
 75
     0
  3
MATSU
100
AcDbAlignedDimension
 13
11268.24583005417
 23
-7343.581885628926
 33
0.0
 14
9826.245830054169
 24
-8844.634883742868
 34
0.0
100
AcDbRotatedDimension
1001
ACAD
1000
DSTYLE
1002
{
1070
   140
1040
2.5
1070
    40
1040
55.0
1070
   147
1040
1.0
1070
   271
1070
     0
1002
}
  0
DIMENSION
  5
C429
330
19
100
AcDbEntity
  8
SP
100
AcDbDimension
280
     0
  2
*D15
 10
9472.822426551932
 20
-8722.134883742871
 30
0.0
 11
9349.072426551932
 21
-8084.63488374287
 31
0.0
 12
-291.7273480768563
 22
0.0
 32
0.0
 70
    32
 71
     5
 42
-1.0
 73
     0
 74
     0
 75
     0
  3
MATSU
100
AcDbAlignedDimension
 13
11277.24583005417
 23
-7447.134883742871
 33
0.0
 14
9744.535279184624
 24
-8722.134883742871
 34
0.0
 50
270.0
100
AcDbRotatedDimension
1001
ACAD
1000
DSTYLE
1002
{
1070
   140
1040
2.5
1070
    40
1040
55.0
1070
   147
1040
1.0
1070
   271
1070
     0
1002
}
  0
DIMENSION
  5
C436
330
19
100
AcDbEntity
  8
SP
100
AcDbDimension
280
     0
  2
*D16
 10
9472.822426551932
 20
-10492.13488374287
 30
0.0
 11
9349.072426551932
 21
-9607.134883742871
 31
0.0
 12
-291.7273480768563
 22
0.0
 32
0.0
 70
    32
 71
     5
 42
-1.0
 73
     0
 74
     0
 75
     0
  3
MATSU
100
AcDbAlignedDimension
 13
9744.535279184624
 23
-8722.134883742871
 33
0.0
 14
10088.24583005417
 24
-10492.13488374287
 34
0.0
 50
270.0
100
AcDbRotatedDimension
1001
ACAD
1000
DSTYLE
1002
{
1070
   140
1040
2.5
1070
    40
1040
55.0
1070
   147
1040
1.0
1070
   271
1070
     0
1002
}
  0
DIMENSION
  5
C443
330
19
100
AcDbEntity
  8
SP
100
AcDbDimension
280
     0
  2
*D17
 10
15099.62794449223
 20
-6818.429297771138
 30
0.0
 11
16074.62794449223
 21
-6658.667393009233
 31
0.0
 70
    32
 71
     5
 42
1949.999999999996
 73
     0
 74
     0
 75
     0
  3
MATSU
100
AcDbAlignedDimension
 13
17049.62794449223
 23
-6899.311872012437
 33
0.0
 14
15099.62794449223
 24
-8242.13488374287
 34
0.0
100
AcDbRotatedDimension
1001
ACAD
1000
DSTYLE
1002
{
1070
   140
1040
2.5
1070
    40
1040
55.0
1070
     3
1000
(<>)
1070
   147
1040
1.0
1070
   271
1070
     0
1002
}
  0
DIMENSION
  5
C450
330
19
100
AcDbEntity
  8
SP
100
AcDbDimension
280
     0
  2
*D18
 10
18629.82794449224
 20
-6818.429297771138
 30
0.0
 11
17839.72794449223
 21
-6658.667393009233
 31
0.0
 70
    32
 71
     5
 42
1580.200000000004
 73
     0
 74
     0
 75
     0
  3
MATSU
100
AcDbAlignedDimension
 13
17049.62794449223
 23
-6899.311872012437
 33
0.0
 14
18629.82794449224
 24
-8812.134883742869
 34
0.0
100
AcDbRotatedDimension
1001
ACAD
1000
DSTYLE
1002
{
1070
   140
1040
2.5
1070
    40
1040
55.0
1070
     3
1000
(<>)
1070
   147
1040
1.0
1070
   271
1070
     0
1002
}
  0
LINE
  5
C452
330
19
100
AcDbEntity
  8
FUTO
100
AcDbLine
 10
13495.24583005417
 20
-4862.290027528358
 30
0.0
 11
13495.24583005417
 21
-2054.290027528358
 31
0.0
  0
LINE
  5
C453
330
19
100
AcDbEntity
  8
FUTO
100
AcDbLine
 10
13416.24583005417
 20
-4783.290027528358
 30
0.0
 11
13416.24583005417
 21
-2133.290027528357
 31
0.0
  0
LINE
  5
C454
330
19
100
AcDbEntity
  8
FUTO
100
AcDbLine
 10
11356.24583005417
 20
-4783.290027528358
 30
0.0
 11
11356.24583005417
 21
-2133.290027528357
 31
0.0
  0
LINE
  5
C455
330
19
100
AcDbEntity
  8
FUTO
100
AcDbLine
 10
11277.24583005417
 20
-4862.290027528358
 30
0.0
 11
11277.24583005417
 21
-2054.290027528358
 31
0.0
  0
LINE
  5
C456
330
19
100
AcDbEntity
  8
FUTO
100
AcDbLine
 10
9826.245830054169
 20
-4783.290027528358
 30
0.0
 11
9826.245830054169
 21
-2133.290027528357
 31
0.0
  0
LINE
  5
C457
330
19
100
AcDbEntity
  8
FUTO
100
AcDbLine
 10
11277.24583005417
 20
-4862.290027528358
 30
0.0
 11
13495.24583005417
 21
-4862.290027528358
 31
0.0
  0
LINE
  5
C459
330
19
100
AcDbEntity
  8
FUTO
100
AcDbLine
 10
11277.24583005417
 20
-2054.290027528358
 30
0.0
 11
13495.24583005417
 21
-2054.290027528358
 31
0.0
  0
DIMENSION
  5
C466
330
19
100
AcDbEntity
  8
SP
100
AcDbDimension
280
     0
  2
*D19
 10
9453.026237538251
 20
-5304.290027528357
 30
0.0
 11
9329.276237538252
 21
-3679.290027528357
 31
0.0
 12
-291.7273480768563
 22
0.0
 32
0.0
 70
    32
 71
     5
 42
-1.0
 73
     0
 74
     0
 75
     0
  3
MATSU
100
AcDbAlignedDimension
 13
10088.24583005417
 23
-2054.290027528358
 33
0.0
 14
10088.24583005417
 24
-5304.290027528357
 34
0.0
 50
270.0
100
AcDbRotatedDimension
1001
ACAD
1000
DSTYLE
1002
{
1070
   140
1040
2.5
1070
    40
1040
55.0
1070
   147
1040
1.0
1070
   271
1070
     0
1002
}
  0
LINE
  5
C467
330
19
100
AcDbEntity
  8
FUTO
100
AcDbLine
 10
11356.24583005417
 20
-4783.290027528358
 30
0.0
 11
13416.24583005417
 21
-4783.290027528358
 31
0.0
  0
LINE
  5
C468
330
19
100
AcDbEntity
  8
FUTO
100
AcDbLine
 10
11356.24583005417
 20
-2133.290027528357
 30
0.0
 11
13416.24583005417
 21
-2133.290027528357
 31
0.0
  0
LINE
  5
C469
330
19
100
AcDbEntity
  8
FUTO
100
AcDbLine
 10
11356.24583005417
 20
-2133.290027528357
 30
0.0
 11
13416.24583005417
 21
-4783.290027528358
 31
0.0
  0
LINE
  5
C46A
330
19
100
AcDbEntity
  8
FUTO
100
AcDbLine
 10
13416.24583005417
 20
-2133.290027528357
 30
0.0
 11
11356.24583005417
 21
-4783.290027528358
 31
0.0
  0
LINE
  5
C4FF
330
19
100
AcDbEntity
  8
FUTO
100
AcDbLine
 10
16309.62794449223
 20
-10232.13488374287
 30
0.0
 11
16309.62794449223
 21
-9692.13488374287
 31
0.0
  0
LINE
  5
C501
330
19
100
AcDbEntity
  8
FUTO
100
AcDbLine
 10
15724.62794449223
 20
-10232.13488374287
 30
0.0
 11
15724.62794449223
 21
-10312.13488374287
 31
0.0
  0
LINE
  5
C504
330
19
100
AcDbEntity
  8
FUTO
100
AcDbLine
 10
18453.62794449223
 20
-10692.13488374287
 30
0.0
 11
15203.62794449223
 21
-10692.13488374287
 31
0.0
  0
LINE
  5
C505
330
19
100
AcDbEntity
  8
FUTO
100
AcDbLine
 10
18453.62794449222
 20
-10512.13488374286
 30
0.0
 11
15203.62794449223
 21
-10512.13488374287
 31
0.0
  0
LINE
  5
C506
330
19
100
AcDbEntity
  8
FUTO
100
AcDbLine
 10
18453.62794449223
 20
-10512.13488374287
 30
0.0
 11
18453.62794449223
 21
-10692.13488374287
 31
0.0
  0
LINE
  5
C507
330
19
100
AcDbEntity
  8
FUTO
100
AcDbLine
 10
15203.62794449223
 20
-10512.13488374287
 30
0.0
 11
15203.62794449223
 21
-10692.13488374287
 31
0.0
  0
LINE
  5
C508
330
19
100
AcDbEntity
  8
FUTO
100
AcDbLine
 10
10088.24583005417
 20
-10692.13488374287
 30
0.0
 11
14288.24583005417
 21
-10692.13488374286
 31
0.0
  0
LINE
  5
C509
330
19
100
AcDbEntity
  8
FUTO
100
AcDbLine
 10
10088.24583005417
 20
-10512.13488374287
 30
0.0
 11
14288.24583005417
 21
-10512.13488374287
 31
0.0
  0
LINE
  5
C50A
330
19
100
AcDbEntity
  8
FUTO
100
AcDbLine
 10
14288.24583005417
 20
-10692.13488374287
 30
0.0
 11
14288.24583005417
 21
-10512.13488374287
 31
0.0
  0
LINE
  5
C50B
330
19
100
AcDbEntity
  8
FUTO
100
AcDbLine
 10
10088.24583005417
 20
-10692.13488374287
 30
0.0
 11
10088.24583005417
 21
-10512.13488374287
 31
0.0
  0
DIMENSION
  5
C522
330
19
100
AcDbEntity
  8
SP
100
AcDbDimension
280
     0
  2
*D21
 10
9472.310997027133
 20
-10692.13488374287
 30
0.0
 11
9348.560997027133
 21
-11135.68153092074
 31
0.0
 70
    32
 71
     5
 42
-1.0
 73
     0
 74
     0
 75
     0
  3
MATSU
100
AcDbAlignedDimension
 13
10088.24583005417
 23
-10512.13488374287
 33
0.0
 14
10088.24583005417
 24
-10692.13488374287
 34
0.0
 50
90.0
100
AcDbRotatedDimension
1001
ACAD
1000
DSTYLE
1002
{
1070
   140
1040
2.5
1070
    40
1040
55.0
1070
   147
1040
1.0
1070
   271
1070
     0
1070
     6
1000
_DOT
1002
}
  0
DIMENSION
  5
C531
330
19
100
AcDbEntity
  8
SP
100
AcDbDimension
280
     0
  2
*D23
 10
9472.310997027133
 20
-10492.13488374287
 30
0.0
 11
9230.049092265231
 21
-10502.13488374287
 31
0.0
 70
    32
 71
     5
 42
-1.0
 73
     0
 74
     0
 75
     0
  3
MATSU
100
AcDbAlignedDimension
 13
10088.24583005417
 23
-10512.13488374287
 33
0.0
 14
10088.24583005417
 24
-10492.13488374287
 34
0.0
 50
90.0
100
AcDbRotatedDimension
1001
ACAD
1000
DSTYLE
1002
{
1070
   287
1070
     5
1070
     3
1000
(<>)
1070
    40
1040
55.0
1070
    75
1070
     1
1070
    76
1070
     1
1070
   140
1040
2.5
1070
   147
1040
1.0
1070
   271
1070
     0
1070
   279
1070
     2
1070
   289
1070
     3
1070
     6
1000
NONE
1070
     7
1000
NONE
1002
}
  0
ENDSEC
  0
SECTION
  2
OBJECTS
  0
DICTIONARY
  5
C
330
0
100
AcDbDictionary
281
     1
  3
ACAD_CIP_PREVIOUS_PRODUCT_INFO
350
C5CF
  3
ACAD_COLOR
350
C5B1
  3
ACAD_DETAILVIEWSTYLE
350
C5CA
  3
ACAD_GROUP
350
D
  3
ACAD_LAYOUT
350
C537
  3
ACAD_MATERIAL
350
C57F
  3
ACAD_MLEADERSTYLE
350
C5C6
  3
ACAD_MLINESTYLE
350
E
  3
ACAD_PLOTSETTINGS
350
C538
  3
ACAD_PLOTSTYLENAME
350
C535
  3
ACAD_SCALELIST
350
C5B4
  3
ACAD_SECTIONVIEWSTYLE
350
C5C8
  3
ACAD_TABLESTYLE
350
C5B2
  3
ACAD_VISUALSTYLE
350
C598
  3
ACDB_RECOMPOSE_DATA
350
C624
  3
AcDbVariableDictionary
350
C576
  3
AcDsDecomposeData
350
C62A
  0
DICTIONARY
  5
C5F1
330
2
100
AcDbDictionary
280
     1
281
     1
  3
ACAD_LAYERSTATES
360
C5F2
  0
DICTIONARY
  5
C5E2
330
F
100
AcDbDictionary
280
     1
281
     1
  3
ADSK_XREC_LAYER_RECONCILED
360
C5E3
  0
DICTIONARY
  5
C5E4
330
2F
100
AcDbDictionary
280
     1
281
     1
  3
ADSK_XREC_LAYER_RECONCILED
360
C5E5
  0
DICTIONARY
  5
C5E6
330
30
100
AcDbDictionary
280
     1
281
     1
  3
ADSK_XREC_LAYER_RECONCILED
360
C5E7
  0
DICTIONARY
  5
C5E8
330
35
100
AcDbDictionary
280
     1
281
     1
  3
ADSK_XREC_LAYER_RECONCILED
360
C5E9
  0
DICTIONARY
  5
C5EA
330
36
100
AcDbDictionary
280
     1
281
     1
  3
ADSK_XREC_LAYER_RECONCILED
360
C5EB
  0
DICTIONARY
  5
C5EC
330
99F1
100
AcDbDictionary
280
     1
281
     1
  3
ADSK_XREC_LAYER_RECONCILED
360
C5ED
  0
DICTIONARY
  5
C564
330
19
100
AcDbDictionary
280
     1
281
     1
  3
ACAD_LAYOUTSELFREF
360
C565
  0
DICTIONARY
  5
C562
330
16
100
AcDbDictionary
280
     1
281
     1
  3
ACAD_LAYOUTSELFREF
360
C563
  0
XRECORD
  5
C5CF
102
{ACAD_REACTORS
330
C
102
}
330
C
100
AcDbXrecord
280
     1
300
ACDLT
300
2023
300

  0
DICTIONARY
  5
C5B1
102
{ACAD_REACTORS
330
C
102
}
330
C
100
AcDbDictionary
281
     1
  0
DICTIONARY
  5
C5CA
102
{ACAD_REACTORS
330
C
102
}
330
C
100
AcDbDictionary
281
     1
  3
Metric50
350
C5CB
  0
DICTIONARY
  5
D
102
{ACAD_REACTORS
330
C
102
}
330
C
100
AcDbDictionary
281
     1
  0
DICTIONARY
  5
C537
102
{ACAD_REACTORS
330
C
102
}
330
C
100
AcDbDictionary
281
     1
  3
Model
350
C539
  3
ﾚｲｱｳﾄ1
350
C53A
  0
DICTIONARY
  5
C57F
102
{ACAD_REACTORS
330
C
102
}
330
C
100
AcDbDictionary
281
     1
  3
ByBlock
350
C588
  3
ByLayer
350
C580
  3
Global
350
C590
  0
DICTIONARY
  5
C5C6
102
{ACAD_REACTORS
330
C
102
}
330
C
100
AcDbDictionary
281
     1
  3
Standard
350
C5C7
  0
DICTIONARY
  5
E
102
{ACAD_REACTORS
330
C
102
}
330
C
100
AcDbDictionary
281
     1
  3
STANDARD
350
1C
  0
DICTIONARY
  5
C538
102
{ACAD_REACTORS
330
C
102
}
330
C
100
AcDbDictionary
281
     1
  0
ACDBDICTIONARYWDFLT
  5
C535
102
{ACAD_REACTORS
330
C
102
}
330
C
100
AcDbDictionary
281
     1
  3
Normal
350
C536
100
AcDbDictionaryWithDefault
340
C536
  0
DICTIONARY
  5
C5B4
102
{ACAD_REACTORS
330
C
102
}
330
C
100
AcDbDictionary
281
     1
  3
A0
350
C5B5
  3
A1
350
C5B6
  3
A2
350
C5B7
  3
A3
350
C5B8
  3
A4
350
C5B9
  3
A5
350
C5BA
  3
A6
350
C5BB
  3
A7
350
C5BC
  3
A8
350
C5BD
  3
A9
350
C5BE
  3
B0
350
C5BF
  3
B1
350
C5C0
  3
B2
350
C5C1
  3
B3
350
C5C2
  3
B4
350
C5C3
  3
B5
350
C5C4
  3
B6
350
C5C5
  0
DICTIONARY
  5
C5C8
102
{ACAD_REACTORS
330
C
102
}
330
C
100
AcDbDictionary
281
     1
  3
Metric50
350
C5C9
  0
DICTIONARY
  5
C5B2
102
{ACAD_REACTORS
330
C
102
}
330
C
100
AcDbDictionary
281
     1
  3
Standard
350
C5B3
  0
DICTIONARY
  5
C598
102
{ACAD_REACTORS
330
C
102
}
330
C
100
AcDbDictionary
281
     1
  3
2dWireframe
350
C59E
  3
Basic
350
C59D
  3
Brighten
350
C5A4
  3
ColorChange
350
C5A8
  3
Conceptual
350
C5A1
  3
Dim
350
C5A3
  3
EdgeColorOff
350
C5B0
  3
Facepattern
350
C5A7
  3
Flat
350
C599
  3
FlatWithEdges
350
C59A
  3
Gouraud
350
C59B
  3
GouraudWithEdges
350
C59C
  3
Hidden
350
C5A0
  3
JitterOff
350
C5AE
  3
Linepattern
350
C5A6
  3
OverhangOff
350
C5AF
  3
Realistic
350
C5A2
  3
Shaded
350
C5AD
  3
Shaded with edges
350
C5AC
  3
Shades of Gray
350
C5A9
  3
Sketchy
350
C5AA
  3
Thicken
350
C5A5
  3
Wireframe
350
C59F
  3
X-Ray
350
C5AB
  0
XRECORD
  5
C624
102
{ACAD_REACTORS
330
C
102
}
330
C
100
AcDbXrecord
280
     1
 90
        1
330
C531
330
C5B3
  0
DICTIONARY
  5
C576
102
{ACAD_REACTORS
330
C
102
}
330
C
100
AcDbDictionary
281
     1
  3
CANNOSCALE
350
C618
  3
CMLEADERSTYLE
350
C614
  3
CTABLESTYLE
350
C613
  3
CVIEWDETAILSTYLE
350
C615
  3
CVIEWSECTIONSTYLE
350
C616
  3
DIMASSOC
350
C577
  3
LAYEREVAL
350
C61A
  3
LAYERNOTIFY
350
C61B
  3
LIGHTINGUNITS
350
C619
  3
MARKUPASSISTMODE
350
C621
  3
MSLTSCALE
350
C617
  0
DICTIONARY
  5
C62A
102
{ACAD_REACTORS
330
C
102
}
330
C
100
AcDbDictionary
281
     1
  3
AcDsRecords
350
C62C
  3
AcDsSchemas
350
C62B
1001
ACAD
1070
     2
  0
DICTIONARY
  5
C5F2
102
{ACAD_REACTORS
330
C5F1
102
}
330
C5F1
100
AcDbDictionary
281
     1
  0
XRECORD
  5
C5E3
102
{ACAD_REACTORS
330
C5E2
102
}
330
C5E2
100
AcDbXrecord
280
     1
290
     1
  0
XRECORD
  5
C5E5
102
{ACAD_REACTORS
330
C5E4
102
}
330
C5E4
100
AcDbXrecord
280
     1
290
     1
  0
XRECORD
  5
C5E7
102
{ACAD_REACTORS
330
C5E6
102
}
330
C5E6
100
AcDbXrecord
280
     1
290
     1
  0
XRECORD
  5
C5E9
102
{ACAD_REACTORS
330
C5E8
102
}
330
C5E8
100
AcDbXrecord
280
     1
290
     1
  0
XRECORD
  5
C5EB
102
{ACAD_REACTORS
330
C5EA
102
}
330
C5EA
100
AcDbXrecord
280
     1
290
     1
  0
XRECORD
  5
C5ED
102
{ACAD_REACTORS
330
C5EC
102
}
330
C5EC
100
AcDbXrecord
280
     1
290
     1
  0
XRECORD
  5
C565
102
{ACAD_REACTORS
330
C564
102
}
330
C564
100
AcDbXrecord
280
     1
340
19
  0
XRECORD
  5
C563
102
{ACAD_REACTORS
330
C562
102
}
330
C562
100
AcDbXrecord
280
     1
340
16
  0
ACDBDETAILVIEWSTYLE
  5
C5CB
102
{ACAD_XDICTIONARY
360
C62F
102
}
102
{ACAD_REACTORS
330
C5CA
102
}
330
C5CA
100
AcDbModelDocViewStyle
 70
     0
  3
Metric50
290
     0
100
AcDbDetailViewStyle
 70
     0
 71
     0
 90
        3
 71
     1
340
10
 62
   256
 40
5.0
340
0
 62
   256
 40
5.0
300

 40
0.0
280
     1
 71
     2
340
15
 90
       25
 62
   256
 71
     3
340
10
 62
   256
 40
5.0
 90
        0
 40
15.0
 90
        1
300
%<\AcVar ViewDetailId>% (%<\AcVar ViewScale \f "%sn">%)
 71
     4
340
15
 90
       25
 62
   256
340
15
 90
       25
 62
   256
280
     0
  0
LAYOUT
  5
C539
102
{ACAD_REACTORS
330
C537
102
}
330
C537
100
AcDbPlotSettings
  1

  2
\\Txbo34x8944cqyd\EPSON LP-6100
  4

  6

 40
0.0
 41
0.0
 42
0.0
 43
0.0
 44
0.0
 45
0.0
 46
0.0
 47
0.0
 48
0.0
 49
0.0
140
0.0
141
0.0
142
1.0
143
1.0
 70
  1712
 72
     0
 73
     0
 74
     0
  7
GOD2000TABLE.ctb
 75
     0
147
1.0
 76
     0
 77
     2
 78
   300
148
0.0
149
0.0
100
AcDbLayout
  1
Model
 70
     1
 71
     0
 10
0.0
 20
0.0
 11
12.0
 21
9.0
 12
0.0
 22
0.0
 32
0.0
 14
0.0
 24
0.0
 34
0.0
 15
0.0
 25
0.0
 35
0.0
146
0.0
 13
0.0
 23
0.0
 33
0.0
 16
1.0
 26
0.0
 36
0.0
 17
0.0
 27
1.0
 37
0.0
 76
     0
330
19
331
C57D
  0
LAYOUT
  5
C53A
102
{ACAD_REACTORS
330
C537
102
}
330
C537
100
AcDbPlotSettings
  1

  2
\\Txbo34x8944cqyd\EPSON LP-6100
  4

  6

 40
0.0
 41
0.0
 42
0.0
 43
0.0
 44
0.0
 45
0.0
 46
0.0
 47
0.0
 48
0.0
 49
0.0
140
0.0
141
0.0
142
1.0
143
1.0
 70
   688
 72
     0
 73
     0
 74
     5
  7
GOD2000TABLE.ctb
 75
    16
147
1.0
 76
     0
 77
     2
 78
   300
148
0.0
149
0.0
100
AcDbLayout
  1
ﾚｲｱｳﾄ1
 70
     0
 71
     1
 10
0.0
 20
0.0
 11
12.0
 21
9.0
 12
0.0
 22
0.0
 32
0.0
 14
1.000000000000000E+20
 24
1.000000000000000E+20
 34
1.000000000000000E+20
 15
-1.000000000000000E+20
 25
-1.000000000000000E+20
 35
-1.000000000000000E+20
146
0.0
 13
0.0
 23
0.0
 33
0.0
 16
1.0
 26
0.0
 36
0.0
 17
0.0
 27
1.0
 37
0.0
 76
     0
330
16
  0
MATERIAL
  5
C588
102
{ACAD_XDICTIONARY
360
C589
102
}
102
{ACAD_REACTORS
330
C57F
102
}
330
C57F
100
AcDbMaterial
  1
ByBlock
 72
     0
 43
0.0208333333333333
 43
0.0
 43
0.0
 43
0.0
 43
0.0
 43
0.0208333333333333
 43
0.0
 43
0.0
 43
0.0
 43
0.0
 43
1.0
 43
0.0
 43
0.0
 43
0.0
 43
0.0
 43
1.0
 77
     0
 47
0.0208333333333333
 47
0.0
 47
0.0
 47
0.0
 47
0.0
 47
0.0208333333333333
 47
0.0
 47
0.0
 47
0.0
 47
0.0
 47
1.0
 47
0.0
 47
0.0
 47
0.0
 47
0.0
 47
1.0
171
     0
 49
0.0208333333333333
 49
0.0
 49
0.0
 49
0.0
 49
0.0
 49
0.0208333333333333
 49
0.0
 49
0.0
 49
0.0
 49
0.0
 49
1.0
 49
0.0
 49
0.0
 49
0.0
 49
0.0
 49
1.0
175
     0
142
0.0208333333333333
142
0.0
142
0.0
142
0.0
142
0.0
142
0.0208333333333333
142
0.0
142
0.0
142
0.0
142
0.0
142
1.0
142
0.0
142
0.0
142
0.0
142
0.0
142
1.0
179
     0
144
0.0208333333333333
144
0.0
144
0.0
144
0.0
144
0.0
144
0.0208333333333333
144
0.0
144
0.0
144
0.0
144
0.0
144
1.0
144
0.0
144
0.0
144
0.0
144
0.0
144
1.0
147
0.0208333333333333
147
0.0
147
0.0
147
0.0
147
0.0
147
0.0208333333333333
147
0.0
147
0.0
147
0.0
147
0.0
147
1.0
147
0.0
147
0.0
147
0.0
147
0.0
147
1.0
  0
MATERIAL
  5
C580
102
{ACAD_XDICTIONARY
360
C581
102
}
102
{ACAD_REACTORS
330
C57F
102
}
330
C57F
100
AcDbMaterial
  1
ByLayer
 72
     0
 43
0.0208333333333333
 43
0.0
 43
0.0
 43
0.0
 43
0.0
 43
0.0208333333333333
 43
0.0
 43
0.0
 43
0.0
 43
0.0
 43
1.0
 43
0.0
 43
0.0
 43
0.0
 43
0.0
 43
1.0
 77
     0
 47
0.0208333333333333
 47
0.0
 47
0.0
 47
0.0
 47
0.0
 47
0.0208333333333333
 47
0.0
 47
0.0
 47
0.0
 47
0.0
 47
1.0
 47
0.0
 47
0.0
 47
0.0
 47
0.0
 47
1.0
171
     0
 49
0.0208333333333333
 49
0.0
 49
0.0
 49
0.0
 49
0.0
 49
0.0208333333333333
 49
0.0
 49
0.0
 49
0.0
 49
0.0
 49
1.0
 49
0.0
 49
0.0
 49
0.0
 49
0.0
 49
1.0
175
     0
142
0.0208333333333333
142
0.0
142
0.0
142
0.0
142
0.0
142
0.0208333333333333
142
0.0
142
0.0
142
0.0
142
0.0
142
1.0
142
0.0
142
0.0
142
0.0
142
0.0
142
1.0
179
     0
144
0.0208333333333333
144
0.0
144
0.0
144
0.0
144
0.0
144
0.0208333333333333
144
0.0
144
0.0
144
0.0
144
0.0
144
1.0
144
0.0
144
0.0
144
0.0
144
0.0
144
1.0
147
0.0208333333333333
147
0.0
147
0.0
147
0.0
147
0.0
147
0.0208333333333333
147
0.0
147
0.0
147
0.0
147
0.0
147
1.0
147
0.0
147
0.0
147
0.0
147
0.0
147
1.0
  0
MATERIAL
  5
C590
102
{ACAD_XDICTIONARY
360
C591
102
}
102
{ACAD_REACTORS
330
C57F
102
}
330
C57F
100
AcDbMaterial
  1
Global
 72
     0
 43
0.0208333333333333
 43
0.0
 43
0.0
 43
0.0
 43
0.0
 43
0.0208333333333333
 43
0.0
 43
0.0
 43
0.0
 43
0.0
 43
1.0
 43
0.0
 43
0.0
 43
0.0
 43
0.0
 43
1.0
 77
     0
 47
0.0208333333333333
 47
0.0
 47
0.0
 47
0.0
 47
0.0
 47
0.0208333333333333
 47
0.0
 47
0.0
 47
0.0
 47
0.0
 47
1.0
 47
0.0
 47
0.0
 47
0.0
 47
0.0
 47
1.0
171
     0
 49
0.0208333333333333
 49
0.0
 49
0.0
 49
0.0
 49
0.0
 49
0.0208333333333333
 49
0.0
 49
0.0
 49
0.0
 49
0.0
 49
1.0
 49
0.0
 49
0.0
 49
0.0
 49
0.0
 49
1.0
175
     0
142
0.0208333333333333
142
0.0
142
0.0
142
0.0
142
0.0
142
0.0208333333333333
142
0.0
142
0.0
142
0.0
142
0.0
142
1.0
142
0.0
142
0.0
142
0.0
142
0.0
142
1.0
179
     0
144
0.0208333333333333
144
0.0
144
0.0
144
0.0
144
0.0
144
0.0208333333333333
144
0.0
144
0.0
144
0.0
144
0.0
144
1.0
144
0.0
144
0.0
144
0.0
144
0.0
144
1.0
147
0.0208333333333333
147
0.0
147
0.0
147
0.0
147
0.0
147
0.0208333333333333
147
0.0
147
0.0
147
0.0
147
0.0
147
1.0
147
0.0
147
0.0
147
0.0
147
0.0
147
1.0
  0
MLEADERSTYLE
  5
C5C7
102
{ACAD_REACTORS
330
C5C6
102
}
330
C5C6
100
AcDbMLeaderStyle
179
     2
170
     2
171
     1
172
     0
 90
        2
 40
0.0
 41
0.0
173
     1
 91
-1056964608
340
13
 92
       -2
290
     1
 42
2.0
291
     1
 43
0.36
  3
Standard
 44
4.0
300

342
10
174
     1
178
     6
175
     1
176
     0
 93
-1056964608
 45
4.0
292
     0
297
     0
 46
4.0
 94
-1056964608
 47
1.0
 49
1.0
140
1.0
293
     1
141
0.0
294
     1
177
     0
142
1.0
295
     0
296
     0
143
0.125
271
     0
272
     9
273
     9
298
     1
  0
MLINESTYLE
  5
1C
102
{ACAD_REACTORS
330
E
102
}
330
E
100
AcDbMlineStyle
  2
STANDARD
 70
     0
  3

 62
     0
 51
90.0
 52
90.0
 71
     2
 49
0.5
 62
   256
  6
BYLAYER
 49
-0.5
 62
   256
  6
BYLAYER
  0
ACDBPLACEHOLDER
  5
C536
102
{ACAD_REACTORS
330
C535
102
}
330
C535
  0
SCALE
  5
C5B5
102
{ACAD_REACTORS
330
C5B4
102
}
330
C5B4
100
AcDbScale
 70
     0
300
1:1
140
1.0
141
1.0
290
     1
  0
SCALE
  5
C5B6
102
{ACAD_REACTORS
330
C5B4
102
}
330
C5B4
100
AcDbScale
 70
     0
300
1:2
140
1.0
141
2.0
290
     0
  0
SCALE
  5
C5B7
102
{ACAD_REACTORS
330
C5B4
102
}
330
C5B4
100
AcDbScale
 70
     0
300
1:4
140
1.0
141
4.0
290
     0
  0
SCALE
  5
C5B8
102
{ACAD_REACTORS
330
C5B4
102
}
330
C5B4
100
AcDbScale
 70
     0
300
1:5
140
1.0
141
5.0
290
     0
  0
SCALE
  5
C5B9
102
{ACAD_REACTORS
330
C5B4
102
}
330
C5B4
100
AcDbScale
 70
     0
300
1:8
140
1.0
141
8.0
290
     0
  0
SCALE
  5
C5BA
102
{ACAD_REACTORS
330
C5B4
102
}
330
C5B4
100
AcDbScale
 70
     0
300
1:10
140
1.0
141
10.0
290
     0
  0
SCALE
  5
C5BB
102
{ACAD_REACTORS
330
C5B4
102
}
330
C5B4
100
AcDbScale
 70
     0
300
1:16
140
1.0
141
16.0
290
     0
  0
SCALE
  5
C5BC
102
{ACAD_REACTORS
330
C5B4
102
}
330
C5B4
100
AcDbScale
 70
     0
300
1:20
140
1.0
141
20.0
290
     0
  0
SCALE
  5
C5BD
102
{ACAD_REACTORS
330
C5B4
102
}
330
C5B4
100
AcDbScale
 70
     0
300
1:30
140
1.0
141
30.0
290
     0
  0
SCALE
  5
C5BE
102
{ACAD_REACTORS
330
C5B4
102
}
330
C5B4
100
AcDbScale
 70
     0
300
1:40
140
1.0
141
40.0
290
     0
  0
SCALE
  5
C5BF
102
{ACAD_REACTORS
330
C5B4
102
}
330
C5B4
100
AcDbScale
 70
     0
300
1:50
140
1.0
141
50.0
290
     0
  0
SCALE
  5
C5C0
102
{ACAD_REACTORS
330
C5B4
102
}
330
C5B4
100
AcDbScale
 70
     0
300
1:100
140
1.0
141
100.0
290
     0
  0
SCALE
  5
C5C1
102
{ACAD_REACTORS
330
C5B4
102
}
330
C5B4
100
AcDbScale
 70
     0
300
2:1
140
2.0
141
1.0
290
     0
  0
SCALE
  5
C5C2
102
{ACAD_REACTORS
330
C5B4
102
}
330
C5B4
100
AcDbScale
 70
     0
300
4:1
140
4.0
141
1.0
290
     0
  0
SCALE
  5
C5C3
102
{ACAD_REACTORS
330
C5B4
102
}
330
C5B4
100
AcDbScale
 70
     0
300
8:1
140
8.0
141
1.0
290
     0
  0
SCALE
  5
C5C4
102
{ACAD_REACTORS
330
C5B4
102
}
330
C5B4
100
AcDbScale
 70
     0
300
10:1
140
10.0
141
1.0
290
     0
  0
SCALE
  5
C5C5
102
{ACAD_REACTORS
330
C5B4
102
}
330
C5B4
100
AcDbScale
 70
     0
300
100:1
140
100.0
141
1.0
290
     0
  0
ACDBSECTIONVIEWSTYLE
  5
C5C9
102
{ACAD_XDICTIONARY
360
C62D
102
}
102
{ACAD_REACTORS
330
C5C8
102
}
330
C5C8
100
AcDbModelDocViewStyle
 70
     0
  3
Metric50
290
     0
100
AcDbSectionViewStyle
 70
     0
 71
     0
 90
      102
 71
     1
340
10
 62
   256
 40
5.0
340
0
340
0
 62
   256
 40
5.0
300
I, O, Q, S, X, Z
 40
10.0
 90
        0
 40
2.5
 90
        0
 71
     2
340
15
 90
       25
 62
   256
340
15
 90
       50
 62
   256
 40
5.0
 40
2.5
 40
5.0
 71
     3
340
10
 62
   256
 40
5.0
 90
        0
 40
15.0
 90
        1
300
%<\AcVar ViewSectionStartId>%-%<\AcVar ViewSectionEndId>% (%<\AcVar ViewScale \f "%sn">%)
 71
     4
 62
   256
 62
   257
300
ANSI31
 40
1.0
 90
        0
290
     0
290
     0
 90
        6
 40
0.0
 40
1.570796326794896
 40
0.2617993877991494
 40
1.308996938995747
 40
-0.2617993877991494
 40
1.832595714594046
  0
TABLESTYLE
  5
C5B3
102
{ACAD_XDICTIONARY
360
C622
102
}
102
{ACAD_REACTORS
330
C5B2
102
}
330
C5B2
100
AcDbTableStyle
280
     0
  3
Standard
 70
     0
 71
     0
 40
1.5
 41
1.5
280
     0
281
     0
  7
STANDARD
140
4.5
170
     2
 62
     0
 63
     7
283
     0
 90
      512
 91
        0
  1

274
    -2
284
     1
 64
     0
275
    -2
285
     1
 65
     0
276
    -2
286
     1
 66
     0
277
    -2
287
     1
 67
     0
278
    -2
288
     1
 68
     0
279
    -2
289
     1
 69
     0
  7
STANDARD
140
6.0
170
     5
 62
     0
 63
     7
283
     0
 90
      512
 91
        0
  1

274
    -2
284
     1
 64
     0
275
    -2
285
     1
 65
     0
276
    -2
286
     1
 66
     0
277
    -2
287
     1
 67
     0
278
    -2
288
     1
 68
     0
279
    -2
289
     1
 69
     0
  7
STANDARD
140
4.5
170
     5
 62
     0
 63
     7
283
     0
 90
      512
 91
        0
  1

274
    -2
284
     1
 64
     0
275
    -2
285
     1
 65
     0
276
    -2
286
     1
 66
     0
277
    -2
287
     1
 67
     0
278
    -2
288
     1
 68
     0
279
    -2
289
     1
 69
     0
  0
VISUALSTYLE
  5
C59E
102
{ACAD_REACTORS
330
C598
102
}
330
C598
100
AcDbVisualStyle
  2
2dWireframe
 70
     4
177
     3
291
     0
 70
    58
 90
        0
176
     1
 90
        2
176
     1
 90
        0
176
     1
 90
        0
176
     1
 40
0.6
176
     1
 40
30.0
176
     1
 62
     7
420
 16777215
176
     1
 90
        1
176
     1
 90
        4
176
     1
 62
     7
176
     1
 62
   257
176
     1
 90
        1
176
     1
 90
        1
176
     1
 40
1.0
176
     1
 90
        0
176
     1
 62
   257
176
     1
 40
1.0
176
     1
 90
        1
176
     1
 90
        6
176
     1
 90
        2
176
     1
 62
     7
176
     1
 90
        5
176
     1
 90
        0
176
     1
 90
        0
176
     1
290
     0
176
     1
 90
        1
176
     1
 40
0.0
176
     1
 90
        0
176
     1
290
     1
176
     1
290
     1
176
     1
290
     0
176
     1
290
     0
176
     1
290
     0
176
     1
290
     0
176
     1
290
     0
176
     1
290
     0
176
     1
290
     0
176
     1
 90
       50
176
     1
 40
0.0
176
     1
 40
1.0
176
     1
 90
        0
176
     1
 62
    18
420
        0
176
     1
 90
       50
176
     1
 90
        3
176
     1
 62
     5
420
      255
176
     1
290
     0
176
     1
 90
       50
176
     1
 90
       50
176
     1
 90
       50
176
     1
290
     0
176
     1
 90
       50
176
     1
 62
   256
176
     0
 40
1.0
176
     0
 90
        2
176
     1
  1
strokes_ogs.tif
176
     1
290
     0
176
     1
 40
1.0
176
     1
 40
1.0
176
     1
1001
ACAD
1000
AcDbSavedByObjectVersion
1070
     0
  0
VISUALSTYLE
  5
C59D
102
{ACAD_REACTORS
330
C598
102
}
330
C598
100
AcDbVisualStyle
  2
Basic
 70
     7
177
     3
291
     1
 70
    58
 90
        1
176
     1
 90
        0
176
     1
 90
        1
176
     1
 90
        0
176
     1
 40
0.6
176
     1
 40
30.0
176
     1
 62
     7
420
 16777215
176
     1
 90
        0
176
     1
 90
        4
176
     1
 62
     7
176
     1
 62
   257
176
     1
 90
        1
176
     1
 90
        1
176
     1
 40
1.0
176
     1
 90
        8
176
     1
 62
     7
176
     1
 40
1.0
176
     1
 90
        1
176
     1
 90
        6
176
     1
 90
        2
176
     1
 62
     7
176
     1
 90
        5
176
     1
 90
        0
176
     1
 90
        0
176
     1
290
     0
176
     1
 90
        1
176
     1
 40
0.0
176
     1
 90
        0
176
     1
290
     0
176
     1
290
     1
176
     1
290
     1
176
     1
290
     0
176
     1
290
     0
176
     1
290
     0
176
     1
290
     0
176
     1
290
     0
176
     1
290
     0
176
     1
 90
       50
176
     1
 40
0.0
176
     1
 40
1.0
176
     1
 90
        0
176
     1
 62
    18
420
        0
176
     1
 90
       50
176
     1
 90
        3
176
     1
 62
     5
420
      255
176
     1
290
     0
176
     1
 90
       50
176
     1
 90
       50
176
     1
 90
       50
176
     1
290
     0
176
     1
 90
       50
176
     1
 62
   256
176
     0
 40
1.0
176
     0
 90
        2
176
     1
  1
strokes_ogs.tif
176
     1
290
     0
176
     1
 40
1.0
176
     1
 40
1.0
176
     1
1001
ACAD
1000
AcDbSavedByObjectVersion
1070
     0
  0
VISUALSTYLE
  5
C5A4
102
{ACAD_REACTORS
330
C598
102
}
330
C598
100
AcDbVisualStyle
  2
Brighten
 70
    12
177
     3
291
     1
 70
    58
 90
        2
176
     1
 90
        2
176
     1
 90
        0
176
     1
 90
        0
176
     1
 40
0.6
176
     1
 40
30.0
176
     1
 62
     7
420
 16777215
176
     1
 90
        1
176
     1
 90
        4
176
     1
 62
     7
176
     1
 62
   257
176
     1
 90
        1
176
     1
 90
        1
176
     1
 40
1.0
176
     1
 90
        8
176
     1
 62
     7
176
     1
 40
1.0
176
     1
 90
        1
176
     1
 90
        6
176
     1
 90
        2
176
     1
 62
     7
176
     1
 90
        5
176
     1
 90
        0
176
     1
 90
        0
176
     1
290
     0
176
     1
 90
        1
176
     1
 40
50.0
176
     1
 90
        0
176
     1
290
     0
176
     1
290
     1
176
     1
290
     1
176
     1
290
     0
176
     1
290
     0
176
     1
290
     0
176
     1
290
     0
176
     1
290
     0
176
     1
290
     0
176
     1
 90
       50
176
     1
 40
0.0
176
     1
 40
1.0
176
     1
 90
        0
176
     1
 62
    18
420
        0
176
     1
 90
       50
176
     1
 90
        3
176
     1
 62
     5
420
      255
176
     1
290
     0
176
     1
 90
       50
176
     1
 90
       50
176
     1
 90
       50
176
     1
290
     0
176
     1
 90
       50
176
     1
 62
   256
176
     0
 40
1.0
176
     0
 90
        2
176
     1
  1
strokes_ogs.tif
176
     1
290
     0
176
     1
 40
1.0
176
     1
 40
1.0
176
     1
1001
ACAD
1000
AcDbSavedByObjectVersion
1070
     0
  0
VISUALSTYLE
  5
C5A8
102
{ACAD_REACTORS
330
C598
102
}
330
C598
100
AcDbVisualStyle
  2
ColorChange
 70
    16
177
     3
291
     1
 70
    58
 90
        2
176
     1
 90
        2
176
     1
 90
        3
176
     1
 90
        0
176
     1
 40
0.6
176
     1
 40
30.0
176
     1
 62
     8
420
  8421504
176
     1
 90
        1
176
     1
 90
        4
176
     1
 62
     7
176
     1
 62
   257
176
     1
 90
        1
176
     1
 90
        1
176
     1
 40
1.0
176
     1
 90
        8
176
     1
 62
     8
420
  8421504
176
     1
 40
1.0
176
     1
 90
        1
176
     1
 90
        6
176
     1
 90
        2
176
     1
 62
     7
176
     1
 90
        5
176
     1
 90
        0
176
     1
 90
        0
176
     1
290
     0
176
     1
 90
        1
176
     1
 40
0.0
176
     1
 90
        0
176
     1
290
     0
176
     1
290
     1
176
     1
290
     1
176
     1
290
     0
176
     1
290
     0
176
     1
290
     0
176
     1
290
     0
176
     1
290
     0
176
     1
290
     0
176
     1
 90
       50
176
     1
 40
0.0
176
     1
 40
1.0
176
     1
 90
        0
176
     1
 62
    18
420
        0
176
     1
 90
       50
176
     1
 90
        3
176
     1
 62
     5
420
      255
176
     1
290
     0
176
     1
 90
       50
176
     1
 90
       50
176
     1
 90
       50
176
     1
290
     0
176
     1
 90
       50
176
     1
 62
   256
176
     0
 40
1.0
176
     0
 90
        2
176
     1
  1
strokes_ogs.tif
176
     1
290
     0
176
     1
 40
1.0
176
     1
 40
1.0
176
     1
1001
ACAD
1000
AcDbSavedByObjectVersion
1070
     0
  0
VISUALSTYLE
  5
C5A1
102
{ACAD_REACTORS
330
C598
102
}
330
C598
100
AcDbVisualStyle
  2
Conceptual
 70
     9
177
     3
291
     0
 70
    58
 90
        3
176
     1
 90
        2
176
     1
 90
        0
176
     1
 90
        0
176
     1
 40
0.6
176
     1
 40
30.0
176
     1
 62
     7
420
 16777215
176
     1
 90
        2
176
     1
 90
        2
176
     1
 62
     7
176
     1
 62
   257
176
     1
 90
        1
176
     1
 90
        1
176
     1
 40
179.0
176
     1
 90
        8
176
     1
 62
     7
176
     1
 40
1.0
176
     1
 90
        1
176
     1
 90
        6
176
     1
 90
        2
176
     1
 62
     7
176
     1
 90
        3
176
     1
 90
        0
176
     1
 90
        0
176
     1
290
     0
176
     1
 90
        1
176
     1
 40
0.0
176
     1
 90
        0
176
     1
290
     0
176
     1
290
     1
176
     1
290
     1
176
     1
290
     0
176
     1
290
     0
176
     1
290
     0
176
     1
290
     0
176
     1
290
     0
176
     1
290
     0
176
     1
 90
       50
176
     1
 40
0.0
176
     1
 40
1.0
176
     1
 90
        0
176
     1
 62
    18
420
        0
176
     1
 90
       50
176
     1
 90
        3
176
     1
 62
     5
420
      255
176
     1
290
     0
176
     1
 90
       50
176
     1
 90
       50
176
     1
 90
       50
176
     1
290
     0
176
     1
 90
       50
176
     1
 62
   256
176
     0
 40
1.0
176
     0
 90
        2
176
     1
  1
strokes_ogs.tif
176
     1
290
     0
176
     1
 40
1.0
176
     1
 40
1.0
176
     1
1001
ACAD
1000
AcDbSavedByObjectVersion
1070
     0
  0
VISUALSTYLE
  5
C5A3
102
{ACAD_REACTORS
330
C598
102
}
330
C598
100
AcDbVisualStyle
  2
Dim
 70
    11
177
     3
291
     1
 70
    58
 90
        2
176
     1
 90
        2
176
     1
 90
        0
176
     1
 90
        0
176
     1
 40
0.6
176
     1
 40
30.0
176
     1
 62
     7
420
 16777215
176
     1
 90
        1
176
     1
 90
        4
176
     1
 62
     7
176
     1
 62
   257
176
     1
 90
        1
176
     1
 90
        1
176
     1
 40
1.0
176
     1
 90
        8
176
     1
 62
     7
176
     1
 40
1.0
176
     1
 90
        1
176
     1
 90
        6
176
     1
 90
        2
176
     1
 62
     7
176
     1
 90
        5
176
     1
 90
        0
176
     1
 90
        0
176
     1
290
     0
176
     1
 90
        1
176
     1
 40
-50.0
176
     1
 90
        0
176
     1
290
     0
176
     1
290
     1
176
     1
290
     1
176
     1
290
     0
176
     1
290
     0
176
     1
290
     0
176
     1
290
     0
176
     1
290
     0
176
     1
290
     0
176
     1
 90
       50
176
     1
 40
0.0
176
     1
 40
1.0
176
     1
 90
        0
176
     1
 62
    18
420
        0
176
     1
 90
       50
176
     1
 90
        3
176
     1
 62
     5
420
      255
176
     1
290
     0
176
     1
 90
       50
176
     1
 90
       50
176
     1
 90
       50
176
     1
290
     0
176
     1
 90
       50
176
     1
 62
   256
176
     0
 40
1.0
176
     0
 90
        2
176
     1
  1
strokes_ogs.tif
176
     1
290
     0
176
     1
 40
1.0
176
     1
 40
1.0
176
     1
1001
ACAD
1000
AcDbSavedByObjectVersion
1070
     0
  0
VISUALSTYLE
  5
C5B0
102
{ACAD_REACTORS
330
C598
102
}
330
C598
100
AcDbVisualStyle
  2
EdgeColorOff
 70
    22
177
     3
291
     1
 70
    58
 90
        2
176
     0
 90
        2
176
     0
 90
        0
176
     0
 90
        0
176
     0
 40
0.6
176
     0
 40
30.0
176
     0
 62
     7
420
 16777215
176
     0
 90
        1
176
     0
 90
        4
176
     0
 62
     7
176
     0
 62
   257
176
     0
 90
        1
176
     0
 90
        1
176
     0
 40
1.0
176
     0
 90
        8
176
     2
 62
     7
176
     0
 40
1.0
176
     0
 90
        1
176
     0
 90
        6
176
     0
 90
        2
176
     0
 62
     7
176
     0
 90
        5
176
     0
 90
        0
176
     0
 90
        0
176
     0
290
     0
176
     0
 90
        1
176
     0
 40
0.0
176
     0
 90
        0
176
     0
290
     0
176
     0
290
     1
176
     0
290
     1
176
     0
290
     0
176
     0
290
     0
176
     0
290
     0
176
     0
290
     0
176
     0
290
     0
176
     0
290
     0
176
     0
 90
       50
176
     0
 40
0.0
176
     0
 40
1.0
176
     0
 90
        0
176
     0
 62
    18
420
        0
176
     0
 90
       50
176
     0
 90
        3
176
     0
 62
     5
420
      255
176
     0
290
     0
176
     0
 90
       50
176
     0
 90
       50
176
     0
 90
       50
176
     0
290
     0
176
     0
 90
       50
176
     0
 62
   256
176
     0
 40
1.0
176
     0
 90
        2
176
     0
  1
strokes_ogs.tif
176
     0
290
     0
176
     0
 40
1.0
176
     0
 40
1.0
176
     0
1001
ACAD
1000
AcDbSavedByObjectVersion
1070
     0
  0
VISUALSTYLE
  5
C5A7
102
{ACAD_REACTORS
330
C598
102
}
330
C598
100
AcDbVisualStyle
  2
Facepattern
 70
    15
177
     3
291
     1
 70
    58
 90
        2
176
     1
 90
        2
176
     1
 90
        0
176
     1
 90
        0
176
     1
 40
0.6
176
     1
 40
30.0
176
     1
 62
     7
420
 16777215
176
     1
 90
        1
176
     1
 90
        4
176
     1
 62
     7
176
     1
 62
   257
176
     1
 90
        1
176
     1
 90
        1
176
     1
 40
1.0
176
     1
 90
        8
176
     1
 62
     7
176
     1
 40
1.0
176
     1
 90
        1
176
     1
 90
        6
176
     1
 90
        2
176
     1
 62
     7
176
     1
 90
        5
176
     1
 90
        0
176
     1
 90
        0
176
     1
290
     0
176
     1
 90
        1
176
     1
 40
0.0
176
     1
 90
        0
176
     1
290
     0
176
     1
290
     1
176
     1
290
     1
176
     1
290
     0
176
     1
290
     0
176
     1
290
     0
176
     1
290
     0
176
     1
290
     0
176
     1
290
     0
176
     1
 90
       50
176
     1
 40
0.0
176
     1
 40
1.0
176
     1
 90
        0
176
     1
 62
    18
420
        0
176
     1
 90
       50
176
     1
 90
        3
176
     1
 62
     5
420
      255
176
     1
290
     0
176
     1
 90
       50
176
     1
 90
       50
176
     1
 90
       50
176
     1
290
     0
176
     1
 90
       50
176
     1
 62
   256
176
     0
 40
1.0
176
     0
 90
        2
176
     1
  1
strokes_ogs.tif
176
     1
290
     0
176
     1
 40
1.0
176
     1
 40
1.0
176
     1
1001
ACAD
1000
AcDbSavedByObjectVersion
1070
     0
  0
VISUALSTYLE
  5
C599
102
{ACAD_REACTORS
330
C598
102
}
330
C598
100
AcDbVisualStyle
  2
Flat
 70
     0
177
     3
291
     1
 70
    58
 90
        2
176
     1
 90
        1
176
     1
 90
        1
176
     1
 90
        2
176
     1
 40
0.6
176
     1
 40
30.0
176
     1
 62
     7
420
 16777215
176
     1
 90
        0
176
     1
 90
        0
176
     1
 62
     7
176
     1
 62
   257
176
     1
 90
        1
176
     1
 90
        1
176
     1
 40
1.0
176
     1
 90
        8
176
     1
 62
     7
176
     1
 40
1.0
176
     1
 90
        1
176
     1
 90
        6
176
     1
 90
        2
176
     1
 62
     7
176
     1
 90
        5
176
     1
 90
        0
176
     1
 90
        0
176
     1
290
     0
176
     1
 90
       13
176
     1
 40
0.0
176
     1
 90
        0
176
     1
290
     0
176
     1
290
     1
176
     1
290
     1
176
     1
290
     0
176
     1
290
     0
176
     1
290
     0
176
     1
290
     0
176
     1
290
     0
176
     1
290
     0
176
     1
 90
       50
176
     1
 40
0.0
176
     1
 40
1.0
176
     1
 90
        0
176
     1
 62
    18
420
        0
176
     1
 90
       50
176
     1
 90
        3
176
     1
 62
     5
420
      255
176
     1
290
     0
176
     1
 90
       50
176
     1
 90
       50
176
     1
 90
       50
176
     1
290
     0
176
     1
 90
       50
176
     1
 62
   256
176
     0
 40
1.0
176
     0
 90
        2
176
     1
  1
strokes_ogs.tif
176
     1
290
     0
176
     1
 40
1.0
176
     1
 40
1.0
176
     1
1001
ACAD
1000
AcDbSavedByObjectVersion
1070
     0
  0
VISUALSTYLE
  5
C59A
102
{ACAD_REACTORS
330
C598
102
}
330
C598
100
AcDbVisualStyle
  2
FlatWithEdges
 70
     1
177
     3
291
     1
 70
    58
 90
        2
176
     1
 90
        1
176
     1
 90
        1
176
     1
 90
        2
176
     1
 40
0.6
176
     1
 40
30.0
176
     1
 62
     7
420
 16777215
176
     1
 90
        1
176
     1
 90
        0
176
     1
 62
     7
176
     1
 62
   257
176
     1
 90
        1
176
     1
 90
        1
176
     1
 40
1.0
176
     1
 90
        0
176
     1
 62
   257
176
     1
 40
1.0
176
     1
 90
        1
176
     1
 90
        6
176
     1
 90
        2
176
     1
 62
     7
176
     1
 90
        5
176
     1
 90
        0
176
     1
 90
        0
176
     1
290
     0
176
     1
 90
       13
176
     1
 40
0.0
176
     1
 90
        0
176
     1
290
     0
176
     1
290
     1
176
     1
290
     1
176
     1
290
     0
176
     1
290
     0
176
     1
290
     0
176
     1
290
     0
176
     1
290
     0
176
     1
290
     0
176
     1
 90
       50
176
     1
 40
0.0
176
     1
 40
1.0
176
     1
 90
        0
176
     1
 62
    18
420
        0
176
     1
 90
       50
176
     1
 90
        3
176
     1
 62
     5
420
      255
176
     1
290
     0
176
     1
 90
       50
176
     1
 90
       50
176
     1
 90
       50
176
     1
290
     0
176
     1
 90
       50
176
     1
 62
   256
176
     0
 40
1.0
176
     0
 90
        2
176
     1
  1
strokes_ogs.tif
176
     1
290
     0
176
     1
 40
1.0
176
     1
 40
1.0
176
     1
1001
ACAD
1000
AcDbSavedByObjectVersion
1070
     0
  0
VISUALSTYLE
  5
C59B
102
{ACAD_REACTORS
330
C598
102
}
330
C598
100
AcDbVisualStyle
  2
Gouraud
 70
     2
177
     3
291
     1
 70
    58
 90
        2
176
     1
 90
        2
176
     1
 90
        1
176
     1
 90
        2
176
     1
 40
0.6
176
     1
 40
30.0
176
     1
 62
     7
420
 16777215
176
     1
 90
        0
176
     1
 90
        0
176
     1
 62
     7
176
     1
 62
   257
176
     1
 90
        1
176
     1
 90
        1
176
     1
 40
1.0
176
     1
 90
        0
176
     1
 62
     7
176
     1
 40
1.0
176
     1
 90
        1
176
     1
 90
        6
176
     1
 90
        2
176
     1
 62
     7
176
     1
 90
        5
176
     1
 90
        0
176
     1
 90
        0
176
     1
290
     0
176
     1
 90
       13
176
     1
 40
0.0
176
     1
 90
        0
176
     1
290
     0
176
     1
290
     1
176
     1
290
     1
176
     1
290
     0
176
     1
290
     0
176
     1
290
     0
176
     1
290
     0
176
     1
290
     0
176
     1
290
     0
176
     1
 90
       50
176
     1
 40
0.0
176
     1
 40
1.0
176
     1
 90
        0
176
     1
 62
    18
420
        0
176
     1
 90
       50
176
     1
 90
        3
176
     1
 62
     5
420
      255
176
     1
290
     0
176
     1
 90
       50
176
     1
 90
       50
176
     1
 90
       50
176
     1
290
     0
176
     1
 90
       50
176
     1
 62
   256
176
     0
 40
1.0
176
     0
 90
        2
176
     1
  1
strokes_ogs.tif
176
     1
290
     0
176
     1
 40
1.0
176
     1
 40
1.0
176
     1
1001
ACAD
1000
AcDbSavedByObjectVersion
1070
     0
  0
VISUALSTYLE
  5
C59C
102
{ACAD_REACTORS
330
C598
102
}
330
C598
100
AcDbVisualStyle
  2
GouraudWithEdges
 70
     3
177
     3
291
     1
 70
    58
 90
        2
176
     1
 90
        2
176
     1
 90
        1
176
     1
 90
        2
176
     1
 40
0.6
176
     1
 40
30.0
176
     1
 62
     7
420
 16777215
176
     1
 90
        1
176
     1
 90
        0
176
     1
 62
     7
176
     1
 62
   257
176
     1
 90
        1
176
     1
 90
        1
176
     1
 40
1.0
176
     1
 90
        0
176
     1
 62
   257
176
     1
 40
1.0
176
     1
 90
        1
176
     1
 90
        6
176
     1
 90
        2
176
     1
 62
     7
176
     1
 90
        5
176
     1
 90
        0
176
     1
 90
        0
176
     1
290
     0
176
     1
 90
       13
176
     1
 40
0.0
176
     1
 90
        0
176
     1
290
     0
176
     1
290
     1
176
     1
290
     1
176
     1
290
     0
176
     1
290
     0
176
     1
290
     0
176
     1
290
     0
176
     1
290
     0
176
     1
290
     0
176
     1
 90
       50
176
     1
 40
0.0
176
     1
 40
1.0
176
     1
 90
        0
176
     1
 62
    18
420
        0
176
     1
 90
       50
176
     1
 90
        3
176
     1
 62
     5
420
      255
176
     1
290
     0
176
     1
 90
       50
176
     1
 90
       50
176
     1
 90
       50
176
     1
290
     0
176
     1
 90
       50
176
     1
 62
   256
176
     0
 40
1.0
176
     0
 90
        2
176
     1
  1
strokes_ogs.tif
176
     1
290
     0
176
     1
 40
1.0
176
     1
 40
1.0
176
     1
1001
ACAD
1000
AcDbSavedByObjectVersion
1070
     0
  0
VISUALSTYLE
  5
C5A0
102
{ACAD_REACTORS
330
C598
102
}
330
C598
100
AcDbVisualStyle
  2
Hidden
 70
     6
177
     3
291
     0
 70
    58
 90
        1
176
     1
 90
        2
176
     1
 90
        2
176
     1
 90
        0
176
     1
 40
0.6
176
     1
 40
30.0
176
     1
 62
     7
420
 16777215
176
     1
 90
        2
176
     1
 90
        2
176
     1
 62
     7
176
     1
 62
   257
176
     1
 90
        2
176
     1
 90
        1
176
     1
 40
40.0
176
     1
 90
        0
176
     1
 62
   257
176
     1
 40
1.0
176
     1
 90
        1
176
     1
 90
        6
176
     1
 90
        2
176
     1
 62
     7
176
     1
 90
        3
176
     1
 90
        0
176
     1
 90
        0
176
     1
290
     0
176
     1
 90
        1
176
     1
 40
0.0
176
     1
 90
        0
176
     1
290
     0
176
     1
290
     1
176
     1
290
     1
176
     1
290
     0
176
     1
290
     0
176
     1
290
     0
176
     1
290
     0
176
     1
290
     0
176
     1
290
     0
176
     1
 90
       50
176
     1
 40
0.0
176
     1
 40
1.0
176
     1
 90
        0
176
     1
 62
    18
420
        0
176
     1
 90
       50
176
     1
 90
        3
176
     1
 62
     5
420
      255
176
     1
290
     0
176
     1
 90
       50
176
     1
 90
       50
176
     1
 90
       50
176
     1
290
     0
176
     1
 90
       50
176
     1
 62
   256
176
     0
 40
1.0
176
     0
 90
        2
176
     1
  1
strokes_ogs.tif
176
     1
290
     0
176
     1
 40
1.0
176
     1
 40
1.0
176
     1
1001
ACAD
1000
AcDbSavedByObjectVersion
1070
     0
  0
VISUALSTYLE
  5
C5AE
102
{ACAD_REACTORS
330
C598
102
}
330
C598
100
AcDbVisualStyle
  2
JitterOff
 70
    20
177
     3
291
     1
 70
    58
 90
        2
176
     0
 90
        2
176
     0
 90
        0
176
     0
 90
        0
176
     0
 40
0.6
176
     0
 40
30.0
176
     0
 62
     7
420
 16777215
176
     0
 90
        1
176
     0
 90
        4
176
     0
 62
     7
176
     0
 62
   257
176
     0
 90
        1
176
     0
 90
        1
176
     0
 40
1.0
176
     0
 90
       10
176
     2
 62
     7
176
     0
 40
1.0
176
     0
 90
        1
176
     0
 90
        6
176
     0
 90
        2
176
     0
 62
     7
176
     0
 90
        5
176
     0
 90
        0
176
     0
 90
        0
176
     0
290
     0
176
     0
 90
        1
176
     0
 40
0.0
176
     0
 90
        0
176
     0
290
     0
176
     0
290
     1
176
     0
290
     1
176
     0
290
     0
176
     0
290
     0
176
     0
290
     0
176
     0
290
     0
176
     0
290
     0
176
     0
290
     0
176
     0
 90
       50
176
     0
 40
0.0
176
     0
 40
1.0
176
     0
 90
        0
176
     0
 62
    18
420
        0
176
     0
 90
       50
176
     0
 90
        3
176
     0
 62
     5
420
      255
176
     0
290
     0
176
     0
 90
       50
176
     0
 90
       50
176
     0
 90
       50
176
     0
290
     0
176
     0
 90
       50
176
     0
 62
   256
176
     0
 40
1.0
176
     0
 90
        2
176
     0
  1
strokes_ogs.tif
176
     0
290
     0
176
     0
 40
1.0
176
     0
 40
1.0
176
     0
1001
ACAD
1000
AcDbSavedByObjectVersion
1070
     0
  0
VISUALSTYLE
  5
C5A6
102
{ACAD_REACTORS
330
C598
102
}
330
C598
100
AcDbVisualStyle
  2
Linepattern
 70
    14
177
     3
291
     1
 70
    58
 90
        2
176
     1
 90
        2
176
     1
 90
        0
176
     1
 90
        0
176
     1
 40
0.6
176
     1
 40
30.0
176
     1
 62
     7
420
 16777215
176
     1
 90
        1
176
     1
 90
        4
176
     1
 62
     7
176
     1
 62
   257
176
     1
 90
        7
176
     1
 90
        7
176
     1
 40
1.0
176
     1
 90
        8
176
     1
 62
     7
176
     1
 40
1.0
176
     1
 90
        1
176
     1
 90
        6
176
     1
 90
        2
176
     1
 62
     7
176
     1
 90
        5
176
     1
 90
        0
176
     1
 90
        0
176
     1
290
     0
176
     1
 90
        1
176
     1
 40
0.0
176
     1
 90
        0
176
     1
290
     0
176
     1
290
     1
176
     1
290
     1
176
     1
290
     0
176
     1
290
     0
176
     1
290
     0
176
     1
290
     0
176
     1
290
     0
176
     1
290
     0
176
     1
 90
       50
176
     1
 40
0.0
176
     1
 40
1.0
176
     1
 90
        0
176
     1
 62
    18
420
        0
176
     1
 90
       50
176
     1
 90
        3
176
     1
 62
     5
420
      255
176
     1
290
     0
176
     1
 90
       50
176
     1
 90
       50
176
     1
 90
       50
176
     1
290
     0
176
     1
 90
       50
176
     1
 62
   256
176
     0
 40
1.0
176
     0
 90
        2
176
     1
  1
strokes_ogs.tif
176
     1
290
     0
176
     1
 40
1.0
176
     1
 40
1.0
176
     1
1001
ACAD
1000
AcDbSavedByObjectVersion
1070
     0
  0
VISUALSTYLE
  5
C5AF
102
{ACAD_REACTORS
330
C598
102
}
330
C598
100
AcDbVisualStyle
  2
OverhangOff
 70
    21
177
     3
291
     1
 70
    58
 90
        2
176
     0
 90
        2
176
     0
 90
        0
176
     0
 90
        0
176
     0
 40
0.6
176
     0
 40
30.0
176
     0
 62
     7
420
 16777215
176
     0
 90
        1
176
     0
 90
        4
176
     0
 62
     7
176
     0
 62
   257
176
     0
 90
        1
176
     0
 90
        1
176
     0
 40
1.0
176
     0
 90
        9
176
     2
 62
     7
176
     0
 40
1.0
176
     0
 90
        1
176
     0
 90
        6
176
     0
 90
        2
176
     0
 62
     7
176
     0
 90
        5
176
     0
 90
        0
176
     0
 90
        0
176
     0
290
     0
176
     0
 90
        1
176
     0
 40
0.0
176
     0
 90
        0
176
     0
290
     0
176
     0
290
     1
176
     0
290
     1
176
     0
290
     0
176
     0
290
     0
176
     0
290
     0
176
     0
290
     0
176
     0
290
     0
176
     0
290
     0
176
     0
 90
       50
176
     0
 40
0.0
176
     0
 40
1.0
176
     0
 90
        0
176
     0
 62
    18
420
        0
176
     0
 90
       50
176
     0
 90
        3
176
     0
 62
     5
420
      255
176
     0
290
     0
176
     0
 90
       50
176
     0
 90
       50
176
     0
 90
       50
176
     0
290
     0
176
     0
 90
       50
176
     0
 62
   256
176
     0
 40
1.0
176
     0
 90
        2
176
     0
  1
strokes_ogs.tif
176
     0
290
     0
176
     0
 40
1.0
176
     0
 40
1.0
176
     0
1001
ACAD
1000
AcDbSavedByObjectVersion
1070
     0
  0
VISUALSTYLE
  5
C5A2
102
{ACAD_REACTORS
330
C598
102
}
330
C598
100
AcDbVisualStyle
  2
Realistic
 70
     8
177
     3
291
     0
 70
    58
 90
        2
176
     1
 90
        3
176
     1
 90
        0
176
     1
 90
        2
176
     1
 40
0.6
176
     1
 40
30.0
176
     1
 62
     7
420
 16777215
176
     1
 90
        0
176
     1
 90
        0
176
     1
 62
     7
176
     1
 62
   257
176
     1
 90
        1
176
     1
 90
        1
176
     1
 40
1.0
176
     1
 90
        8
176
     1
 62
   257
176
     1
 40
1.0
176
     1
 90
        1
176
     1
 90
        6
176
     1
 90
        2
176
     1
 62
     7
176
     1
 90
        3
176
     1
 90
        0
176
     1
 90
        0
176
     1
290
     0
176
     1
 90
       13
176
     1
 40
0.0
176
     1
 90
        0
176
     1
290
     0
176
     1
290
     1
176
     1
290
     1
176
     1
290
     0
176
     1
290
     0
176
     1
290
     0
176
     1
290
     0
176
     1
290
     0
176
     1
290
     0
176
     1
 90
       50
176
     1
 40
0.0
176
     1
 40
1.0
176
     1
 90
        0
176
     1
 62
    18
420
        0
176
     1
 90
       50
176
     1
 90
        3
176
     1
 62
     5
420
      255
176
     1
290
     0
176
     1
 90
       50
176
     1
 90
       50
176
     1
 90
       50
176
     1
290
     0
176
     1
 90
       50
176
     1
 62
   256
176
     0
 40
1.0
176
     0
 90
        2
176
     1
  1
strokes_ogs.tif
176
     1
290
     0
176
     1
 40
1.0
176
     1
 40
1.0
176
     1
1001
ACAD
1000
AcDbSavedByObjectVersion
1070
     0
  0
VISUALSTYLE
  5
C5AD
102
{ACAD_REACTORS
330
C598
102
}
330
C598
100
AcDbVisualStyle
  2
Shaded
 70
    27
177
     3
291
     0
 70
    58
 90
        2
176
     1
 90
        2
176
     1
 90
        1
176
     1
 90
        2
176
     1
 40
0.6
176
     1
 40
30.0
176
     1
 62
     7
420
 16777215
176
     1
 90
        0
176
     1
 90
        4
176
     1
 62
     7
176
     1
 62
   257
176
     1
 90
        1
176
     1
 90
        1
176
     1
 40
1.0
176
     1
 90
        8
176
     1
 62
   257
176
     1
 40
1.0
176
     1
 90
        1
176
     1
 90
        6
176
     1
 90
        2
176
     1
 62
     8
420
  7895160
176
     1
 90
        3
176
     1
 90
        0
176
     1
 90
        0
176
     1
290
     0
176
     1
 90
        5
176
     1
 40
0.0
176
     1
 90
        0
176
     1
290
     0
176
     1
290
     1
176
     1
290
     1
176
     1
290
     0
176
     1
290
     0
176
     1
290
     0
176
     1
290
     0
176
     1
290
     0
176
     1
290
     0
176
     1
 90
       50
176
     1
 40
0.0
176
     1
 40
1.0
176
     1
 90
        0
176
     1
 62
    18
420
        0
176
     1
 90
       50
176
     1
 90
        3
176
     1
 62
     5
420
      255
176
     1
290
     0
176
     1
 90
       50
176
     1
 90
       50
176
     1
 90
       50
176
     1
290
     0
176
     1
 90
       50
176
     1
 62
   256
176
     0
 40
1.0
176
     0
 90
        2
176
     1
  1
strokes_ogs.tif
176
     1
290
     0
176
     1
 40
1.0
176
     1
 40
1.0
176
     1
1001
ACAD
1000
AcDbSavedByObjectVersion
1070
     0
  0
VISUALSTYLE
  5
C5AC
102
{ACAD_REACTORS
330
C598
102
}
330
C598
100
AcDbVisualStyle
  2
Shaded with edges
 70
    26
177
     3
291
     0
 70
    58
 90
        2
176
     1
 90
        2
176
     1
 90
        1
176
     1
 90
        2
176
     1
 40
0.6
176
     1
 40
30.0
176
     1
 62
     7
420
 16777215
176
     1
 90
        1
176
     1
 90
        2
176
     1
 62
     7
176
     1
 62
   257
176
     1
 90
        2
176
     1
 90
        1
176
     1
 40
1.0
176
     1
 90
        8
176
     1
 62
   257
176
     1
 40
1.0
176
     1
 90
        1
176
     1
 90
        6
176
     1
 90
        2
176
     1
 62
     7
176
     1
 90
        3
176
     1
 90
        0
176
     1
 90
        0
176
     1
290
     0
176
     1
 90
        5
176
     1
 40
0.0
176
     1
 90
        0
176
     1
290
     0
176
     1
290
     1
176
     1
290
     1
176
     1
290
     0
176
     1
290
     0
176
     1
290
     0
176
     1
290
     0
176
     1
290
     0
176
     1
290
     0
176
     1
 90
       50
176
     1
 40
0.0
176
     1
 40
1.0
176
     1
 90
        0
176
     1
 62
    18
420
        0
176
     1
 90
       50
176
     1
 90
        3
176
     1
 62
     5
420
      255
176
     1
290
     0
176
     1
 90
       50
176
     1
 90
       50
176
     1
 90
       50
176
     1
290
     0
176
     1
 90
       50
176
     1
 62
   256
176
     0
 40
1.0
176
     0
 90
        2
176
     1
  1
strokes_ogs.tif
176
     1
290
     0
176
     1
 40
1.0
176
     1
 40
1.0
176
     1
1001
ACAD
1000
AcDbSavedByObjectVersion
1070
     0
  0
VISUALSTYLE
  5
C5A9
102
{ACAD_REACTORS
330
C598
102
}
330
C598
100
AcDbVisualStyle
  2
Shades of Gray
 70
    23
177
     3
291
     0
 70
    58
 90
        2
176
     1
 90
        2
176
     1
 90
        3
176
     1
 90
        0
176
     1
 40
0.6
176
     1
 40
30.0
176
     1
 62
     7
420
 16777215
176
     1
 90
        2
176
     1
 90
        2
176
     1
 62
     7
176
     1
 62
     7
176
     1
 90
        1
176
     1
 90
        1
176
     1
 40
40.0
176
     1
 90
        8
176
     1
 62
     7
176
     1
 40
1.0
176
     1
 90
        1
176
     1
 90
        6
176
     1
 90
        2
176
     1
 62
     7
176
     1
 90
        3
176
     1
 90
        0
176
     1
 90
        0
176
     1
290
     0
176
     1
 90
        1
176
     1
 40
0.0
176
     1
 90
        0
176
     1
290
     0
176
     1
290
     1
176
     1
290
     1
176
     1
290
     0
176
     1
290
     0
176
     1
290
     0
176
     1
290
     0
176
     1
290
     0
176
     1
290
     0
176
     1
 90
       50
176
     1
 40
0.0
176
     1
 40
1.0
176
     1
 90
        0
176
     1
 62
    18
420
        0
176
     1
 90
       50
176
     1
 90
        3
176
     1
 62
     5
420
      255
176
     1
290
     0
176
     1
 90
       50
176
     1
 90
       50
176
     1
 90
       50
176
     1
290
     0
176
     1
 90
       50
176
     1
 62
   256
176
     0
 40
1.0
176
     0
 90
        2
176
     1
  1
strokes_ogs.tif
176
     1
290
     0
176
     1
 40
1.0
176
     1
 40
1.0
176
     1
1001
ACAD
1000
AcDbSavedByObjectVersion
1070
     0
  0
VISUALSTYLE
  5
C5AA
102
{ACAD_REACTORS
330
C598
102
}
330
C598
100
AcDbVisualStyle
  2
Sketchy
 70
    24
177
     3
291
     0
 70
    58
 90
        1
176
     1
 90
        2
176
     1
 90
        2
176
     1
 90
        0
176
     1
 40
0.6
176
     1
 40
30.0
176
     1
 62
     7
420
 16777215
176
     1
 90
        2
176
     1
 90
        2
176
     1
 62
     7
176
     1
 62
     7
176
     1
 90
        1
176
     1
 90
        1
176
     1
 40
40.0
176
     1
 90
       11
176
     1
 62
     7
176
     1
 40
1.0
176
     1
 90
        1
176
     1
 90
        6
176
     1
 90
        2
176
     1
 62
     7
176
     1
 90
        6
176
     1
 90
        0
176
     1
 90
        0
176
     1
290
     0
176
     1
 90
        1
176
     1
 40
0.0
176
     1
 90
        0
176
     1
290
     0
176
     1
290
     1
176
     1
290
     1
176
     1
290
     0
176
     1
290
     0
176
     1
290
     0
176
     1
290
     0
176
     1
290
     0
176
     1
290
     0
176
     1
 90
       50
176
     1
 40
0.0
176
     1
 40
1.0
176
     1
 90
        0
176
     1
 62
    18
420
        0
176
     1
 90
       50
176
     1
 90
        3
176
     1
 62
     5
420
      255
176
     1
290
     0
176
     1
 90
       50
176
     1
 90
       50
176
     1
 90
       50
176
     1
290
     0
176
     1
 90
       50
176
     1
 62
   256
176
     0
 40
1.0
176
     0
 90
        2
176
     1
  1
strokes_ogs.tif
176
     1
290
     0
176
     1
 40
1.0
176
     1
 40
1.0
176
     1
1001
ACAD
1000
AcDbSavedByObjectVersion
1070
     0
  0
VISUALSTYLE
  5
C5A5
102
{ACAD_REACTORS
330
C598
102
}
330
C598
100
AcDbVisualStyle
  2
Thicken
 70
    13
177
     3
291
     1
 70
    58
 90
        2
176
     1
 90
        2
176
     1
 90
        0
176
     1
 90
        0
176
     1
 40
0.6
176
     1
 40
30.0
176
     1
 62
     7
420
 16777215
176
     1
 90
        1
176
     1
 90
        4
176
     1
 62
     7
176
     1
 62
   257
176
     1
 90
        1
176
     1
 90
        1
176
     1
 40
1.0
176
     1
 90
       12
176
     1
 62
     7
176
     1
 40
1.0
176
     1
 90
        1
176
     1
 90
        6
176
     1
 90
        2
176
     1
 62
     7
176
     1
 90
        5
176
     1
 90
        0
176
     1
 90
        0
176
     1
290
     0
176
     1
 90
        1
176
     1
 40
0.0
176
     1
 90
        0
176
     1
290
     0
176
     1
290
     1
176
     1
290
     1
176
     1
290
     0
176
     1
290
     0
176
     1
290
     0
176
     1
290
     0
176
     1
290
     0
176
     1
290
     0
176
     1
 90
       50
176
     1
 40
0.0
176
     1
 40
1.0
176
     1
 90
        0
176
     1
 62
    18
420
        0
176
     1
 90
       50
176
     1
 90
        3
176
     1
 62
     5
420
      255
176
     1
290
     0
176
     1
 90
       50
176
     1
 90
       50
176
     1
 90
       50
176
     1
290
     0
176
     1
 90
       50
176
     1
 62
   256
176
     0
 40
1.0
176
     0
 90
        2
176
     1
  1
strokes_ogs.tif
176
     1
290
     0
176
     1
 40
1.0
176
     1
 40
1.0
176
     1
1001
ACAD
1000
AcDbSavedByObjectVersion
1070
     0
  0
VISUALSTYLE
  5
C59F
102
{ACAD_REACTORS
330
C598
102
}
330
C598
100
AcDbVisualStyle
  2
Wireframe
 70
     5
177
     3
291
     0
 70
    58
 90
        0
176
     1
 90
        2
176
     1
 90
        0
176
     1
 90
        0
176
     1
 40
0.6
176
     1
 40
30.0
176
     1
 62
     7
420
 16777215
176
     1
 90
        1
176
     1
 90
        4
176
     1
 62
     7
176
     1
 62
   257
176
     1
 90
        1
176
     1
 90
        1
176
     1
 40
1.0
176
     1
 90
        0
176
     1
 62
   257
176
     1
 40
1.0
176
     1
 90
        1
176
     1
 90
        6
176
     1
 90
        2
176
     1
 62
     7
176
     1
 90
        3
176
     1
 90
        0
176
     1
 90
        0
176
     1
290
     0
176
     1
 90
        1
176
     1
 40
0.0
176
     1
 90
        0
176
     1
290
     0
176
     1
290
     1
176
     1
290
     1
176
     1
290
     0
176
     1
290
     0
176
     1
290
     0
176
     1
290
     0
176
     1
290
     0
176
     1
290
     0
176
     1
 90
       50
176
     1
 40
0.0
176
     1
 40
1.0
176
     1
 90
        0
176
     1
 62
    18
420
        0
176
     1
 90
       50
176
     1
 90
        3
176
     1
 62
     5
420
      255
176
     1
290
     0
176
     1
 90
       50
176
     1
 90
       50
176
     1
 90
       50
176
     1
290
     0
176
     1
 90
       50
176
     1
 62
   256
176
     0
 40
1.0
176
     0
 90
        2
176
     1
  1
strokes_ogs.tif
176
     1
290
     0
176
     1
 40
1.0
176
     1
 40
1.0
176
     1
1001
ACAD
1000
AcDbSavedByObjectVersion
1070
     0
  0
VISUALSTYLE
  5
C5AB
102
{ACAD_REACTORS
330
C598
102
}
330
C598
100
AcDbVisualStyle
  2
X-Ray
 70
    25
177
     3
291
     0
 70
    58
 90
        2
176
     1
 90
        2
176
     1
 90
        1
176
     1
 90
        1
176
     1
 40
0.5
176
     1
 40
30.0
176
     1
 62
     7
420
 16777215
176
     1
 90
        1
176
     1
 90
        0
176
     1
 62
     7
176
     1
 62
   257
176
     1
 90
        1
176
     1
 90
        1
176
     1
 40
1.0
176
     1
 90
        8
176
     1
 62
     7
176
     1
 40
1.0
176
     1
 90
        1
176
     1
 90
        6
176
     1
 90
        2
176
     1
 62
     7
176
     1
 90
        3
176
     1
 90
        0
176
     1
 90
        0
176
     1
290
     0
176
     1
 90
       13
176
     1
 40
0.0
176
     1
 90
        0
176
     1
290
     0
176
     1
290
     1
176
     1
290
     1
176
     1
290
     0
176
     1
290
     0
176
     1
290
     0
176
     1
290
     0
176
     1
290
     0
176
     1
290
     0
176
     1
 90
       50
176
     1
 40
0.0
176
     1
 40
1.0
176
     1
 90
        0
176
     1
 62
    18
420
        0
176
     1
 90
       50
176
     1
 90
        3
176
     1
 62
     5
420
      255
176
     1
290
     0
176
     1
 90
       50
176
     1
 90
       50
176
     1
 90
       50
176
     1
290
     0
176
     1
 90
       50
176
     1
 62
   256
176
     0
 40
1.0
176
     0
 90
        2
176
     1
  1
strokes_ogs.tif
176
     1
290
     0
176
     1
 40
1.0
176
     1
 40
1.0
176
     1
1001
ACAD
1000
AcDbSavedByObjectVersion
1070
     0
  0
DICTIONARYVAR
  5
C618
102
{ACAD_REACTORS
330
C576
102
}
330
C576
100
DictionaryVariables
280
     0
  1
1:1
  0
DICTIONARYVAR
  5
C614
102
{ACAD_REACTORS
330
C576
102
}
330
C576
100
DictionaryVariables
280
     0
  1
STANDARD
  0
DICTIONARYVAR
  5
C613
102
{ACAD_REACTORS
330
C576
102
}
330
C576
100
DictionaryVariables
280
     0
  1
STANDARD
  0
DICTIONARYVAR
  5
C615
102
{ACAD_REACTORS
330
C576
102
}
330
C576
100
DictionaryVariables
280
     0
  1
Metric50
  0
DICTIONARYVAR
  5
C616
102
{ACAD_REACTORS
330
C576
102
}
330
C576
100
DictionaryVariables
280
     0
  1
Metric50
  0
DICTIONARYVAR
  5
C577
102
{ACAD_REACTORS
330
C576
102
}
330
C576
100
DictionaryVariables
280
     0
  1
1
  0
DICTIONARYVAR
  5
C61A
102
{ACAD_REACTORS
330
C576
102
}
330
C576
100
DictionaryVariables
280
     0
  1
1
  0
DICTIONARYVAR
  5
C61B
102
{ACAD_REACTORS
330
C576
102
}
330
C576
100
DictionaryVariables
280
     0
  1
15
  0
DICTIONARYVAR
  5
C619
102
{ACAD_REACTORS
330
C576
102
}
330
C576
100
DictionaryVariables
280
     0
  1
0
  0
DICTIONARYVAR
  5
C621
102
{ACAD_REACTORS
330
C576
102
}
330
C576
100
DictionaryVariables
280
     0
  1
0
  0
DICTIONARYVAR
  5
C617
102
{ACAD_REACTORS
330
C576
102
}
330
C576
100
DictionaryVariables
280
     0
  1
0
  0
DICTIONARY
  5
C62C
102
{ACAD_REACTORS
330
C62A
102
}
330
C62A
100
AcDbDictionary
281
     1
  0
DICTIONARY
  5
C62B
102
{ACAD_REACTORS
330
C62A
102
}
330
C62A
100
AcDbDictionary
281
     1
  3
2049118841424
350
C625
  3
2049118841440
350
C626
  3
2049118841456
350
C627
  3
2049118841472
350
C628
  3
2049118841488
350
C629
  0
DICTIONARY
  5
C62F
330
C5CB
100
AcDbDictionary
280
     1
281
     1
  3
ACAD_XREC_ROUNDTRIP
360
C630
  0
DICTIONARY
  5
C589
330
C588
100
AcDbDictionary
280
     1
281
     1
  3
BUMPTILE
360
C58B
  3
DIFFUSETILE
360
C58A
  3
OPACITYTILE
360
C58E
  3
REFLECTIONTILE
360
C58D
  3
REFRACTIONTILE
360
C58F
  3
SPECULARTILE
360
C58C
  0
DICTIONARY
  5
C581
330
C580
100
AcDbDictionary
280
     1
281
     1
  3
BUMPTILE
360
C583
  3
DIFFUSETILE
360
C582
  3
OPACITYTILE
360
C586
  3
REFLECTIONTILE
360
C585
  3
REFRACTIONTILE
360
C587
  3
SPECULARTILE
360
C584
  0
DICTIONARY
  5
C591
330
C590
100
AcDbDictionary
280
     1
281
     1
  3
BUMPTILE
360
C593
  3
DIFFUSETILE
360
C592
  3
OPACITYTILE
360
C596
  3
REFLECTIONTILE
360
C595
  3
REFRACTIONTILE
360
C597
  3
SPECULARTILE
360
C594
  0
DICTIONARY
  5
C62D
330
C5C9
100
AcDbDictionary
280
     1
281
     1
  3
ACAD_XREC_ROUNDTRIP
360
C62E
  0
DICTIONARY
  5
C622
330
C5B3
100
AcDbDictionary
280
     1
281
     1
  3
ACAD_ROUNDTRIP_2008_TABLESTYLE_CELLSTYLEMAP
360
C623
  0
XRECORD
  5
C625
102
{ACAD_REACTORS
330
C62B
102
}
330
C62B
100
AcDbXrecord
280
     1
  1
AcDb_Thumbnail_Schema
102
{ATTRRECORD
341
C626
  2
AcDbDs::TreatedAsObjectData
280
     1
291
     1
102
ATTRRECORD}
102
{ATTRRECORD
341
C627
  2
AcDbDs::Legacy
280
     1
291
     1
102
ATTRRECORD}
  2
AcDbDs::ID
280
    10
 91
        8
102
{ATTRRECORD
341
C628
  2
AcDs:Indexable
280
     1
291
     1
102
ATTRRECORD}
102
{ATTRRECORD
341
C629
  2
AcDbDs::HandleAttribute
280
     7
282
     1
102
ATTRRECORD}
  2
Thumbnail_Data
280
    15
 91
        0
  0
XRECORD
  5
C626
102
{ACAD_REACTORS
330
C62B
102
}
330
C62B
100
AcDbXrecord
280
     1
  1
AcDbDs::TreatedAsObjectDataSchema
  2
AcDbDs::TreatedAsObjectData
280
     1
 91
        0
  0
XRECORD
  5
C627
102
{ACAD_REACTORS
330
C62B
102
}
330
C62B
100
AcDbXrecord
280
     1
  1
AcDbDs::LegacySchema
  2
AcDbDs::Legacy
280
     1
 91
        0
  0
XRECORD
  5
C628
102
{ACAD_REACTORS
330
C62B
102
}
330
C62B
100
AcDbXrecord
280
     1
  1
AcDbDs::IndexedPropertySchema
  2
AcDs:Indexable
280
     1
 91
        0
  0
XRECORD
  5
C629
102
{ACAD_REACTORS
330
C62B
102
}
330
C62B
100
AcDbXrecord
280
     1
  1
AcDbDs::HandleAttributeSchema
  2
AcDbDs::HandleAttribute
280
     7
 91
        1
284
     1
  0
XRECORD
  5
C630
102
{ACAD_REACTORS
330
C62F
102
}
330
C62F
100
AcDbXrecord
280
     1
102
DISPLAYNAME
  1
Metric50
102
FLAGS
 90
        0
  0
XRECORD
  5
C58B
102
{ACAD_REACTORS
330
C589
102
}
330
C589
100
AcDbXrecord
280
     1
270
     1
271
     1
  0
XRECORD
  5
C58A
102
{ACAD_REACTORS
330
C589
102
}
330
C589
100
AcDbXrecord
280
     1
270
     1
271
     1
  0
XRECORD
  5
C58E
102
{ACAD_REACTORS
330
C589
102
}
330
C589
100
AcDbXrecord
280
     1
270
     1
271
     1
  0
XRECORD
  5
C58D
102
{ACAD_REACTORS
330
C589
102
}
330
C589
100
AcDbXrecord
280
     1
270
     1
271
     1
  0
XRECORD
  5
C58F
102
{ACAD_REACTORS
330
C589
102
}
330
C589
100
AcDbXrecord
280
     1
270
     1
271
     1
  0
XRECORD
  5
C58C
102
{ACAD_REACTORS
330
C589
102
}
330
C589
100
AcDbXrecord
280
     1
270
     1
271
     1
  0
XRECORD
  5
C583
102
{ACAD_REACTORS
330
C581
102
}
330
C581
100
AcDbXrecord
280
     1
270
     1
271
     1
  0
XRECORD
  5
C582
102
{ACAD_REACTORS
330
C581
102
}
330
C581
100
AcDbXrecord
280
     1
270
     1
271
     1
  0
XRECORD
  5
C586
102
{ACAD_REACTORS
330
C581
102
}
330
C581
100
AcDbXrecord
280
     1
270
     1
271
     1
  0
XRECORD
  5
C585
102
{ACAD_REACTORS
330
C581
102
}
330
C581
100
AcDbXrecord
280
     1
270
     1
271
     1
  0
XRECORD
  5
C587
102
{ACAD_REACTORS
330
C581
102
}
330
C581
100
AcDbXrecord
280
     1
270
     1
271
     1
  0
XRECORD
  5
C584
102
{ACAD_REACTORS
330
C581
102
}
330
C581
100
AcDbXrecord
280
     1
270
     1
271
     1
  0
XRECORD
  5
C593
102
{ACAD_REACTORS
330
C591
102
}
330
C591
100
AcDbXrecord
280
     1
270
     1
271
     1
  0
XRECORD
  5
C592
102
{ACAD_REACTORS
330
C591
102
}
330
C591
100
AcDbXrecord
280
     1
270
     1
271
     1
  0
XRECORD
  5
C596
102
{ACAD_REACTORS
330
C591
102
}
330
C591
100
AcDbXrecord
280
     1
270
     1
271
     1
  0
XRECORD
  5
C595
102
{ACAD_REACTORS
330
C591
102
}
330
C591
100
AcDbXrecord
280
     1
270
     1
271
     1
  0
XRECORD
  5
C597
102
{ACAD_REACTORS
330
C591
102
}
330
C591
100
AcDbXrecord
280
     1
270
     1
271
     1
  0
XRECORD
  5
C594
102
{ACAD_REACTORS
330
C591
102
}
330
C591
100
AcDbXrecord
280
     1
270
     1
271
     1
  0
XRECORD
  5
C62E
102
{ACAD_REACTORS
330
C62D
102
}
330
C62D
100
AcDbXrecord
280
     1
102
DISPLAYNAME
  1
Metric50
102
FLAGS
 90
        0
  0
CELLSTYLEMAP
  5
C623
102
{ACAD_REACTORS
330
C622
102
}
330
C622
100
AcDbCellStyleMap
 90
        3
300
CELLSTYLE
  1
TABLEFORMAT_BEGIN
 90
        5
170
     1
 91
        0
 92
    32768
 62
   257
 93
        1
300
CONTENTFORMAT
  1
CONTENTFORMAT_BEGIN
 90
        0
 91
        0
 92
      512
 93
        0
300

 40
0.0
140
1.0
 94
        5
 62
     0
340
10
144
6.0
309
CONTENTFORMAT_END
171
     1
301
MARGIN
  1
CELLMARGIN_BEGIN
 40
1.5
 40
1.5
 40
1.5
 40
1.5
 40
4.5
 40
4.5
309
CELLMARGIN_END
 94
        6
 95
        1
302
GRIDFORMAT
  1
GRIDFORMAT_BEGIN
 90
        0
 91
        1
 62
     0
 92
       -2
340
0
 93
        0
 40
1.125
309
GRIDFORMAT_END
 95
        2
302
GRIDFORMAT
  1
GRIDFORMAT_BEGIN
 90
        0
 91
        1
 62
     0
 92
       -2
340
0
 93
        0
 40
1.125
309
GRIDFORMAT_END
 95
        4
302
GRIDFORMAT
  1
GRIDFORMAT_BEGIN
 90
        0
 91
        1
 62
     0
 92
       -2
340
0
 93
        0
 40
1.125
309
GRIDFORMAT_END
 95
        8
302
GRIDFORMAT
  1
GRIDFORMAT_BEGIN
 90
        0
 91
        1
 62
     0
 92
       -2
340
0
 93
        0
 40
1.125
309
GRIDFORMAT_END
 95
       16
302
GRIDFORMAT
  1
GRIDFORMAT_BEGIN
 90
        0
 91
        1
 62
     0
 92
       -2
340
0
 93
        0
 40
1.125
309
GRIDFORMAT_END
 95
       32
302
GRIDFORMAT
  1
GRIDFORMAT_BEGIN
 90
        0
 91
        1
 62
     0
 92
       -2
340
0
 93
        0
 40
1.125
309
GRIDFORMAT_END
309
TABLEFORMAT_END
  1
CELLSTYLE_BEGIN
 90
        1
 91
        1
300
_TITLE
309
CELLSTYLE_END
300
CELLSTYLE
  1
TABLEFORMAT_BEGIN
 90
        5
170
     1
 91
        0
 92
        0
 62
   257
 93
        1
300
CONTENTFORMAT
  1
CONTENTFORMAT_BEGIN
 90
        0
 91
        0
 92
      512
 93
        0
300

 40
0.0
140
1.0
 94
        5
 62
     0
340
10
144
4.5
309
CONTENTFORMAT_END
171
     1
301
MARGIN
  1
CELLMARGIN_BEGIN
 40
1.5
 40
1.5
 40
1.5
 40
1.5
 40
4.5
 40
4.5
309
CELLMARGIN_END
 94
        6
 95
        1
302
GRIDFORMAT
  1
GRIDFORMAT_BEGIN
 90
        0
 91
        1
 62
     0
 92
       -2
340
0
 93
        0
 40
1.125
309
GRIDFORMAT_END
 95
        2
302
GRIDFORMAT
  1
GRIDFORMAT_BEGIN
 90
        0
 91
        1
 62
     0
 92
       -2
340
0
 93
        0
 40
1.125
309
GRIDFORMAT_END
 95
        4
302
GRIDFORMAT
  1
GRIDFORMAT_BEGIN
 90
        0
 91
        1
 62
     0
 92
       -2
340
0
 93
        0
 40
1.125
309
GRIDFORMAT_END
 95
        8
302
GRIDFORMAT
  1
GRIDFORMAT_BEGIN
 90
        0
 91
        1
 62
     0
 92
       -2
340
0
 93
        0
 40
1.125
309
GRIDFORMAT_END
 95
       16
302
GRIDFORMAT
  1
GRIDFORMAT_BEGIN
 90
        0
 91
        1
 62
     0
 92
       -2
340
0
 93
        0
 40
1.125
309
GRIDFORMAT_END
 95
       32
302
GRIDFORMAT
  1
GRIDFORMAT_BEGIN
 90
        0
 91
        1
 62
     0
 92
       -2
340
0
 93
        0
 40
1.125
309
GRIDFORMAT_END
309
TABLEFORMAT_END
  1
CELLSTYLE_BEGIN
 90
        2
 91
        1
300
_HEADER
309
CELLSTYLE_END
300
CELLSTYLE
  1
TABLEFORMAT_BEGIN
 90
        5
170
     1
 91
        0
 92
        0
 62
   257
 93
        1
300
CONTENTFORMAT
  1
CONTENTFORMAT_BEGIN
 90
        0
 91
        0
 92
      512
 93
        0
300

 40
0.0
140
1.0
 94
        2
 62
     0
340
10
144
4.5
309
CONTENTFORMAT_END
171
     1
301
MARGIN
  1
CELLMARGIN_BEGIN
 40
1.5
 40
1.5
 40
1.5
 40
1.5
 40
4.5
 40
4.5
309
CELLMARGIN_END
 94
        6
 95
        1
302
GRIDFORMAT
  1
GRIDFORMAT_BEGIN
 90
        0
 91
        1
 62
     0
 92
       -2
340
0
 93
        0
 40
1.125
309
GRIDFORMAT_END
 95
        2
302
GRIDFORMAT
  1
GRIDFORMAT_BEGIN
 90
        0
 91
        1
 62
     0
 92
       -2
340
0
 93
        0
 40
1.125
309
GRIDFORMAT_END
 95
        4
302
GRIDFORMAT
  1
GRIDFORMAT_BEGIN
 90
        0
 91
        1
 62
     0
 92
       -2
340
0
 93
        0
 40
1.125
309
GRIDFORMAT_END
 95
        8
302
GRIDFORMAT
  1
GRIDFORMAT_BEGIN
 90
        0
 91
        1
 62
     0
 92
       -2
340
0
 93
        0
 40
1.125
309
GRIDFORMAT_END
 95
       16
302
GRIDFORMAT
  1
GRIDFORMAT_BEGIN
 90
        0
 91
        1
 62
     0
 92
       -2
340
0
 93
        0
 40
1.125
309
GRIDFORMAT_END
 95
       32
302
GRIDFORMAT
  1
GRIDFORMAT_BEGIN
 90
        0
 91
        1
 62
     0
 92
       -2
340
0
 93
        0
 40
1.125
309
GRIDFORMAT_END
309
TABLEFORMAT_END
  1
CELLSTYLE_BEGIN
 90
        3
 91
        2
300
_DATA
309
CELLSTYLE_END
  0
ENDSEC
  0
SECTION
  2
ACDSDATA
 70
     2
 71
     8
  0
ACDSSCHEMA
 90
        0
  1
AcDb_Thumbnail_Schema
  2
AcDbDs::ID
280
    10
 91
        8
  2
Thumbnail_Data
280
    15
 91
        0
101
ACDSRECORD
 95
        0
 90
        1
  2
AcDbDs::TreatedAsObjectData
280
     1
291
     1
101
ACDSRECORD
 95
        0
 90
        2
  2
AcDbDs::Legacy
280
     1
291
     1
101
ACDSRECORD
  1
AcDbDs::ID
 90
        3
  2
AcDs:Indexable
280
     1
291
     1
101
ACDSRECORD
  1
AcDbDs::ID
 90
        4
  2
AcDbDs::HandleAttribute
280
     7
282
     1
  0
ACDSSCHEMA
 90
        1
  1
AcDbDs::TreatedAsObjectDataSchema
  2
AcDbDs::TreatedAsObjectData
280
     1
 91
        0
  0
ACDSSCHEMA
 90
        2
  1
AcDbDs::LegacySchema
  2
AcDbDs::Legacy
280
     1
 91
        0
  0
ACDSSCHEMA
 90
        3
  1
AcDbDs::IndexedPropertySchema
  2
AcDs:Indexable
280
     1
 91
        0
  0
ACDSSCHEMA
 90
        4
  1
AcDbDs::HandleAttributeSchema
  2
AcDbDs::HandleAttribute
280
     7
 91
        1
284
     1
  0
ACDSRECORD
 90
        0
  2
AcDbDs::ID
280
    10
320
C539
  2
Thumbnail_Data
280
    15
 94
     1739
310
89504E470D0A1A0A0000000D49484452000001000000007C0803000000B13B9E5A00000300504C5445000000000000C8C8C80000000000000000000000000000000000000000000000000000330000660000990000CC0000FF0033000033330033660033990033CC0033FF0066000066330066660066990066CC0066FF0099
310
000099330099660099990099CC0099FF00CC0000CC3300CC6600CC9900CCCC00CCFF00FF0000FF3300FF6600FF9900FFCC00FFFF3300003300333300663300993300CC3300FF3333003333333333663333993333CC3333FF3366003366333366663366993366CC3366FF3399003399333399663399993399CC3399FF33CC00
310
33CC3333CC6633CC9933CCCC33CCFF33FF0033FF3333FF6633FF9933FFCC33FFFF6600006600336600666600996600CC6600FF6633006633336633666633996633CC6633FF6666006666336666666666996666CC6666FF6699006699336699666699996699CC6699FF66CC0066CC3366CC6666CC9966CCCC66CCFF66FF0066
310
FF3366FF6666FF9966FFCC66FFFF9900009900339900669900999900CC9900FF9933009933339933669933999933CC9933FF9966009966339966669966999966CC9966FF9999009999339999669999999999CC9999FF99CC0099CC3399CC6699CC9999CCCC99CCFF99FF0099FF3399FF6699FF9999FFCC99FFFFCC0000CC00
310
33CC0066CC0099CC00CCCC00FFCC3300CC3333CC3366CC3399CC33CCCC33FFCC6600CC6633CC6666CC6699CC66CCCC66FFCC9900CC9933CC9966CC9999CC99CCCC99FFCCCC00CCCC33CCCC66CCCC99CCCCCCCCCCFFCCFF00CCFF33CCFF66CCFF99CCFFCCCCFFFFFF0000FF0033FF0066FF0099FF00CCFF00FFFF3300FF3333
310
FF3366FF3399FF33CCFF33FFFF6600FF6633FF6666FF6699FF66CCFF66FFFF9900FF9933FF9966FF9999FF99CCFF99FFFFCC00FFCC33FFCC66FFCC99FFCCCCFFCCFFFFFF00FFFF33FFFF66FFFF99FFFFCCFFFFFF0000000D0D0D1A1A1A2828283535354343435050505D5D5D6B6B6B787878868686939393A1A1A1AEAEAEBB
310
BBBBC9C9C9D6D6D6E4E4E4F1F1F1FFFFFF00000000000000000000000000000000000000000000000000000000000008F1915C000003854944415478DAED9D4B92E3200C40751C36BAFF8E93700DF6D336E22730C95475BAA20F1B07B05DD6430821880DF081943F94404ACAA26EEB001C800370000EE07B9EF430F85901C0
310
2ECF2635C03C806C1900EB05B201FCEA0C4024802FBB9903F87B00A4C64CABFBF1EEF57451D577AAA0EBE503200C30038006002A870C1D49A9879C556800EC9A9F004C1C0665A8070D008A1E33D1C7C6CD87DBB811743FC0E27438AB9A0EAFFD7E69E25E7A0F05B00D022B0090B7009A3FD00090EDD40620EF00D0A84785A0
310
12C06F5DEF3141F100D2950E79BD00D2ABA41FC04AE454AD0F40FD1196924D4E1780A2E2F898F40300C09EAB12B3AC250063CE3C00048B007A16C126809A47B00A800AAC0340B00B009A25B00A801F1503B8DC7C0C2D61FD8D2D6F0180790DB06C0392F55120B91FF0C213BCD37B41219D738140457600B0D96000C300AE1E
310
4000EC74011E113201E0942C0018ED9E7500819D8960C1081280F894940368EB028F00743B425D0D0E1A606769AC6BC5A95E3B80641080F5E5F1AFBEAD0370000EC0017CFE4967537F30FCF3A830E5C402485DE4C41C81B478035DE4349C99640378D30178759E680D987F1E3460EF2EEA0170D48047355005E07912400096
310
E0896C00BC31E78058420600775B0A138A06509BF9799FE408609F2403A85131848DCC0B80A1240C67C90780B06D76FD0052A2B591B224140A0B7300DA96C840C66027BF62007D4938C44970068022E47A01500C78D822345D1621AA3582B7C43FC207280B217B00512580D401DC42DD5A600A404A655B608CF7D6C018AEC5
310
A0B673700410EED5D2356148419106D4B6DE69C0E8240C1A20DC13C4C9061489C8182E001EBA004A0700380E02170FD6E15F6880020058658C4D1FE2FB461044FB01038150D400BBC08600D4B940EF098C805E00755FF0BD2DF20211AB3330212836A04D17D501A068471516EEF66EFDA18E02FD741D00281C848B5A0F1B46
310
6AE1E0F8A803D0668393506D8B4C45826A35608A078CD341DE05B4D9000A83F76D91A7FF90C38BFF980B053005C3CD034007600C003902A9AE87A6090DB7947D71B0E6A65575C18ED09BDBE45ED48B06300D0A3CF5EA3994C4EA250360F23E2C12A7A75392641B60BC0B08B8AD0370000EE00F9FD4FC5B65FF5F326D00600B
310
607DF5362CAF9F56A701AC10C697B0172ACA0118B501FDD30260D3066C9B36437FEB327F9FB02500B0FBAEA2DB00F7041D800370000EC001380007200980A04F6FFF03BDD4BB2FCF00006A0000000049454E44AE42608282
  0
ENDSEC
  0
EOF
