  0
SECTION
  2
HEADER
  9
$ACADVER
  1
AC1009
  9
$INSBASE
 10
0.0
 20
0.0
 30
0.0
  9
$EXTMIN
 10
-4128.9508801254269
 20
-7154.4496981635739
 30
0.0
  9
$EXTMAX
 10
8471.0491198745731
 20
10545.55030183642
 30
0.0
  9
$LIMMIN
 10
0.0
 20
0.0
  9
$LIMMAX
 10
297.0
 20
210.0
  9
$ORTHOMODE
 70
     1
  9
$REGENMODE
 70
     1
  9
$FILLMODE
 70
     0
  9
$QTEXTMODE
 70
     0
  9
$MIRRTEXT
 70
     1
  9
$DRAGMODE
 70
     2
  9
$LTSCALE
 40
360.0
  9
$OSMODE
 70
   545
  9
$ATTMODE
 70
     1
  9
$TEXTSIZE
 40
180.0
  9
$TRACEWID
 40
0.05
  9
$TEXTSTYLE
  7
STANDARD
  9
$CLAYER
  8
3
  9
$CELTYPE
  6
BYLAYER
  9
$CECOLOR
 62
   256
  9
$DIMSCALE
 40
60.0
  9
$DIMASZ
 40
2.0
  9
$DIMEXO
 40
0.5
  9
$DIMDLI
 40
10.0
  9
$DIMRND
 40
0.0
  9
$DIMDLE
 40
0.0
  9
$DIMEXE
 40
1.0
  9
$DIMTP
 40
1.0
  9
$DIMTM
 40
1.0
  9
$DIMTXT
 40
3.0
  9
$DIMCEN
 40
0.0
  9
$DIMTSZ
 40
0.0
  9
$DIMTOL
 70
     0
  9
$DIMLIM
 70
     0
  9
$DIMTIH
 70
     0
  9
$DIMTOH
 70
     0
  9
$DIMSE1
 70
     1
  9
$DIMSE2
 70
     1
  9
$DIMTAD
 70
     1
  9
$DIMZIN
 70
     8
  9
$DIMBLK
  1
OPEN30
  9
$DIMASO
 70
     1
  9
$DIMSHO
 70
     1
  9
$DIMPOST
  1
(<>)
  9
$DIMAPOST
  1

  9
$DIMALT
 70
     0
  9
$DIMALTD
 70
     2
  9
$DIMALTF
 40
0.039
  9
$DIMLFAC
 40
1.0
  9
$DIMTOFL
 70
     1
  9
$DIMTVP
 40
0.0
  9
$DIMTIX
 70
     0
  9
$DIMSOXD
 70
     0
  9
$DIMSAH
 70
     1
  9
$DIMBLK1
  1

  9
$DIMBLK2
  1

  9
$DIMSTYLE
  2
IGA
  9
$DIMCLRD
 70
     0
  9
$DIMCLRE
 70
     0
  9
$DIMCLRT
 70
     0
  9
$DIMTFAC
 40
10.0
  9
$DIMGAP
 40
1.0
  9
$LUNITS
 70
     2
  9
$LUPREC
 70
     3
  9
$SKETCHINC
 40
0.1
  9
$FILLETRAD
 40
50.0
  9
$AUNITS
 70
     0
  9
$AUPREC
 70
     0
  9
$MENU
  1
acad
  9
$ELEVATION
 40
0.0
  9
$PELEVATION
 40
0.0
  9
$THICKNESS
 40
0.0
  9
$LIMCHECK
 70
     0
  9
$BLIPMODE
 70
     0
  9
$CHAMFERA
 40
0.5
  9
$CHAMFERB
 40
0.5
  9
$SKPOLY
 70
     0
  9
$TDCREATE
 40
2453349.637759502
  9
$TDUPDATE
 40
2455012.4488074998
  9
$TDINDWG
 40
0.1944382755
  9
$TDUSRTIMER
 40
0.1944375579
  9
$USRTIMER
 70
     1
  9
$ANGBASE
 50
0.0
  9
$ANGDIR
 70
     0
  9
$PDMODE
 70
     0
  9
$PDSIZE
 40
0.0
  9
$PLINEWID
 40
0.0
  9
$COORDS
 70
     2
  9
$SPLFRAME
 70
     0
  9
$SPLINETYPE
 70
     6
  9
$SPLINESEGS
 70
     8
  9
$ATTDIA
 70
     0
  9
$ATTREQ
 70
     1
  9
$HANDLING
 70
 22529
  9
$HANDSEED
  5
9556
  9
$SURFTAB1
 70
     6
  9
$SURFTAB2
 70
     6
  9
$SURFTYPE
 70
     6
  9
$SURFU
 70
     6
  9
$SURFV
 70
     6
  9
$UCSNAME
  2

  9
$UCSORG
 10
0.0
 20
0.0
 30
0.0
  9
$UCSXDIR
 10
1.0
 20
0.0
 30
0.0
  9
$UCSYDIR
 10
0.0
 20
1.0
 30
0.0
  9
$PUCSNAME
  2

  9
$PUCSORG
 10
0.0
 20
0.0
 30
0.0
  9
$PUCSXDIR
 10
1.0
 20
0.0
 30
0.0
  9
$PUCSYDIR
 10
0.0
 20
1.0
 30
0.0
  9
$USERI1
 70
     0
  9
$USERI2
 70
     0
  9
$USERI3
 70
     0
  9
$USERI4
 70
     0
  9
$USERI5
 70
     0
  9
$USERR1
 40
0.0
  9
$USERR2
 40
0.0
  9
$USERR3
 40
0.0
  9
$USERR4
 40
0.0
  9
$USERR5
 40
0.0
  9
$WORLDVIEW
 70
     1
  9
$SHADEDGE
 70
     3
  9
$SHADEDIF
 70
    70
  9
$TILEMODE
 70
     1
  9
$MAXACTVP
 70
    16
  9
$PLIMCHECK
 70
     0
  9
$PEXTMIN
 10
1.0000000000000000E+020
 20
1.0000000000000000E+020
 30
1.0000000000000000E+020
  9
$PEXTMAX
 10
-1.0000000000000000E+020
 20
-1.0000000000000000E+020
 30
-1.0000000000000000E+020
  9
$PLIMMIN
 10
0.0
 20
0.0
  9
$PLIMMAX
 10
12.0
 20
9.0
  9
$UNITMODE
 70
     0
  9
$VISRETAIN
 70
     0
  9
$PLINEGEN
 70
     0
  9
$PSLTSCALE
 70
     1
  0
ENDSEC
  0
SECTION
  2
TABLES
  0
TABLE
  2
VPORT
 70
     2
  0
VPORT
  2
*ACTIVE
 70
     0
 10
0.0
 20
0.0
 11
1.0
 21
1.0
 12
2171.049149211236
 22
1695.5503430474439
 13
0.0
 23
0.0
 14
10.0
 24
10.0
 15
10.0
 25
10.0
 16
0.0
 26
0.0
 36
1.0
 17
0.0
 27
0.0
 37
0.0
 40
17845.578937142531
 41
1.6307901907356941
 42
50.0
 43
0.0
 44
0.0
 50
0.0
 51
0.0
 71
     0
 72
   100
 73
     1
 74
     0
 75
     0
 76
     0
 77
     0
 78
     0
  0
ENDTAB
  0
TABLE
  2
LTYPE
 70
     2
  0
LTYPE
  2
CONTINUOUS
 70
     0
  3
Solid line
 72
    65
 73
     0
 40
0.0
  0
LTYPE
  2
CENTER
 70
     0
  3
____ _ ____ _ ____ _ ____ _ ____ _ ____ _ ____ 
 72
    65
 73
     4
 40
2.0
 49
1.25
 49
-0.25
 49
0.25
 49
-0.25
  0
ENDTAB
  0
TABLE
  2
LAYER
 70
     6
  0
LAYER
  2
0
 70
     0
 62
     7
  6
CONTINUOUS
  0
LAYER
  2
1
 70
     0
 62
     4
  6
CONTINUOUS
  0
LAYER
  2
3
 70
     0
 62
     2
  6
CONTINUOUS
  0
LAYER
  2
2
 70
     0
 62
     3
  6
CENTER
  0
LAYER
  2
4
 70
     0
 62
     7
  6
CONTINUOUS
  0
LAYER
  2
DEFPOINTS
 70
     0
 62
     7
  6
CONTINUOUS
  0
ENDTAB
  0
TABLE
  2
STYLE
 70
     1
  0
STYLE
  2
STANDARD
 70
     0
 40
0.0
 41
1.0
 50
0.0
 71
     0
 42
180.0
  3
simplex.shx
  4
extfont.shx
  0
ENDTAB
  0
TABLE
  2
VIEW
 70
     0
  0
ENDTAB
  0
TABLE
  2
UCS
 70
     0
  0
ENDTAB
  0
TABLE
  2
APPID
 70
     1
  0
APPID
  2
ACAD
 70
     0
  0
ENDTAB
  0
TABLE
  2
DIMSTYLE
 70
     1
  0
DIMSTYLE
  2
IGA
 70
     0
  3

  4

  5

  6

  7

 40
2.0
 41
2.0
 42
0.5
 43
10.0
 44
1.0
 45
0.0
 46
0.0
 47
1.0
 48
1.0
140
3.0
141
0.0
142
0.0
143
0.03937
144
1.0
145
0.0
146
10.0
147
1.0
 71
     0
 72
     0
 73
     0
 74
     0
 75
     0
 76
     0
 77
     1
 78
     8
170
     0
171
     2
172
     0
173
     1
174
     0
175
     0
176
     0
177
     0
178
     0
  0
ENDTAB
  0
ENDSEC
  0
SECTION
  2
BLOCKS
  0
BLOCK
  8
0
  2
$MODEL_SPACE
 70
     0
 10
0.0
 20
0.0
 30
0.0
  3
$MODEL_SPACE
  1

  0
ENDBLK
  5
7D74
  8
0
  0
BLOCK
 67
     1
  8
0
  2
$PAPER_SPACE
 70
     0
 10
0.0
 20
0.0
 30
0.0
  3
$PAPER_SPACE
  1

  0
ENDBLK
  5
7D70
 67
     1
  8
0
  0
BLOCK
  8
0
  2
_OPEN30
 70
     0
 10
0.0
 20
0.0
 30
0.0
  3
_OPEN30
  1

  0
LINE
  5
7DAE
  8
1
 62
     0
 10
-1.0
 20
0.26794919
 30
0.0
 11
0.0
 21
0.0
 31
0.0
  0
LINE
  5
7DAF
  8
1
 62
     0
 10
0.0
 20
0.0
 30
0.0
 11
-1.0
 21
-0.26794919
 31
0.0
  0
LINE
  5
7DB0
  8
1
 62
     0
 10
0.0
 20
0.0
 30
0.0
 11
-1.0
 21
0.0
 31
0.0
  0
ENDBLK
  5
7DB1
  8
0
  0
BLOCK
  8
0
  2
*D1
 70
     1
 10
0.0
 20
0.0
 30
0.0
  3
*D1
  1

  0
LINE
  5
9489
  8
3
 62
     0
 10
6928.0871082668846
 20
47.599581659473863
 30
0.0
 11
7769.8980415944388
 21
47.599581659473621
 31
0.0
  0
LINE
  5
948A
  8
3
 62
     0
 10
6922.0871082668846
 20
-1952.400418340525
 30
0.0
 11
7769.8980415944388
 21
-1952.400418340525
 31
0.0
  0
LINE
  5
948B
  8
3
 62
     0
 10
7709.8980415944388
 20
-72.400418340526357
 30
0.0
 11
7709.8980415944388
 21
-1832.400418340525
 31
0.0
  0
INSERT
  5
948C
  8
3
 62
     0
  2
_OPEN30
 10
7709.8980415944388
 20
47.599581659473643
 30
0.0
 41
120.0
 42
120.0
 43
120.0
 50
90.0
  0
INSERT
  5
948D
  8
3
 62
     0
  2
_OPEN30
 10
7709.8980415944388
 20
-1952.400418340525
 30
0.0
 41
120.0
 42
120.0
 43
120.0
 50
270.0
  0
TEXT
  8
3
  40
180
  5
9542
  62
0
  72
0
  71
0
 10
7199.90
 20
-1271.00
 30
0.000000
  1
%%c2000
  0
POINT
  5
948F
  8
DEFPOINTS
 62
     0
 10
6898.0871082668837
 20
47.59958165947387
 30
0.0
  0
POINT
  5
9490
  8
DEFPOINTS
 62
     0
 10
6892.0871082668846
 20
-1952.400418340525
 30
0.0
  0
POINT
  5
9491
  8
DEFPOINTS
 62
     0
 10
7709.8980415944388
 20
-1952.400418340525
 30
0.0
  0
ENDBLK
  5
7E6D
  8
0
  0
BLOCK
  8
0
  2
*D2
 70
     1
 10
0.0
 20
0.0
 30
0.0
  3
*D2
  1

  0
LINE
  5
9492
  8
3
 62
     0
 10
1987.9762613393359
 20
1195.5995816594741
 30
0.0
 11
2755.2370851929031
 21
1195.599581659473
 31
0.0
  0
LINE
  5
9493
  8
3
 62
     0
 10
1987.976261339335
 20
-864.40041834052556
 30
0.0
 11
2755.2370851929022
 21
-864.40041834052568
 31
0.0
  0
LINE
  5
9494
  8
3
 62
     0
 10
2695.2370851929031
 20
1075.599581659473
 30
0.0
 11
2695.2370851929031
 21
-744.40041834052568
 31
0.0
  0
INSERT
  5
9495
  8
3
 62
     0
  2
_OPEN30
 10
2695.2370851929031
 20
1195.599581659473
 30
0.0
 41
120.0
 42
120.0
 43
120.0
 50
90.0
  0
INSERT
  5
9496
  8
3
 62
     0
  2
_OPEN30
 10
2695.2370851929031
 20
-864.40041834052568
 30
0.0
 41
120.0
 42
120.0
 43
120.0
 50
270.0
  0
TEXT
  8
3
  40
180
  5
9543
  62
0
  72
0
  71
0
 10
2185.24
 20
-153.000
 30
0.000000
  1
2060
  0
POINT
  5
9498
  8
DEFPOINTS
 62
     0
 10
1957.9762613393359
 20
1195.5995816594741
 30
0.0
  0
POINT
  5
9499
  8
DEFPOINTS
 62
     0
 10
1957.976261339335
 20
-864.40041834052556
 30
0.0
  0
POINT
  5
949A
  8
DEFPOINTS
 62
     0
 10
2695.2370851929031
 20
-864.40041834052568
 30
0.0
  0
ENDBLK
  5
8048
  8
0
  0
BLOCK
  8
0
  2
*D3
 70
     1
 10
0.0
 20
0.0
 30
0.0
  3
*D3
  1

  0
LINE
  5
949B
  8
3
 62
     0
 10
1987.9762613393359
 20
1195.5995816594741
 30
0.0
 11
3212.5602201082752
 21
1195.599581659473
 31
0.0
  0
LINE
  5
949C
  8
3
 62
     0
 10
2294.726336426359
 20
-952.40041834052556
 30
0.0
 11
3212.5602201082752
 21
-952.40041834052602
 31
0.0
  0
LINE
  5
949D
  8
3
 62
     0
 10
3152.5602201082752
 20
1075.599581659473
 30
0.0
 11
3152.5602201082738
 21
-832.4004183405259
 31
0.0
  0
INSERT
  5
949E
  8
3
 62
     0
  2
_OPEN30
 10
3152.5602201082752
 20
1195.599581659473
 30
0.0
 41
120.0
 42
120.0
 43
120.0
 50
90.0
  0
INSERT
  5
949F
  8
3
 62
     0
  2
_OPEN30
 10
3152.5602201082738
 20
-952.40041834052579
 30
0.0
 41
120.0
 42
120.0
 43
120.0
 50
270.0
  0
TEXT
  8
3
  40
180
  5
9544
  62
0
  72
0
  71
0
 10
2642.56
 20
-197.000
 30
0.000000
  1
2148
  0
POINT
  5
94A1
  8
DEFPOINTS
 62
     0
 10
1957.9762613393359
 20
1195.5995816594741
 30
0.0
  0
POINT
  5
94A2
  8
DEFPOINTS
 62
     0
 10
2264.726336426359
 20
-952.40041834052556
 30
0.0
  0
POINT
  5
94A3
  8
DEFPOINTS
 62
     0
 10
3152.5602201082738
 20
-952.40041834052579
 30
0.0
  0
ENDBLK
  5
8055
  8
0
  0
BLOCK
  8
0
  2
*D4
 70
     1
 10
0.0
 20
0.0
 30
0.0
  3
*D4
  1

  0
LINE
  5
94A4
  8
3
 62
     0
 10
-497.02373866066398
 20
5639.7326331639633
 30
0.0
 11
-497.02373866066398
 21
6271.2875301007589
 31
0.0
  0
LINE
  5
94A5
  8
3
 62
     0
 10
1862.9762613393359
 20
5639.7326331639633
 30
0.0
 11
1862.9762613393359
 21
6271.2875301007589
 31
0.0
  0
LINE
  5
94A6
  8
3
 62
     0
 10
-377.02373866066398
 20
6211.2875301007589
 30
0.0
 11
1742.9762613393359
 21
6211.2875301007589
 31
0.0
  0
INSERT
  5
94A7
  8
3
 62
     0
  2
_OPEN30
 10
-497.02373866066398
 20
6211.2875301007589
 30
0.0
 41
120.0
 42
120.0
 43
120.0
 50
180.0
  0
INSERT
  5
94A8
  8
3
 62
     0
  2
_OPEN30
 10
1862.9762613393359
 20
6211.2875301007589
 30
0.0
 41
120.0
 42
120.0
 43
120.0
  0
TEXT
  8
3
  40
180
  5
9545
  62
0
  72
0
  71
0
 10
322.976
 20
6042.69
 30
0.000000
  1
2360
  0
POINT
  5
94AA
  8
DEFPOINTS
 62
     0
 10
-497.02373866066398
 20
5609.7326331639642
 30
0.0
  0
POINT
  5
94AB
  8
DEFPOINTS
 62
     0
 10
1862.9762613393359
 20
5609.7326331639642
 30
0.0
  0
POINT
  5
94AC
  8
DEFPOINTS
 62
     0
 10
1862.9762613393359
 20
6211.2875301007589
 30
0.0
  0
ENDBLK
  5
855F
  8
0
  0
BLOCK
  8
0
  2
*D5
 70
     1
 10
0.0
 20
0.0
 30
0.0
  3
*D5
  1

  0
LINE
  5
94AD
  8
3
 62
     0
 10
-497.02373866066398
 20
5639.7326331639633
 30
0.0
 11
-497.02373866066398
 21
6271.2875301007589
 31
0.0
  0
LINE
  5
94AE
  8
3
 62
     0
 10
-1837.0237386606641
 20
4779.7326331639651
 30
0.0
 11
-1837.0237386606641
 21
6271.2875301007589
 31
0.0
  0
LINE
  5
94AF
  8
3
 62
     0
 10
-617.02373866066409
 20
6211.2875301007589
 30
0.0
 11
-1717.0237386606641
 21
6211.2875301007589
 31
0.0
  0
INSERT
  5
94B0
  8
3
 62
     0
  2
_OPEN30
 10
-497.02373866066398
 20
6211.2875301007589
 30
0.0
 41
120.0
 42
120.0
 43
120.0
  0
INSERT
  5
94B1
  8
3
 62
     0
  2
_OPEN30
 10
-1837.0237386606641
 20
6211.2875301007589
 30
0.0
 41
120.0
 42
120.0
 43
120.0
 50
180.0
  0
TEXT
  8
3
  40
180
  5
9546
  62
0
  72
0
  71
0
 10
-1527.02
 20
6042.69
 30
0.000000
  1
1340
  0
POINT
  5
94B3
  8
DEFPOINTS
 62
     0
 10
-497.02373866066398
 20
5609.7326331639642
 30
0.0
  0
POINT
  5
94B4
  8
DEFPOINTS
 62
     0
 10
-1837.0237386606641
 20
4749.7326331639651
 30
0.0
  0
POINT
  5
94B5
  8
DEFPOINTS
 62
     0
 10
-1837.0237386606641
 20
6211.2875301007589
 30
0.0
  0
ENDBLK
  5
8575
  8
0
  0
BLOCK
  8
0
  2
*D6
 70
     1
 10
0.0
 20
0.0
 30
0.0
  3
*D6
  1

  0
LINE
  5
94B6
  8
3
 62
     0
 10
-1837.0237386606641
 20
3519.7326331639651
 30
0.0
 11
-1837.0237386606641
 21
2679.315186575383
 31
0.0
  0
LINE
  5
94B7
  8
3
 62
     0
 10
1862.9762613393359
 20
3519.7326331639651
 30
0.0
 11
1862.9762613393359
 21
2679.315186575383
 31
0.0
  0
LINE
  5
94B8
  8
3
 62
     0
 10
-1717.0237386606641
 20
2739.3151865753821
 30
0.0
 11
1742.9762613393359
 21
2739.3151865753821
 31
0.0
  0
INSERT
  5
94B9
  8
3
 62
     0
  2
_OPEN30
 10
-1837.0237386606641
 20
2739.3151865753821
 30
0.0
 41
120.0
 42
120.0
 43
120.0
 50
180.0
  0
INSERT
  5
94BA
  8
3
 62
     0
  2
_OPEN30
 10
1862.9762613393359
 20
2739.3151865753821
 30
0.0
 41
120.0
 42
120.0
 43
120.0
  0
TEXT
  8
3
  40
180
  5
9547
  62
0
  72
0
  71
0
 10
-347.024
 20
2570.72
 30
0.000000
  1
3700
  0
POINT
  5
94BC
  8
DEFPOINTS
 62
     0
 10
-1837.0237386606641
 20
3549.7326331639638
 30
0.0
  0
POINT
  5
94BD
  8
DEFPOINTS
 62
     0
 10
1862.9762613393359
 20
3549.7326331639638
 30
0.0
  0
POINT
  5
94BE
  8
DEFPOINTS
 62
     0
 10
1862.9762613393359
 20
2739.3151865753821
 30
0.0
  0
ENDBLK
  5
865D
  8
0
  0
BLOCK
  8
0
  2
*D7
 70
     1
 10
0.0
 20
0.0
 30
0.0
  3
*D7
  1

  0
LINE
  5
94BF
  8
3
 62
     0
 10
-1867.0237386606641
 20
4749.7326331639651
 30
0.0
 11
-2751.9653763486849
 21
4749.7326331639661
 31
0.0
  0
LINE
  5
94C0
  8
3
 62
     0
 10
-1867.0237386606641
 20
3549.7326331639638
 30
0.0
 11
-2751.9653763486849
 21
3549.7326331639638
 31
0.0
  0
LINE
  5
94C1
  8
3
 62
     0
 10
-2691.9653763486858
 20
4629.7326331639661
 30
0.0
 11
-2691.9653763486858
 21
3669.7326331639651
 31
0.0
  0
INSERT
  5
94C2
  8
3
 62
     0
  2
_OPEN30
 10
-2691.9653763486858
 20
4749.7326331639661
 30
0.0
 41
120.0
 42
120.0
 43
120.0
 50
90.0
  0
INSERT
  5
94C3
  8
3
 62
     0
  2
_OPEN30
 10
-2691.9653763486858
 20
3549.7326331639638
 30
0.0
 41
120.0
 42
120.0
 43
120.0
 50
270.0
  0
TEXT
  8
3
  40
180
  5
9548
  62
0
  72
0
  71
0
 10
-3201.97
 20
3831.13
 30
0.000000
  1
1200
  0
POINT
  5
94C5
  8
DEFPOINTS
 62
     0
 10
-1837.0237386606641
 20
4749.7326331639651
 30
0.0
  0
POINT
  5
94C6
  8
DEFPOINTS
 62
     0
 10
-1837.0237386606641
 20
3549.7326331639638
 30
0.0
  0
POINT
  5
94C7
  8
DEFPOINTS
 62
     0
 10
-2691.9653763486858
 20
3549.7326331639638
 30
0.0
  0
ENDBLK
  5
8673
  8
0
  0
BLOCK
  8
0
  2
*D8
 70
     1
 10
0.0
 20
0.0
 30
0.0
  3
*D8
  1

  0
LINE
  5
94C8
  8
3
 62
     0
 10
1892.9762613393359
 20
3549.7326331639638
 30
0.0
 11
2869.1953492396419
 21
3549.7326331639638
 31
0.0
  0
LINE
  5
94C9
  8
3
 62
     0
 10
1892.9762613393359
 20
5609.7326331639642
 30
0.0
 11
2869.1953492396419
 21
5609.7326331639633
 31
0.0
  0
LINE
  5
94CA
  8
3
 62
     0
 10
2809.1953492396419
 20
3669.7326331639651
 30
0.0
 11
2809.1953492396419
 21
5489.7326331639633
 31
0.0
  0
INSERT
  5
94CB
  8
3
 62
     0
  2
_OPEN30
 10
2809.1953492396419
 20
3549.7326331639638
 30
0.0
 41
120.0
 42
120.0
 43
120.0
 50
270.0
  0
INSERT
  5
94CC
  8
3
 62
     0
  2
_OPEN30
 10
2809.1953492396419
 20
5609.7326331639633
 30
0.0
 41
120.0
 42
120.0
 43
120.0
 50
90.0
  0
TEXT
  8
3
  40
180
  5
9549
  62
0
  72
0
  71
0
 10
2299.20
 20
4261.13
 30
0.000000
  1
2060
  0
POINT
  5
94CE
  8
DEFPOINTS
 62
     0
 10
1862.9762613393359
 20
3549.7326331639638
 30
0.0
  0
POINT
  5
94CF
  8
DEFPOINTS
 62
     0
 10
1862.9762613393359
 20
5609.7326331639642
 30
0.0
  0
POINT
  5
94D0
  8
DEFPOINTS
 62
     0
 10
2809.1953492396419
 20
5609.7326331639633
 30
0.0
  0
ENDBLK
  5
8689
  8
0
  0
BLOCK
  8
0
  2
*D9
 70
     1
 10
0.0
 20
0.0
 30
0.0
  3
*D9
  1

  0
LINE
  5
94D1
  8
3
 62
     0
 10
1957.9762613393359
 20
1304.5995816594741
 30
0.0
 11
1957.9762613393359
 21
1879.704708280645
 31
0.0
  0
LINE
  5
94D2
  8
3
 62
     0
 10
682.97626133933579
 20
1432.992304597595
 30
0.0
 11
682.97626133933579
 21
1879.704708280645
 31
0.0
  0
LINE
  5
94D3
  8
3
 62
     0
 10
1837.9762613393359
 20
1819.704708280645
 30
0.0
 11
802.97626133933591
 21
1819.704708280645
 31
0.0
  0
INSERT
  5
94D4
  8
3
 62
     0
  2
_OPEN30
 10
1957.9762613393359
 20
1819.704708280645
 30
0.0
 41
120.0
 42
120.0
 43
120.0
  0
INSERT
  5
94D5
  8
3
 62
     0
  2
_OPEN30
 10
682.97626133933579
 20
1819.704708280645
 30
0.0
 41
120.0
 42
120.0
 43
120.0
 50
180.0
  0
TEXT
  8
3
  40
180
  5
954A
  62
0
  72
0
  71
0
 10
960.476
 20
1651.10
 30
0.000000
  1
1275
  0
POINT
  5
94D7
  8
DEFPOINTS
 62
     0
 10
1957.9762613393359
 20
1274.5995816594741
 30
0.0
  0
POINT
  5
94D8
  8
DEFPOINTS
 62
     0
 10
682.97626133933579
 20
1402.992304597595
 30
0.0
  0
POINT
  5
94D9
  8
DEFPOINTS
 62
     0
 10
682.97626133933579
 20
1819.704708280645
 30
0.0
  0
ENDBLK
  5
86BA
  8
0
  0
BLOCK
  8
0
  2
*D10
 70
     1
 10
0.0
 20
0.0
 30
0.0
  3
*D10
  1

  0
LINE
  5
94DA
  8
3
 62
     0
 10
2294.726336426359
 20
-952.40041834052556
 30
0.0
 11
3212.5602201082752
 21
-952.40041834052602
 31
0.0
  0
LINE
  5
94DB
  8
3
 62
     0
 10
1892.9762613393359
 20
-2432.400418340525
 30
0.0
 11
3212.5602201082738
 21
-2432.400418340525
 31
0.0
  0
LINE
  5
94DC
  8
3
 62
     0
 10
3152.5602201082738
 20
-1072.4004183405259
 30
0.0
 11
3152.5602201082738
 21
-2312.400418340525
 31
0.0
  0
INSERT
  5
94DD
  8
3
 62
     0
  2
_OPEN30
 10
3152.5602201082738
 20
-952.40041834052579
 30
0.0
 41
120.0
 42
120.0
 43
120.0
 50
90.0
  0
INSERT
  5
94DE
  8
3
 62
     0
  2
_OPEN30
 10
3152.5602201082738
 20
-2432.400418340525
 30
0.0
 41
120.0
 42
120.0
 43
120.0
 50
270.0
  0
TEXT
  8
3
  40
180
  5
954B
  62
0
  72
0
  71
0
 10
2642.56
 20
-2011.00
 30
0.000000
  1
1480
  0
POINT
  5
94E0
  8
DEFPOINTS
 62
     0
 10
2264.726336426359
 20
-952.40041834052556
 30
0.0
  0
POINT
  5
94E1
  8
DEFPOINTS
 62
     0
 10
1862.9762613393359
 20
-2432.400418340525
 30
0.0
  0
POINT
  5
94E2
  8
DEFPOINTS
 62
     0
 10
3152.5602201082738
 20
-2432.400418340525
 30
0.0
  0
ENDBLK
  5
87C1
  8
0
  0
BLOCK
  8
0
  2
*D11
 70
     1
 10
0.0
 20
0.0
 30
0.0
  3
*D11
  1

  0
LINE
  5
94E3
  8
3
 62
     0
 10
5244.0871082668828
 20
1225.5995816594741
 30
0.0
 11
5244.0871082668828
 21
1806.228386170056
 31
0.0
  0
LINE
  5
94E4
  8
3
 62
     0
 10
6744.0871082668846
 20
1225.599581659473
 30
0.0
 11
6744.0871082668846
 21
1806.228386170056
 31
0.0
  0
LINE
  5
94E5
  8
3
 62
     0
 10
5364.0871082668828
 20
1746.228386170056
 30
0.0
 11
6624.0871082668837
 21
1746.228386170056
 31
0.0
  0
INSERT
  5
94E6
  8
3
 62
     0
  2
_OPEN30
 10
5244.0871082668828
 20
1746.228386170056
 30
0.0
 41
120.0
 42
120.0
 43
120.0
 50
180.0
  0
INSERT
  5
94E7
  8
3
 62
     0
  2
_OPEN30
 10
6744.0871082668846
 20
1746.228386170056
 30
0.0
 41
120.0
 42
120.0
 43
120.0
  0
TEXT
  8
3
  40
180
  5
954C
  62
0
  72
0
  71
0
 10
5634.09
 20
1577.63
 30
0.000000
  1
1500
  0
POINT
  5
94E9
  8
DEFPOINTS
 62
     0
 10
5244.0871082668828
 20
1195.5995816594741
 30
0.0
  0
POINT
  5
94EA
  8
DEFPOINTS
 62
     0
 10
6744.0871082668846
 20
1195.599581659473
 30
0.0
  0
POINT
  5
94EB
  8
DEFPOINTS
 62
     0
 10
6744.0871082668846
 20
1746.228386170056
 30
0.0
  0
ENDBLK
  5
87D7
  8
0
  0
BLOCK
  8
0
  2
*D12
 70
     1
 10
0.0
 20
0.0
 30
0.0
  3
*D12
  1

  0
LINE
  5
94EC
  8
3
 62
     0
 10
4744.0871082668837
 20
-372.40041834052539
 30
0.0
 11
4744.0871082668837
 21
2270.4019307734702
 31
0.0
  0
LINE
  5
94ED
  8
3
 62
     0
 10
5994.0871082668846
 20
2220.387276049194
 30
0.0
 11
5994.0871082668846
 21
2270.4019307734702
 31
0.0
  0
LINE
  5
94EE
  8
3
 62
     0
 10
4864.0871082668837
 20
2210.4019307734702
 30
0.0
 11
5874.0871082668837
 21
2210.4019307734702
 31
0.0
  0
INSERT
  5
94EF
  8
3
 62
     0
  2
_OPEN30
 10
4744.0871082668837
 20
2210.4019307734702
 30
0.0
 41
120.0
 42
120.0
 43
120.0
 50
180.0
  0
INSERT
  5
94F0
  8
3
 62
     0
  2
_OPEN30
 10
5994.0871082668846
 20
2210.4019307734702
 30
0.0
 41
120.0
 42
120.0
 43
120.0
  0
TEXT
  8
3
  40
180
  5
954D
  62
0
  72
0
  71
0
 10
5009.09
 20
2088.94
 30
0.000000
  1
(1250)
  0
POINT
  5
94F2
  8
DEFPOINTS
 62
     0
 10
4744.0871082668837
 20
-402.40041834052539
 30
0.0
  0
POINT
  5
94F3
  8
DEFPOINTS
 62
     0
 10
5994.0871082668846
 20
2190.387276049194
 30
0.0
  0
POINT
  5
94F4
  8
DEFPOINTS
 62
     0
 10
5994.0871082668846
 20
2210.4019307734702
 30
0.0
  0
ENDBLK
  5
87E4
  8
0
  0
BLOCK
  8
0
  2
*D13
 70
     1
 10
0.0
 20
0.0
 30
0.0
  3
*D13
  1

  0
LINE
  5
94F5
  8
3
 62
     0
 10
5994.0871082668846
 20
2220.387276049194
 30
0.0
 11
5994.0871082668846
 21
2270.4019307734702
 31
0.0
  0
LINE
  5
94F6
  8
3
 62
     0
 10
6898.0871082668837
 20
152.5995816594731
 30
0.0
 11
6898.0871082668837
 21
2270.4019307734702
 31
0.0
  0
LINE
  5
94F7
  8
3
 62
     0
 10
6114.0871082668837
 20
2210.4019307734702
 30
0.0
 11
6778.0871082668846
 21
2210.4019307734702
 31
0.0
  0
INSERT
  5
94F8
  8
3
 62
     0
  2
_OPEN30
 10
5994.0871082668846
 20
2210.4019307734702
 30
0.0
 41
120.0
 42
120.0
 43
120.0
 50
180.0
  0
INSERT
  5
94F9
  8
3
 62
     0
  2
_OPEN30
 10
6898.0871082668837
 20
2210.4019307734702
 30
0.0
 41
120.0
 42
120.0
 43
120.0
  0
TEXT
  8
3
  40
180
  5
954E
  62
0
  72
0
  71
0
 10
6086.09
 20
2041.80
 30
0.000000
  1
904
  0
POINT
  5
94FB
  8
DEFPOINTS
 62
     0
 10
5994.0871082668846
 20
2190.387276049194
 30
0.0
  0
POINT
  5
94FC
  8
DEFPOINTS
 62
     0
 10
6898.0871082668837
 20
122.5995816594732
 30
0.0
  0
POINT
  5
94FD
  8
DEFPOINTS
 62
     0
 10
6898.0871082668837
 20
2210.4019307734702
 30
0.0
  0
ENDBLK
  5
87FA
  8
0
  0
BLOCK
  8
0
  2
_OPEN
 70
     0
 10
0.0
 20
0.0
 30
0.0
  3
_OPEN
  1

  0
LINE
  5
91DD
  8
0
  6
BYBLOCK
 62
     0
 10
-1.0
 20
0.1666666666666666
 30
0.0
 11
0.0
 21
0.0
 31
0.0
  0
LINE
  5
91DE
  8
0
  6
BYBLOCK
 62
     0
 10
0.0
 20
0.0
 30
0.0
 11
-1.0
 21
-0.1666666666666666
 31
0.0
  0
LINE
  5
91DF
  8
0
  6
BYBLOCK
 62
     0
 10
0.0
 20
0.0
 30
0.0
 11
-1.0
 21
0.0
 31
0.0
  0
ENDBLK
  5
91E0
  8
0
  0
BLOCK
  8
0
  2
*D15
 70
     1
 10
0.0
 20
0.0
 30
0.0
  3
*D15
  1

  0
LINE
  5
94FE
  8
3
 62
     0
 10
4763.0871082668837
 20
-2782.400418340525
 30
0.0
 11
4763.0871082668837
 21
-3234.333228475698
 31
0.0
  0
LINE
  5
94FF
  8
3
 62
     0
 10
5994.0871082668846
 20
-2782.4004183405241
 30
0.0
 11
5994.0871082668846
 21
-3234.333228475698
 31
0.0
  0
LINE
  5
9500
  8
3
 62
     0
 10
4883.0871082668837
 20
-3174.333228475698
 30
0.0
 11
5874.0871082668837
 21
-3174.333228475698
 31
0.0
  0
INSERT
  5
9501
  8
3
 62
     0
  2
_OPEN
 10
4763.0871082668837
 20
-3174.333228475698
 30
0.0
 41
120.0
 42
120.0
 43
120.0
 50
180.0
  0
INSERT
  5
9502
  8
3
 62
     0
  2
_OPEN
 10
5994.0871082668846
 20
-3174.333228475698
 30
0.0
 41
120.0
 42
120.0
 43
120.0
  0
TEXT
  8
3
  40
180
  5
954F
  62
0
  72
0
  71
0
 10
5018.59
 20
-3342.93
 30
0.000000
  1
1231
  0
POINT
  5
9504
  8
DEFPOINTS
 62
     0
 10
4763.0871082668837
 20
-2752.400418340525
 30
0.0
  0
POINT
  5
9505
  8
DEFPOINTS
 62
     0
 10
5994.0871082668846
 20
-2752.4004183405241
 30
0.0
  0
POINT
  5
9506
  8
DEFPOINTS
 62
     0
 10
5994.0871082668846
 20
-3174.333228475698
 30
0.0
  0
ENDBLK
  5
91EC
  8
0
  0
BLOCK
  8
0
  2
*D16
 70
     1
 10
0.0
 20
0.0
 30
0.0
  3
*D16
  1

  0
LINE
  5
9507
  8
3
 62
     0
 10
5994.0871082668846
 20
-2782.4004183405241
 30
0.0
 11
5994.0871082668846
 21
-3234.333228475698
 31
0.0
  0
LINE
  5
9508
  8
3
 62
     0
 10
6823.0871082668864
 20
-2782.400418340525
 30
0.0
 11
6823.0871082668864
 21
-3234.333228475698
 31
0.0
  0
LINE
  5
9509
  8
3
 62
     0
 10
6114.0871082668837
 20
-3174.333228475698
 30
0.0
 11
6703.0871082668846
 21
-3174.333228475698
 31
0.0
  0
INSERT
  5
950A
  8
3
 62
     0
  2
_OPEN
 10
5994.0871082668846
 20
-3174.333228475698
 30
0.0
 41
120.0
 42
120.0
 43
120.0
 50
180.0
  0
INSERT
  5
950B
  8
3
 62
     0
  2
_OPEN
 10
6823.0871082668864
 20
-3174.333228475698
 30
0.0
 41
120.0
 42
120.0
 43
120.0
  0
TEXT
  8
3
  40
180
  5
9550
  62
0
  72
0
  71
0
 10
6048.59
 20
-3342.93
 30
0.000000
  1
829
  0
POINT
  5
950D
  8
DEFPOINTS
 62
     0
 10
5994.0871082668846
 20
-2752.4004183405241
 30
0.0
  0
POINT
  5
950E
  8
DEFPOINTS
 62
     0
 10
6823.0871082668864
 20
-2752.400418340525
 30
0.0
  0
POINT
  5
950F
  8
DEFPOINTS
 62
     0
 10
6823.0871082668864
 20
-3174.333228475698
 30
0.0
  0
ENDBLK
  5
91F9
  8
0
  0
BLOCK
  8
0
  2
*D17
 70
     1
 10
0.0
 20
0.0
 30
0.0
  3
*D17
  1

  0
LINE
  5
9510
  8
3
 62
     0
 10
1862.9762613393359
 20
-2782.400418340525
 30
0.0
 11
1862.9762613393359
 21
-3234.333228475698
 31
0.0
  0
LINE
  5
9511
  8
3
 62
     0
 10
682.97626133933579
 20
-2782.400418340525
 30
0.0
 11
682.97626133933579
 21
-3234.333228475698
 31
0.0
  0
LINE
  5
9512
  8
3
 62
     0
 10
1742.9762613393359
 20
-3174.333228475698
 30
0.0
 11
802.97626133933591
 21
-3174.333228475698
 31
0.0
  0
INSERT
  5
9513
  8
3
 62
     0
  2
_OPEN
 10
1862.9762613393359
 20
-3174.333228475698
 30
0.0
 41
120.0
 42
120.0
 43
120.0
  0
INSERT
  5
9514
  8
3
 62
     0
  2
_OPEN
 10
682.97626133933579
 20
-3174.333228475698
 30
0.0
 41
120.0
 42
120.0
 43
120.0
 50
180.0
  0
TEXT
  8
3
  40
180
  5
9551
  62
0
  72
0
  71
0
 10
912.976
 20
-3342.93
 30
0.000000
  1
1180
  0
POINT
  5
9516
  8
DEFPOINTS
 62
     0
 10
1862.9762613393359
 20
-2752.400418340525
 30
0.0
  0
POINT
  5
9517
  8
DEFPOINTS
 62
     0
 10
682.97626133933579
 20
-2752.400418340525
 30
0.0
  0
POINT
  5
9518
  8
DEFPOINTS
 62
     0
 10
682.97626133933579
 20
-3174.333228475698
 30
0.0
  0
ENDBLK
  5
9206
  8
0
  0
BLOCK
  8
0
  2
*D18
 70
     1
 10
0.0
 20
0.0
 30
0.0
  3
*D18
  1

  0
LINE
  5
9519
  8
3
 62
     0
 10
682.97626133933579
 20
-2782.400418340525
 30
0.0
 11
682.97626133933579
 21
-3234.333228475698
 31
0.0
  0
LINE
  5
951A
  8
3
 62
     0
 10
-1837.0237386606641
 20
-2782.400418340525
 30
0.0
 11
-1837.0237386606641
 21
-3234.333228475698
 31
0.0
  0
LINE
  5
951B
  8
3
 62
     0
 10
562.97626133933591
 20
-3174.333228475698
 30
0.0
 11
-1717.0237386606641
 21
-3174.333228475698
 31
0.0
  0
INSERT
  5
951C
  8
3
 62
     0
  2
_OPEN
 10
682.97626133933579
 20
-3174.333228475698
 30
0.0
 41
120.0
 42
120.0
 43
120.0
  0
INSERT
  5
951D
  8
3
 62
     0
  2
_OPEN
 10
-1837.0237386606641
 20
-3174.333228475698
 30
0.0
 41
120.0
 42
120.0
 43
120.0
 50
180.0
  0
TEXT
  8
3
  40
180
  5
9552
  62
0
  72
0
  71
0
 10
-937.024
 20
-3342.93
 30
0.000000
  1
2520
  0
POINT
  5
951F
  8
DEFPOINTS
 62
     0
 10
682.97626133933579
 20
-2752.400418340525
 30
0.0
  0
POINT
  5
9520
  8
DEFPOINTS
 62
     0
 10
-1837.0237386606641
 20
-2752.400418340525
 30
0.0
  0
POINT
  5
9521
  8
DEFPOINTS
 62
     0
 10
-1837.0237386606641
 20
-3174.333228475698
 30
0.0
  0
ENDBLK
  5
9213
  8
0
  0
BLOCK
  8
0
  2
*D19
 70
     1
 10
0.0
 20
0.0
 30
0.0
  3
*D19
  1

  0
LINE
  5
9522
  8
3
 62
     0
 10
1862.9762613393359
 20
-2782.400418340525
 30
0.0
 11
1862.9762613393359
 21
-3654.3425087233259
 31
0.0
  0
LINE
  5
9523
  8
3
 62
     0
 10
-1837.0237386606641
 20
-2782.400418340525
 30
0.0
 11
-1837.0237386606641
 21
-3654.3425087233259
 31
0.0
  0
LINE
  5
9524
  8
3
 62
     0
 10
1742.9762613393359
 20
-3594.3425087233259
 30
0.0
 11
-1717.0237386606641
 21
-3594.3425087233259
 31
0.0
  0
INSERT
  5
9525
  8
3
 62
     0
  2
_OPEN
 10
1862.9762613393359
 20
-3594.3425087233259
 30
0.0
 41
120.0
 42
120.0
 43
120.0
  0
INSERT
  5
9526
  8
3
 62
     0
  2
_OPEN
 10
-1837.0237386606641
 20
-3594.3425087233259
 30
0.0
 41
120.0
 42
120.0
 43
120.0
 50
180.0
  0
TEXT
  8
3
  40
180
  5
9553
  62
0
  72
0
  71
0
 10
-347.024
 20
-3762.94
 30
0.000000
  1
3700
  0
POINT
  5
9528
  8
DEFPOINTS
 62
     0
 10
1862.9762613393359
 20
-2752.400418340525
 30
0.0
  0
POINT
  5
9529
  8
DEFPOINTS
 62
     0
 10
-1837.0237386606641
 20
-2752.400418340525
 30
0.0
  0
POINT
  5
952A
  8
DEFPOINTS
 62
     0
 10
-1837.0237386606641
 20
-3594.3425087233259
 30
0.0
  0
ENDBLK
  5
9220
  8
0
  0
BLOCK
  8
0
  2
*D20
 70
     1
 10
0.0
 20
0.0
 30
0.0
  3
*D20
  1

  0
LINE
  5
952B
  8
3
 62
     0
 10
4763.0871082668837
 20
-2782.400418340525
 30
0.0
 11
4763.0871082668837
 21
-3654.3425087233259
 31
0.0
  0
LINE
  5
952C
  8
3
 62
     0
 10
6823.0871082668837
 20
-2782.400418340525
 30
0.0
 11
6823.0871082668837
 21
-3654.3425087233259
 31
0.0
  0
LINE
  5
952D
  8
3
 62
     0
 10
4883.0871082668837
 20
-3594.3425087233259
 30
0.0
 11
6703.0871082668837
 21
-3594.3425087233259
 31
0.0
  0
INSERT
  5
952E
  8
3
 62
     0
  2
_OPEN
 10
4763.0871082668837
 20
-3594.3425087233259
 30
0.0
 41
120.0
 42
120.0
 43
120.0
 50
180.0
  0
INSERT
  5
952F
  8
3
 62
     0
  2
_OPEN
 10
6823.0871082668837
 20
-3594.3425087233259
 30
0.0
 41
120.0
 42
120.0
 43
120.0
  0
TEXT
  8
3
  40
180
  5
9554
  62
0
  72
0
  71
0
 10
5433.09
 20
-3762.94
 30
0.000000
  1
2060
  0
POINT
  5
9531
  8
DEFPOINTS
 62
     0
 10
4763.0871082668837
 20
-2752.400418340525
 30
0.0
  0
POINT
  5
9532
  8
DEFPOINTS
 62
     0
 10
6823.0871082668837
 20
-2752.400418340525
 30
0.0
  0
POINT
  5
9533
  8
DEFPOINTS
 62
     0
 10
6823.0871082668837
 20
-3594.3425087233259
 30
0.0
  0
ENDBLK
  5
922D
  8
0
  0
BLOCK
  8
0
  2
_DOT
 70
     0
 10
0.0
 20
0.0
 30
0.0
  3
_DOT
  1

  0
POLYLINE
  5
9231
  8
0
  6
BYBLOCK
 62
     0
 66
     1
 10
0.0
 20
0.0
 30
0.0
 70
     1
 40
0.5
 41
0.5
  0
VERTEX
  5
9534
  8
0
  6
BYBLOCK
 62
     0
 10
-0.25
 20
0.0
 30
0.0
 42
1.0
  0
VERTEX
  5
9535
  8
0
  6
BYBLOCK
 62
     0
 10
0.25
 20
0.0
 30
0.0
 42
1.0
  0
SEQEND
  5
9536
  8
0
  6
BYBLOCK
 62
     0
  0
LINE
  5
9235
  8
0
  6
BYBLOCK
 62
     0
 10
-0.5
 20
0.0
 30
0.0
 11
-1.0
 21
0.0
 31
0.0
  0
ENDBLK
  5
9236
  8
0
  0
BLOCK
  8
0
  2
*D22
 70
     1
 10
0.0
 20
0.0
 30
0.0
  3
*D22
  1

  0
LINE
  5
9537
  8
3
 62
     0
 10
1892.9762613393359
 20
-2572.4004183405241
 30
0.0
 11
3217.587750468228
 21
-2572.400418340525
 31
0.0
  0
LINE
  5
9538
  8
3
 62
     0
 10
1892.9762613393359
 20
-2752.400418340525
 30
0.0
 11
3217.587750468228
 21
-2752.400418340525
 31
0.0
  0
LINE
  5
9539
  8
3
 62
     0
 10
3157.587750468228
 20
-2452.400418340525
 30
0.0
 11
3157.587750468228
 21
-2332.400418340525
 31
0.0
  0
LINE
  5
953A
  8
3
 62
     0
 10
3157.587750468228
 20
-2872.400418340525
 30
0.0
 11
3157.587750468228
 21
-3540.9718469119539
 31
0.0
  0
LINE
  5
953B
  8
3
 62
     0
 10
3157.587750468228
 20
-2572.400418340525
 30
0.0
 11
3157.587750468228
 21
-2752.400418340525
 31
0.0
  0
INSERT
  5
953C
  8
3
 62
     0
  2
_DOT
 10
3157.587750468228
 20
-2572.400418340525
 30
0.0
 41
120.0
 42
120.0
 43
120.0
 50
270.0
  0
INSERT
  5
953D
  8
3
 62
     0
  2
_OPEN
 10
3157.587750468228
 20
-2752.400418340525
 30
0.0
 41
120.0
 42
120.0
 43
120.0
 50
90.0
  0
TEXT
  8
3
  40
180
  5
9555
  62
0
  72
0
  71
0
 10
2647.59
 20
-3585.29
 30
0.000000
  1
180
  0
POINT
  5
953F
  8
DEFPOINTS
 62
     0
 10
1862.9762613393359
 20
-2572.4004183405241
 30
0.0
  0
POINT
  5
9540
  8
DEFPOINTS
 62
     0
 10
1862.9762613393359
 20
-2752.400418340525
 30
0.0
  0
POINT
  5
9541
  8
DEFPOINTS
 62
     0
 10
3157.587750468228
 20
-2752.400418340525
 30
0.0
  0
ENDBLK
  5
9244
  8
0
  0
BLOCK
  8
0
  2
*D23
 70
     1
 10
0.0
 20
0.0
 30
0.0
  3
*D23
  1

  0
LINE
  5
938A
  8
3
 62
     0
 10
3161.299666299979
 20
-2692.400418340525
 30
0.0
 11
3161.299666299979
 21
-2812.400418340525
 31
0.0
  0
LINE
  5
938B
  8
3
 62
     0
 10
3161.299666299979
 20
-2312.400418340525
 30
0.0
 11
3161.299666299979
 21
-2192.400418340525
 31
0.0
  0
TEXT
  5
938C
  8
3
 62
     0
 10
3554.9895114038809
 20
-2834.8376254453401
 30
0.0
 40
180.0
  1
(140)
 50
90.0
  0
LINE
  5
938D
  8
3
 62
     0
 10
3161.299666299979
 20
-2572.400418340525
 30
0.0
 11
3161.299666299979
 21
-2432.400418340525
 31
0.0
  0
SOLID
  5
938E
  8
3
 62
     0
 10
3141.299666299979
 20
-2692.400418340525
 30
0.0
 11
3181.299666299979
 21
-2692.400418340525
 31
0.0
 12
3161.299666299979
 22
-2572.400418340525
 32
0.0
 13
3161.299666299979
 23
-2572.400418340525
 33
0.0
  0
SOLID
  5
938F
  8
3
 62
     0
 10
3141.299666299979
 20
-2312.400418340525
 30
0.0
 11
3181.299666299979
 21
-2312.400418340525
 31
0.0
 12
3161.299666299979
 22
-2432.400418340525
 32
0.0
 13
3161.299666299979
 23
-2432.400418340525
 33
0.0
  0
POINT
  5
9390
  8
DEFPOINTS
 62
     0
 10
1862.9762613393359
 20
-2572.4004183405241
 30
0.0
  0
POINT
  5
9391
  8
DEFPOINTS
 62
     0
 10
1862.9762613393359
 20
-2432.400418340525
 30
0.0
  0
POINT
  5
9392
  8
DEFPOINTS
 62
     0
 10
3161.299666299979
 20
-2432.400418340525
 30
0.0
  0
ENDBLK
  5
9260
  8
0
  0
ENDSEC
  0
SECTION
  2
ENTITIES
  0
LINE
  5
7DB2
  8
2
 10
682.97626133933579
 20
-2752.400418340525
 30
0.0
 11
682.97626133933579
 21
1402.992304597595
 31
0.0
  0
LINE
  5
7DB3
  8
1
 10
-1115.232060414146
 20
-952.40041834052488
 30
0.0
 11
482.97626133933579
 21
-952.40041834052488
 31
0.0
  0
ARC
  5
7DB4
  8
1
 10
829.97626133933579
 20
-805.40041834052499
 30
0.0
 40
1883.0
 50
95.529355689246785
 51
180.0
  0
ARC
  5
7DB5
  8
1
 10
535.97626133933591
 20
-805.40041834052499
 30
0.0
 40
1589.0
 50
180.0
 51
270.0
  0
ARC
  5
7DB6
  8
1
 10
560.47626133933591
 20
-1074.900418340525
 30
0.0
 40
1319.5
 50
270.0
 51
0.000000000000007
  0
ARC
  5
7DB7
  8
1
 10
805.47626133933591
 20
-1074.900418340525
 30
0.0
 40
1074.5
 50
0.000000000000007
 51
11.29760023059799
  0
LINE
  5
7DB8
  8
1
 10
1957.9762613393359
 20
1274.5995816594741
 30
0.0
 11
1957.9762613393359
 21
-943.40041834052579
 31
0.0
  0
LINE
  5
7DB9
  8
1
 10
1957.9762613393359
 20
1195.5995816594741
 30
0.0
 11
648.53841313300654
 21
1068.837908884231
 31
0.0
  0
LINE
  5
7DBA
  8
1
 10
1859.155529428064
 20
-864.4004183405259
 30
0.0
 11
1957.9762613393359
 21
-864.4004183405259
 31
0.0
  0
LINE
  5
7DBB
  8
1
 10
535.97626133933591
 20
-2394.400418340525
 30
0.0
 11
560.47626133933591
 21
-2394.400418340525
 31
0.0
  0
LINE
  5
7DBC
  8
1
 10
-1837.0237386606641
 20
-2432.400418340525
 30
0.0
 11
1862.9762613393359
 21
-2432.400418340525
 31
0.0
  0
LINE
  5
7DBD
  8
1
 10
-1837.0237386606641
 20
-2252.400418340525
 30
0.0
 11
1862.9762613393359
 21
-2252.400418340525
 31
0.0
  0
LINE
  5
7DBE
  8
1
 10
1862.9762613393359
 20
-2432.400418340525
 30
0.0
 11
1862.9762613393359
 21
-2252.400418340525
 31
0.0
  0
LINE
  5
7DBF
  8
1
 10
-1837.0237386606641
 20
-2432.400418340525
 30
0.0
 11
-1837.0237386606641
 21
-2252.400418340525
 31
0.0
  0
LINE
  5
7DC0
  8
2
 10
2246.2357946315751
 20
165.5995816594741
 30
0.0
 11
1364.418820617431
 21
165.5995816594745
 31
0.0
  0
LINE
  5
7DC1
  8
1
 10
1882.9762613393359
 20
1274.5995816594741
 30
0.0
 11
1882.9762613393359
 21
-943.40041834052579
 31
0.0
  0
LINE
  5
7DC2
  8
1
 10
1957.9762613393359
 20
1274.5995816594741
 30
0.0
 11
1882.9762613393359
 21
1274.5995816594741
 31
0.0
  0
LINE
  5
7DC3
  8
1
 10
1957.9762613393359
 20
-943.40041834052579
 30
0.0
 11
1882.9762613393359
 21
-943.40041834052579
 31
0.0
  0
LINE
  5
7DC4
  8
1
 10
1951.9762613393359
 20
1274.5995816594741
 30
0.0
 11
1951.9762613393359
 21
-943.40041834052579
 31
0.0
  0
LINE
  5
7DC5
  8
2
 10
4433.3930178519813
 20
-952.40041834052488
 30
0.0
 11
7203.276995249239
 21
-952.40041834052579
 31
0.0
  0
LINE
  5
7DC6
  8
2
 10
5994.0871082668846
 20
-2752.400418340525
 30
0.0
 11
5994.0871082668846
 21
1709.4327322274539
 31
0.0
  0
LINE
  5
7DC7
  8
1
 10
4763.0871082668837
 20
-2432.400418340525
 30
0.0
 11
6823.0871082668837
 21
-2432.400418340525
 31
0.0
  0
LINE
  5
7DC8
  8
1
 10
4763.0871082668837
 20
-2252.400418340525
 30
0.0
 11
6823.0871082668873
 21
-2252.400418340525
 31
0.0
  0
LINE
  5
7DC9
  8
1
 10
6823.0871082668873
 20
-2432.400418340525
 30
0.0
 11
6823.0871082668837
 21
-2252.400418340525
 31
0.0
  0
LINE
  5
7DCA
  8
1
 10
4763.0871082668837
 20
-2432.400418340525
 30
0.0
 11
4763.0871082668837
 21
-2252.400418340525
 31
0.0
  0
LINE
  5
7DD4
  8
1
 10
6744.0871082668846
 20
-2252.400418340525
 30
0.0
 11
6744.0871082668846
 21
1195.599581659473
 31
0.0
  0
LINE
  5
7DD5
  8
1
 10
5244.0871082668864
 20
-2252.400418340525
 30
0.0
 11
5244.0871082668846
 21
1195.5995816594741
 31
0.0
  0
LINE
  5
7DDA
  8
1
 10
6898.0871082668837
 20
-2027.4004183405241
 30
0.0
 11
6898.0871082668837
 21
122.5995816594732
 31
0.0
  0
LINE
  5
7DDB
  8
1
 10
6744.0871082668846
 20
47.599581659473188
 30
0.0
 11
6898.0871082668837
 21
47.59958165947409
 31
0.0
  0
LINE
  5
7DDC
  8
1
 10
6744.0871082668846
 20
-1952.4004183405241
 30
0.0
 11
6898.0871082668837
 21
-1952.4004183405241
 31
0.0
  0
LINE
  5
7DDD
  8
1
 10
6892.0871082668846
 20
122.5995816594732
 30
0.0
 11
6898.0871082668837
 21
122.5995816594741
 31
0.0
  0
LINE
  5
7DDE
  8
1
 10
6892.0871082668846
 20
-2027.4004183405241
 30
0.0
 11
6898.0871082668837
 21
-2027.4004183405241
 31
0.0
  0
LINE
  5
7DDF
  8
1
 10
6892.0871082668846
 20
-2027.4004183405241
 30
0.0
 11
6892.0871082668846
 21
122.5995816594732
 31
0.0
  0
CIRCLE
  5
7DED
  8
1
 10
682.97626133933579
 20
-952.40041834052488
 30
0.0
 40
400.0
  0
ARC
  5
7DF0
  8
1
 10
682.97626133933579
 20
-952.40041834052488
 30
0.0
 40
550.0
 50
287.22638377116539
 51
120.5982513323362
  0
LINE
  5
7DF4
  8
1
 10
4824.5064816308659
 20
-552.40041834052488
 30
0.0
 11
5004.506481630865
 21
-552.40041834052488
 31
0.0
  0
LINE
  5
7DF5
  8
1
 10
4824.5064816308659
 20
-1352.400418340525
 30
0.0
 11
5004.506481630865
 21
-1352.400418340525
 31
0.0
  0
LINE
  5
7DF6
  8
1
 10
4744.0871082668837
 20
-402.40041834052539
 30
0.0
 11
5104.0871082668864
 21
-402.40041834052539
 31
0.0
  0
LINE
  5
7DF7
  8
2
 10
4597.2378386882738
 20
-1852.400418340525
 30
0.0
 11
5448.1738968458412
 21
-1852.400418340525
 31
0.0
  0
LINE
  5
7DF8
  8
1
 10
4824.5064816308659
 20
-1702.4004183405241
 30
0.0
 11
5004.506481630865
 21
-1702.4004183405241
 31
0.0
  0
LINE
  5
7DF9
  8
1
 10
4824.5064816308659
 20
-2002.400418340525
 30
0.0
 11
5004.506481630865
 21
-2002.400418340525
 31
0.0
  0
LINE
  5
7DFA
  8
1
 10
4744.0871082668837
 20
-2132.4004183405241
 30
0.0
 11
5104.0871082668846
 21
-2132.4004183405232
 31
0.0
  0
LINE
  5
7DFB
  8
1
 10
4744.0871082668837
 20
-2132.4004183405241
 30
0.0
 11
4744.0871082668837
 21
-402.40041834052539
 31
0.0
  0
LINE
  5
7DFC
  8
1
 10
5104.0871082668864
 20
-2132.4004183405241
 30
0.0
 11
5104.0871082668864
 21
-2073.2079718781151
 31
0.0
  0
LINE
  5
7DFD
  8
1
 10
5104.0871082668846
 20
-694.70086403370624
 30
0.0
 11
5104.0871082668846
 21
-402.40041834052539
 31
0.0
  0
LINE
  5
7DFE
  8
1
 10
4824.5064816308659
 20
-552.40041834052488
 30
0.0
 11
4824.5064816308659
 21
-2002.400418340525
 31
0.0
  0
LINE
  5
7DFF
  8
1
 10
5004.506481630865
 20
-552.40041834052488
 30
0.0
 11
5004.506481630865
 21
-2002.400418340525
 31
0.0
  0
LINE
  5
7E00
  8
2
 10
-1221.067449478242
 20
4780.7326331639651
 30
0.0
 11
2197.4646513069888
 21
4780.7326331639651
 31
0.0
  0
LINE
  5
7E01
  8
2
 10
682.97626133933579
 20
3337.505352115847
 30
0.0
 11
682.97626133933579
 21
5820.1555871955443
 31
0.0
  0
LINE
  5
7E02
  8
1
 10
-497.02373866066398
 20
5609.7326331639661
 30
0.0
 11
-407.02373866066398
 21
5609.7326331639661
 31
0.0
  0
LINE
  5
7E03
  8
1
 10
-1837.0237386606641
 20
3549.7326331639638
 30
0.0
 11
-1719.9328676622999
 21
3549.7326331639651
 31
0.0
  0
LINE
  5
7E04
  8
1
 10
1862.9762613393359
 20
3549.7326331639638
 30
0.0
 11
1862.9762613393359
 21
4030.7326331639638
 31
0.0
  0
LINE
  5
7E05
  8
1
 10
-1837.0237386606641
 20
3549.7326331639638
 30
0.0
 11
-1837.0237386606641
 21
3624.7326331639651
 31
0.0
  0
LINE
  5
7E06
  8
1
 10
-497.02373866066398
 20
3890.7326331639638
 30
0.0
 11
-497.02373866066398
 21
4030.7326331639651
 31
0.0
  0
LINE
  5
7E07
  8
1
 10
-1837.0237386606641
 20
4749.7326331639651
 30
0.0
 11
-1053.0237386606641
 21
4749.7326331639688
 31
0.0
  0
LINE
  5
7E08
  8
1
 10
-1837.0237386606641
 20
3624.7326331639651
 30
0.0
 11
-1719.9328676622999
 21
3624.7326331639651
 31
0.0
  0
LINE
  5
7E09
  8
1
 10
-1837.0237386606641
 20
4674.7326331639661
 30
0.0
 11
-1747.988803294551
 21
4674.732633163967
 31
0.0
  0
LINE
  5
7E0A
  8
1
 10
-422.02373866066398
 20
3890.7326331639638
 30
0.0
 11
-422.02373866066398
 21
4030.7326331639651
 31
0.0
  0
LINE
  5
7E0B
  8
1
 10
1787.9762613393359
 20
3624.7326331639651
 30
0.0
 11
1787.9762613393359
 21
4030.7326331639629
 31
0.0
  0
LINE
  5
7E0C
  8
1
 10
-1837.0237386606641
 20
4674.7326331639661
 30
0.0
 11
-1837.0237386606641
 21
4749.7326331639651
 31
0.0
  0
LINE
  5
7E12
  8
2
 10
482.97626133933579
 20
-952.40041834052488
 30
0.0
 11
2264.7263364263599
 21
-952.40041834052488
 31
0.0
  0
LINE
  5
7E13
  8
1
 10
-1115.232060414146
 20
-943.40041834052488
 30
0.0
 11
482.97626133933579
 21
-943.40041834052488
 31
0.0
  0
LINE
  5
7E14
  8
1
 10
-1115.232060414146
 20
-961.40041834052488
 30
0.0
 11
482.97626133933579
 21
-961.40041834052488
 31
0.0
  0
LINE
  5
7E19
  8
1
 10
-1053.0237386606641
 20
5530.7326331639642
 30
0.0
 11
1957.9762613393359
 21
5530.7326331639642
 31
0.0
  0
LINE
  5
7E1A
  8
1
 10
-1053.0237386606641
 20
4030.7326331639651
 30
0.0
 11
1957.9762613393359
 21
4030.7326331639638
 31
0.0
  0
LINE
  5
7E1D
  8
1
 10
-497.02373866066398
 20
5609.7326331639642
 30
0.0
 11
-317.02373866066409
 21
5609.7326331639642
 31
0.0
  0
LINE
  5
7E22
  8
1
 10
1682.976261339335
 20
5609.7326331639633
 30
0.0
 11
1862.9762613393359
 21
5609.7326331639642
 31
0.0
  0
LINE
  5
7E24
  8
1
 10
-392.02373866066409
 20
5684.7326331639642
 30
0.0
 11
1757.9762613393359
 21
5684.7326331639642
 31
0.0
  0
LINE
  5
7E25
  8
1
 10
1682.976261339335
 20
5530.7326331639642
 30
0.0
 11
1682.976261339335
 21
5684.7326331639651
 31
0.0
  0
LINE
  5
7E26
  8
1
 10
-317.02373866066409
 20
5530.7326331639642
 30
0.0
 11
-317.02373866066409
 21
5684.7326331639651
 31
0.0
  0
LINE
  5
7E27
  8
1
 10
-392.02373866066409
 20
5678.7326331639651
 30
0.0
 11
1757.9762613393359
 21
5678.7326331639642
 31
0.0
  0
LINE
  5
7E28
  8
1
 10
1757.9762613393359
 20
5678.7326331639642
 30
0.0
 11
1757.9762613393359
 21
5684.7326331639651
 31
0.0
  0
LINE
  5
7E29
  8
1
 10
-392.02373866066409
 20
5678.7326331639651
 30
0.0
 11
-392.02373866066409
 21
5684.7326331639651
 31
0.0
  0
LINE
  5
7E2B
  8
1
 10
-1719.9328676622999
 20
3530.7326331639651
 30
0.0
 11
1232.9762613393359
 21
3530.7326331639651
 31
0.0
  0
LINE
  5
7E2C
  8
1
 10
1232.9762613393359
 20
3530.7326331639651
 30
0.0
 11
1232.9762613393359
 21
3890.7326331639638
 31
0.0
  0
LINE
  5
7E2D
  8
1
 10
-1719.9328676622999
 20
3530.7326331639651
 30
0.0
 11
-1719.9328676622999
 21
3890.7326331639638
 31
0.0
  0
LINE
  5
7E2E
  8
1
 10
-1719.9328676622999
 20
3890.7326331639651
 30
0.0
 11
1232.9762613393359
 21
3890.7326331639638
 31
0.0
  0
LINE
  5
7E2F
  8
1
 10
1082.9762613393359
 20
3610.7326331639638
 30
0.0
 11
1082.9762613393359
 21
3790.7326331639638
 31
0.0
  0
LINE
  5
7E30
  8
1
 10
282.97626133933591
 20
3610.7326331639638
 30
0.0
 11
282.97626133933591
 21
3790.7326331639638
 31
0.0
  0
LINE
  5
7E31
  8
1
 10
1232.9762613393359
 20
3624.7326331639638
 30
0.0
 11
1862.9762613393359
 21
3624.7326331639651
 31
0.0
  0
LINE
  5
7E32
  8
1
 10
1232.9762613393359
 20
3549.7326331639638
 30
0.0
 11
1862.9762613393359
 21
3549.7326331639638
 31
0.0
  0
LINE
  5
7E33
  8
1
 10
-1589.9328676622999
 20
3610.7326331639651
 30
0.0
 11
1082.9762613393359
 21
3610.7326331639638
 31
0.0
  0
LINE
  5
7E34
  8
1
 10
-1589.9328676622999
 20
3790.7326331639651
 30
0.0
 11
1082.9762613393359
 21
3790.7326331639638
 31
0.0
  0
LINE
  5
7E35
  8
1
 10
-1589.9328676622999
 20
3610.7326331639638
 30
0.0
 11
-1589.9328676622999
 21
3790.7326331639651
 31
0.0
  0
LINE
  5
7E36
  8
1
 10
-1289.9328676622999
 20
3610.7326331639638
 30
0.0
 11
-1289.9328676622999
 21
3790.7326331639651
 31
0.0
  0
LINE
  5
7E3B
  8
4
 10
6537.5888445345481
 20
-5113.8714598847064
 30
0.0
 11
6537.5888445345499
 21
-6313.8714598847064
 31
0.0
  0
LINE
  5
7E3C
  8
4
 10
1641.425359940142
 20
-5113.8714598847064
 30
0.0
 11
1641.425359940142
 21
-6313.8714598847064
 31
0.0
  0
LINE
  5
7E3D
  8
4
 10
-1358.574640059858
 20
-5113.8714598847064
 30
0.0
 11
-1358.574640059858
 21
-6313.8714598847064
 31
0.0
  0
LINE
  5
7E40
  8
4
 10
-1358.574640059858
 20
-6313.8714598847064
 30
0.0
 11
6537.5888445345481
 21
-6313.8714598847064
 31
0.0
  0
LINE
  5
7E41
  8
4
 10
-1358.574640059858
 20
-5713.8714598847073
 30
0.0
 11
6537.5888445345481
 21
-5713.8714598847073
 31
0.0
  0
TEXT
  5
7E42
  8
4
 10
-1127.562154978448
 20
-5524.61330468503
 30
0.0
 40
300.0
  1
機器名称
  0
TEXT
  5
7E43
  8
4
 10
-1141.0260039110719
 20
-6184.0005194926407
 30
0.0
 40
300.0
  1
機器型番
  0
TEXT
  5
7E44
  8
4
 10
1807.4978328661309
 20
-5578.440846139295
 30
0.0
 40
300.0
  1
ミツヤリミットロードファン
  0
TEXT
  5
7E45
  8
4
 10
1861.3523334530239
 20
-6210.913954205047
 30
0.0
 40
300.0
  1
LL＃12-4
  0
TEXT
  5
7E47
  8
4
 10
216.8386270284536
 20
7146.1233498315187
 30
0.0
 40
323.99999999999977
  1
床置防振ベット
  0
TEXT
  5
7E48
  8
4
 10
-2945.9438318095781
 20
8048.836159032212
 30
0.0
 40
432.0
  1
ベルト駆動式片吸込両持ちリミットロードファン
 41
0.8633410713734663
 72
     5
 11
6751.1030818572044
 21
8048.836159032212
 31
0.0
  0
LINE
  5
7E49
  8
4
 10
-3196.1230080652308
 20
7662.0028274252527
 30
0.0
 11
6971.0491198745731
 21
7662.0028274252527
 31
0.0
  0
LINE
  5
7E4A
  8
4
 10
-3196.1230080652308
 20
8862.0028274252545
 30
0.0
 11
6971.0491198745731
 21
8862.0028274252545
 31
0.0
  0
LINE
  5
7E4B
  8
4
 10
-1358.574640059858
 20
-5113.8714598847064
 30
0.0
 11
6537.5888445345481
 21
-5113.8714598847064
 31
0.0
  0
LINE
  5
7E4C
  8
4
 10
-3196.1230080652308
 20
8862.0028274252545
 30
0.0
 11
-3196.1230080652308
 21
7662.0028274252527
 31
0.0
  0
TEXT
  5
7E4D
  8
4
 10
-2738.9710651906489
 20
7139.4671671144861
 30
0.0
 40
323.99999999999977
  1
右回転右横向
  0
TEXT
  5
7E4E
  8
4
 10
4684.8664753703124
 20
9081.9167908082782
 30
0.0
 40
336.0
  1
No.
  0
TEXT
  5
7E4F
  8
4
 10
3738.8254954746499
 20
7146.1233498315187
 30
0.0
 40
323.99999999999977
  1
縮尺：1/60
  0
LINE
  5
7E50
  8
4
 10
6971.0491198745731
 20
8862.0028274252545
 30
0.0
 11
6971.0491198745731
 21
7662.0028274252527
 31
0.0
  0
LINE
  5
7E51
  8
4
 10
8471.0491198745731
 20
10545.55030183642
 30
0.0
 11
8471.0491198745731
 21
10545.55030183642
 31
0.0
  0
LINE
  5
7E52
  8
4
 10
4514.7536540337596
 20
8933.1318005888297
 30
0.0
 11
4514.7536540337596
 21
9565.4638711349417
 31
0.0
  0
LINE
  5
7E53
  8
4
 10
4514.7536540337596
 20
9565.4638711349417
 30
0.0
 11
6971.0491198745731
 21
9565.4638711349417
 31
0.0
  0
LINE
  5
7E54
  8
4
 10
6971.0491198745731
 20
9565.4638711349417
 30
0.0
 11
6971.0491198745731
 21
8933.1318005888297
 31
0.0
  0
LINE
  5
7E55
  8
4
 10
6971.0491198745731
 20
8933.1318005888297
 30
0.0
 11
4514.7536540337596
 21
8933.1318005888297
 31
0.0
  0
LINE
  5
7E56
  8
4
 10
-4128.9508801254269
 20
-7154.4496981635739
 30
0.0
 11
-4128.9508801254269
 21
10545.55030183642
 31
0.0
  0
LINE
  5
7E57
  8
4
 10
-4128.9508801254269
 20
10545.55030183642
 30
0.0
 11
8471.0491198745731
 21
10545.55030183642
 31
0.0
  0
LINE
  5
7E58
  8
4
 10
8471.0491198745731
 20
10545.55030183642
 30
0.0
 11
8471.0491198745731
 21
-7154.4496981635739
 31
0.0
  0
LINE
  5
7E59
  8
4
 10
8471.0491198745731
 20
-7154.4496981635739
 30
0.0
 11
-4128.9508801254269
 21
-7154.4496981635739
 31
0.0
  0
LINE
  5
7E5A
  8
1
 10
5175.0871082668864
 20
-943.40041834052477
 30
0.0
 11
6813.0871082668828
 21
-943.40041834052477
 31
0.0
  0
LINE
  5
7E5B
  8
1
 10
5175.0871082668864
 20
-961.40041834052488
 30
0.0
 11
6813.0871082668828
 21
-961.40041834052579
 31
0.0
  0
LINE
  5
7E5C
  8
1
 10
5175.0871082668864
 20
-961.40041834052488
 30
0.0
 11
5175.0871082668864
 21
-943.40041834052477
 31
0.0
  0
LINE
  5
7E5E
  8
1
 10
6813.0871082668828
 20
-961.40041834052488
 30
0.0
 11
6813.0871082668828
 21
-943.40041834052477
 31
0.0
  0
DIMENSION
  5
7E61
  8
3
  2
*D1
 10
7709.8980415944388
 20
-1952.400418340525
 30
0.0
 11
7559.8980415944397
 21
-952.40041834052477
 31
0.0
 70
     0
  1
%%c<>
 13
6898.0871082668837
 23
47.59958165947387
 33
0.0
 14
6892.0871082668846
 24
-1952.400418340525
 34
0.0
 50
90.0
1001
ACAD
1000
DSTYLE
1002
{
1070
   287
1070
     3
1070
   287
1070
     3
1070
   287
1070
     3
1070
   287
1070
     3
1070
   287
1070
     3
1070
    40
1040
60.0
1070
   143
1040
0.039
1070
   172
1070
     1
1070
   173
1070
     0
1070
   271
1070
     4
1070
   272
1070
     4
1070
   279
1070
     0
1070
   284
1070
     0
1070
   285
1070
     0
1070
   286
1070
     0
1070
   341
1005
7DAC
1070
     5
1000
OPEN30
1002
}
  0
DIMENSION
  5
803C
  8
3
  2
*D2
 10
2695.2370851929031
 20
-864.40041834052568
 30
0.0
 11
2545.2370851929031
 21
165.5995816594745
 31
0.0
 70
     0
 13
1957.9762613393359
 23
1195.5995816594741
 33
0.0
 14
1957.976261339335
 24
-864.40041834052556
 34
0.0
 50
270.0
1001
ACAD
1000
DSTYLE
1002
{
1070
   287
1070
     3
1070
   287
1070
     3
1070
   287
1070
     3
1070
   287
1070
     3
1070
   287
1070
     3
1070
    40
1040
60.0
1070
   143
1040
0.039
1070
   172
1070
     1
1070
   173
1070
     0
1070
   271
1070
     4
1070
   272
1070
     4
1070
   279
1070
     0
1070
   284
1070
     0
1070
   285
1070
     0
1070
   286
1070
     0
1070
   341
1005
7DAC
1070
     5
1000
OPEN30
1002
}
  0
DIMENSION
  5
8049
  8
3
  2
*D3
 10
3152.5602201082738
 20
-952.40041834052579
 30
0.0
 11
3002.5602201082752
 21
121.5995816594744
 31
0.0
 70
     0
 13
1957.9762613393359
 23
1195.5995816594741
 33
0.0
 14
2264.726336426359
 24
-952.40041834052556
 34
0.0
 50
270.0
1001
ACAD
1000
DSTYLE
1002
{
1070
   287
1070
     3
1070
   287
1070
     3
1070
   287
1070
     3
1070
   287
1070
     3
1070
   287
1070
     3
1070
    40
1040
60.0
1070
   143
1040
0.039
1070
   172
1070
     1
1070
   173
1070
     0
1070
   271
1070
     4
1070
   272
1070
     4
1070
   279
1070
     0
1070
   284
1070
     0
1070
   285
1070
     0
1070
   286
1070
     0
1070
   341
1005
7DAC
1070
     5
1000
OPEN30
1002
}
  0
LINE
  5
8312
  8
1
 10
-1115.232060414146
 20
-943.40041834052488
 30
0.0
 11
-1115.232060414146
 21
-961.40041834052488
 31
0.0
  0
LINE
  5
8313
  8
2
 10
-1115.232060414146
 20
-952.40041834052488
 30
0.0
 11
-1876.7736889214571
 21
-952.40041834052488
 31
0.0
  0
LINE
  5
8314
  8
1
 10
482.97626133933579
 20
-961.40041834052488
 30
0.0
 11
482.97626133933579
 21
-943.40041834052488
 31
0.0
  0
LINE
  5
8316
  8
1
 10
1951.1431502504929
 20
-1037.2163476781011
 30
0.0
 11
882.53045314282281
 21
-965.74674868475449
 31
0.0
  0
LINE
  5
8317
  8
1
 10
881.92986827733148
 20
-974.72668731591136
 30
0.0
 11
883.1310380083122
 21
-956.76681005359751
 31
0.0
  0
LINE
  5
8318
  8
1
 10
1950.5425653850009
 20
-1046.1962863092581
 30
0.0
 11
1951.743735115982
 21
-1028.236409046945
 31
0.0
  0
LINE
  5
8319
  8
1
 10
1951.743735115982
 20
-1028.236409046945
 30
0.0
 11
883.1310380083122
 21
-956.76681005359751
 31
0.0
  0
LINE
  5
831A
  8
1
 10
1950.5425653850009
 20
-1046.1962863092581
 30
0.0
 11
881.92986827733148
 21
-974.72668731591136
 31
0.0
  0
LINE
  5
8360
  8
1
 10
5165.0871082668837
 20
1274.5995816594741
 30
0.0
 11
6823.0871082668837
 21
1274.5995816594741
 31
0.0
  0
LINE
  5
83B6
  8
1
 10
5165.0871082668837
 20
-943.40041834052579
 30
0.0
 11
5244.0871082668846
 21
-943.40041834052579
 31
0.0
  0
LINE
  5
83B7
  8
1
 10
6744.0871082668846
 20
1195.599581659473
 30
0.0
 11
5244.0871082668828
 21
1195.5995816594741
 31
0.0
  0
LINE
  5
83B9
  8
1
 10
5165.0871082668837
 20
-943.40041834052579
 30
0.0
 11
5165.0871082668837
 21
1274.5995816594741
 31
0.0
  0
LINE
  5
83BA
  8
1
 10
6823.0871082668837
 20
-943.40041834052579
 30
0.0
 11
6823.0871082668837
 21
1274.5995816594741
 31
0.0
  0
LINE
  5
844E
  8
1
 10
-1053.0237386606641
 20
4030.7326331639651
 30
0.0
 11
-1053.0237386606641
 21
5530.7326331639642
 31
0.0
  0
LINE
  5
8450
  8
1
 10
1957.9762613393359
 20
5609.7326331639606
 30
0.0
 11
1957.9762613393359
 21
3951.7326331639651
 31
0.0
  0
LINE
  5
8451
  8
1
 10
1882.9762613393359
 20
5530.7326331639642
 30
0.0
 11
1882.9762613393359
 21
4030.7326331639651
 31
0.0
  0
LINE
  5
8452
  8
1
 10
1951.9762613393359
 20
5609.7326331639606
 30
0.0
 11
1951.9762613393359
 21
3951.7326331639651
 31
0.0
  0
LINE
  5
854E
  8
1
 10
1951.9762613393359
 20
5609.7326331639606
 30
0.0
 11
1957.9762613393359
 21
5609.7326331639633
 31
0.0
  0
LINE
  5
854F
  8
1
 10
1951.9762613393359
 20
3951.7326331639651
 30
0.0
 11
1957.9762613393359
 21
3951.7326331639651
 31
0.0
  0
LINE
  5
8551
  8
1
 10
1862.9762613393359
 20
5530.7326331639642
 30
0.0
 11
1862.9762613393359
 21
5609.7326331639642
 31
0.0
  0
LINE
  5
8552
  8
1
 10
-497.02373866066398
 20
5530.7326331639642
 30
0.0
 11
-497.02373866066398
 21
5609.7326331639661
 31
0.0
  0
DIMENSION
  5
8553
  8
3
  2
*D4
 10
1862.9762613393359
 20
6211.2875301007589
 30
0.0
 11
682.97626133933579
 21
6361.2875301007589
 31
0.0
 70
     0
 13
-497.02373866066398
 23
5609.7326331639642
 33
0.0
 14
1862.9762613393359
 24
5609.7326331639642
 34
0.0
 50
0.000000000000007
1001
ACAD
1000
DSTYLE
1002
{
1070
   287
1070
     3
1070
   287
1070
     3
1070
   287
1070
     3
1070
   287
1070
     3
1070
    40
1040
60.0
1070
   143
1040
0.039
1070
   172
1070
     1
1070
   173
1070
     0
1070
   271
1070
     4
1070
   272
1070
     4
1070
   279
1070
     0
1070
   284
1070
     0
1070
   285
1070
     0
1070
   286
1070
     0
1070
   341
1005
7DAC
1070
     5
1000
OPEN30
1002
}
  0
DIMENSION
  5
8569
  8
3
  2
*D5
 10
-1837.0237386606641
 20
6211.2875301007589
 30
0.0
 11
-1167.0237386606641
 21
6361.2875301007589
 31
0.0
 70
     0
 13
-497.02373866066398
 23
5609.7326331639642
 33
0.0
 14
-1837.0237386606641
 24
4749.7326331639651
 34
0.0
 50
0.000000000000007
1001
ACAD
1000
DSTYLE
1002
{
1070
   287
1070
     3
1070
   287
1070
     3
1070
   287
1070
     3
1070
   287
1070
     3
1070
    40
1040
60.0
1070
   143
1040
0.039
1070
   172
1070
     1
1070
   173
1070
     0
1070
   271
1070
     4
1070
   272
1070
     4
1070
   279
1070
     0
1070
   284
1070
     0
1070
   285
1070
     0
1070
   286
1070
     0
1070
   341
1005
7DAC
1070
     5
1000
OPEN30
1002
}
  0
LINE
  5
85E8
  8
2
 10
-1439.932867662299
 20
-1227.6345324142089
 30
0.0
 11
-1439.932867662299
 21
-2752.400418340525
 31
0.0
  0
LINE
  5
85E9
  8
1
 10
-1669.9328676622999
 20
-1322.400418340525
 30
0.0
 11
-1669.9328676622999
 21
-1547.4004183405259
 31
0.0
  0
LINE
  5
85EA
  8
1
 10
-1239.9328676622999
 20
-1322.400418340525
 30
0.0
 11
-1239.9328676622999
 21
-1547.400418340527
 31
0.0
  0
ARC
  5
85EB
  8
1
 10
-1439.932867662299
 20
-1892.400418340525
 30
0.0
 40
310.0
 50
300.1023080683089
 51
239.8976919316911
  0
LINE
  5
85EC
  8
1
 10
-1649.9328676622999
 20
-1567.400418340525
 30
0.0
 11
-1259.9328676622999
 21
-1567.4004183405259
 31
0.0
  0
LINE
  5
85ED
  8
1
 10
-1595.4119999379061
 20
-2160.5910957079991
 30
0.0
 11
-1284.4537353866911
 21
-2160.5910957079968
 31
0.0
  0
LINE
  5
85EF
  8
2
 10
-1777.391831852058
 20
-1892.400418340525
 30
0.0
 11
-1096.6556454692691
 21
-1892.400418340525
 31
0.0
  0
LINE
  5
85F0
  8
1
 10
-1719.932867662307
 20
-2025.441765297056
 30
0.0
 11
-1719.9328676622979
 21
-2172.4004183405241
 31
0.0
  0
LINE
  5
85F1
  8
1
 10
-1719.9328676622979
 20
-2172.4004183405241
 30
0.0
 11
-1609.9328676622979
 21
-2172.4004183405241
 31
0.0
  0
LINE
  5
85F2
  8
1
 10
-1719.9328676622999
 20
-2142.4004183405259
 30
0.0
 11
-1623.235895460532
 21
-2142.4004183405259
 31
0.0
  0
LINE
  5
85F3
  8
1
 10
-1609.932867662299
 20
-2151.630046276839
 30
0.0
 11
-1609.932867662299
 21
-2172.400418340525
 31
0.0
  0
LINE
  5
85F4
  8
1
 10
-1668.4328676622999
 20
-2127.2309698508798
 30
0.0
 11
-1668.4328676622999
 21
-2218.8565329231351
 31
0.0
  0
ARC
  5
85F5
  8
1
 10
-1649.9328676622999
 20
-1547.4004183405259
 30
0.0
 40
20.0
 50
180.0
 51
270.0
  0
LINE
  5
85F6
  8
1
 10
-1269.9328676622999
 20
-2172.400418340525
 30
0.0
 11
-1159.932867662299
 21
-2172.400418340525
 31
0.0
  0
LINE
  5
85F7
  8
1
 10
-1269.9328676622999
 20
-2151.630046276839
 30
0.0
 11
-1269.9328676622999
 21
-2172.400418340525
 31
0.0
  0
LINE
  5
85F8
  8
1
 10
-1159.932867662299
 20
-2025.441765297071
 30
0.0
 11
-1159.932867662299
 21
-2172.400418340525
 31
0.0
  0
LINE
  5
85F9
  8
1
 10
-1256.629839864067
 20
-2142.4004183405259
 30
0.0
 11
-1159.932867662299
 21
-2142.4004183405259
 31
0.0
  0
LINE
  5
85FA
  8
1
 10
-1211.4328676622999
 20
-2127.2309698508798
 30
0.0
 11
-1211.4328676622999
 21
-2214.6917346016689
 31
0.0
  0
ARC
  5
85FB
  8
1
 10
-1259.9328676622999
 20
-1547.400418340527
 30
0.0
 40
20.0
 50
270.0
 51
0.000000000000007
  0
LINE
  5
85FC
  8
1
 10
-1649.9328676622999
 20
-1302.400418340525
 30
0.0
 11
-1259.9328676622999
 21
-1302.400418340525
 31
0.0
  0
ARC
  5
85FD
  8
1
 10
-1649.9328676622999
 20
-1322.400418340525
 30
0.0
 40
20.0
 50
90.0
 51
180.0
  0
ARC
  5
85FE
  8
1
 10
-1259.9328676622999
 20
-1322.400418340525
 30
0.0
 40
20.0
 50
0.000000000000007
 51
90.0
  0
LINE
  5
85FF
  8
1
 10
-1338.226453038031
 20
-1442.400418340525
 30
0.0
 11
-1183.9295155183449
 21
-1442.400418340525
 31
0.0
  0
LINE
  5
8600
  8
1
 10
-1829.3978225547919
 20
-2172.4004183405241
 30
0.0
 11
-1050.4679127698071
 21
-2172.4004183405241
 31
0.0
  0
LINE
  5
8602
  8
1
 10
-1050.4679127698071
 20
-2172.4004183405241
 30
0.0
 11
-1039.9328676622999
 21
-2252.400418340525
 31
0.0
  0
LINE
  5
8603
  8
1
 10
-1829.3978225547919
 20
-2172.4004183405241
 30
0.0
 11
-1839.9328676622999
 21
-2252.400418340525
 31
0.0
  0
LINE
  5
8604
  8
1
 10
-1837.0237386606641
 20
-2252.400418340525
 30
0.0
 11
-1839.9328676622999
 21
-2252.400418340525
 31
0.0
  0
LINE
  5
8617
  8
1
 10
-1129.9328676622999
 20
4519.6470688482132
 30
0.0
 11
-1129.9328676622999
 21
3890.7326331639651
 31
0.0
  0
LINE
  5
8618
  8
2
 10
-1439.932867662299
 20
4865.5087373097131
 30
0.0
 11
-1439.932867662299
 21
3645.777026795548
 31
0.0
  0
LINE
  5
861B
  8
1
 10
-1129.9328676622999
 20
4541.0418950137837
 30
0.0
 11
-1749.9328676622999
 21
4541.0418950137828
 31
0.0
  0
LINE
  5
861C
  8
1
 10
-1179.932867662299
 20
4710.9258576349403
 30
0.0
 11
-1699.9328676622999
 21
4710.9258576349384
 31
0.0
  0
LINE
  5
8625
  8
1
 10
-1129.9328676622999
 20
4660.9258576349403
 30
0.0
 11
-1129.932867662299
 21
4541.0418950137819
 31
0.0
  0
ARC
  5
8626
  8
1
 10
-1179.932867662299
 20
4660.9258576349403
 30
0.0
 40
50.0
 50
0.000000000000007
 51
90.0
  0
LINE
  5
8627
  8
1
 10
-1154.4839980910469
 20
4541.0418950137837
 30
0.0
 11
-1129.9328676623011
 21
4519.6470688482132
 31
0.0
  0
LINE
  5
8628
  8
1
 10
-1719.9328676622999
 20
3866.9258576349412
 30
0.0
 11
-1749.9328676622979
 21
3866.9258576349412
 31
0.0
  0
LINE
  5
8629
  8
1
 10
-1129.932867662299
 20
3901.4258576349362
 30
0.0
 11
-1749.9328676622979
 21
3901.4258576349371
 31
0.0
  0
LINE
  5
862A
  8
2
 10
-1093.293499675661
 20
4215.9258576349384
 30
0.0
 11
-1811.881394679385
 21
4215.9258576349384
 31
0.0
  0
LINE
  5
8640
  8
1
 10
-1039.9328676622999
 20
3927.400798312447
 30
0.0
 11
-1039.9328676622999
 21
4030.7326331639638
 31
0.0
  0
LINE
  5
8642
  8
1
 10
-1839.9328676622999
 20
3927.400798312447
 30
0.0
 11
-1839.9328676622979
 21
4474.5558672326943
 31
0.0
  0
LINE
  5
8643
  8
1
 10
-1839.9328676622979
 20
4474.5558672326943
 30
0.0
 11
-1749.9328676622999
 21
4474.5558672326952
 31
0.0
  0
LINE
  5
8644
  8
1
 10
-1839.9328676622999
 20
3927.400798312447
 30
0.0
 11
-1749.9328676622979
 21
3927.400798312447
 31
0.0
  0
LINE
  5
8645
  8
1
 10
-1129.9328676622999
 20
4474.5558672326952
 30
0.0
 11
-1053.0237386606641
 21
4474.5558672326952
 31
0.0
  0
LINE
  5
8646
  8
1
 10
-1129.9328676622999
 20
3927.400798312447
 30
0.0
 11
-1039.9328676622999
 21
3927.4007983124461
 31
0.0
  0
DIMENSION
  5
8651
  8
3
  2
*D6
 10
1862.9762613393359
 20
2739.3151865753821
 30
0.0
 11
12.97626133933591
 21
2889.3151865753821
 31
0.0
 70
     0
 13
-1837.0237386606641
 23
3549.7326331639638
 33
0.0
 14
1862.9762613393359
 24
3549.7326331639638
 34
0.0
 50
0.000000000000007
1001
ACAD
1000
DSTYLE
1002
{
1070
   287
1070
     3
1070
   287
1070
     3
1070
   287
1070
     3
1070
   287
1070
     3
1070
    40
1040
60.0
1070
   143
1040
0.039
1070
   172
1070
     1
1070
   173
1070
     0
1070
   271
1070
     4
1070
   272
1070
     4
1070
   279
1070
     0
1070
   284
1070
     0
1070
   285
1070
     0
1070
   286
1070
     0
1070
   341
1005
7DAC
1070
     5
1000
OPEN30
1002
}
  0
DIMENSION
  5
8667
  8
3
  2
*D7
 10
-2691.9653763486858
 20
3549.7326331639638
 30
0.0
 11
-2841.9653763486858
 21
4149.7326331639651
 31
0.0
 70
     0
 13
-1837.0237386606641
 23
4749.7326331639651
 33
0.0
 14
-1837.0237386606641
 24
3549.7326331639638
 34
0.0
 50
90.0
1001
ACAD
1000
DSTYLE
1002
{
1070
   287
1070
     3
1070
   287
1070
     3
1070
   287
1070
     3
1070
   287
1070
     3
1070
    40
1040
60.0
1070
   143
1040
0.039
1070
   172
1070
     1
1070
   173
1070
     0
1070
   271
1070
     4
1070
   272
1070
     4
1070
   279
1070
     0
1070
   284
1070
     0
1070
   285
1070
     0
1070
   286
1070
     0
1070
   341
1005
7DAC
1070
     5
1000
OPEN30
1002
}
  0
DIMENSION
  5
867D
  8
3
  2
*D8
 10
2809.1953492396419
 20
5609.7326331639633
 30
0.0
 11
2659.1953492396419
 21
4579.7326331639642
 31
0.0
 70
     0
 13
1862.9762613393359
 23
3549.7326331639638
 33
0.0
 14
1862.9762613393359
 24
5609.7326331639642
 34
0.0
 50
90.0
1001
ACAD
1000
DSTYLE
1002
{
1070
   287
1070
     3
1070
   287
1070
     3
1070
   287
1070
     3
1070
   287
1070
     3
1070
    40
1040
60.0
1070
   143
1040
0.039
1070
   172
1070
     1
1070
   173
1070
     0
1070
   271
1070
     4
1070
   272
1070
     4
1070
   279
1070
     0
1070
   284
1070
     0
1070
   285
1070
     0
1070
   286
1070
     0
1070
   341
1005
7DAC
1070
     5
1000
OPEN30
1002
}
  0
DIMENSION
  5
86AE
  8
3
  2
*D9
 10
682.97626133933579
 20
1819.704708280645
 30
0.0
 11
1320.4762613393359
 21
1969.704708280645
 31
0.0
 70
     0
 13
1957.9762613393359
 23
1274.5995816594741
 33
0.0
 14
682.97626133933579
 24
1402.992304597595
 34
0.0
 50
0.000000000000007
1001
ACAD
1000
DSTYLE
1002
{
1070
   287
1070
     3
1070
   287
1070
     3
1070
   287
1070
     3
1070
   287
1070
     3
1070
    40
1040
60.0
1070
   143
1040
0.039
1070
   172
1070
     1
1070
   173
1070
     0
1070
   271
1070
     4
1070
   272
1070
     4
1070
   279
1070
     0
1070
   284
1070
     0
1070
   285
1070
     0
1070
   286
1070
     0
1070
   341
1005
7DAC
1070
     5
1000
OPEN30
1002
}
  0
CIRCLE
  5
8794
  8
1
 10
-1437.0237386606641
 20
-1892.400418340525
 30
0.0
 40
150.0
  0
ARC
  5
8795
  8
1
 10
-1437.0237386606641
 20
-1892.400418340525
 30
0.0
 40
280.0
 50
120.5982513323362
 51
287.22638377116539
  0
LINE
  5
8796
  8
1
 10
-1512.2525766584899
 20
-1762.628996473085
 30
0.0
 11
482.36602667846489
 21
-606.34329336068822
 31
0.0
  0
LINE
  5
8797
  8
1
 10
-1391.359794675481
 20
-2035.280802647532
 30
0.0
 11
804.74677863315617
 21
-1333.414776492544
 31
0.0
  0
LINE
  5
8798
  8
1
 10
-1579.5479794453311
 20
-1651.388300826168
 30
0.0
 11
403.01793122659632
 21
-478.98375893732458
 31
0.0
  0
LINE
  5
8799
  8
1
 10
-1354.1023242054871
 20
-2159.8402041330519
 30
0.0
 11
845.85761116200501
 21
-1477.7285690044171
 31
0.0
  0
DIMENSION
  5
87B5
  8
3
  2
*D10
 10
3152.5602201082738
 20
-2432.400418340525
 30
0.0
 11
3002.5602201082752
 21
-1692.400418340525
 31
0.0
 70
     0
 13
2264.726336426359
 23
-952.40041834052556
 33
0.0
 14
1862.9762613393359
 24
-2432.400418340525
 34
0.0
 50
270.0
1001
ACAD
1000
DSTYLE
1002
{
1070
   287
1070
     3
1070
   287
1070
     3
1070
   287
1070
     3
1070
   287
1070
     3
1070
    40
1040
60.0
1070
   143
1040
0.039
1070
   172
1070
     1
1070
   173
1070
     0
1070
   271
1070
     4
1070
   272
1070
     4
1070
   279
1070
     0
1070
   284
1070
     0
1070
   285
1070
     0
1070
   286
1070
     0
1070
   341
1005
7DAC
1070
     5
1000
OPEN30
1002
}
  0
DIMENSION
  5
87CB
  8
3
  2
*D11
 10
6744.0871082668846
 20
1746.228386170056
 30
0.0
 11
5994.0871082668828
 21
1896.228386170056
 31
0.0
 70
     0
 13
5244.0871082668828
 23
1195.5995816594741
 33
0.0
 14
6744.0871082668846
 24
1195.599581659473
 34
0.0
1001
ACAD
1000
DSTYLE
1002
{
1070
   287
1070
     3
1070
   287
1070
     3
1070
   287
1070
     3
1070
   287
1070
     3
1070
    40
1040
60.0
1070
   143
1040
0.039
1070
   172
1070
     1
1070
   173
1070
     0
1070
   271
1070
     4
1070
   272
1070
     4
1070
   279
1070
     0
1070
   284
1070
     0
1070
   285
1070
     0
1070
   286
1070
     0
1070
   341
1005
7DAC
1070
     5
1000
OPEN30
1002
}
  0
DIMENSION
  5
87D8
  8
3
  2
*D12
 10
5994.0871082668846
 20
2210.4019307734702
 30
0.0
 11
5369.0871082668846
 21
2407.544787916328
 31
0.0
 70
     0
  1
(<>)
 13
4744.0871082668837
 23
-402.40041834052539
 33
0.0
 14
5994.0871082668846
 24
2190.387276049194
 34
0.0
1001
ACAD
1000
DSTYLE
1002
{
1070
   287
1070
     3
1070
   287
1070
     3
1070
   287
1070
     3
1070
   287
1070
     3
1070
    40
1040
60.0
1070
   143
1040
0.039
1070
   172
1070
     1
1070
   173
1070
     0
1070
   271
1070
     4
1070
   272
1070
     4
1070
   279
1070
     0
1070
   284
1070
     0
1070
   285
1070
     0
1070
   286
1070
     0
1070
   341
1005
7DAC
1070
     5
1000
OPEN30
1002
}
  0
DIMENSION
  5
87EE
  8
3
  2
*D13
 10
6898.0871082668837
 20
2210.4019307734702
 30
0.0
 11
6446.0871082668837
 21
2360.4019307734702
 31
0.0
 70
     0
 13
5994.0871082668846
 23
2190.387276049194
 33
0.0
 14
6898.0871082668837
 24
122.5995816594732
 34
0.0
1001
ACAD
1000
DSTYLE
1002
{
1070
   287
1070
     4
1070
   287
1070
     4
1070
   287
1070
     4
1070
   287
1070
     4
1070
    40
1040
60.0
1070
   143
1040
0.039
1070
   172
1070
     1
1070
   173
1070
     0
1070
   271
1070
     4
1070
   272
1070
     4
1070
   279
1070
     1
1070
   284
1070
     0
1070
   285
1070
     0
1070
   286
1070
     0
1070
   341
1005
7DAC
1070
     5
1000
OPEN30
1002
}
  0
LINE
  5
88E3
  8
2
 10
5994.0871082668846
 20
2029.0658610641251
 30
0.0
 11
5994.0871082668846
 21
2380.526805031353
 31
0.0
  0
LINE
  5
88E4
  8
1
 10
-1749.9328676622999
 20
4519.6470688482123
 30
0.0
 11
-1749.9328676622979
 21
3866.9258576349412
 31
0.0
  0
LINE
  5
88E5
  8
1
 10
-1725.381737233552
 20
4541.0418950137828
 30
0.0
 11
-1749.932867662299
 21
4519.6470688482123
 31
0.0
  0
ARC
  5
88E6
  8
1
 10
-1699.9328676622999
 20
4660.9258576349393
 30
0.0
 40
50.0
 50
90.000000000000171
 51
180.00000000000011
  0
LINE
  5
88E7
  8
1
 10
-1749.9328676622999
 20
4660.9258576349393
 30
0.0
 11
-1749.9328676622999
 21
4541.0418950137819
 31
0.0
  0
LINE
  5
91D2
  8
1
 10
6744.0871082668846
 20
-943.40041834052602
 30
0.0
 11
6823.0871082668837
 21
-943.40041834052602
 31
0.0
  0
LINE
  5
91D3
  8
1
 10
-1837.0237386606641
 20
-2572.4004183405241
 30
0.0
 11
1862.9762613393359
 21
-2572.4004183405241
 31
0.0
  0
LINE
  5
91D4
  8
1
 10
-1837.0237386606641
 20
-2752.400418340525
 30
0.0
 11
1862.9762613393359
 21
-2752.400418340525
 31
0.0
  0
LINE
  5
91D5
  8
1
 10
1862.9762613393359
 20
-2752.400418340525
 30
0.0
 11
1862.9762613393359
 21
-2572.4004183405241
 31
0.0
  0
LINE
  5
91D6
  8
1
 10
-1837.0237386606641
 20
-2752.400418340525
 30
0.0
 11
-1837.0237386606641
 21
-2572.4004183405241
 31
0.0
  0
LINE
  5
91D7
  8
1
 10
4763.0871082668837
 20
-2752.400418340525
 30
0.0
 11
6823.0871082668837
 21
-2752.400418340525
 31
0.0
  0
LINE
  5
91D8
  8
1
 10
4763.0871082668837
 20
-2752.400418340525
 30
0.0
 11
4763.0871082668837
 21
-2572.4004183405241
 31
0.0
  0
LINE
  5
91D9
  8
1
 10
4763.0871082668837
 20
-2572.4004183405241
 30
0.0
 11
6823.0871082668864
 21
-2572.4004183405241
 31
0.0
  0
LINE
  5
91DA
  8
1
 10
6823.0871082668864
 20
-2752.400418340525
 30
0.0
 11
6823.0871082668837
 21
-2572.4004183405241
 31
0.0
  0
DIMENSION
  5
91ED
  8
3
  2
*D15
 10
5994.0871082668846
 20
-3174.333228475698
 30
0.0
 11
5378.5871082668837
 21
-3024.333228475698
 31
0.0
 70
     0
 13
4763.0871082668837
 23
-2752.400418340525
 33
0.0
 14
5994.0871082668846
 24
-2752.4004183405241
 34
0.0
1001
ACAD
1000
DSTYLE
1002
{
1070
   287
1070
     3
1070
   287
1070
     3
1070
    40
1040
60.0
1070
   143
1040
0.039
1070
   172
1070
     1
1070
   271
1070
     4
1070
   272
1070
     4
1070
   279
1070
     0
1070
   284
1070
     0
1070
   285
1070
     0
1070
   286
1070
     0
1070
     6
1000
OPEN
1070
     7
1000
OPEN
1002
}
  0
DIMENSION
  5
91FA
  8
3
  2
*D16
 10
6823.0871082668864
 20
-3174.333228475698
 30
0.0
 11
6408.5871082668846
 21
-3024.333228475698
 31
0.0
 70
     0
 13
5994.0871082668846
 23
-2752.4004183405241
 33
0.0
 14
6823.0871082668864
 24
-2752.400418340525
 34
0.0
1001
ACAD
1000
DSTYLE
1002
{
1070
   287
1070
     3
1070
   287
1070
     3
1070
    40
1040
60.0
1070
   143
1040
0.039
1070
   172
1070
     1
1070
   271
1070
     4
1070
   272
1070
     4
1070
   279
1070
     0
1070
   284
1070
     0
1070
   285
1070
     0
1070
   286
1070
     0
1070
     6
1000
OPEN
1070
     7
1000
OPEN
1002
}
  0
DIMENSION
  5
9207
  8
3
  2
*D17
 10
682.97626133933579
 20
-3174.333228475698
 30
0.0
 11
1272.9762613393359
 21
-3024.333228475698
 31
0.0
 70
     0
 13
1862.9762613393359
 23
-2752.400418340525
 33
0.0
 14
682.97626133933579
 24
-2752.400418340525
 34
0.0
 50
180.0
1001
ACAD
1000
DSTYLE
1002
{
1070
   287
1070
     3
1070
   287
1070
     3
1070
    40
1040
60.0
1070
   143
1040
0.039
1070
   172
1070
     1
1070
   271
1070
     4
1070
   272
1070
     4
1070
   279
1070
     0
1070
   284
1070
     0
1070
   285
1070
     0
1070
   286
1070
     0
1070
     6
1000
OPEN
1070
     7
1000
OPEN
1002
}
  0
DIMENSION
  5
9214
  8
3
  2
*D18
 10
-1837.0237386606641
 20
-3174.333228475698
 30
0.0
 11
-577.02373866066398
 21
-3024.333228475698
 31
0.0
 70
     0
 13
682.97626133933579
 23
-2752.400418340525
 33
0.0
 14
-1837.0237386606641
 24
-2752.400418340525
 34
0.0
 50
180.0
1001
ACAD
1000
DSTYLE
1002
{
1070
   287
1070
     3
1070
   287
1070
     3
1070
    40
1040
60.0
1070
   143
1040
0.039
1070
   172
1070
     1
1070
   271
1070
     4
1070
   272
1070
     4
1070
   279
1070
     0
1070
   284
1070
     0
1070
   285
1070
     0
1070
   286
1070
     0
1070
     6
1000
OPEN
1070
     7
1000
OPEN
1002
}
  0
DIMENSION
  5
9221
  8
3
  2
*D19
 10
-1837.0237386606641
 20
-3594.3425087233259
 30
0.0
 11
12.97626133933591
 21
-3444.3425087233259
 31
0.0
 70
     0
 13
1862.9762613393359
 23
-2752.400418340525
 33
0.0
 14
-1837.0237386606641
 24
-2752.400418340525
 34
0.0
 50
180.0
1001
ACAD
1000
DSTYLE
1002
{
1070
   287
1070
     3
1070
   287
1070
     3
1070
    40
1040
60.0
1070
   143
1040
0.039
1070
   172
1070
     1
1070
   271
1070
     4
1070
   272
1070
     4
1070
   279
1070
     0
1070
   284
1070
     0
1070
   285
1070
     0
1070
   286
1070
     0
1070
     6
1000
OPEN
1070
     7
1000
OPEN
1002
}
  0
DIMENSION
  5
922E
  8
3
  2
*D20
 10
6823.0871082668837
 20
-3594.3425087233259
 30
0.0
 11
5793.0871082668837
 21
-3444.3425087233259
 31
0.0
 70
     0
 13
4763.0871082668837
 23
-2752.400418340525
 33
0.0
 14
6823.0871082668837
 24
-2752.400418340525
 34
0.0
1001
ACAD
1000
DSTYLE
1002
{
1070
   287
1070
     3
1070
   287
1070
     3
1070
    40
1040
60.0
1070
   143
1040
0.039
1070
   172
1070
     1
1070
   271
1070
     4
1070
   272
1070
     4
1070
   279
1070
     0
1070
   284
1070
     0
1070
   285
1070
     0
1070
   286
1070
     0
1070
     6
1000
OPEN
1070
     7
1000
OPEN
1002
}
  0
DIMENSION
  5
9245
  8
3
  2
*D22
 10
3157.587750468228
 20
-2752.400418340525
 30
0.0
 11
3007.587750468228
 21
-3266.6861326262378
 31
0.0
 70
     0
 13
1862.9762613393359
 23
-2572.4004183405241
 33
0.0
 14
1862.9762613393359
 24
-2752.400418340525
 34
0.0
 50
90.0
1001
ACAD
1000
DSTYLE
1002
{
1070
   287
1070
     3
1070
   287
1070
     3
1070
    40
1040
60.0
1070
   143
1040
0.039
1070
   172
1070
     1
1070
   271
1070
     4
1070
   272
1070
     4
1070
   279
1070
     0
1070
   284
1070
     0
1070
   285
1070
     0
1070
   286
1070
     0
1070
     6
1000
DOT
1070
     7
1000
OPEN
1002
}
  0
DIMENSION
  5
9261
  8
3
  2
*D23
 10
3161.299666299979
 20
-2432.400418340525
 30
0.0
 11
3494.9895114038809
 21
-2504.8376254453401
 31
0.0
 70
   128
 13
1862.9762613393359
 23
-2572.4004183405241
 33
0.0
 14
1862.9762613393359
 24
-2432.400418340525
 34
0.0
 50
90.0
1001
ACAD
1000
DSTYLE
1002
{
1070
   284
1070
     0
1070
   172
1070
     1
1070
   272
1070
     4
1070
    76
1070
     1
1070
    75
1070
     1
1070
    40
1040
60.0
1070
     3
1000
(<>)
1070
   271
1070
     4
1070
     7
1000
_NONE
1070
     6
1000
_NONE
1070
   285
1070
     0
1070
   286
1070
     0
1070
   143
1040
0.039
1002
}
  0
LINE
  5
927D
  8
1
 10
-1131.8769320300489
 20
4674.7326331639697
 30
0.0
 11
-1053.0237386606641
 21
4674.7326331639697
 31
0.0
  0
ENDSEC
  0
EOF
