  0
SECTION
  2
HEADER
  9
$ACADVER
  1
AC1009
  9
$INSBASE
 10
0.0
 20
0.0
 30
0.0
  9
$EXTMIN
 10
-4128.9508801254269
 20
-7154.4496981635739
 30
0.0
  9
$EXTMAX
 10
8471.0491198745731
 20
10545.55030183642
 30
0.0
  9
$LIMMIN
 10
0.0
 20
0.0
  9
$LIMMAX
 10
297.0
 20
210.0
  9
$ORTHOMODE
 70
     0
  9
$REGENMODE
 70
     1
  9
$FILLMODE
 70
     0
  9
$QTEXTMODE
 70
     0
  9
$MIRRTEXT
 70
     1
  9
$DRAGMODE
 70
     2
  9
$LTSCALE
 40
360.0
  9
$OSMODE
 70
    37
  9
$ATTMODE
 70
     1
  9
$TEXTSIZE
 40
180.0
  9
$TRACEWID
 40
0.05
  9
$TEXTSTYLE
  7
STANDARD
  9
$CLAYER
  8
3
  9
$CELTYPE
  6
BYLAYER
  9
$CECOLOR
 62
   256
  9
$DIMSCALE
 40
60.0
  9
$DIMASZ
 40
2.0
  9
$DIMEXO
 40
0.5
  9
$DIMDLI
 40
10.0
  9
$DIMRND
 40
0.0
  9
$DIMDLE
 40
0.0
  9
$DIMEXE
 40
1.0
  9
$DIMTP
 40
1.0
  9
$DIMTM
 40
1.0
  9
$DIMTXT
 40
3.0
  9
$DIMCEN
 40
0.0
  9
$DIMTSZ
 40
0.0
  9
$DIMTOL
 70
     0
  9
$DIMLIM
 70
     0
  9
$DIMTIH
 70
     0
  9
$DIMTOH
 70
     0
  9
$DIMSE1
 70
     0
  9
$DIMSE2
 70
     0
  9
$DIMTAD
 70
     1
  9
$DIMZIN
 70
     8
  9
$DIMBLK
  1
OPEN30
  9
$DIMASO
 70
     1
  9
$DIMSHO
 70
     1
  9
$DIMPOST
  1
(<>)
  9
$DIMAPOST
  1

  9
$DIMALT
 70
     0
  9
$DIMALTD
 70
     2
  9
$DIMALTF
 40
0.039
  9
$DIMLFAC
 40
1.0
  9
$DIMTOFL
 70
     1
  9
$DIMTVP
 40
0.0
  9
$DIMTIX
 70
     0
  9
$DIMSOXD
 70
     0
  9
$DIMSAH
 70
     1
  9
$DIMBLK1
  1
OPEN
  9
$DIMBLK2
  1
OPEN
  9
$DIMSTYLE
  2
IGA
  9
$DIMCLRD
 70
     0
  9
$DIMCLRE
 70
     0
  9
$DIMCLRT
 70
     0
  9
$DIMTFAC
 40
10.0
  9
$DIMGAP
 40
1.0
  9
$LUNITS
 70
     2
  9
$LUPREC
 70
     3
  9
$SKETCHINC
 40
0.1
  9
$FILLETRAD
 40
50.0
  9
$AUNITS
 70
     0
  9
$AUPREC
 70
     0
  9
$MENU
  1
acad
  9
$ELEVATION
 40
0.0
  9
$PELEVATION
 40
0.0
  9
$THICKNESS
 40
0.0
  9
$LIMCHECK
 70
     0
  9
$BLIPMODE
 70
     0
  9
$CHAMFERA
 40
0.5
  9
$CHAMFERB
 40
0.5
  9
$SKPOLY
 70
     0
  9
$TDCREATE
 40
2453349.637759502
  9
$TDUPDATE
 40
2454953.665156065
  9
$TDINDWG
 40
0.3206696759
  9
$TDUSRTIMER
 40
0.3206689583
  9
$USRTIMER
 70
     1
  9
$ANGBASE
 50
0.0
  9
$ANGDIR
 70
     0
  9
$PDMODE
 70
     0
  9
$PDSIZE
 40
0.0
  9
$PLINEWID
 40
0.0
  9
$COORDS
 70
     1
  9
$SPLFRAME
 70
     0
  9
$SPLINETYPE
 70
     6
  9
$SPLINESEGS
 70
     8
  9
$ATTDIA
 70
     0
  9
$ATTREQ
 70
     1
  9
$HANDLING
 70
 10241
  9
$HANDSEED
  5
983A
  9
$SURFTAB1
 70
     6
  9
$SURFTAB2
 70
     6
  9
$SURFTYPE
 70
     6
  9
$SURFU
 70
     6
  9
$SURFV
 70
     6
  9
$UCSNAME
  2

  9
$UCSORG
 10
0.0
 20
0.0
 30
0.0
  9
$UCSXDIR
 10
1.0
 20
0.0
 30
0.0
  9
$UCSYDIR
 10
0.0
 20
1.0
 30
0.0
  9
$PUCSNAME
  2

  9
$PUCSORG
 10
0.0
 20
0.0
 30
0.0
  9
$PUCSXDIR
 10
1.0
 20
0.0
 30
0.0
  9
$PUCSYDIR
 10
0.0
 20
1.0
 30
0.0
  9
$USERI1
 70
     0
  9
$USERI2
 70
     0
  9
$USERI3
 70
     0
  9
$USERI4
 70
     0
  9
$USERI5
 70
     0
  9
$USERR1
 40
0.0
  9
$USERR2
 40
0.0
  9
$USERR3
 40
0.0
  9
$USERR4
 40
0.0
  9
$USERR5
 40
0.0
  9
$WORLDVIEW
 70
     1
  9
$SHADEDGE
 70
     3
  9
$SHADEDIF
 70
    70
  9
$TILEMODE
 70
     1
  9
$MAXACTVP
 70
    16
  9
$PLIMCHECK
 70
     0
  9
$PEXTMIN
 10
1.0000000000000000E+020
 20
1.0000000000000000E+020
 30
1.0000000000000000E+020
  9
$PEXTMAX
 10
-1.0000000000000000E+020
 20
-1.0000000000000000E+020
 30
-1.0000000000000000E+020
  9
$PLIMMIN
 10
0.0
 20
0.0
  9
$PLIMMAX
 10
12.0
 20
9.0
  9
$UNITMODE
 70
     0
  9
$VISRETAIN
 70
     0
  9
$PLINEGEN
 70
     0
  9
$PSLTSCALE
 70
     1
  0
ENDSEC
  0
SECTION
  2
TABLES
  0
TABLE
  2
VPORT
 70
     2
  0
VPORT
  2
*ACTIVE
 70
     0
 10
0.0
 20
0.0
 11
1.0
 21
1.0
 12
16624.885898557961
 22
1210.977608105698
 13
0.0
 23
0.0
 14
10.0
 24
10.0
 15
10.0
 25
10.0
 16
0.0
 26
0.0
 36
1.0
 17
0.0
 27
0.0
 37
0.0
 40
17602.533685908398
 41
3.1666666666666661
 42
50.0
 43
0.0
 44
0.0
 50
0.0
 51
0.0
 71
     0
 72
   100
 73
     1
 74
     0
 75
     0
 76
     0
 77
     0
 78
     0
  0
ENDTAB
  0
TABLE
  2
LTYPE
 70
     2
  0
LTYPE
  2
CONTINUOUS
 70
     0
  3
Solid line
 72
    65
 73
     0
 40
0.0
  0
LTYPE
  2
CENTER
 70
     0
  3
____ _ ____ _ ____ _ ____ _ ____ _ ____ _ ____ 
 72
    65
 73
     4
 40
2.0
 49
1.25
 49
-0.25
 49
0.25
 49
-0.25
  0
ENDTAB
  0
TABLE
  2
LAYER
 70
     6
  0
LAYER
  2
0
 70
     0
 62
     7
  6
CONTINUOUS
  0
LAYER
  2
1
 70
     0
 62
     4
  6
CONTINUOUS
  0
LAYER
  2
3
 70
     0
 62
     2
  6
CONTINUOUS
  0
LAYER
  2
2
 70
     0
 62
     3
  6
CENTER
  0
LAYER
  2
4
 70
     0
 62
     7
  6
CONTINUOUS
  0
LAYER
  2
DEFPOINTS
 70
     0
 62
     7
  6
CONTINUOUS
  0
ENDTAB
  0
TABLE
  2
STYLE
 70
     1
  0
STYLE
  2
STANDARD
 70
     0
 40
0.0
 41
1.0
 50
0.0
 71
     0
 42
180.0
  3
simplex.shx
  4
extfont.shx
  0
ENDTAB
  0
TABLE
  2
VIEW
 70
     0
  0
ENDTAB
  0
TABLE
  2
UCS
 70
     0
  0
ENDTAB
  0
TABLE
  2
APPID
 70
     1
  0
APPID
  2
ACAD
 70
     0
  0
ENDTAB
  0
TABLE
  2
DIMSTYLE
 70
     1
  0
DIMSTYLE
  2
IGA
 70
     0
  3

  4

  5

  6

  7

 40
2.0
 41
2.0
 42
0.5
 43
10.0
 44
1.0
 45
0.0
 46
0.0
 47
1.0
 48
1.0
140
3.0
141
0.0
142
0.0
143
0.03937
144
1.0
145
0.0
146
10.0
147
1.0
 71
     0
 72
     0
 73
     0
 74
     0
 75
     0
 76
     0
 77
     1
 78
     8
170
     0
171
     2
172
     0
173
     1
174
     0
175
     0
176
     0
177
     0
178
     0
  0
ENDTAB
  0
ENDSEC
  0
SECTION
  2
BLOCKS
  0
BLOCK
  8
0
  2
$MODEL_SPACE
 70
     0
 10
0.0
 20
0.0
 30
0.0
  3
$MODEL_SPACE
  1

  0
ENDBLK
  5
7D74
  8
0
  0
BLOCK
 67
     1
  8
0
  2
$PAPER_SPACE
 70
     0
 10
0.0
 20
0.0
 30
0.0
  3
$PAPER_SPACE
  1

  0
ENDBLK
  5
7D70
 67
     1
  8
0
  0
BLOCK
  8
0
  2
_OPEN30
 70
     0
 10
0.0
 20
0.0
 30
0.0
  3
_OPEN30
  1

  0
LINE
  5
7DAE
  8
1
 62
     0
 10
-1.0
 20
0.26794919
 30
0.0
 11
0.0
 21
0.0
 31
0.0
  0
LINE
  5
7DAF
  8
1
 62
     0
 10
0.0
 20
0.0
 30
0.0
 11
-1.0
 21
-0.26794919
 31
0.0
  0
LINE
  5
7DB0
  8
1
 62
     0
 10
0.0
 20
0.0
 30
0.0
 11
-1.0
 21
0.0
 31
0.0
  0
ENDBLK
  5
7DB1
  8
0
  0
BLOCK
  8
0
  2
*D1
 70
     1
 10
0.0
 20
0.0
 30
0.0
  3
*D1
  1

  0
LINE
  5
9763
  8
3
 62
     0
 10
6928.0871082668846
 20
47.599581659473863
 30
0.0
 11
7769.8980415944388
 21
47.599581659473621
 31
0.0
  0
LINE
  5
9764
  8
3
 62
     0
 10
6922.0871082668846
 20
-1952.400418340525
 30
0.0
 11
7769.8980415944388
 21
-1952.400418340525
 31
0.0
  0
LINE
  5
9765
  8
3
 62
     0
 10
7709.8980415944388
 20
-72.400418340526357
 30
0.0
 11
7709.8980415944388
 21
-1832.400418340525
 31
0.0
  0
INSERT
  5
9766
  8
3
 62
     0
  2
_OPEN30
 10
7709.8980415944388
 20
47.599581659473643
 30
0.0
 41
120.0
 42
120.0
 43
120.0
 50
90.0
  0
INSERT
  5
9767
  8
3
 62
     0
  2
_OPEN30
 10
7709.8980415944388
 20
-1952.400418340525
 30
0.0
 41
120.0
 42
120.0
 43
120.0
 50
270.0
  0
TEXT
  8
3
  40
180
  5
9825
  62
0
  72
0
  71
0
 10
7199.90
 20
-1271.00
 30
0.000000
  1
%%c2000
  0
POINT
  5
9769
  8
DEFPOINTS
 62
     0
 10
6898.0871082668837
 20
47.59958165947387
 30
0.0
  0
POINT
  5
976A
  8
DEFPOINTS
 62
     0
 10
6892.0871082668846
 20
-1952.400418340525
 30
0.0
  0
POINT
  5
976B
  8
DEFPOINTS
 62
     0
 10
7709.8980415944388
 20
-1952.400418340525
 30
0.0
  0
ENDBLK
  5
7E6D
  8
0
  0
BLOCK
  8
0
  2
*D2
 70
     1
 10
0.0
 20
0.0
 30
0.0
  3
*D2
  1

  0
LINE
  5
976C
  8
3
 62
     0
 10
1944.4993541031611
 20
352.59958165947501
 30
0.0
 11
1944.4993541031611
 21
930.24175923690916
 31
0.0
  0
LINE
  5
976D
  8
3
 62
     0
 10
-115.50064589683819
 20
352.59958165947501
 30
0.0
 11
-115.50064589683819
 21
930.24175923690916
 31
0.0
  0
LINE
  5
976E
  8
3
 62
     0
 10
1824.499354103162
 20
870.24175923690916
 30
0.0
 11
4.4993541031617781
 21
870.24175923690916
 31
0.0
  0
INSERT
  5
976F
  8
3
 62
     0
  2
_OPEN30
 10
1944.4993541031611
 20
870.24175923690916
 30
0.0
 41
120.0
 42
120.0
 43
120.0
  0
INSERT
  5
9770
  8
3
 62
     0
  2
_OPEN30
 10
-115.50064589683819
 20
870.24175923690916
 30
0.0
 41
120.0
 42
120.0
 43
120.0
 50
180.0
  0
TEXT
  8
3
  40
180
  5
9826
  62
0
  72
0
  71
0
 10
554.499
 20
701.642
 30
0.000000
  1
2060
  0
POINT
  5
9772
  8
DEFPOINTS
 62
     0
 10
1944.4993541031611
 20
322.59958165947501
 30
0.0
  0
POINT
  5
9773
  8
DEFPOINTS
 62
     0
 10
-115.50064589683819
 20
322.59958165947501
 30
0.0
  0
POINT
  5
9774
  8
DEFPOINTS
 62
     0
 10
-115.50064589683819
 20
870.24175923690916
 30
0.0
  0
ENDBLK
  5
953E
  8
0
  0
BLOCK
  8
0
  2
*D3
 70
     1
 10
0.0
 20
0.0
 30
0.0
  3
*D3
  1

  0
LINE
  5
9775
  8
3
 62
     0
 10
976.49935410316175
 20
5639.7326331639633
 30
0.0
 11
976.49935410316175
 21
6271.2875301007589
 31
0.0
  0
LINE
  5
9776
  8
3
 62
     0
 10
-1383.500645896838
 20
5639.7326331639633
 30
0.0
 11
-1383.500645896838
 21
6271.2875301007589
 31
0.0
  0
LINE
  5
9777
  8
3
 62
     0
 10
856.49935410316175
 20
6211.2875301007589
 30
0.0
 11
-1263.500645896838
 21
6211.2875301007589
 31
0.0
  0
INSERT
  5
9778
  8
3
 62
     0
  2
_OPEN30
 10
976.49935410316175
 20
6211.2875301007589
 30
0.0
 41
120.0
 42
120.0
 43
120.0
  0
INSERT
  5
9779
  8
3
 62
     0
  2
_OPEN30
 10
-1383.500645896838
 20
6211.2875301007589
 30
0.0
 41
120.0
 42
120.0
 43
120.0
 50
180.0
  0
TEXT
  8
3
  40
180
  5
9827
  62
0
  72
0
  71
0
 10
-563.501
 20
6042.69
 30
0.000000
  1
2360
  0
POINT
  5
977B
  8
DEFPOINTS
 62
     0
 10
976.49935410316175
 20
5609.7326331639642
 30
0.0
  0
POINT
  5
977C
  8
DEFPOINTS
 62
     0
 10
-1383.500645896838
 20
5609.7326331639642
 30
0.0
  0
POINT
  5
977D
  8
DEFPOINTS
 62
     0
 10
-1383.500645896838
 20
6211.2875301007589
 30
0.0
  0
ENDBLK
  5
94FC
  8
0
  0
BLOCK
  8
0
  2
*D4
 70
     1
 10
0.0
 20
0.0
 30
0.0
  3
*D4
  1

  0
LINE
  5
977E
  8
3
 62
     0
 10
976.49935410316175
 20
5639.7326331639633
 30
0.0
 11
976.49935410316175
 21
6271.2875301007589
 31
0.0
  0
LINE
  5
977F
  8
3
 62
     0
 10
2316.4993541031608
 20
4779.7326331639651
 30
0.0
 11
2316.4993541031608
 21
6271.2875301007589
 31
0.0
  0
LINE
  5
9780
  8
3
 62
     0
 10
1096.4993541031611
 20
6211.2875301007589
 30
0.0
 11
2196.4993541031608
 21
6211.2875301007589
 31
0.0
  0
INSERT
  5
9781
  8
3
 62
     0
  2
_OPEN30
 10
976.49935410316175
 20
6211.2875301007589
 30
0.0
 41
120.0
 42
120.0
 43
120.0
 50
180.0
  0
INSERT
  5
9782
  8
3
 62
     0
  2
_OPEN30
 10
2316.4993541031608
 20
6211.2875301007589
 30
0.0
 41
120.0
 42
120.0
 43
120.0
  0
TEXT
  8
3
  40
180
  5
9828
  62
0
  72
0
  71
0
 10
1286.50
 20
6042.69
 30
0.000000
  1
1340
  0
POINT
  5
9784
  8
DEFPOINTS
 62
     0
 10
976.49935410316175
 20
5609.7326331639642
 30
0.0
  0
POINT
  5
9785
  8
DEFPOINTS
 62
     0
 10
2316.4993541031608
 20
4749.7326331639651
 30
0.0
  0
POINT
  5
9786
  8
DEFPOINTS
 62
     0
 10
2316.4993541031608
 20
6211.2875301007589
 30
0.0
  0
ENDBLK
  5
955F
  8
0
  0
BLOCK
  8
0
  2
*D5
 70
     1
 10
0.0
 20
0.0
 30
0.0
  3
*D5
  1

  0
LINE
  5
9787
  8
3
 62
     0
 10
2316.4993541031608
 20
3519.7326331639651
 30
0.0
 11
2316.4993541031608
 21
2679.315186575383
 31
0.0
  0
LINE
  5
9788
  8
3
 62
     0
 10
-1383.500645896838
 20
3519.7326331639651
 30
0.0
 11
-1383.500645896838
 21
2679.315186575383
 31
0.0
  0
LINE
  5
9789
  8
3
 62
     0
 10
2196.4993541031608
 20
2739.3151865753821
 30
0.0
 11
-1263.500645896838
 21
2739.3151865753821
 31
0.0
  0
INSERT
  5
978A
  8
3
 62
     0
  2
_OPEN30
 10
2316.4993541031608
 20
2739.3151865753821
 30
0.0
 41
120.0
 42
120.0
 43
120.0
  0
INSERT
  5
978B
  8
3
 62
     0
  2
_OPEN30
 10
-1383.500645896838
 20
2739.3151865753821
 30
0.0
 41
120.0
 42
120.0
 43
120.0
 50
180.0
  0
TEXT
  8
3
  40
180
  5
9829
  62
0
  72
0
  71
0
 10
106.499
 20
2570.72
 30
0.000000
  1
3700
  0
POINT
  5
978D
  8
DEFPOINTS
 62
     0
 10
2316.4993541031608
 20
3549.7326331639638
 30
0.0
  0
POINT
  5
978E
  8
DEFPOINTS
 62
     0
 10
-1383.500645896838
 20
3549.7326331639638
 30
0.0
  0
POINT
  5
978F
  8
DEFPOINTS
 62
     0
 10
-1383.500645896838
 20
2739.3151865753821
 30
0.0
  0
ENDBLK
  5
94F1
  8
0
  0
BLOCK
  8
0
  2
*D6
 70
     1
 10
0.0
 20
0.0
 30
0.0
  3
*D6
  1

  0
LINE
  5
9790
  8
3
 62
     0
 10
2346.4993541031622
 20
4749.7326331639651
 30
0.0
 11
3231.440991791183
 21
4749.7326331639651
 31
0.0
  0
LINE
  5
9791
  8
3
 62
     0
 10
2346.4993541031622
 20
3549.7326331639638
 30
0.0
 11
3231.440991791183
 21
3549.7326331639638
 31
0.0
  0
LINE
  5
9792
  8
3
 62
     0
 10
3171.4409917911839
 20
4629.7326331639651
 30
0.0
 11
3171.4409917911839
 21
3669.7326331639638
 31
0.0
  0
INSERT
  5
9793
  8
3
 62
     0
  2
_OPEN30
 10
3171.4409917911839
 20
4749.7326331639651
 30
0.0
 41
120.0
 42
120.0
 43
120.0
 50
90.0
  0
INSERT
  5
9794
  8
3
 62
     0
  2
_OPEN30
 10
3171.4409917911839
 20
3549.7326331639638
 30
0.0
 41
120.0
 42
120.0
 43
120.0
 50
270.0
  0
TEXT
  8
3
  40
180
  5
982A
  62
0
  72
0
  71
0
 10
2661.44
 20
3831.13
 30
0.000000
  1
1200
  0
POINT
  5
9796
  8
DEFPOINTS
 62
     0
 10
2316.4993541031608
 20
4749.7326331639651
 30
0.0
  0
POINT
  5
9797
  8
DEFPOINTS
 62
     0
 10
2316.4993541031608
 20
3549.7326331639638
 30
0.0
  0
POINT
  5
9798
  8
DEFPOINTS
 62
     0
 10
3171.4409917911839
 20
3549.7326331639638
 30
0.0
  0
ENDBLK
  5
9554
  8
0
  0
BLOCK
  8
0
  2
*D7
 70
     1
 10
0.0
 20
0.0
 30
0.0
  3
*D7
  1

  0
LINE
  5
9799
  8
3
 62
     0
 10
-1413.500645896838
 20
3549.7326331639638
 30
0.0
 11
-2389.7197337971452
 21
3549.7326331639638
 31
0.0
  0
LINE
  5
979A
  8
3
 62
     0
 10
-1413.500645896838
 20
5609.7326331639642
 30
0.0
 11
-2389.7197337971438
 21
5609.7326331639642
 31
0.0
  0
LINE
  5
979B
  8
3
 62
     0
 10
-2329.7197337971452
 20
3669.7326331639651
 30
0.0
 11
-2329.7197337971438
 21
5489.7326331639642
 31
0.0
  0
INSERT
  5
979C
  8
3
 62
     0
  2
_OPEN30
 10
-2329.7197337971452
 20
3549.7326331639638
 30
0.0
 41
120.0
 42
120.0
 43
120.0
 50
270.0
  0
INSERT
  5
979D
  8
3
 62
     0
  2
_OPEN30
 10
-2329.7197337971438
 20
5609.7326331639642
 30
0.0
 41
120.0
 42
120.0
 43
120.0
 50
90.0
  0
TEXT
  8
3
  40
180
  5
982B
  62
0
  72
0
  71
0
 10
-2839.72
 20
4261.13
 30
0.000000
  1
2060
  0
POINT
  5
979F
  8
DEFPOINTS
 62
     0
 10
-1383.500645896838
 20
3549.7326331639638
 30
0.0
  0
POINT
  5
97A0
  8
DEFPOINTS
 62
     0
 10
-1383.500645896838
 20
5609.7326331639642
 30
0.0
  0
POINT
  5
97A1
  8
DEFPOINTS
 62
     0
 10
-2329.7197337971438
 20
5609.7326331639642
 30
0.0
  0
ENDBLK
  5
956A
  8
0
  0
BLOCK
  8
0
  2
*D8
 70
     1
 10
0.0
 20
0.0
 30
0.0
  3
*D8
  1

  0
LINE
  5
97A2
  8
3
 62
     0
 10
1944.4993541031611
 20
352.59958165947501
 30
0.0
 11
1944.4993541031611
 21
1430.362691306734
 31
0.0
  0
LINE
  5
97A3
  8
3
 62
     0
 10
-203.50064589683819
 20
602.54907731362619
 30
0.0
 11
-203.50064589683819
 21
1430.362691306734
 31
0.0
  0
LINE
  5
97A4
  8
3
 62
     0
 10
1824.499354103162
 20
1370.362691306734
 30
0.0
 11
-83.500645896838193
 21
1370.362691306734
 31
0.0
  0
INSERT
  5
97A5
  8
3
 62
     0
  2
_OPEN30
 10
1944.4993541031611
 20
1370.362691306734
 30
0.0
 41
120.0
 42
120.0
 43
120.0
  0
INSERT
  5
97A6
  8
3
 62
     0
  2
_OPEN30
 10
-203.50064589683819
 20
1370.362691306734
 30
0.0
 41
120.0
 42
120.0
 43
120.0
 50
180.0
  0
TEXT
  8
3
  40
180
  5
982C
  62
0
  72
0
  71
0
 10
510.499
 20
1201.76
 30
0.000000
  1
2148
  0
POINT
  5
97A8
  8
DEFPOINTS
 62
     0
 10
1944.4993541031611
 20
322.59958165947501
 30
0.0
  0
POINT
  5
97A9
  8
DEFPOINTS
 62
     0
 10
-203.50064589683819
 20
572.54907731362619
 30
0.0
  0
POINT
  5
97AA
  8
DEFPOINTS
 62
     0
 10
-203.50064589683819
 20
1370.362691306734
 30
0.0
  0
ENDBLK
  5
9533
  8
0
  0
BLOCK
  8
0
  2
*D9
 70
     1
 10
0.0
 20
0.0
 30
0.0
  3
*D9
  1

  0
LINE
  5
97AB
  8
3
 62
     0
 10
-203.50064589683819
 20
602.54907731362619
 30
0.0
 11
-203.50064589683819
 21
1430.362691306734
 31
0.0
  0
LINE
  5
97AC
  8
3
 62
     0
 10
-1645.500645896838
 20
-1069.400418340525
 30
0.0
 11
-1645.500645896838
 21
1430.362691306734
 31
0.0
  0
LINE
  5
97AD
  8
3
 62
     0
 10
-323.50064589683808
 20
1370.362691306734
 30
0.0
 11
-1525.500645896838
 21
1370.362691306734
 31
0.0
  0
INSERT
  5
97AE
  8
3
 62
     0
  2
_OPEN30
 10
-203.50064589683819
 20
1370.362691306734
 30
0.0
 41
120.0
 42
120.0
 43
120.0
  0
INSERT
  5
97AF
  8
3
 62
     0
  2
_OPEN30
 10
-1645.500645896838
 20
1370.362691306734
 30
0.0
 41
120.0
 42
120.0
 43
120.0
 50
180.0
  0
TEXT
  8
3
  40
180
  5
982D
  62
0
  72
0
  71
0
 10
-1284.50
 20
1201.76
 30
0.000000
  1
1442
  0
POINT
  5
97B1
  8
DEFPOINTS
 62
     0
 10
-203.50064589683819
 20
572.54907731362619
 30
0.0
  0
POINT
  5
97B2
  8
DEFPOINTS
 62
     0
 10
-1645.500645896838
 20
-1099.400418340525
 30
0.0
  0
POINT
  5
97B3
  8
DEFPOINTS
 62
     0
 10
-1645.500645896838
 20
1370.362691306734
 30
0.0
  0
ENDBLK
  5
94E6
  8
0
  0
BLOCK
  8
0
  2
*D10
 70
     1
 10
0.0
 20
0.0
 30
0.0
  3
*D10
  1

  0
LINE
  5
97B4
  8
3
 62
     0
 10
2053.4993541031608
 20
322.59958165947501
 30
0.0
 11
3495.0935318241818
 21
322.5995816594745
 31
0.0
  0
LINE
  5
97B5
  8
3
 62
     0
 10
2713.0981950864948
 20
-952.40041834052488
 30
0.0
 11
3495.0935318241818
 21
-952.40041834052511
 31
0.0
  0
LINE
  5
97B6
  8
3
 62
     0
 10
3435.0935318241832
 20
202.59958165947461
 30
0.0
 11
3435.0935318241832
 21
-832.40041834052522
 31
0.0
  0
INSERT
  5
97B7
  8
3
 62
     0
  2
_OPEN30
 10
3435.0935318241832
 20
322.59958165947461
 30
0.0
 41
120.0
 42
120.0
 43
120.0
 50
90.0
  0
INSERT
  5
97B8
  8
3
 62
     0
  2
_OPEN30
 10
3435.0935318241832
 20
-952.40041834052511
 30
0.0
 41
120.0
 42
120.0
 43
120.0
 50
270.0
  0
TEXT
  8
3
  40
180
  5
982E
  62
0
  72
0
  71
0
 10
2925.09
 20
-633.500
 30
0.000000
  1
1275
  0
POINT
  5
97BA
  8
DEFPOINTS
 62
     0
 10
2023.4993541031611
 20
322.59958165947501
 30
0.0
  0
POINT
  5
97BB
  8
DEFPOINTS
 62
     0
 10
2683.0981950864948
 20
-952.40041834052488
 30
0.0
  0
POINT
  5
97BC
  8
DEFPOINTS
 62
     0
 10
3435.0935318241832
 20
-952.40041834052511
 30
0.0
  0
ENDBLK
  5
9528
  8
0
  0
BLOCK
  8
0
  2
*D11
 70
     1
 10
0.0
 20
0.0
 30
0.0
  3
*D11
  1

  0
LINE
  5
97BD
  8
3
 62
     0
 10
2713.0981950864948
 20
-952.40041834052488
 30
0.0
 11
3495.0935318241832
 21
-952.40041834052511
 31
0.0
  0
LINE
  5
97BE
  8
3
 62
     0
 10
2346.4993541031622
 20
-2722.400418340525
 30
0.0
 11
3495.0935318241818
 21
-2722.400418340525
 31
0.0
  0
LINE
  5
97BF
  8
3
 62
     0
 10
3435.0935318241832
 20
-1072.400418340525
 30
0.0
 11
3435.0935318241832
 21
-2602.400418340525
 31
0.0
  0
INSERT
  5
97C0
  8
3
 62
     0
  2
_OPEN30
 10
3435.0935318241832
 20
-952.40041834052511
 30
0.0
 41
120.0
 42
120.0
 43
120.0
 50
90.0
  0
INSERT
  5
97C1
  8
3
 62
     0
  2
_OPEN30
 10
3435.0935318241832
 20
-2722.400418340525
 30
0.0
 41
120.0
 42
120.0
 43
120.0
 50
270.0
  0
TEXT
  8
3
  40
180
  5
982F
  62
0
  72
0
  71
0
 10
2925.09
 20
-2156.00
 30
0.000000
  1
1770
  0
POINT
  5
97C3
  8
DEFPOINTS
 62
     0
 10
2683.0981950864948
 20
-952.40041834052488
 30
0.0
  0
POINT
  5
97C4
  8
DEFPOINTS
 62
     0
 10
2316.4993541031608
 20
-2722.400418340525
 30
0.0
  0
POINT
  5
97C5
  8
DEFPOINTS
 62
     0
 10
3435.0935318241832
 20
-2722.400418340525
 30
0.0
  0
ENDBLK
  5
951D
  8
0
  0
BLOCK
  8
0
  2
_OPEN
 70
     0
 10
0.0
 20
0.0
 30
0.0
  3
_OPEN
  1

  0
LINE
  5
9577
  8
0
  6
BYBLOCK
 62
     0
 10
-1.0
 20
0.1666666666666666
 30
0.0
 11
0.0
 21
0.0
 31
0.0
  0
LINE
  5
9578
  8
0
  6
BYBLOCK
 62
     0
 10
0.0
 20
0.0
 30
0.0
 11
-1.0
 21
-0.1666666666666666
 31
0.0
  0
LINE
  5
9579
  8
0
  6
BYBLOCK
 62
     0
 10
0.0
 20
0.0
 30
0.0
 11
-1.0
 21
0.0
 31
0.0
  0
ENDBLK
  5
957A
  8
0
  0
BLOCK
  8
0
  2
*D13
 70
     1
 10
0.0
 20
0.0
 30
0.0
  3
*D13
  1

  0
LINE
  5
97C6
  8
3
 62
     0
 10
-1383.500645896838
 20
-2952.400418340525
 30
0.0
 11
-1383.500645896838
 21
-3438.528031913097
 31
0.0
  0
LINE
  5
97C7
  8
3
 62
     0
 10
-203.50064589683819
 20
-2952.400418340525
 30
0.0
 11
-203.50064589683819
 21
-3438.528031913097
 31
0.0
  0
LINE
  5
97C8
  8
3
 62
     0
 10
-1263.500645896838
 20
-3378.5280319130979
 30
0.0
 11
-323.50064589683831
 21
-3378.5280319130979
 31
0.0
  0
INSERT
  5
97C9
  8
3
 62
     0
  2
_OPEN
 10
-1383.500645896838
 20
-3378.5280319130979
 30
0.0
 41
120.0
 42
120.0
 43
120.0
 50
180.0
  0
INSERT
  5
97CA
  8
3
 62
     0
  2
_OPEN
 10
-203.50064589683819
 20
-3378.5280319130979
 30
0.0
 41
120.0
 42
120.0
 43
120.0
  0
TEXT
  8
3
  40
180
  5
9830
  62
0
  72
0
  71
0
 10
-1153.50
 20
-3547.13
 30
0.000000
  1
1180
  0
POINT
  5
97CC
  8
DEFPOINTS
 62
     0
 10
-1383.500645896838
 20
-2922.4004183405241
 30
0.0
  0
POINT
  5
97CD
  8
DEFPOINTS
 62
     0
 10
-203.50064589683819
 20
-2922.4004183405241
 30
0.0
  0
POINT
  5
97CE
  8
DEFPOINTS
 62
     0
 10
-203.50064589683819
 20
-3378.5280319130979
 30
0.0
  0
ENDBLK
  5
9586
  8
0
  0
BLOCK
  8
0
  2
*D14
 70
     1
 10
0.0
 20
0.0
 30
0.0
  3
*D14
  1

  0
LINE
  5
97CF
  8
3
 62
     0
 10
-203.50064589683819
 20
-2952.400418340525
 30
0.0
 11
-203.50064589683819
 21
-3438.528031913097
 31
0.0
  0
LINE
  5
97D0
  8
3
 62
     0
 10
2316.4993541031608
 20
-2952.400418340525
 30
0.0
 11
2316.4993541031608
 21
-3438.528031913097
 31
0.0
  0
LINE
  5
97D1
  8
3
 62
     0
 10
-83.500645896838293
 20
-3378.5280319130979
 30
0.0
 11
2196.4993541031608
 21
-3378.5280319130979
 31
0.0
  0
INSERT
  5
97D2
  8
3
 62
     0
  2
_OPEN
 10
-203.50064589683819
 20
-3378.5280319130979
 30
0.0
 41
120.0
 42
120.0
 43
120.0
 50
180.0
  0
INSERT
  5
97D3
  8
3
 62
     0
  2
_OPEN
 10
2316.4993541031608
 20
-3378.5280319130979
 30
0.0
 41
120.0
 42
120.0
 43
120.0
  0
TEXT
  8
3
  40
180
  5
9831
  62
0
  72
0
  71
0
 10
696.499
 20
-3547.13
 30
0.000000
  1
2520
  0
POINT
  5
97D5
  8
DEFPOINTS
 62
     0
 10
-203.50064589683819
 20
-2922.4004183405241
 30
0.0
  0
POINT
  5
97D6
  8
DEFPOINTS
 62
     0
 10
2316.4993541031608
 20
-2922.4004183405241
 30
0.0
  0
POINT
  5
97D7
  8
DEFPOINTS
 62
     0
 10
2316.4993541031608
 20
-3378.5280319130979
 30
0.0
  0
ENDBLK
  5
9593
  8
0
  0
BLOCK
  8
0
  2
*D15
 70
     1
 10
0.0
 20
0.0
 30
0.0
  3
*D15
  1

  0
LINE
  5
97D8
  8
3
 62
     0
 10
-1383.500645896838
 20
-2952.400418340525
 30
0.0
 11
-1383.500645896838
 21
-3862.897314863163
 31
0.0
  0
LINE
  5
97D9
  8
3
 62
     0
 10
2316.4993541031608
 20
-2952.400418340525
 30
0.0
 11
2316.4993541031608
 21
-3862.897314863163
 31
0.0
  0
LINE
  5
97DA
  8
3
 62
     0
 10
-1263.500645896838
 20
-3802.8973148631621
 30
0.0
 11
2196.4993541031608
 21
-3802.8973148631621
 31
0.0
  0
INSERT
  5
97DB
  8
3
 62
     0
  2
_OPEN
 10
-1383.500645896838
 20
-3802.8973148631621
 30
0.0
 41
120.0
 42
120.0
 43
120.0
 50
180.0
  0
INSERT
  5
97DC
  8
3
 62
     0
  2
_OPEN
 10
2316.4993541031608
 20
-3802.8973148631621
 30
0.0
 41
120.0
 42
120.0
 43
120.0
  0
TEXT
  8
3
  40
180
  5
9832
  62
0
  72
0
  71
0
 10
106.499
 20
-3971.50
 30
0.000000
  1
3700
  0
POINT
  5
97DE
  8
DEFPOINTS
 62
     0
 10
-1383.500645896838
 20
-2922.4004183405241
 30
0.0
  0
POINT
  5
97DF
  8
DEFPOINTS
 62
     0
 10
2316.4993541031608
 20
-2922.4004183405241
 30
0.0
  0
POINT
  5
97E0
  8
DEFPOINTS
 62
     0
 10
2316.4993541031608
 20
-3802.8973148631621
 30
0.0
  0
ENDBLK
  5
95A0
  8
0
  0
BLOCK
  8
0
  2
*D16
 70
     1
 10
0.0
 20
0.0
 30
0.0
  3
*D16
  1

  0
LINE
  5
97E1
  8
3
 62
     0
 10
4763.0871082668837
 20
-2952.400418340525
 30
0.0
 11
4763.0871082668837
 21
-3438.528031913097
 31
0.0
  0
LINE
  5
97E2
  8
3
 62
     0
 10
5994.0871082668846
 20
-2952.400418340525
 30
0.0
 11
5994.0871082668846
 21
-3438.528031913097
 31
0.0
  0
LINE
  5
97E3
  8
3
 62
     0
 10
4883.0871082668837
 20
-3378.5280319130979
 30
0.0
 11
5874.0871082668837
 21
-3378.5280319130979
 31
0.0
  0
INSERT
  5
97E4
  8
3
 62
     0
  2
_OPEN
 10
4763.0871082668837
 20
-3378.5280319130979
 30
0.0
 41
120.0
 42
120.0
 43
120.0
 50
180.0
  0
INSERT
  5
97E5
  8
3
 62
     0
  2
_OPEN
 10
5994.0871082668846
 20
-3378.5280319130979
 30
0.0
 41
120.0
 42
120.0
 43
120.0
  0
TEXT
  8
3
  40
180
  5
9833
  62
0
  72
0
  71
0
 10
5018.59
 20
-3547.13
 30
0.000000
  1
1231
  0
POINT
  5
97E7
  8
DEFPOINTS
 62
     0
 10
4763.0871082668837
 20
-2922.4004183405241
 30
0.0
  0
POINT
  5
97E8
  8
DEFPOINTS
 62
     0
 10
5994.0871082668846
 20
-2922.4004183405241
 30
0.0
  0
POINT
  5
97E9
  8
DEFPOINTS
 62
     0
 10
5994.0871082668846
 20
-3378.5280319130979
 30
0.0
  0
ENDBLK
  5
95AD
  8
0
  0
BLOCK
  8
0
  2
*D17
 70
     1
 10
0.0
 20
0.0
 30
0.0
  3
*D17
  1

  0
LINE
  5
97EA
  8
3
 62
     0
 10
5994.0871082668846
 20
-2952.400418340525
 30
0.0
 11
5994.0871082668846
 21
-3438.528031913097
 31
0.0
  0
LINE
  5
97EB
  8
3
 62
     0
 10
6823.0871082668864
 20
-2952.400418340525
 30
0.0
 11
6823.0871082668864
 21
-3438.528031913097
 31
0.0
  0
LINE
  5
97EC
  8
3
 62
     0
 10
6114.0871082668837
 20
-3378.5280319130979
 30
0.0
 11
6703.0871082668846
 21
-3378.5280319130979
 31
0.0
  0
INSERT
  5
97ED
  8
3
 62
     0
  2
_OPEN
 10
5994.0871082668846
 20
-3378.5280319130979
 30
0.0
 41
120.0
 42
120.0
 43
120.0
 50
180.0
  0
INSERT
  5
97EE
  8
3
 62
     0
  2
_OPEN
 10
6823.0871082668864
 20
-3378.5280319130979
 30
0.0
 41
120.0
 42
120.0
 43
120.0
  0
TEXT
  8
3
  40
180
  5
9834
  62
0
  72
0
  71
0
 10
6048.59
 20
-3547.13
 30
0.000000
  1
829
  0
POINT
  5
97F0
  8
DEFPOINTS
 62
     0
 10
5994.0871082668846
 20
-2922.4004183405241
 30
0.0
  0
POINT
  5
97F1
  8
DEFPOINTS
 62
     0
 10
6823.0871082668864
 20
-2922.4004183405241
 30
0.0
  0
POINT
  5
97F2
  8
DEFPOINTS
 62
     0
 10
6823.0871082668864
 20
-3378.5280319130979
 30
0.0
  0
ENDBLK
  5
95BA
  8
0
  0
BLOCK
  8
0
  2
*D18
 70
     1
 10
0.0
 20
0.0
 30
0.0
  3
*D18
  1

  0
LINE
  5
97F3
  8
3
 62
     0
 10
4763.0871082668837
 20
-2952.400418340525
 30
0.0
 11
4763.0871082668837
 21
-3862.897314863163
 31
0.0
  0
LINE
  5
97F4
  8
3
 62
     0
 10
6823.0871082668837
 20
-2952.400418340525
 30
0.0
 11
6823.0871082668837
 21
-3862.897314863163
 31
0.0
  0
LINE
  5
97F5
  8
3
 62
     0
 10
4883.0871082668837
 20
-3802.8973148631621
 30
0.0
 11
6703.0871082668837
 21
-3802.8973148631621
 31
0.0
  0
INSERT
  5
97F6
  8
3
 62
     0
  2
_OPEN
 10
4763.0871082668837
 20
-3802.8973148631621
 30
0.0
 41
120.0
 42
120.0
 43
120.0
 50
180.0
  0
INSERT
  5
97F7
  8
3
 62
     0
  2
_OPEN
 10
6823.0871082668837
 20
-3802.8973148631621
 30
0.0
 41
120.0
 42
120.0
 43
120.0
  0
TEXT
  8
3
  40
180
  5
9835
  62
0
  72
0
  71
0
 10
5433.09
 20
-3971.50
 30
0.000000
  1
2060
  0
POINT
  5
97F9
  8
DEFPOINTS
 62
     0
 10
4763.0871082668837
 20
-2922.4004183405241
 30
0.0
  0
POINT
  5
97FA
  8
DEFPOINTS
 62
     0
 10
6823.0871082668837
 20
-2922.4004183405241
 30
0.0
  0
POINT
  5
97FB
  8
DEFPOINTS
 62
     0
 10
6823.0871082668837
 20
-3802.8973148631621
 30
0.0
  0
ENDBLK
  5
95C7
  8
0
  0
BLOCK
  8
0
  2
_DOT
 70
     0
 10
0.0
 20
0.0
 30
0.0
  3
_DOT
  1

  0
POLYLINE
  5
95CB
  8
0
  6
BYBLOCK
 62
     0
 66
     1
 10
0.0
 20
0.0
 30
0.0
 70
     1
 40
0.5
 41
0.5
  0
VERTEX
  5
97FC
  8
0
  6
BYBLOCK
 62
     0
 10
-0.25
 20
0.0
 30
0.0
 42
1.0
  0
VERTEX
  5
97FD
  8
0
  6
BYBLOCK
 62
     0
 10
0.25
 20
0.0
 30
0.0
 42
1.0
  0
SEQEND
  5
97FE
  8
0
  6
BYBLOCK
 62
     0
  0
LINE
  5
95CF
  8
0
  6
BYBLOCK
 62
     0
 10
-0.5
 20
0.0
 30
0.0
 11
-1.0
 21
0.0
 31
0.0
  0
ENDBLK
  5
95D0
  8
0
  0
BLOCK
  8
0
  2
*D20
 70
     1
 10
0.0
 20
0.0
 30
0.0
  3
*D20
  1

  0
LINE
  5
97FF
  8
3
 62
     0
 10
2346.4993541031622
 20
-2742.400418340525
 30
0.0
 11
3500.0945771980469
 21
-2742.400418340525
 31
0.0
  0
LINE
  5
9800
  8
3
 62
     0
 10
2346.4993541031622
 20
-2922.4004183405241
 30
0.0
 11
3500.0945771980469
 21
-2922.400418340525
 31
0.0
  0
LINE
  5
9801
  8
3
 62
     0
 10
3440.0945771980478
 20
-2622.400418340525
 30
0.0
 11
3440.0945771980478
 21
-2502.400418340525
 31
0.0
  0
LINE
  5
9802
  8
3
 62
     0
 10
3440.0945771980478
 20
-3042.400418340525
 30
0.0
 11
3440.0945771980469
 21
-3710.9718469119539
 31
0.0
  0
LINE
  5
9803
  8
3
 62
     0
 10
3440.0945771980478
 20
-2742.400418340525
 30
0.0
 11
3440.0945771980478
 21
-2922.400418340525
 31
0.0
  0
INSERT
  5
9804
  8
3
 62
     0
  2
_DOT
 10
3440.0945771980478
 20
-2742.400418340525
 30
0.0
 41
120.0
 42
120.0
 43
120.0
 50
270.0
  0
INSERT
  5
9805
  8
3
 62
     0
  2
_OPEN
 10
3440.0945771980478
 20
-2922.400418340525
 30
0.0
 41
120.0
 42
120.0
 43
120.0
 50
90.0
  0
TEXT
  8
3
  40
180
  5
9836
  62
0
  72
0
  71
0
 10
2930.09
 20
-3755.29
 30
0.000000
  1
180
  0
POINT
  5
9807
  8
DEFPOINTS
 62
     0
 10
2316.4993541031608
 20
-2742.400418340525
 30
0.0
  0
POINT
  5
9808
  8
DEFPOINTS
 62
     0
 10
2316.4993541031608
 20
-2922.4004183405241
 30
0.0
  0
POINT
  5
9809
  8
DEFPOINTS
 62
     0
 10
3440.0945771980478
 20
-2922.400418340525
 30
0.0
  0
ENDBLK
  5
95DE
  8
0
  0
BLOCK
  8
0
  2
_NONE
 70
     0
 10
0.0
 20
0.0
 30
0.0
  3
_NONE
  1

  0
CIRCLE
  5
95E2
  8
0
  6
BYBLOCK
 62
     0
 10
0.0
 20
0.0
 30
0.0
 40
0.25
  0
ENDBLK
  5
95E3
  8
0
  0
BLOCK
  8
0
  2
*D22
 70
     1
 10
0.0
 20
0.0
 30
0.0
  3
*D22
  1

  0
LINE
  5
95E6
  8
0
  6
BYBLOCK
 62
     0
 10
3440.0945771980478
 20
-2742.400418340525
 30
0.0
 11
3440.0945771980478
 21
-2742.400418340525
 31
0.0
  0
LINE
  5
95E7
  8
0
  6
BYBLOCK
 62
     0
 10
3440.0945771980478
 20
-2722.400418340525
 30
0.0
 11
3440.0945771980478
 21
-2482.400418340525
 31
0.0
  0
TEXT
  5
95E8
  8
3
 62
     0
 10
3787.2374343409051
 20
-2993.8289897690961
 30
0.0
 40
180.0
  1
(20)
 50
90.0
  0
LINE
  5
95E9
  8
0
  6
BYBLOCK
 62
     0
 10
3440.0945771980478
 20
-2742.400418340525
 30
0.0
 11
3440.0945771980478
 21
-2722.400418340525
 31
0.0
  0
POINT
  5
95EA
  8
DEFPOINTS
  6
BYBLOCK
 62
     0
 10
2316.4993541031608
 20
-2742.400418340525
 30
0.0
  0
POINT
  5
95EB
  8
DEFPOINTS
  6
BYBLOCK
 62
     0
 10
2316.4993541031608
 20
-2722.400418340525
 30
0.0
  0
POINT
  5
95EC
  8
DEFPOINTS
  6
BYBLOCK
 62
     0
 10
3440.0945771980478
 20
-2722.400418340525
 30
0.0
  0
ENDBLK
  5
95ED
  8
0
  0
BLOCK
  8
0
  2
*D23
 70
     1
 10
0.0
 20
0.0
 30
0.0
  3
*D23
  1

  0
LINE
  5
980A
  8
3
 62
     0
 10
5244.0871082668846
 20
352.59958165947501
 30
0.0
 11
5244.0871082668846
 21
930.89321234070655
 31
0.0
  0
LINE
  5
980B
  8
3
 62
     0
 10
6744.0871082668846
 20
352.59958165947501
 30
0.0
 11
6744.0871082668846
 21
930.89321234070655
 31
0.0
  0
LINE
  5
980C
  8
3
 62
     0
 10
5364.0871082668837
 20
870.89321234070655
 30
0.0
 11
6624.0871082668864
 21
870.89321234070655
 31
0.0
  0
INSERT
  5
980D
  8
3
 62
     0
  2
_OPEN
 10
5244.0871082668846
 20
870.89321234070655
 30
0.0
 41
120.0
 42
120.0
 43
120.0
 50
180.0
  0
INSERT
  5
980E
  8
3
 62
     0
  2
_OPEN
 10
6744.0871082668846
 20
870.89321234070655
 30
0.0
 41
120.0
 42
120.0
 43
120.0
  0
TEXT
  8
3
  40
180
  5
9837
  62
0
  72
0
  71
0
 10
5634.09
 20
702.293
 30
0.000000
  1
1500
  0
POINT
  5
9810
  8
DEFPOINTS
 62
     0
 10
5244.0871082668846
 20
322.59958165947501
 30
0.0
  0
POINT
  5
9811
  8
DEFPOINTS
 62
     0
 10
6744.0871082668846
 20
322.59958165947501
 30
0.0
  0
POINT
  5
9812
  8
DEFPOINTS
 62
     0
 10
6744.0871082668846
 20
870.89321234070655
 30
0.0
  0
ENDBLK
  5
9602
  8
0
  0
BLOCK
  8
0
  2
*D24
 70
     1
 10
0.0
 20
0.0
 30
0.0
  3
*D24
  1

  0
LINE
  5
9813
  8
3
 62
     0
 10
5994.0871082668846
 20
1225.325679753317
 30
0.0
 11
5994.0871082668846
 21
1428.1585738204451
 31
0.0
  0
LINE
  5
9814
  8
3
 62
     0
 10
6898.0871082668837
 20
152.59958165947401
 30
0.0
 11
6898.0871082668837
 21
1428.1585738204451
 31
0.0
  0
LINE
  5
9815
  8
3
 62
     0
 10
6114.0871082668864
 20
1368.158573820444
 30
0.0
 11
6778.0871082668846
 21
1368.158573820444
 31
0.0
  0
INSERT
  5
9816
  8
3
 62
     0
  2
_OPEN
 10
5994.0871082668846
 20
1368.158573820444
 30
0.0
 41
120.0
 42
120.0
 43
120.0
 50
180.0
  0
INSERT
  5
9817
  8
3
 62
     0
  2
_OPEN
 10
6898.0871082668837
 20
1368.158573820444
 30
0.0
 41
120.0
 42
120.0
 43
120.0
  0
TEXT
  8
3
  40
180
  5
9838
  62
0
  72
0
  71
0
 10
6086.09
 20
1199.56
 30
0.000000
  1
904
  0
POINT
  5
9819
  8
DEFPOINTS
 62
     0
 10
5994.0871082668846
 20
1195.325679753317
 30
0.0
  0
POINT
  5
981A
  8
DEFPOINTS
 62
     0
 10
6898.0871082668837
 20
122.5995816594741
 30
0.0
  0
POINT
  5
981B
  8
DEFPOINTS
 62
     0
 10
6898.0871082668837
 20
1368.158573820444
 30
0.0
  0
ENDBLK
  5
9610
  8
0
  0
BLOCK
  8
0
  2
*D25
 70
     1
 10
0.0
 20
0.0
 30
0.0
  3
*D25
  1

  0
LINE
  5
981C
  8
3
 62
     0
 10
5994.0871082668846
 20
1225.325679753317
 30
0.0
 11
5994.0871082668846
 21
1428.1585738204451
 31
0.0
  0
LINE
  5
981D
  8
3
 62
     0
 10
4744.0871082668837
 20
-372.40041834052539
 30
0.0
 11
4744.0871082668837
 21
1428.1585738204451
 31
0.0
  0
LINE
  5
981E
  8
3
 62
     0
 10
5874.0871082668846
 20
1368.158573820444
 30
0.0
 11
4864.0871082668837
 21
1368.158573820444
 31
0.0
  0
INSERT
  5
981F
  8
3
 62
     0
  2
_OPEN
 10
5994.0871082668846
 20
1368.158573820444
 30
0.0
 41
120.0
 42
120.0
 43
120.0
  0
INSERT
  5
9820
  8
3
 62
     0
  2
_OPEN
 10
4744.0871082668837
 20
1368.158573820444
 30
0.0
 41
120.0
 42
120.0
 43
120.0
 50
180.0
  0
TEXT
  8
3
  40
180
  5
9839
  62
0
  72
0
  71
0
 10
5009.09
 20
1246.70
 30
0.000000
  1
(1250)
  0
POINT
  5
9822
  8
DEFPOINTS
 62
     0
 10
5994.0871082668846
 20
1195.325679753317
 30
0.0
  0
POINT
  5
9823
  8
DEFPOINTS
 62
     0
 10
4744.0871082668837
 20
-402.40041834052539
 30
0.0
  0
POINT
  5
9824
  8
DEFPOINTS
 62
     0
 10
4744.0871082668837
 20
1368.158573820444
 30
0.0
  0
ENDBLK
  5
961D
  8
0
  0
ENDSEC
  0
SECTION
  2
ENTITIES
  0
LINE
  5
7DB2
  8
2
 10
-203.50064589683819
 20
-2922.4004183405241
 30
0.0
 11
-203.50064589683819
 21
572.54907731362619
 31
0.0
  0
LINE
  5
7DB3
  8
1
 10
1890.157692703878
 20
-952.40041834052488
 30
0.0
 11
-3.5006458968382499
 21
-952.40041834052488
 31
0.0
  0
ARC
  5
7DB4
  8
1
 10
-56.50064589683825
 20
-805.40041834052499
 30
0.0
 40
1883.0
 50
270.0
 51
354.47064431075319
  0
ARC
  5
7DB5
  8
1
 10
-56.50064589683825
 20
-1099.400418340525
 30
0.0
 40
1589.0
 50
180.0
 51
270.0
  0
ARC
  5
7DB6
  8
1
 10
-326.00064589683819
 20
-1074.900418340525
 30
0.0
 40
1319.5
 50
90.0
 51
180.0
  0
ARC
  5
7DB7
  8
1
 10
-326.00064589683819
 20
-829.90041834052499
 30
0.0
 40
1074.5
 50
78.702399769402021
 51
90.0
  0
LINE
  5
7DB8
  8
1
 10
2023.4993541031611
 20
322.59958165947501
 30
0.0
 11
-194.50064589683819
 21
322.59958165947501
 31
0.0
  0
LINE
  5
7DB9
  8
1
 10
1944.4993541031611
 20
322.59958165947501
 30
0.0
 11
1817.7376813279179
 21
-986.83826654685424
 31
0.0
  0
LINE
  5
7DBA
  8
1
 10
-115.50064589683819
 20
223.7788497482033
 30
0.0
 11
-115.50064589683819
 21
322.59958165947501
 31
0.0
  0
LINE
  5
7DBB
  8
1
 10
-1645.500645896838
 20
-1099.400418340525
 30
0.0
 11
-1645.500645896838
 21
-1074.900418340525
 31
0.0
  0
LINE
  5
7DBC
  8
1
 10
2316.4993541031608
 20
-2722.400418340525
 30
0.0
 11
-1383.500645896838
 21
-2722.400418340525
 31
0.0
  0
LINE
  5
7DBD
  8
1
 10
2316.4993541031608
 20
-2542.400418340525
 30
0.0
 11
-1383.500645896838
 21
-2542.400418340525
 31
0.0
  0
LINE
  5
7DBE
  8
1
 10
-1383.500645896838
 20
-2722.400418340525
 30
0.0
 11
-1383.500645896838
 21
-2542.400418340525
 31
0.0
  0
LINE
  5
7DBF
  8
1
 10
2316.4993541031608
 20
-2722.400418340525
 30
0.0
 11
2316.4993541031608
 21
-2542.400418340525
 31
0.0
  0
LINE
  5
7DC0
  8
2
 10
914.49935410316175
 20
610.85911495171422
 30
0.0
 11
914.49935410316175
 21
-270.95785906242958
 31
0.0
  0
LINE
  5
7DC1
  8
1
 10
2023.4993541031611
 20
247.59958165947501
 30
0.0
 11
-194.50064589683819
 21
247.59958165947501
 31
0.0
  0
LINE
  5
7DC2
  8
1
 10
2023.4993541031611
 20
322.59958165947501
 30
0.0
 11
2023.4993541031611
 21
247.59958165947501
 31
0.0
  0
LINE
  5
7DC3
  8
1
 10
-194.50064589683819
 20
322.59958165947501
 30
0.0
 11
-194.50064589683819
 21
247.59958165947501
 31
0.0
  0
LINE
  5
7DC4
  8
1
 10
2023.4993541031611
 20
316.59958165947501
 30
0.0
 11
-194.50064589683819
 21
316.59958165947501
 31
0.0
  0
LINE
  5
7DC5
  8
2
 10
4433.3930178519813
 20
-952.40041834052488
 30
0.0
 11
7203.276995249239
 21
-952.40041834052579
 31
0.0
  0
LINE
  5
7DC6
  8
2
 10
5994.0871082668846
 20
-2922.4004183405241
 30
0.0
 11
5994.0871082668846
 21
517.23656544859841
 31
0.0
  0
LINE
  5
7DC7
  8
1
 10
4763.0871082668837
 20
-2722.400418340525
 30
0.0
 11
6823.0871082668837
 21
-2722.400418340525
 31
0.0
  0
LINE
  5
7DC8
  8
1
 10
4763.0871082668837
 20
-2542.400418340525
 30
0.0
 11
6823.0871082668873
 21
-2542.400418340525
 31
0.0
  0
LINE
  5
7DC9
  8
1
 10
6823.0871082668873
 20
-2722.400418340525
 30
0.0
 11
6823.0871082668837
 21
-2542.400418340525
 31
0.0
  0
LINE
  5
7DCA
  8
1
 10
4763.0871082668837
 20
-2722.400418340525
 30
0.0
 11
4763.0871082668837
 21
-2542.400418340525
 31
0.0
  0
LINE
  5
7DD4
  8
1
 10
6744.0871082668864
 20
-2542.400418340525
 30
0.0
 11
6744.0871082668846
 21
322.59958165947501
 31
0.0
  0
LINE
  5
7DD5
  8
1
 10
5244.0871082668846
 20
-2542.400418340525
 30
0.0
 11
5244.0871082668846
 21
322.59958165947501
 31
0.0
  0
LINE
  5
7DDA
  8
1
 10
6898.0871082668837
 20
-2027.4004183405241
 30
0.0
 11
6898.0871082668837
 21
122.5995816594732
 31
0.0
  0
LINE
  5
7DDB
  8
1
 10
6744.0871082668846
 20
47.599581659473188
 30
0.0
 11
6898.0871082668837
 21
47.59958165947409
 31
0.0
  0
LINE
  5
7DDC
  8
1
 10
6744.0871082668846
 20
-1952.4004183405241
 30
0.0
 11
6898.0871082668837
 21
-1952.4004183405241
 31
0.0
  0
LINE
  5
7DDD
  8
1
 10
6892.0871082668846
 20
122.5995816594732
 30
0.0
 11
6898.0871082668837
 21
122.5995816594741
 31
0.0
  0
LINE
  5
7DDE
  8
1
 10
6892.0871082668846
 20
-2027.4004183405241
 30
0.0
 11
6898.0871082668837
 21
-2027.4004183405241
 31
0.0
  0
LINE
  5
7DDF
  8
1
 10
6892.0871082668846
 20
-2027.4004183405241
 30
0.0
 11
6892.0871082668846
 21
122.5995816594732
 31
0.0
  0
CIRCLE
  5
7DED
  8
1
 10
-203.50064589683819
 20
-952.40041834052488
 30
0.0
 40
400.0
  0
ARC
  5
7DF0
  8
1
 10
-203.50064589683819
 20
-952.40041834052488
 30
0.0
 40
550.0
 50
53.553636695631518
 51
246.20271975128981
  0
LINE
  5
7DF4
  8
1
 10
4824.5064816308659
 20
-552.40041834052488
 30
0.0
 11
5004.506481630865
 21
-552.40041834052488
 31
0.0
  0
LINE
  5
7DF5
  8
1
 10
4824.5064816308659
 20
-1352.400418340525
 30
0.0
 11
5004.506481630865
 21
-1352.400418340525
 31
0.0
  0
LINE
  5
7DF6
  8
1
 10
4744.0871082668837
 20
-402.40041834052539
 30
0.0
 11
5104.0871082668864
 21
-402.40041834052539
 31
0.0
  0
LINE
  5
7DF7
  8
2
 10
4597.2378386882738
 20
-2182.400418340525
 30
0.0
 11
5448.1738968458412
 21
-2182.400418340525
 31
0.0
  0
LINE
  5
7DF8
  8
1
 10
4824.5064816308659
 20
-2032.400418340525
 30
0.0
 11
5004.506481630865
 21
-2032.400418340525
 31
0.0
  0
LINE
  5
7DF9
  8
1
 10
4824.5064816308659
 20
-2332.400418340525
 30
0.0
 11
5004.506481630865
 21
-2332.400418340525
 31
0.0
  0
LINE
  5
7DFA
  8
1
 10
4744.0871082668837
 20
-2462.400418340525
 30
0.0
 11
5104.0871082668846
 21
-2462.4004183405232
 31
0.0
  0
LINE
  5
7DFB
  8
1
 10
4744.0871082668828
 20
-2462.400418340525
 30
0.0
 11
4744.0871082668837
 21
-402.40041834052539
 31
0.0
  0
LINE
  5
7DFC
  8
1
 10
5104.0871082668864
 20
-2462.400418340525
 30
0.0
 11
5104.0871082668864
 21
-2403.2079718781151
 31
0.0
  0
LINE
  5
7DFD
  8
1
 10
5104.0871082668846
 20
-694.70086403370624
 30
0.0
 11
5104.0871082668846
 21
-402.40041834052539
 31
0.0
  0
LINE
  5
7DFE
  8
1
 10
4824.5064816308659
 20
-552.40041834052488
 30
0.0
 11
4824.506481630865
 21
-2332.4004183405241
 31
0.0
  0
LINE
  5
7DFF
  8
1
 10
5004.506481630865
 20
-552.40041834052488
 30
0.0
 11
5004.5064816308641
 21
-2332.4004183405241
 31
0.0
  0
LINE
  5
7E00
  8
2
 10
2126.6481589038731
 20
4780.732633163967
 30
0.0
 11
-1717.9890358644909
 21
4780.7326331639651
 31
0.0
  0
LINE
  5
7E01
  8
2
 10
-203.50064589683819
 20
3337.505352115847
 30
0.0
 11
-203.50064589683819
 21
5820.1555871955443
 31
0.0
  0
LINE
  5
7E02
  8
1
 10
976.49935410316175
 20
5609.7326331639661
 30
0.0
 11
886.49935410316175
 21
5609.7326331639661
 31
0.0
  0
LINE
  5
7E03
  8
1
 10
2316.4993541031608
 20
3549.7326331639638
 30
0.0
 11
2199.4084831047981
 21
3549.7326331639651
 31
0.0
  0
LINE
  5
7E04
  8
1
 10
-1383.500645896838
 20
3549.7326331639638
 30
0.0
 11
-1383.500645896838
 21
4030.7326331639638
 31
0.0
  0
LINE
  5
7E05
  8
1
 10
2316.4993541031608
 20
3549.7326331639638
 30
0.0
 11
2316.4993541031608
 21
3624.7326331639651
 31
0.0
  0
LINE
  5
7E06
  8
1
 10
976.49935410316175
 20
3890.7326331639638
 30
0.0
 11
976.49935410316175
 21
3951.7326331639638
 31
0.0
  0
LINE
  5
7E07
  8
1
 10
2316.4993541031608
 20
4749.7326331639651
 30
0.0
 11
2023.499354103162
 21
4749.7326331639679
 31
0.0
  0
LINE
  5
7E08
  8
1
 10
2316.4993541031608
 20
3624.7326331639651
 30
0.0
 11
2199.4084831047981
 21
3624.7326331639651
 31
0.0
  0
LINE
  5
7E09
  8
1
 10
2316.4993541031608
 20
4674.7326331639661
 30
0.0
 11
2227.4644187370491
 21
4674.7326331639661
 31
0.0
  0
LINE
  5
7E0A
  8
1
 10
901.49935410316175
 20
3890.7326331639638
 30
0.0
 11
901.49935410316175
 21
3951.7326331639638
 31
0.0
  0
LINE
  5
7E0B
  8
1
 10
-1308.500645896838
 20
3624.7326331639651
 30
0.0
 11
-1308.500645896838
 21
4030.7326331639629
 31
0.0
  0
LINE
  5
7E0C
  8
1
 10
2316.4993541031608
 20
4674.7326331639661
 30
0.0
 11
2316.4993541031608
 21
4749.7326331639651
 31
0.0
  0
LINE
  5
7E13
  8
1
 10
1890.157692703878
 20
-943.40041834052488
 30
0.0
 11
-3.5006458968382499
 21
-943.40041834052488
 31
0.0
  0
LINE
  5
7E14
  8
1
 10
1890.157692703878
 20
-961.40041834052488
 30
0.0
 11
-3.5006458968382499
 21
-961.40041834052488
 31
0.0
  0
LINE
  5
7E19
  8
1
 10
1944.4993541031611
 20
5530.7326331639642
 30
0.0
 11
-115.50064589683819
 21
5530.7326331639651
 31
0.0
  0
LINE
  5
7E1A
  8
1
 10
1944.4993541031611
 20
4030.7326331639651
 30
0.0
 11
-115.50064589683819
 21
4030.7326331639651
 31
0.0
  0
LINE
  5
7E1D
  8
1
 10
976.49935410316175
 20
5609.7326331639642
 30
0.0
 11
796.49935410316175
 21
5609.7326331639642
 31
0.0
  0
LINE
  5
7E22
  8
1
 10
-1203.500645896838
 20
5609.7326331639633
 30
0.0
 11
-1383.500645896838
 21
5609.7326331639642
 31
0.0
  0
LINE
  5
7E24
  8
1
 10
871.49935410316175
 20
5684.7326331639642
 30
0.0
 11
-1278.500645896838
 21
5684.7326331639642
 31
0.0
  0
LINE
  5
7E25
  8
1
 10
-1203.500645896838
 20
5530.7326331639642
 30
0.0
 11
-1203.500645896838
 21
5684.7326331639651
 31
0.0
  0
LINE
  5
7E26
  8
1
 10
796.49935410316164
 20
5609.7326331639642
 30
0.0
 11
796.49935410316175
 21
5684.7326331639651
 31
0.0
  0
LINE
  5
7E27
  8
1
 10
871.49935410316175
 20
5678.7326331639651
 30
0.0
 11
-1278.500645896838
 21
5678.7326331639642
 31
0.0
  0
LINE
  5
7E28
  8
1
 10
-1278.500645896838
 20
5678.7326331639642
 30
0.0
 11
-1278.500645896838
 21
5684.7326331639651
 31
0.0
  0
LINE
  5
7E29
  8
1
 10
871.49935410316175
 20
5678.7326331639651
 30
0.0
 11
871.49935410316175
 21
5684.7326331639651
 31
0.0
  0
LINE
  5
7E2B
  8
1
 10
2199.4084831047981
 20
3530.7326331639651
 30
0.0
 11
-753.50064589683825
 21
3530.7326331639651
 31
0.0
  0
LINE
  5
7E2C
  8
1
 10
-753.50064589683825
 20
3530.7326331639651
 30
0.0
 11
-753.50064589683825
 21
3890.7326331639638
 31
0.0
  0
LINE
  5
7E2D
  8
1
 10
2199.4084831047981
 20
3530.7326331639651
 30
0.0
 11
2199.4084831047981
 21
3890.7326331639638
 31
0.0
  0
LINE
  5
7E2E
  8
1
 10
2199.4084831047981
 20
3890.7326331639651
 30
0.0
 11
-753.50064589683825
 21
3890.7326331639638
 31
0.0
  0
LINE
  5
7E2F
  8
1
 10
-603.50064589683825
 20
3610.7326331639638
 30
0.0
 11
-603.50064589683825
 21
3790.7326331639638
 31
0.0
  0
LINE
  5
7E30
  8
1
 10
196.49935410316169
 20
3610.7326331639638
 30
0.0
 11
196.49935410316169
 21
3790.7326331639638
 31
0.0
  0
LINE
  5
7E31
  8
1
 10
-753.50064589683825
 20
3624.7326331639638
 30
0.0
 11
-1383.500645896838
 21
3624.7326331639651
 31
0.0
  0
LINE
  5
7E32
  8
1
 10
-753.50064589683825
 20
3549.7326331639638
 30
0.0
 11
-1383.500645896838
 21
3549.7326331639638
 31
0.0
  0
LINE
  5
7E33
  8
1
 10
2069.4084831047981
 20
3610.7326331639651
 30
0.0
 11
-603.50064589683825
 21
3610.7326331639638
 31
0.0
  0
LINE
  5
7E34
  8
1
 10
2069.4084831047981
 20
3790.7326331639651
 30
0.0
 11
-603.50064589683825
 21
3790.7326331639638
 31
0.0
  0
LINE
  5
7E35
  8
1
 10
2069.4084831047981
 20
3610.7326331639638
 30
0.0
 11
2069.4084831047981
 21
3790.7326331639651
 31
0.0
  0
LINE
  5
7E36
  8
1
 10
1769.4084831047981
 20
3610.7326331639638
 30
0.0
 11
1769.4084831047981
 21
3790.7326331639651
 31
0.0
  0
LINE
  5
7E3B
  8
4
 10
6537.5888445345481
 20
-4837.3672664056203
 30
0.0
 11
6537.5888445345499
 21
-6037.3672664056203
 31
0.0
  0
LINE
  5
7E3C
  8
4
 10
1641.425359940142
 20
-4837.3672664056203
 30
0.0
 11
1641.425359940142
 21
-6037.3672664056203
 31
0.0
  0
LINE
  5
7E3D
  8
4
 10
-1358.574640059858
 20
-4837.3672664056203
 30
0.0
 11
-1358.574640059858
 21
-6037.3672664056203
 31
0.0
  0
LINE
  5
7E40
  8
4
 10
-1358.574640059858
 20
-6037.3672664056203
 30
0.0
 11
6537.5888445345481
 21
-6037.3672664056203
 31
0.0
  0
LINE
  5
7E41
  8
4
 10
-1358.574640059858
 20
-5437.3672664056221
 30
0.0
 11
6537.5888445345481
 21
-5437.3672664056221
 31
0.0
  0
TEXT
  5
7E42
  8
4
 10
-1127.562154978448
 20
-5248.1091112059439
 30
0.0
 40
300.0
  1
機器名称
  0
TEXT
  5
7E43
  8
4
 10
-1141.0260039110719
 20
-5907.4963260135546
 30
0.0
 40
300.0
  1
機器型番
  0
TEXT
  5
7E44
  8
4
 10
1807.4978328661309
 20
-5301.9366526602089
 30
0.0
 40
300.0
  1
ミツヤリミットロードファン
  0
TEXT
  5
7E45
  8
4
 10
1861.3523334530239
 20
-5934.409760725961
 30
0.0
 40
300.0
  1
LL＃12-4
  0
TEXT
  5
7E47
  8
4
 10
216.8386270284536
 20
7146.1233498315187
 30
0.0
 40
323.99999999999977
  1
床置防振ベット
  0
TEXT
  5
7E48
  8
4
 10
-2945.9438318095781
 20
8048.836159032212
 30
0.0
 40
432.0
  1
ベルト駆動式片吸込両持ちリミットロードファン
 41
0.8633410713734663
 72
     5
 11
6751.1030818572044
 21
8048.836159032212
 31
0.0
  0
LINE
  5
7E49
  8
4
 10
-3196.1230080652308
 20
7662.0028274252527
 30
0.0
 11
6971.0491198745731
 21
7662.0028274252527
 31
0.0
  0
LINE
  5
7E4A
  8
4
 10
-3196.1230080652308
 20
8862.0028274252545
 30
0.0
 11
6971.0491198745731
 21
8862.0028274252545
 31
0.0
  0
LINE
  5
7E4B
  8
4
 10
-1358.574640059858
 20
-4837.3672664056203
 30
0.0
 11
6537.5888445345481
 21
-4837.3672664056203
 31
0.0
  0
LINE
  5
7E4C
  8
4
 10
-3196.1230080652308
 20
8862.0028274252545
 30
0.0
 11
-3196.1230080652308
 21
7662.0028274252527
 31
0.0
  0
TEXT
  5
7E4D
  8
4
 10
-2738.9710651906489
 20
7139.4671671144861
 30
0.0
 40
323.99999999999977
  1
左回転上向
  0
TEXT
  5
7E4E
  8
4
 10
4684.8664753703124
 20
9081.9167908082782
 30
0.0
 40
336.0
  1
No.
  0
TEXT
  5
7E4F
  8
4
 10
3738.8254954746499
 20
7146.1233498315187
 30
0.0
 40
323.99999999999977
  1
縮尺：1/60
  0
LINE
  5
7E50
  8
4
 10
6971.0491198745731
 20
8862.0028274252545
 30
0.0
 11
6971.0491198745731
 21
7662.0028274252527
 31
0.0
  0
LINE
  5
7E51
  8
4
 10
8471.0491198745731
 20
10545.55030183642
 30
0.0
 11
8471.0491198745731
 21
10545.55030183642
 31
0.0
  0
LINE
  5
7E52
  8
4
 10
4514.7536540337596
 20
8933.1318005888297
 30
0.0
 11
4514.7536540337596
 21
9565.4638711349417
 31
0.0
  0
LINE
  5
7E53
  8
4
 10
4514.7536540337596
 20
9565.4638711349417
 30
0.0
 11
6971.0491198745731
 21
9565.4638711349417
 31
0.0
  0
LINE
  5
7E54
  8
4
 10
6971.0491198745731
 20
9565.4638711349417
 30
0.0
 11
6971.0491198745731
 21
8933.1318005888297
 31
0.0
  0
LINE
  5
7E55
  8
4
 10
6971.0491198745731
 20
8933.1318005888297
 30
0.0
 11
4514.7536540337596
 21
8933.1318005888297
 31
0.0
  0
LINE
  5
7E56
  8
4
 10
-4128.9508801254269
 20
-7154.4496981635739
 30
0.0
 11
-4128.9508801254269
 21
10545.55030183642
 31
0.0
  0
LINE
  5
7E57
  8
4
 10
-4128.9508801254269
 20
10545.55030183642
 30
0.0
 11
8471.0491198745731
 21
10545.55030183642
 31
0.0
  0
LINE
  5
7E58
  8
4
 10
8471.0491198745731
 20
10545.55030183642
 30
0.0
 11
8471.0491198745731
 21
-7154.4496981635739
 31
0.0
  0
LINE
  5
7E59
  8
4
 10
8471.0491198745731
 20
-7154.4496981635739
 30
0.0
 11
-4128.9508801254269
 21
-7154.4496981635739
 31
0.0
  0
LINE
  5
7E5A
  8
1
 10
5175.0871082668864
 20
-943.40041834052488
 30
0.0
 11
6813.0871082668828
 21
-943.40041834052488
 31
0.0
  0
LINE
  5
7E5B
  8
1
 10
5175.0871082668864
 20
-961.40041834052488
 30
0.0
 11
6813.0871082668828
 21
-961.40041834052579
 31
0.0
  0
LINE
  5
7E5C
  8
1
 10
5175.0871082668864
 20
-961.40041834052488
 30
0.0
 11
5175.0871082668864
 21
-943.40041834052488
 31
0.0
  0
LINE
  5
7E5D
  8
1
 10
5175.0871082668864
 20
-952.40041834052488
 30
0.0
 11
6813.0871082668828
 21
-952.40041834052579
 31
0.0
  0
LINE
  5
7E5E
  8
1
 10
6813.0871082668828
 20
-961.40041834052488
 30
0.0
 11
6813.0871082668828
 21
-943.40041834052488
 31
0.0
  0
DIMENSION
  5
7E61
  8
3
  2
*D1
 10
7709.8980415944388
 20
-1952.400418340525
 30
0.0
 11
7559.8980415944397
 21
-952.40041834052477
 31
0.0
 70
     0
  1
%%c<>
 13
6898.0871082668837
 23
47.59958165947387
 33
0.0
 14
6892.0871082668846
 24
-1952.400418340525
 34
0.0
 50
90.0
1001
ACAD
1000
DSTYLE
1002
{
1070
   287
1070
     3
1070
   287
1070
     3
1070
   287
1070
     3
1070
   287
1070
     3
1070
   287
1070
     3
1070
   287
1070
     3
1070
   287
1070
     3
1070
    40
1040
60.0
1070
   143
1040
0.039
1070
   172
1070
     1
1070
   173
1070
     0
1070
   271
1070
     4
1070
   272
1070
     4
1070
   279
1070
     0
1070
   284
1070
     0
1070
   285
1070
     0
1070
   286
1070
     0
1070
   341
1005
7DAC
1070
     5
1000
OPEN30
1002
}
  0
DIMENSION
  5
803C
  8
3
  2
*D2
 10
-115.50064589683819
 20
870.24175923690916
 30
0.0
 11
914.49935410316175
 21
1020.241759236909
 31
0.0
 70
     0
 13
1944.4993541031611
 23
322.59958165947501
 33
0.0
 14
-115.50064589683819
 24
322.59958165947501
 34
0.0
1001
ACAD
1000
DSTYLE
1002
{
1070
   287
1070
     3
1070
   287
1070
     3
1070
   287
1070
     3
1070
   287
1070
     3
1070
   287
1070
     3
1070
   287
1070
     3
1070
   287
1070
     3
1070
    40
1040
60.0
1070
   143
1040
0.039
1070
   172
1070
     1
1070
   173
1070
     0
1070
   271
1070
     4
1070
   272
1070
     4
1070
   279
1070
     0
1070
   284
1070
     0
1070
   285
1070
     0
1070
   286
1070
     0
1070
   341
1005
7DAC
1070
     5
1000
OPEN30
1002
}
  0
LINE
  5
8314
  8
1
 10
-3.5006458968382499
 20
-961.40041834052488
 30
0.0
 11
-3.5006458968382499
 21
-943.40041834052488
 31
0.0
  0
LINE
  5
8551
  8
1
 10
-1383.500645896838
 20
5530.7326331639642
 30
0.0
 11
-1383.500645896838
 21
5609.7326331639642
 31
0.0
  0
DIMENSION
  5
8553
  8
3
  2
*D3
 10
-1383.500645896838
 20
6211.2875301007589
 30
0.0
 11
-203.50064589683819
 21
6361.2875301007589
 31
0.0
 70
     0
 13
976.49935410316175
 23
5609.7326331639642
 33
0.0
 14
-1383.500645896838
 24
5609.7326331639642
 34
0.0
1001
ACAD
1000
DSTYLE
1002
{
1070
   287
1070
     3
1070
   287
1070
     3
1070
   287
1070
     3
1070
   287
1070
     3
1070
   287
1070
     3
1070
   287
1070
     3
1070
    40
1040
60.0
1070
   143
1040
0.039
1070
   172
1070
     1
1070
   173
1070
     0
1070
   271
1070
     4
1070
   272
1070
     4
1070
   279
1070
     0
1070
   284
1070
     0
1070
   285
1070
     0
1070
   286
1070
     0
1070
   341
1005
7DAC
1070
     5
1000
OPEN30
1002
}
  0
DIMENSION
  5
8569
  8
3
  2
*D4
 10
2316.4993541031608
 20
6211.2875301007589
 30
0.0
 11
1646.4993541031611
 21
6361.2875301007589
 31
0.0
 70
     0
 13
976.49935410316175
 23
5609.7326331639642
 33
0.0
 14
2316.4993541031608
 24
4749.7326331639651
 34
0.0
1001
ACAD
1000
DSTYLE
1002
{
1070
   287
1070
     3
1070
   287
1070
     3
1070
   287
1070
     3
1070
   287
1070
     3
1070
   287
1070
     3
1070
   287
1070
     3
1070
    40
1040
60.0
1070
   143
1040
0.039
1070
   172
1070
     1
1070
   173
1070
     0
1070
   271
1070
     4
1070
   272
1070
     4
1070
   279
1070
     0
1070
   284
1070
     0
1070
   285
1070
     0
1070
   286
1070
     0
1070
   341
1005
7DAC
1070
     5
1000
OPEN30
1002
}
  0
LINE
  5
85E8
  8
2
 10
1919.4084831047981
 20
-1517.6345324142089
 30
0.0
 11
1919.4084831047981
 21
-2922.400418340525
 31
0.0
  0
LINE
  5
85E9
  8
1
 10
2149.4084831047981
 20
-1612.400418340525
 30
0.0
 11
2149.4084831047981
 21
-1837.400418340527
 31
0.0
  0
LINE
  5
85EA
  8
1
 10
1719.4084831047981
 20
-1612.400418340525
 30
0.0
 11
1719.4084831047981
 21
-1837.400418340527
 31
0.0
  0
ARC
  5
85EB
  8
1
 10
1919.4084831047981
 20
-2182.400418340525
 30
0.0
 40
310.0
 50
300.1023080683089
 51
239.89769193169101
  0
LINE
  5
85EC
  8
1
 10
2129.4084831047981
 20
-1857.4004183405259
 30
0.0
 11
1739.4084831047981
 21
-1857.4004183405259
 31
0.0
  0
LINE
  5
85ED
  8
1
 10
2074.887615380404
 20
-2450.5910957079968
 30
0.0
 11
1763.929350829188
 21
-2450.5910957079968
 31
0.0
  0
LINE
  5
85EF
  8
2
 10
2256.8674472945559
 20
-2182.400418340525
 30
0.0
 11
1576.131260911767
 21
-2182.400418340525
 31
0.0
  0
LINE
  5
85F0
  8
1
 10
2199.4084831048049
 20
-2315.4417652970551
 30
0.0
 11
2199.408483104794
 21
-2462.400418340525
 31
0.0
  0
LINE
  5
85F1
  8
1
 10
2199.408483104794
 20
-2462.400418340525
 30
0.0
 11
2089.408483104794
 21
-2462.400418340525
 31
0.0
  0
LINE
  5
85F2
  8
1
 10
2199.4084831047981
 20
-2432.4004183405268
 30
0.0
 11
2102.711510903031
 21
-2432.4004183405268
 31
0.0
  0
LINE
  5
85F3
  8
1
 10
2089.4084831047981
 20
-2441.630046276839
 30
0.0
 11
2089.4084831047981
 21
-2462.4004183405268
 31
0.0
  0
LINE
  5
85F4
  8
1
 10
2147.9084831047981
 20
-2417.2309698508798
 30
0.0
 11
2147.9084831047981
 21
-2508.8565329231351
 31
0.0
  0
ARC
  5
85F5
  8
1
 10
2129.4084831047981
 20
-1837.400418340527
 30
0.0
 40
20.0
 50
270.0
 51
0.0
  0
LINE
  5
85F6
  8
1
 10
1749.4084831047981
 20
-2462.4004183405268
 30
0.0
 11
1639.4084831047981
 21
-2462.4004183405268
 31
0.0
  0
LINE
  5
85F7
  8
1
 10
1749.4084831047981
 20
-2441.630046276839
 30
0.0
 11
1749.4084831047981
 21
-2462.4004183405268
 31
0.0
  0
LINE
  5
85F8
  8
1
 10
1639.4084831047981
 20
-2315.441765297071
 30
0.0
 11
1639.4084831047981
 21
-2462.4004183405268
 31
0.0
  0
LINE
  5
85F9
  8
1
 10
1736.105455306566
 20
-2432.4004183405268
 30
0.0
 11
1639.4084831047981
 21
-2432.4004183405268
 31
0.0
  0
LINE
  5
85FA
  8
1
 10
1690.9084831047981
 20
-2417.2309698508798
 30
0.0
 11
1690.9084831047981
 21
-2504.6917346016689
 31
0.0
  0
ARC
  5
85FB
  8
1
 10
1739.4084831047981
 20
-1837.400418340527
 30
0.0
 40
20.0
 50
180.0
 51
270.0
  0
LINE
  5
85FC
  8
1
 10
2129.4084831047981
 20
-1592.400418340525
 30
0.0
 11
1739.4084831047981
 21
-1592.400418340525
 31
0.0
  0
ARC
  5
85FD
  8
1
 10
2129.4084831047981
 20
-1612.400418340525
 30
0.0
 40
20.0
 50
0.0
 51
90.0
  0
ARC
  5
85FE
  8
1
 10
1739.4084831047981
 20
-1612.400418340525
 30
0.0
 40
20.0
 50
90.0
 51
180.0
  0
LINE
  5
85FF
  8
2
 10
2210.9829731195891
 20
-1732.4004183405259
 30
0.0
 11
2056.6860355999052
 21
-1732.4004183405259
 31
0.0
  0
LINE
  5
8600
  8
1
 10
2308.8734379972898
 20
-2462.400418340525
 30
0.0
 11
1529.943528212305
 21
-2462.400418340525
 31
0.0
  0
LINE
  5
8602
  8
1
 10
1529.943528212305
 20
-2462.400418340525
 30
0.0
 11
1519.4084831047981
 21
-2542.400418340525
 31
0.0
  0
LINE
  5
8603
  8
1
 10
2308.8734379972898
 20
-2462.400418340525
 30
0.0
 11
2319.4084831047981
 21
-2542.400418340525
 31
0.0
  0
LINE
  5
8604
  8
1
 10
2316.4993541031608
 20
-2542.400418340525
 30
0.0
 11
2319.4084831047981
 21
-2542.400418340525
 31
0.0
  0
LINE
  5
8617
  8
1
 10
1609.4084831047981
 20
3951.7326331639651
 30
0.0
 11
1609.4084831047981
 21
3890.7326331639651
 31
0.0
  0
LINE
  5
8618
  8
2
 10
1919.4084831047981
 20
3951.7326331639651
 30
0.0
 11
1919.4084831047981
 21
3645.777026795548
 31
0.0
  0
LINE
  5
861B
  8
1
 10
2023.4993541031611
 20
4541.0418950137828
 30
0.0
 11
2229.4084831047981
 21
4541.0418950137828
 31
0.0
  0
LINE
  5
861C
  8
1
 10
2023.4993541031611
 20
4710.9258576349384
 30
0.0
 11
2179.4084831047981
 21
4710.9258576349384
 31
0.0
  0
LINE
  5
8628
  8
1
 10
2199.4084831047981
 20
3866.9258576349412
 30
0.0
 11
2229.4084831047949
 21
3866.9258576349412
 31
0.0
  0
LINE
  5
8629
  8
1
 10
1609.4084831047969
 20
3901.4258576349362
 30
0.0
 11
2229.4084831047949
 21
3901.4258576349371
 31
0.0
  0
LINE
  5
8640
  8
1
 10
1519.4084831047981
 20
3927.400798312447
 30
0.0
 11
1519.4084831047981
 21
3951.7326331639651
 31
0.0
  0
LINE
  5
8642
  8
1
 10
2319.4084831047981
 20
3927.400798312447
 30
0.0
 11
2319.4084831047958
 21
4474.5558672326943
 31
0.0
  0
LINE
  5
8643
  8
1
 10
2319.4084831047958
 20
4474.5558672326943
 30
0.0
 11
2229.4084831047981
 21
4474.5558672326952
 31
0.0
  0
LINE
  5
8644
  8
1
 10
2319.4084831047981
 20
3927.400798312447
 30
0.0
 11
2229.4084831047949
 21
3927.400798312447
 31
0.0
  0
LINE
  5
8646
  8
1
 10
1609.4084831047981
 20
3927.400798312447
 30
0.0
 11
1519.4084831047981
 21
3927.4007983124461
 31
0.0
  0
DIMENSION
  5
8651
  8
3
  2
*D5
 10
-1383.500645896838
 20
2739.3151865753821
 30
0.0
 11
466.49935410316169
 21
2889.3151865753821
 31
0.0
 70
     0
 13
2316.4993541031608
 23
3549.7326331639638
 33
0.0
 14
-1383.500645896838
 24
3549.7326331639638
 34
0.0
1001
ACAD
1000
DSTYLE
1002
{
1070
   287
1070
     3
1070
   287
1070
     3
1070
   287
1070
     3
1070
   287
1070
     3
1070
   287
1070
     3
1070
   287
1070
     3
1070
    40
1040
60.0
1070
   143
1040
0.039
1070
   172
1070
     1
1070
   173
1070
     0
1070
   271
1070
     4
1070
   272
1070
     4
1070
   279
1070
     0
1070
   284
1070
     0
1070
   285
1070
     0
1070
   286
1070
     0
1070
   341
1005
7DAC
1070
     5
1000
OPEN30
1002
}
  0
DIMENSION
  5
8667
  8
3
  2
*D6
 10
3171.4409917911839
 20
3549.7326331639638
 30
0.0
 11
3021.440991791183
 21
4149.7326331639651
 31
0.0
 70
     0
 13
2316.4993541031608
 23
4749.7326331639651
 33
0.0
 14
2316.4993541031608
 24
3549.7326331639638
 34
0.0
 50
270.0
1001
ACAD
1000
DSTYLE
1002
{
1070
   287
1070
     3
1070
   287
1070
     3
1070
   287
1070
     3
1070
   287
1070
     3
1070
   287
1070
     3
1070
   287
1070
     3
1070
    40
1040
60.0
1070
   143
1040
0.039
1070
   172
1070
     1
1070
   173
1070
     0
1070
   271
1070
     4
1070
   272
1070
     4
1070
   279
1070
     0
1070
   284
1070
     0
1070
   285
1070
     0
1070
   286
1070
     0
1070
   341
1005
7DAC
1070
     5
1000
OPEN30
1002
}
  0
DIMENSION
  5
867D
  8
3
  2
*D7
 10
-2329.7197337971438
 20
5609.7326331639642
 30
0.0
 11
-2479.7197337971452
 21
4579.7326331639624
 31
0.0
 70
     0
 13
-1383.500645896838
 23
3549.7326331639638
 33
0.0
 14
-1383.500645896838
 24
5609.7326331639642
 34
0.0
 50
270.0
1001
ACAD
1000
DSTYLE
1002
{
1070
   287
1070
     3
1070
   287
1070
     3
1070
   287
1070
     3
1070
   287
1070
     3
1070
   287
1070
     3
1070
   287
1070
     3
1070
    40
1040
60.0
1070
   143
1040
0.039
1070
   172
1070
     1
1070
   173
1070
     0
1070
   271
1070
     4
1070
   272
1070
     4
1070
   279
1070
     0
1070
   284
1070
     0
1070
   285
1070
     0
1070
   286
1070
     0
1070
   341
1005
7DAC
1070
     5
1000
OPEN30
1002
}
  0
CIRCLE
  5
8794
  8
1
 10
1916.4993541031611
 20
-2182.400418340525
 30
0.0
 40
150.0
  0
ARC
  5
8795
  8
1
 10
1916.4993541031611
 20
-2182.400418340525
 30
0.0
 40
280.0
 50
246.20271975128981
 51
53.553636695631482
  0
LINE
  5
88E4
  8
1
 10
2229.4084831047981
 20
4519.6470688482123
 30
0.0
 11
2229.4084831047949
 21
3866.9258576349412
 31
0.0
  0
LINE
  5
88E5
  8
1
 10
2204.8573526760501
 20
4541.0418950137828
 30
0.0
 11
2229.4084831047958
 21
4519.6470688482123
 31
0.0
  0
ARC
  5
88E6
  8
1
 10
2179.4084831047981
 20
4660.9258576349393
 30
0.0
 40
50.0
 50
359.99999999999972
 51
89.999999999999844
  0
LINE
  5
88E7
  8
1
 10
2229.4084831047981
 20
4660.9258576349393
 30
0.0
 11
2229.4084831047981
 21
4541.0418950137819
 31
0.0
  0
LINE
  5
9215
  8
1
 10
1890.15769270388
 20
-943.40041834052488
 30
0.0
 11
1890.157692703878
 21
-961.40041834052488
 31
0.0
  0
LINE
  5
9216
  8
2
 10
1890.157692703878
 20
-952.40041834052488
 30
0.0
 11
2683.0981950864948
 21
-952.40041834052488
 31
0.0
  0
LINE
  5
9217
  8
1
 10
-1707.8059570036571
 20
-961.40041834052488
 30
0.0
 11
-403.50064589683819
 21
-961.40041834052488
 31
0.0
  0
LINE
  5
9218
  8
1
 10
-1707.8059570036571
 20
-952.40041834052488
 30
0.0
 11
-403.50064589683819
 21
-952.40041834052488
 31
0.0
  0
LINE
  5
9219
  8
1
 10
-1707.8059570036571
 20
-943.40041834052488
 30
0.0
 11
-403.50064589683819
 21
-943.40041834052488
 31
0.0
  0
LINE
  5
921A
  8
1
 10
-403.50064589683819
 20
-961.40041834052488
 30
0.0
 11
-403.50064589683819
 21
-943.40041834052488
 31
0.0
  0
LINE
  5
921B
  8
2
 10
-3.5006458968382499
 20
-952.40041834052488
 30
0.0
 11
-403.50064589683819
 21
-952.40041834052488
 31
0.0
  0
LINE
  5
921D
  8
1
 10
-1707.8059570036571
 20
-961.40041834052488
 30
0.0
 11
-1707.8059570036571
 21
-943.40041834052488
 31
0.0
  0
LINE
  5
921E
  8
2
 10
-1707.8059570036571
 20
-952.40041834052488
 30
0.0
 11
-2477.6807056328398
 21
-952.40041834052488
 31
0.0
  0
LINE
  5
92D3
  8
1
 10
2004.616673372795
 20
-2061.0112176481498
 30
0.0
 11
31.478872155516001
 21
-628.69588316085901
 31
0.0
  0
LINE
  5
92D4
  8
1
 10
2082.8389558177341
 20
-1957.164682051992
 30
0.0
 11
123.2378574710728
 21
-509.97307920233652
 31
0.0
  0
LINE
  5
92D5
  8
1
 10
1854.8498323465551
 20
-2319.1459355145139
 30
0.0
 11
-367.89937058112258
 21
-1317.0551308044951
 31
0.0
  0
LINE
  5
92D6
  8
1
 10
1803.5188321748501
 20
-2438.5944886559919
 30
0.0
 11
-425.42667111316757
 21
-1455.638770745905
 31
0.0
  0
DIMENSION
  5
92D7
  8
3
  2
*D8
 10
-203.50064589683819
 20
1370.362691306734
 30
0.0
 11
870.49935410316175
 21
1520.362691306734
 31
0.0
 70
     0
 13
1944.4993541031611
 23
322.59958165947501
 33
0.0
 14
-203.50064589683819
 24
572.54907731362619
 34
0.0
1001
ACAD
1000
DSTYLE
1002
{
1070
   287
1070
     3
1070
   287
1070
     3
1070
   287
1070
     3
1070
    40
1040
60.0
1070
   143
1040
0.039
1070
   172
1070
     1
1070
   173
1070
     0
1070
   271
1070
     4
1070
   272
1070
     4
1070
   279
1070
     0
1070
   284
1070
     0
1070
   285
1070
     0
1070
   286
1070
     0
1070
   341
1005
7DAC
1070
     5
1000
OPEN30
1002
}
  0
DIMENSION
  5
92EE
  8
3
  2
*D9
 10
-1645.500645896838
 20
1370.362691306734
 30
0.0
 11
-924.50064589683814
 21
1520.362691306734
 31
0.0
 70
     0
 13
-203.50064589683819
 23
572.54907731362619
 33
0.0
 14
-1645.500645896838
 24
-1099.400418340525
 34
0.0
1001
ACAD
1000
DSTYLE
1002
{
1070
   287
1070
     4
1070
   287
1070
     4
1070
   287
1070
     4
1070
    40
1040
60.0
1070
   143
1040
0.039
1070
   172
1070
     1
1070
   173
1070
     0
1070
   271
1070
     4
1070
   272
1070
     4
1070
   279
1070
     1
1070
   284
1070
     0
1070
   285
1070
     0
1070
   286
1070
     0
1070
   341
1005
7DAC
1070
     5
1000
OPEN30
1002
}
  0
DIMENSION
  5
9316
  8
3
  2
*D10
 10
3435.0935318241832
 20
-952.40041834052511
 30
0.0
 11
3285.0935318241832
 21
-314.90041834052471
 31
0.0
 70
     0
 13
2023.4993541031611
 23
322.59958165947501
 33
0.0
 14
2683.0981950864948
 24
-952.40041834052488
 34
0.0
 50
270.0
1001
ACAD
1000
DSTYLE
1002
{
1070
   287
1070
     3
1070
   287
1070
     3
1070
   287
1070
     3
1070
    40
1040
60.0
1070
   143
1040
0.039
1070
   172
1070
     1
1070
   173
1070
     0
1070
   271
1070
     4
1070
   272
1070
     4
1070
   279
1070
     0
1070
   284
1070
     0
1070
   285
1070
     0
1070
   286
1070
     0
1070
   341
1005
7DAC
1070
     5
1000
OPEN30
1002
}
  0
DIMENSION
  5
9323
  8
3
  2
*D11
 10
3435.0935318241832
 20
-2722.400418340525
 30
0.0
 11
3285.0935318241832
 21
-1837.4004183405241
 31
0.0
 70
     0
 13
2683.0981950864948
 23
-952.40041834052488
 33
0.0
 14
2316.4993541031608
 24
-2722.400418340525
 34
0.0
 50
270.0
1001
ACAD
1000
DSTYLE
1002
{
1070
   287
1070
     4
1070
   287
1070
     4
1070
   287
1070
     4
1070
    40
1040
60.0
1070
   143
1040
0.039
1070
   172
1070
     1
1070
   173
1070
     0
1070
   271
1070
     4
1070
   272
1070
     4
1070
   279
1070
     1
1070
   284
1070
     0
1070
   285
1070
     0
1070
   286
1070
     0
1070
   341
1005
7DAC
1070
     5
1000
OPEN30
1002
}
  0
LINE
  5
94D2
  8
1
 10
5165.0871082668837
 20
316.59958165947489
 30
0.0
 11
6823.0871082668837
 21
316.59958165947489
 31
0.0
  0
LINE
  5
94D3
  8
1
 10
5165.0871082668837
 20
247.59958165947489
 30
0.0
 11
6823.0871082668837
 21
247.59958165947489
 31
0.0
  0
LINE
  5
94D4
  8
1
 10
5165.0871082668837
 20
322.59958165947501
 30
0.0
 11
6823.0871082668837
 21
322.59958165947501
 31
0.0
  0
LINE
  5
94D5
  8
1
 10
5165.0871082668837
 20
247.59958165947489
 30
0.0
 11
5165.0871082668837
 21
322.59958165947501
 31
0.0
  0
LINE
  5
94D6
  8
1
 10
6823.0871082668837
 20
247.59958165947489
 30
0.0
 11
6823.0871082668837
 21
322.59958165947501
 31
0.0
  0
LINE
  5
956D
  8
1
 10
4763.0871082668837
 20
-2922.4004183405241
 30
0.0
 11
6823.0871082668837
 21
-2922.4004183405241
 31
0.0
  0
LINE
  5
956E
  8
1
 10
6823.0871082668864
 20
-2922.4004183405241
 30
0.0
 11
6823.0871082668837
 21
-2742.400418340525
 31
0.0
  0
LINE
  5
956F
  8
1
 10
4763.0871082668837
 20
-2742.400418340525
 30
0.0
 11
6823.0871082668864
 21
-2742.400418340525
 31
0.0
  0
LINE
  5
9570
  8
1
 10
4763.0871082668837
 20
-2922.4004183405241
 30
0.0
 11
4763.0871082668837
 21
-2742.400418340525
 31
0.0
  0
LINE
  5
9571
  8
1
 10
2316.4993541031608
 20
-2922.4004183405241
 30
0.0
 11
2316.4993541031608
 21
-2742.400418340525
 31
0.0
  0
LINE
  5
9572
  8
1
 10
2316.4993541031608
 20
-2922.4004183405241
 30
0.0
 11
-1383.500645896838
 21
-2922.4004183405241
 31
0.0
  0
LINE
  5
9573
  8
1
 10
2316.4993541031608
 20
-2742.400418340525
 30
0.0
 11
-1383.500645896838
 21
-2742.400418340525
 31
0.0
  0
LINE
  5
9574
  8
1
 10
-1383.500645896838
 20
-2922.4004183405241
 30
0.0
 11
-1383.500645896838
 21
-2742.400418340525
 31
0.0
  0
DIMENSION
  5
9587
  8
3
  2
*D13
 10
-203.50064589683819
 20
-3378.5280319130979
 30
0.0
 11
-793.50064589683825
 21
-3228.5280319130979
 31
0.0
 70
     0
 13
-1383.500645896838
 23
-2922.4004183405241
 33
0.0
 14
-203.50064589683819
 24
-2922.4004183405241
 34
0.0
1001
ACAD
1000
DSTYLE
1002
{
1070
   287
1070
     3
1070
   287
1070
     3
1070
    40
1040
60.0
1070
   143
1040
0.039
1070
   172
1070
     1
1070
   271
1070
     4
1070
   272
1070
     4
1070
   279
1070
     0
1070
   284
1070
     0
1070
   285
1070
     0
1070
   286
1070
     0
1070
     6
1000
OPEN
1070
     7
1000
OPEN
1002
}
  0
DIMENSION
  5
9594
  8
3
  2
*D14
 10
2316.4993541031608
 20
-3378.5280319130979
 30
0.0
 11
1056.4993541031611
 21
-3228.5280319130979
 31
0.0
 70
     0
 13
-203.50064589683819
 23
-2922.4004183405241
 33
0.0
 14
2316.4993541031608
 24
-2922.4004183405241
 34
0.0
1001
ACAD
1000
DSTYLE
1002
{
1070
   287
1070
     3
1070
   287
1070
     3
1070
    40
1040
60.0
1070
   143
1040
0.039
1070
   172
1070
     1
1070
   271
1070
     4
1070
   272
1070
     4
1070
   279
1070
     0
1070
   284
1070
     0
1070
   285
1070
     0
1070
   286
1070
     0
1070
     6
1000
OPEN
1070
     7
1000
OPEN
1002
}
  0
DIMENSION
  5
95A1
  8
3
  2
*D15
 10
2316.4993541031608
 20
-3802.8973148631621
 30
0.0
 11
466.49935410316169
 21
-3652.8973148631621
 31
0.0
 70
     0
 13
-1383.500645896838
 23
-2922.4004183405241
 33
0.0
 14
2316.4993541031608
 24
-2922.4004183405241
 34
0.0
1001
ACAD
1000
DSTYLE
1002
{
1070
   287
1070
     3
1070
   287
1070
     3
1070
    40
1040
60.0
1070
   143
1040
0.039
1070
   172
1070
     1
1070
   271
1070
     4
1070
   272
1070
     4
1070
   279
1070
     0
1070
   284
1070
     0
1070
   285
1070
     0
1070
   286
1070
     0
1070
     6
1000
OPEN
1070
     7
1000
OPEN
1002
}
  0
DIMENSION
  5
95AE
  8
3
  2
*D16
 10
5994.0871082668846
 20
-3378.5280319130979
 30
0.0
 11
5378.5871082668837
 21
-3228.5280319130979
 31
0.0
 70
     0
 13
4763.0871082668837
 23
-2922.4004183405241
 33
0.0
 14
5994.0871082668846
 24
-2922.4004183405241
 34
0.0
1001
ACAD
1000
DSTYLE
1002
{
1070
   287
1070
     3
1070
   287
1070
     3
1070
    40
1040
60.0
1070
   143
1040
0.039
1070
   172
1070
     1
1070
   271
1070
     4
1070
   272
1070
     4
1070
   279
1070
     0
1070
   284
1070
     0
1070
   285
1070
     0
1070
   286
1070
     0
1070
     6
1000
OPEN
1070
     7
1000
OPEN
1002
}
  0
DIMENSION
  5
95BB
  8
3
  2
*D17
 10
6823.0871082668864
 20
-3378.5280319130979
 30
0.0
 11
6408.5871082668846
 21
-3228.5280319130979
 31
0.0
 70
     0
 13
5994.0871082668846
 23
-2922.4004183405241
 33
0.0
 14
6823.0871082668864
 24
-2922.4004183405241
 34
0.0
1001
ACAD
1000
DSTYLE
1002
{
1070
   287
1070
     3
1070
   287
1070
     3
1070
    40
1040
60.0
1070
   143
1040
0.039
1070
   172
1070
     1
1070
   271
1070
     4
1070
   272
1070
     4
1070
   279
1070
     0
1070
   284
1070
     0
1070
   285
1070
     0
1070
   286
1070
     0
1070
     6
1000
OPEN
1070
     7
1000
OPEN
1002
}
  0
DIMENSION
  5
95C8
  8
3
  2
*D18
 10
6823.0871082668837
 20
-3802.8973148631621
 30
0.0
 11
5793.0871082668837
 21
-3652.8973148631621
 31
0.0
 70
     0
 13
4763.0871082668837
 23
-2922.4004183405241
 33
0.0
 14
6823.0871082668837
 24
-2922.4004183405241
 34
0.0
1001
ACAD
1000
DSTYLE
1002
{
1070
   287
1070
     3
1070
   287
1070
     3
1070
    40
1040
60.0
1070
   143
1040
0.039
1070
   172
1070
     1
1070
   271
1070
     4
1070
   272
1070
     4
1070
   279
1070
     0
1070
   284
1070
     0
1070
   285
1070
     0
1070
   286
1070
     0
1070
     6
1000
OPEN
1070
     7
1000
OPEN
1002
}
  0
DIMENSION
  5
95DF
  8
3
  2
*D20
 10
3440.0945771980478
 20
-2922.400418340525
 30
0.0
 11
3290.0945771980478
 21
-3436.6861326262378
 31
0.0
 70
     0
 13
2316.4993541031608
 23
-2742.400418340525
 33
0.0
 14
2316.4993541031608
 24
-2922.4004183405241
 34
0.0
 50
90.0
1001
ACAD
1000
DSTYLE
1002
{
1070
   287
1070
     3
1070
   287
1070
     3
1070
    40
1040
60.0
1070
   143
1040
0.039
1070
   172
1070
     1
1070
   271
1070
     4
1070
   272
1070
     4
1070
   279
1070
     0
1070
   284
1070
     0
1070
   285
1070
     0
1070
   286
1070
     0
1070
     6
1000
DOT
1070
     7
1000
OPEN
1002
}
  0
DIMENSION
  5
95EE
  8
3
  2
*D22
 10
3440.0945771980478
 20
-2722.400418340525
 30
0.0
 11
3727.2374343409051
 21
-2732.400418340525
 31
0.0
 70
     0
 13
2316.4993541031608
 23
-2742.400418340525
 33
0.0
 14
2316.4993541031608
 24
-2722.400418340525
 34
0.0
 50
90.0
1001
ACAD
1000
DSTYLE
1002
{
1070
   284
1070
     0
1070
   172
1070
     1
1070
   272
1070
     4
1070
    76
1070
     1
1070
    75
1070
     1
1070
    40
1040
60.0
1070
     3
1000
(<>)
1070
   271
1070
     4
1070
     7
1000
_NONE
1070
     6
1000
_NONE
1070
   285
1070
     0
1070
   286
1070
     0
1070
   143
1040
0.039
1002
}
  0
DIMENSION
  5
9603
  8
3
  2
*D23
 10
6744.0871082668846
 20
870.89321234070655
 30
0.0
 11
5994.0871082668846
 21
1020.893212340706
 31
0.0
 70
     0
 13
5244.0871082668846
 23
322.59958165947501
 33
0.0
 14
6744.0871082668846
 24
322.59958165947501
 34
0.0
1001
ACAD
1000
DSTYLE
1002
{
1070
   287
1070
     0
1070
   287
1070
     0
1070
    40
1040
60.0
1070
   143
1040
0.039
1070
   172
1070
     1
1070
   271
1070
     4
1070
   272
1070
     4
1070
   279
1070
     0
1070
   284
1070
     0
1070
   285
1070
     0
1070
   286
1070
     0
1070
   289
1070
     0
1070
     6
1000
OPEN
1070
     7
1000
OPEN
1002
}
  0
LINE
  5
9604
  8
3
 10
5994.0871082668846
 20
1195.325679753317
 30
0.0
 11
5994.0871082668846
 21
1255.325679753317
 31
0.0
  0
DIMENSION
  5
9611
  8
3
  2
*D24
 10
6898.0871082668837
 20
1368.158573820444
 30
0.0
 11
6446.0871082668864
 21
1518.1585738204451
 31
0.0
 70
     0
 13
5994.0871082668846
 23
1195.325679753317
 33
0.0
 14
6898.0871082668837
 24
122.5995816594741
 34
0.0
1001
ACAD
1000
DSTYLE
1002
{
1070
   287
1070
     0
1070
   287
1070
     0
1070
    40
1040
60.0
1070
   143
1040
0.039
1070
   172
1070
     1
1070
   271
1070
     4
1070
   272
1070
     4
1070
   279
1070
     0
1070
   284
1070
     0
1070
   285
1070
     0
1070
   286
1070
     0
1070
   289
1070
     0
1070
     6
1000
OPEN
1070
     7
1000
OPEN
1002
}
  0
DIMENSION
  5
961E
  8
3
  2
*D25
 10
4744.0871082668837
 20
1368.158573820444
 30
0.0
 11
5369.0871082668846
 21
1565.301430963302
 31
0.0
 70
     0
 13
5994.0871082668846
 23
1195.325679753317
 33
0.0
 14
4744.0871082668837
 24
-402.40041834052539
 34
0.0
1001
ACAD
1000
DSTYLE
1002
{
1070
   287
1070
     0
1070
   287
1070
     0
1070
     3
1000
(<>)
1070
    40
1040
60.0
1070
   143
1040
0.039
1070
   172
1070
     1
1070
   271
1070
     4
1070
   272
1070
     4
1070
   279
1070
     0
1070
   284
1070
     0
1070
   285
1070
     0
1070
   286
1070
     0
1070
   289
1070
     0
1070
     6
1000
OPEN
1070
     7
1000
OPEN
1002
}
  0
LINE
  5
9623
  8
1
 10
2023.4993541031611
 20
3951.7326331639651
 30
0.0
 11
2023.4993541031611
 21
5609.7326331639642
 31
0.0
  0
LINE
  5
9624
  8
1
 10
1944.4993541031611
 20
4030.7326331639651
 30
0.0
 11
1944.4993541031611
 21
5530.7326331639642
 31
0.0
  0
LINE
  5
9625
  8
1
 10
-115.50064589683819
 20
4030.7326331639651
 30
0.0
 11
-115.50064589683819
 21
5530.7326331639651
 31
0.0
  0
LINE
  5
9626
  8
1
 10
-194.50064589683819
 20
3951.7326331639638
 30
0.0
 11
-194.50064589683819
 21
5609.7326331639642
 31
0.0
  0
LINE
  5
9627
  8
1
 10
-1645.500645896838
 20
4030.7326331639638
 30
0.0
 11
-1645.500645896838
 21
5530.7326331639642
 31
0.0
  0
LINE
  5
9628
  8
1
 10
2023.4993541031611
 20
5609.7326331639642
 30
0.0
 11
-194.50064589683819
 21
5609.7326331639642
 31
0.0
  0
LINE
  5
9629
  8
1
 10
2023.4993541031611
 20
3951.7326331639651
 30
0.0
 11
-194.50064589683819
 21
3951.7326331639651
 31
0.0
  0
LINE
  5
962A
  8
1
 10
-194.50064589683819
 20
5530.7326331639642
 30
0.0
 11
-1645.500645896838
 21
5530.7326331639642
 31
0.0
  0
LINE
  5
962B
  8
1
 10
-194.50064589683819
 20
4030.7326331639651
 30
0.0
 11
-1645.500645896838
 21
4030.7326331639651
 31
0.0
  0
LINE
  5
962D
  8
1
 10
-115.50064589683819
 20
4030.7326331639651
 30
0.0
 11
1944.4993541031611
 21
5530.7326331639642
 31
0.0
  0
LINE
  5
962E
  8
1
 10
-115.50064589683819
 20
5530.7326331639651
 30
0.0
 11
1944.4993541031611
 21
4030.7326331639651
 31
0.0
  0
ENDSEC
  0
EOF
