  0
SECTION
  2
HEADER
  9
$ACADVER
  1
AC1009
  9
$INSBASE
 10
0.0
 20
0.0
 30
0.0
  9
$EXTMIN
 10
-4128.9508801254269
 20
-7154.4496981635739
 30
0.0
  9
$EXTMAX
 10
8471.0491198745731
 20
10545.55030183642
 30
0.0
  9
$LIMMIN
 10
0.0
 20
0.0
  9
$LIMMAX
 10
297.0
 20
210.0
  9
$ORTHOMODE
 70
     0
  9
$REGENMODE
 70
     1
  9
$FILLMODE
 70
     0
  9
$QTEXTMODE
 70
     0
  9
$MIRRTEXT
 70
     1
  9
$DRAGMODE
 70
     2
  9
$LTSCALE
 40
360.0
  9
$OSMODE
 70
    37
  9
$ATTMODE
 70
     1
  9
$TEXTSIZE
 40
180.0
  9
$TRACEWID
 40
0.05
  9
$TEXTSTYLE
  7
STANDARD
  9
$CLAYER
  8
3
  9
$CELTYPE
  6
BYLAYER
  9
$CECOLOR
 62
   256
  9
$DIMSCALE
 40
60.0
  9
$DIMASZ
 40
2.0
  9
$DIMEXO
 40
0.5
  9
$DIMDLI
 40
10.0
  9
$DIMRND
 40
0.0
  9
$DIMDLE
 40
0.0
  9
$DIMEXE
 40
1.0
  9
$DIMTP
 40
1.0
  9
$DIMTM
 40
1.0
  9
$DIMTXT
 40
3.0
  9
$DIMCEN
 40
0.0
  9
$DIMTSZ
 40
0.0
  9
$DIMTOL
 70
     0
  9
$DIMLIM
 70
     0
  9
$DIMTIH
 70
     0
  9
$DIMTOH
 70
     0
  9
$DIMSE1
 70
     0
  9
$DIMSE2
 70
     0
  9
$DIMTAD
 70
     1
  9
$DIMZIN
 70
     8
  9
$DIMBLK
  1
OPEN30
  9
$DIMASO
 70
     1
  9
$DIMSHO
 70
     1
  9
$DIMPOST
  1

  9
$DIMAPOST
  1

  9
$DIMALT
 70
     0
  9
$DIMALTD
 70
     2
  9
$DIMALTF
 40
0.039
  9
$DIMLFAC
 40
1.0
  9
$DIMTOFL
 70
     1
  9
$DIMTVP
 40
0.0
  9
$DIMTIX
 70
     0
  9
$DIMSOXD
 70
     0
  9
$DIMSAH
 70
     0
  9
$DIMBLK1
  1

  9
$DIMBLK2
  1

  9
$DIMSTYLE
  2
IGA
  9
$DIMCLRD
 70
     0
  9
$DIMCLRE
 70
     0
  9
$DIMCLRT
 70
     0
  9
$DIMTFAC
 40
10.0
  9
$DIMGAP
 40
1.0
  9
$LUNITS
 70
     2
  9
$LUPREC
 70
     3
  9
$SKETCHINC
 40
0.1
  9
$FILLETRAD
 40
50.0
  9
$AUNITS
 70
     0
  9
$AUPREC
 70
     0
  9
$MENU
  1
acad
  9
$ELEVATION
 40
0.0
  9
$PELEVATION
 40
0.0
  9
$THICKNESS
 40
0.0
  9
$LIMCHECK
 70
     0
  9
$BLIPMODE
 70
     0
  9
$CHAMFERA
 40
0.5
  9
$CHAMFERB
 40
0.5
  9
$SKPOLY
 70
     0
  9
$TDCREATE
 40
2453349.637759502
  9
$TDUPDATE
 40
2454953.6649446529
  9
$TDINDWG
 40
0.187863125
  9
$TDUSRTIMER
 40
0.187862037
  9
$USRTIMER
 70
     1
  9
$ANGBASE
 50
0.0
  9
$ANGDIR
 70
     0
  9
$PDMODE
 70
     0
  9
$PDSIZE
 40
0.0
  9
$PLINEWID
 40
0.0
  9
$COORDS
 70
     1
  9
$SPLFRAME
 70
     0
  9
$SPLINETYPE
 70
     6
  9
$SPLINESEGS
 70
     8
  9
$ATTDIA
 70
     0
  9
$ATTREQ
 70
     1
  9
$HANDLING
 70
 10241
  9
$HANDSEED
  5
91F5
  9
$SURFTAB1
 70
     6
  9
$SURFTAB2
 70
     6
  9
$SURFTYPE
 70
     6
  9
$SURFU
 70
     6
  9
$SURFV
 70
     6
  9
$UCSNAME
  2

  9
$UCSORG
 10
0.0
 20
0.0
 30
0.0
  9
$UCSXDIR
 10
1.0
 20
0.0
 30
0.0
  9
$UCSYDIR
 10
0.0
 20
1.0
 30
0.0
  9
$PUCSNAME
  2

  9
$PUCSORG
 10
0.0
 20
0.0
 30
0.0
  9
$PUCSXDIR
 10
1.0
 20
0.0
 30
0.0
  9
$PUCSYDIR
 10
0.0
 20
1.0
 30
0.0
  9
$USERI1
 70
     0
  9
$USERI2
 70
     0
  9
$USERI3
 70
     0
  9
$USERI4
 70
     0
  9
$USERI5
 70
     0
  9
$USERR1
 40
0.0
  9
$USERR2
 40
0.0
  9
$USERR3
 40
0.0
  9
$USERR4
 40
0.0
  9
$USERR5
 40
0.0
  9
$WORLDVIEW
 70
     1
  9
$SHADEDGE
 70
     3
  9
$SHADEDIF
 70
    70
  9
$TILEMODE
 70
     1
  9
$MAXACTVP
 70
    16
  9
$PLIMCHECK
 70
     0
  9
$PEXTMIN
 10
1.0000000000000000E+020
 20
1.0000000000000000E+020
 30
1.0000000000000000E+020
  9
$PEXTMAX
 10
-1.0000000000000000E+020
 20
-1.0000000000000000E+020
 30
-1.0000000000000000E+020
  9
$PLIMMIN
 10
0.0
 20
0.0
  9
$PLIMMAX
 10
12.0
 20
9.0
  9
$UNITMODE
 70
     0
  9
$VISRETAIN
 70
     0
  9
$PLINEGEN
 70
     0
  9
$PSLTSCALE
 70
     1
  0
ENDSEC
  0
SECTION
  2
TABLES
  0
TABLE
  2
VPORT
 70
     2
  0
VPORT
  2
*ACTIVE
 70
     0
 10
0.0
 20
0.0
 11
1.0
 21
1.0
 12
8239.0396634159188
 22
-5006.9526704868622
 13
0.0
 23
0.0
 14
10.0
 24
10.0
 15
10.0
 25
10.0
 16
0.0
 26
0.0
 36
1.0
 17
0.0
 27
0.0
 37
0.0
 40
6942.6088573534071
 41
3.1666666666666661
 42
50.0
 43
0.0
 44
0.0
 50
0.0
 51
0.0
 71
     0
 72
   100
 73
     1
 74
     0
 75
     0
 76
     0
 77
     0
 78
     0
  0
ENDTAB
  0
TABLE
  2
LTYPE
 70
     2
  0
LTYPE
  2
CONTINUOUS
 70
     0
  3
Solid line
 72
    65
 73
     0
 40
0.0
  0
LTYPE
  2
CENTER
 70
     0
  3
____ _ ____ _ ____ _ ____ _ ____ _ ____ _ ____ 
 72
    65
 73
     4
 40
2.0
 49
1.25
 49
-0.25
 49
0.25
 49
-0.25
  0
ENDTAB
  0
TABLE
  2
LAYER
 70
     6
  0
LAYER
  2
0
 70
     0
 62
     7
  6
CONTINUOUS
  0
LAYER
  2
3
 70
     0
 62
     2
  6
CONTINUOUS
  0
LAYER
  2
1
 70
     0
 62
     4
  6
CONTINUOUS
  0
LAYER
  2
2
 70
     0
 62
     3
  6
CENTER
  0
LAYER
  2
4
 70
     0
 62
     7
  6
CONTINUOUS
  0
LAYER
  2
DEFPOINTS
 70
     0
 62
     7
  6
CONTINUOUS
  0
ENDTAB
  0
TABLE
  2
STYLE
 70
     1
  0
STYLE
  2
STANDARD
 70
     0
 40
0.0
 41
1.0
 50
0.0
 71
     0
 42
180.0
  3
simplex.shx
  4
extfont.shx
  0
ENDTAB
  0
TABLE
  2
VIEW
 70
     0
  0
ENDTAB
  0
TABLE
  2
UCS
 70
     0
  0
ENDTAB
  0
TABLE
  2
APPID
 70
     1
  0
APPID
  2
ACAD
 70
     0
  0
ENDTAB
  0
TABLE
  2
DIMSTYLE
 70
     1
  0
DIMSTYLE
  2
IGA
 70
     0
  3

  4

  5

  6

  7

 40
2.0
 41
2.0
 42
0.5
 43
10.0
 44
1.0
 45
0.0
 46
0.0
 47
1.0
 48
1.0
140
3.0
141
0.0
142
0.0
143
0.03937
144
1.0
145
0.0
146
10.0
147
1.0
 71
     0
 72
     0
 73
     0
 74
     0
 75
     0
 76
     0
 77
     1
 78
     8
170
     0
171
     2
172
     0
173
     1
174
     0
175
     0
176
     0
177
     0
178
     0
  0
ENDTAB
  0
ENDSEC
  0
SECTION
  2
BLOCKS
  0
BLOCK
  8
0
  2
$MODEL_SPACE
 70
     0
 10
0.0
 20
0.0
 30
0.0
  3
$MODEL_SPACE
  1

  0
ENDBLK
  5
8E6F
  8
0
  0
BLOCK
 67
     1
  8
0
  2
$PAPER_SPACE
 70
     0
 10
0.0
 20
0.0
 30
0.0
  3
$PAPER_SPACE
  1

  0
ENDBLK
  5
8E6B
 67
     1
  8
0
  0
BLOCK
  8
0
  2
_OPEN30
 70
     0
 10
0.0
 20
0.0
 30
0.0
  3
_OPEN30
  1

  0
LINE
  5
8E83
  8
1
 62
     0
 10
-1.0
 20
0.26794919
 30
0.0
 11
0.0
 21
0.0
 31
0.0
  0
LINE
  5
8E84
  8
1
 62
     0
 10
0.0
 20
0.0
 30
0.0
 11
-1.0
 21
-0.26794919
 31
0.0
  0
LINE
  5
8E85
  8
1
 62
     0
 10
0.0
 20
0.0
 30
0.0
 11
-1.0
 21
0.0
 31
0.0
  0
ENDBLK
  5
8E86
  8
0
  0
BLOCK
  8
0
  2
*D22
 70
     1
 10
0.0
 20
0.0
 30
0.0
  3
*D22
  1

  0
LINE
  5
9137
  8
3
 62
     0
 10
6928.0871082668837
 20
47.599581659473863
 30
0.0
 11
7769.8980415944388
 21
47.599581659473621
 31
0.0
  0
LINE
  5
9138
  8
3
 62
     0
 10
6922.0871082668846
 20
-1952.4004183405241
 30
0.0
 11
7769.8980415944388
 21
-1952.400418340525
 31
0.0
  0
LINE
  5
9139
  8
3
 62
     0
 10
7709.8980415944388
 20
-72.400418340526357
 30
0.0
 11
7709.8980415944388
 21
-1832.400418340525
 31
0.0
  0
INSERT
  5
913A
  8
3
 62
     0
  2
_OPEN30
 10
7709.8980415944388
 20
47.599581659473643
 30
0.0
 41
120.0
 42
120.0
 43
120.0
 50
90.0
  0
INSERT
  5
913B
  8
3
 62
     0
  2
_OPEN30
 10
7709.8980415944388
 20
-1952.400418340525
 30
0.0
 41
120.0
 42
120.0
 43
120.0
 50
270.0
  0
TEXT
  8
3
  40
180
  5
91E2
  62
0
  72
0
  71
0
 10
7199.90
 20
-1271.00
 30
0.000000
  1
%%c2000
  0
POINT
  5
913D
  8
DEFPOINTS
 62
     0
 10
6898.0871082668837
 20
47.59958165947387
 30
0.0
  0
POINT
  5
913E
  8
DEFPOINTS
 62
     0
 10
6892.0871082668846
 20
-1952.4004183405241
 30
0.0
  0
POINT
  5
913F
  8
DEFPOINTS
 62
     0
 10
7709.8980415944388
 20
-1952.400418340525
 30
0.0
  0
ENDBLK
  5
8FF0
  8
0
  0
BLOCK
  8
0
  2
*D23
 70
     1
 10
0.0
 20
0.0
 30
0.0
  3
*D23
  1

  0
LINE
  5
9140
  8
3
 62
     0
 10
4763.0871082668837
 20
-2462.4004183405241
 30
0.0
 11
4763.0871082668837
 21
-3701.6744784385151
 31
0.0
  0
LINE
  5
9141
  8
3
 62
     0
 10
6823.0871082668837
 20
-2462.4004183405241
 30
0.0
 11
6823.0871082668837
 21
-3701.6744784385151
 31
0.0
  0
LINE
  5
9142
  8
3
 62
     0
 10
4883.0871082668837
 20
-3641.6744784385151
 30
0.0
 11
6703.0871082668837
 21
-3641.6744784385151
 31
0.0
  0
INSERT
  5
9143
  8
3
 62
     0
  2
_OPEN30
 10
4763.0871082668837
 20
-3641.6744784385151
 30
0.0
 41
120.0
 42
120.0
 43
120.0
 50
180.0
  0
INSERT
  5
9144
  8
3
 62
     0
  2
_OPEN30
 10
6823.0871082668837
 20
-3641.6744784385151
 30
0.0
 41
120.0
 42
120.0
 43
120.0
  0
TEXT
  8
3
  40
180
  5
91E3
  62
0
  72
0
  71
0
 10
5433.09
 20
-3810.27
 30
0.000000
  1
2060
  0
POINT
  5
9146
  8
DEFPOINTS
 62
     0
 10
4763.0871082668837
 20
-2432.4004183405241
 30
0.0
  0
POINT
  5
9147
  8
DEFPOINTS
 62
     0
 10
6823.0871082668837
 20
-2432.4004183405241
 30
0.0
  0
POINT
  5
9148
  8
DEFPOINTS
 62
     0
 10
6823.0871082668837
 20
-3641.6744784385151
 30
0.0
  0
ENDBLK
  5
8FFD
  8
0
  0
BLOCK
  8
0
  2
*D24
 70
     1
 10
0.0
 20
0.0
 30
0.0
  3
*D24
  1

  0
LINE
  5
9149
  8
3
 62
     0
 10
4763.0871082668837
 20
-2462.4004183405241
 30
0.0
 11
4763.0871082668837
 21
-3158.87201561965
 31
0.0
  0
LINE
  5
914A
  8
3
 62
     0
 10
5994.0871082668818
 20
-3099.0543077413831
 30
0.0
 11
5994.0871082668818
 21
-3158.87201561965
 31
0.0
  0
LINE
  5
914B
  8
3
 62
     0
 10
4883.0871082668837
 20
-3098.87201561965
 30
0.0
 11
5874.0871082668828
 21
-3098.87201561965
 31
0.0
  0
INSERT
  5
914C
  8
3
 62
     0
  2
_OPEN30
 10
4763.0871082668837
 20
-3098.87201561965
 30
0.0
 41
120.0
 42
120.0
 43
120.0
 50
180.0
  0
INSERT
  5
914D
  8
3
 62
     0
  2
_OPEN30
 10
5994.0871082668818
 20
-3098.87201561965
 30
0.0
 41
120.0
 42
120.0
 43
120.0
  0
TEXT
  8
3
  40
180
  5
91E4
  62
0
  72
0
  71
0
 10
5018.59
 20
-3267.47
 30
0.000000
  1
1231
  0
POINT
  5
914F
  8
DEFPOINTS
 62
     0
 10
4763.0871082668837
 20
-2432.4004183405241
 30
0.0
  0
POINT
  5
9150
  8
DEFPOINTS
 62
     0
 10
5994.0871082668818
 20
-3069.0543077413822
 30
0.0
  0
POINT
  5
9151
  8
DEFPOINTS
 62
     0
 10
5994.0871082668818
 20
-3098.87201561965
 30
0.0
  0
ENDBLK
  5
900A
  8
0
  0
BLOCK
  8
0
  2
*D25
 70
     1
 10
0.0
 20
0.0
 30
0.0
  3
*D25
  1

  0
LINE
  5
9152
  8
3
 62
     0
 10
5994.0871082668818
 20
-3099.0543077413831
 30
0.0
 11
5994.0871082668818
 21
-3158.87201561965
 31
0.0
  0
LINE
  5
9153
  8
3
 62
     0
 10
6823.0871082668837
 20
-2462.4004183405241
 30
0.0
 11
6823.0871082668837
 21
-3158.87201561965
 31
0.0
  0
LINE
  5
9154
  8
3
 62
     0
 10
6114.0871082668828
 20
-3098.87201561965
 30
0.0
 11
6703.0871082668837
 21
-3098.87201561965
 31
0.0
  0
INSERT
  5
9155
  8
3
 62
     0
  2
_OPEN30
 10
5994.0871082668818
 20
-3098.87201561965
 30
0.0
 41
120.0
 42
120.0
 43
120.0
 50
180.0
  0
INSERT
  5
9156
  8
3
 62
     0
  2
_OPEN30
 10
6823.0871082668837
 20
-3098.87201561965
 30
0.0
 41
120.0
 42
120.0
 43
120.0
  0
TEXT
  8
3
  40
180
  5
91E5
  62
0
  72
0
  71
0
 10
6048.59
 20
-3267.47
 30
0.000000
  1
829
  0
POINT
  5
9158
  8
DEFPOINTS
 62
     0
 10
5994.0871082668818
 20
-3069.0543077413822
 30
0.0
  0
POINT
  5
9159
  8
DEFPOINTS
 62
     0
 10
6823.0871082668837
 20
-2432.4004183405241
 30
0.0
  0
POINT
  5
915A
  8
DEFPOINTS
 62
     0
 10
6823.0871082668837
 20
-3098.87201561965
 30
0.0
  0
ENDBLK
  5
9017
  8
0
  0
BLOCK
  8
0
  2
*D26
 70
     1
 10
0.0
 20
0.0
 30
0.0
  3
*D26
  1

  0
LINE
  5
915B
  8
3
 62
     0
 10
-1415.14792269291
 20
-2462.400418340525
 30
0.0
 11
-1415.14792269291
 21
-3701.6744784385151
 31
0.0
  0
LINE
  5
915C
  8
3
 62
     0
 10
2284.8520773070891
 20
-2462.400418340525
 30
0.0
 11
2284.8520773070891
 21
-3701.6744784385151
 31
0.0
  0
LINE
  5
915D
  8
3
 62
     0
 10
-1295.14792269291
 20
-3641.6744784385151
 30
0.0
 11
2164.8520773070891
 21
-3641.6744784385151
 31
0.0
  0
INSERT
  5
915E
  8
3
 62
     0
  2
_OPEN30
 10
-1415.14792269291
 20
-3641.6744784385151
 30
0.0
 41
120.0
 42
120.0
 43
120.0
 50
180.0
  0
INSERT
  5
915F
  8
3
 62
     0
  2
_OPEN30
 10
2284.8520773070891
 20
-3641.6744784385151
 30
0.0
 41
120.0
 42
120.0
 43
120.0
  0
TEXT
  8
3
  40
180
  5
91E6
  62
0
  72
0
  71
0
 10
74.8521
 20
-3810.27
 30
0.000000
  1
3700
  0
POINT
  5
9161
  8
DEFPOINTS
 62
     0
 10
-1415.14792269291
 20
-2432.400418340525
 30
0.0
  0
POINT
  5
9162
  8
DEFPOINTS
 62
     0
 10
2284.8520773070891
 20
-2432.400418340525
 30
0.0
  0
POINT
  5
9163
  8
DEFPOINTS
 62
     0
 10
2284.8520773070891
 20
-3641.6744784385151
 30
0.0
  0
ENDBLK
  5
9024
  8
0
  0
BLOCK
  8
0
  2
*D27
 70
     1
 10
0.0
 20
0.0
 30
0.0
  3
*D27
  1

  0
LINE
  5
9164
  8
3
 62
     0
 10
-1415.14792269291
 20
-2462.400418340525
 30
0.0
 11
-1415.14792269291
 21
-3152.382360148556
 31
0.0
  0
LINE
  5
9165
  8
3
 62
     0
 10
1104.8520773070879
 20
-2935.6230057204011
 30
0.0
 11
1104.8520773070879
 21
-3152.382360148556
 31
0.0
  0
LINE
  5
9166
  8
3
 62
     0
 10
-1295.14792269291
 20
-3092.382360148556
 30
0.0
 11
984.85207730708794
 21
-3092.382360148556
 31
0.0
  0
INSERT
  5
9167
  8
3
 62
     0
  2
_OPEN30
 10
-1415.14792269291
 20
-3092.382360148556
 30
0.0
 41
120.0
 42
120.0
 43
120.0
 50
180.0
  0
INSERT
  5
9168
  8
3
 62
     0
  2
_OPEN30
 10
1104.8520773070879
 20
-3092.382360148556
 30
0.0
 41
120.0
 42
120.0
 43
120.0
  0
TEXT
  8
3
  40
180
  5
91E7
  62
0
  72
0
  71
0
 10
-515.148
 20
-3260.98
 30
0.000000
  1
2520
  0
POINT
  5
916A
  8
DEFPOINTS
 62
     0
 10
-1415.14792269291
 20
-2432.400418340525
 30
0.0
  0
POINT
  5
916B
  8
DEFPOINTS
 62
     0
 10
1104.8520773070879
 20
-2905.6230057204011
 30
0.0
  0
POINT
  5
916C
  8
DEFPOINTS
 62
     0
 10
1104.8520773070879
 20
-3092.382360148556
 30
0.0
  0
ENDBLK
  5
9031
  8
0
  0
BLOCK
  8
0
  2
*D28
 70
     1
 10
0.0
 20
0.0
 30
0.0
  3
*D28
  1

  0
LINE
  5
916D
  8
3
 62
     0
 10
1104.8520773070879
 20
-2935.6230057204011
 30
0.0
 11
1104.8520773070879
 21
-3152.382360148556
 31
0.0
  0
LINE
  5
916E
  8
3
 62
     0
 10
2284.8520773070882
 20
-2462.400418340525
 30
0.0
 11
2284.8520773070882
 21
-3152.382360148556
 31
0.0
  0
LINE
  5
916F
  8
3
 62
     0
 10
1224.8520773070879
 20
-3092.382360148556
 30
0.0
 11
2164.8520773070882
 21
-3092.382360148556
 31
0.0
  0
INSERT
  5
9170
  8
3
 62
     0
  2
_OPEN30
 10
1104.8520773070879
 20
-3092.382360148556
 30
0.0
 41
120.0
 42
120.0
 43
120.0
 50
180.0
  0
INSERT
  5
9171
  8
3
 62
     0
  2
_OPEN30
 10
2284.8520773070882
 20
-3092.382360148556
 30
0.0
 41
120.0
 42
120.0
 43
120.0
  0
TEXT
  8
3
  40
180
  5
91E8
  62
0
  72
0
  71
0
 10
1334.85
 20
-3260.98
 30
0.000000
  1
1180
  0
POINT
  5
9173
  8
DEFPOINTS
 62
     0
 10
1104.8520773070879
 20
-2905.6230057204011
 30
0.0
  0
POINT
  5
9174
  8
DEFPOINTS
 62
     0
 10
2284.8520773070882
 20
-2432.400418340525
 30
0.0
  0
POINT
  5
9175
  8
DEFPOINTS
 62
     0
 10
2284.8520773070882
 20
-3092.382360148556
 30
0.0
  0
ENDBLK
  5
903E
  8
0
  0
BLOCK
  8
0
  2
*D29
 70
     1
 10
0.0
 20
0.0
 30
0.0
  3
*D29
  1

  0
LINE
  5
9176
  8
3
 62
     0
 10
2409.8520773070882
 20
1195.5995816594741
 30
0.0
 11
3177.1129011606549
 21
1195.599581659473
 31
0.0
  0
LINE
  5
9177
  8
3
 62
     0
 10
2409.8520773070882
 20
-864.40041834052556
 30
0.0
 11
3177.1129011606549
 21
-864.40041834052556
 31
0.0
  0
LINE
  5
9178
  8
3
 62
     0
 10
3117.1129011606549
 20
1075.599581659473
 30
0.0
 11
3117.1129011606549
 21
-744.40041834052556
 31
0.0
  0
INSERT
  5
9179
  8
3
 62
     0
  2
_OPEN30
 10
3117.1129011606549
 20
1195.599581659473
 30
0.0
 41
120.0
 42
120.0
 43
120.0
 50
90.0
  0
INSERT
  5
917A
  8
3
 62
     0
  2
_OPEN30
 10
3117.1129011606549
 20
-864.40041834052556
 30
0.0
 41
120.0
 42
120.0
 43
120.0
 50
270.0
  0
TEXT
  8
3
  40
180
  5
91E9
  62
0
  72
0
  71
0
 10
2607.11
 20
-153.000
 30
0.000000
  1
2060
  0
POINT
  5
917C
  8
DEFPOINTS
 62
     0
 10
2379.8520773070882
 20
1195.5995816594741
 30
0.0
  0
POINT
  5
917D
  8
DEFPOINTS
 62
     0
 10
2379.8520773070882
 20
-864.40041834052556
 30
0.0
  0
POINT
  5
917E
  8
DEFPOINTS
 62
     0
 10
3117.1129011606549
 20
-864.40041834052556
 30
0.0
  0
ENDBLK
  5
904B
  8
0
  0
BLOCK
  8
0
  2
*D30
 70
     1
 10
0.0
 20
0.0
 30
0.0
  3
*D30
  1

  0
LINE
  5
917F
  8
3
 62
     0
 10
2409.8520773070882
 20
1195.5995816594741
 30
0.0
 11
3634.436036076027
 21
1195.599581659473
 31
0.0
  0
LINE
  5
9180
  8
3
 62
     0
 10
2716.6021523941108
 20
-952.40041834052556
 30
0.0
 11
3634.436036076027
 21
-952.40041834052602
 31
0.0
  0
LINE
  5
9181
  8
3
 62
     0
 10
3574.4360360760279
 20
1075.599581659473
 30
0.0
 11
3574.436036076027
 21
-832.4004183405259
 31
0.0
  0
INSERT
  5
9182
  8
3
 62
     0
  2
_OPEN30
 10
3574.4360360760279
 20
1195.599581659473
 30
0.0
 41
120.0
 42
120.0
 43
120.0
 50
90.0
  0
INSERT
  5
9183
  8
3
 62
     0
  2
_OPEN30
 10
3574.436036076027
 20
-952.40041834052579
 30
0.0
 41
120.0
 42
120.0
 43
120.0
 50
270.0
  0
TEXT
  8
3
  40
180
  5
91EA
  62
0
  72
0
  71
0
 10
3064.44
 20
-197.000
 30
0.000000
  1
2148
  0
POINT
  5
9185
  8
DEFPOINTS
 62
     0
 10
2379.8520773070882
 20
1195.5995816594741
 30
0.0
  0
POINT
  5
9186
  8
DEFPOINTS
 62
     0
 10
2686.6021523941122
 20
-952.40041834052556
 30
0.0
  0
POINT
  5
9187
  8
DEFPOINTS
 62
     0
 10
3574.436036076027
 20
-952.40041834052579
 30
0.0
  0
ENDBLK
  5
9058
  8
0
  0
BLOCK
  8
0
  2
*D31
 70
     1
 10
0.0
 20
0.0
 30
0.0
  3
*D31
  1

  0
LINE
  5
9188
  8
3
 62
     0
 10
-75.147922692911393
 20
5639.7326331639633
 30
0.0
 11
-75.147922692911351
 21
6271.2875301007589
 31
0.0
  0
LINE
  5
9189
  8
3
 62
     0
 10
2284.8520773070891
 20
5639.7326331639633
 30
0.0
 11
2284.8520773070891
 21
6271.2875301007589
 31
0.0
  0
LINE
  5
918A
  8
3
 62
     0
 10
44.852077307088642
 20
6211.2875301007589
 30
0.0
 11
2164.8520773070891
 21
6211.2875301007589
 31
0.0
  0
INSERT
  5
918B
  8
3
 62
     0
  2
_OPEN30
 10
-75.147922692911351
 20
6211.2875301007589
 30
0.0
 41
120.0
 42
120.0
 43
120.0
 50
180.0
  0
INSERT
  5
918C
  8
3
 62
     0
  2
_OPEN30
 10
2284.8520773070891
 20
6211.2875301007589
 30
0.0
 41
120.0
 42
120.0
 43
120.0
  0
TEXT
  8
3
  40
180
  5
91EB
  62
0
  72
0
  71
0
 10
744.852
 20
6042.69
 30
0.000000
  1
2360
  0
POINT
  5
918E
  8
DEFPOINTS
 62
     0
 10
-75.147922692911393
 20
5609.7326331639642
 30
0.0
  0
POINT
  5
918F
  8
DEFPOINTS
 62
     0
 10
2284.8520773070891
 20
5609.7326331639642
 30
0.0
  0
POINT
  5
9190
  8
DEFPOINTS
 62
     0
 10
2284.8520773070891
 20
6211.2875301007589
 30
0.0
  0
ENDBLK
  5
907E
  8
0
  0
BLOCK
  8
0
  2
*D32
 70
     1
 10
0.0
 20
0.0
 30
0.0
  3
*D32
  1

  0
LINE
  5
9191
  8
3
 62
     0
 10
-75.147922692911393
 20
5639.7326331639633
 30
0.0
 11
-75.147922692911351
 21
6271.2875301007589
 31
0.0
  0
LINE
  5
9192
  8
3
 62
     0
 10
-1415.14792269291
 20
4779.7326331639651
 30
0.0
 11
-1415.14792269291
 21
6271.2875301007589
 31
0.0
  0
LINE
  5
9193
  8
3
 62
     0
 10
-195.14792269291129
 20
6211.2875301007589
 30
0.0
 11
-1295.14792269291
 21
6211.2875301007589
 31
0.0
  0
INSERT
  5
9194
  8
3
 62
     0
  2
_OPEN30
 10
-75.147922692911351
 20
6211.2875301007589
 30
0.0
 41
120.0
 42
120.0
 43
120.0
  0
INSERT
  5
9195
  8
3
 62
     0
  2
_OPEN30
 10
-1415.14792269291
 20
6211.2875301007589
 30
0.0
 41
120.0
 42
120.0
 43
120.0
 50
180.0
  0
TEXT
  8
3
  40
180
  5
91EC
  62
0
  72
0
  71
0
 10
-1105.15
 20
6042.69
 30
0.000000
  1
1340
  0
POINT
  5
9197
  8
DEFPOINTS
 62
     0
 10
-75.147922692911393
 20
5609.7326331639642
 30
0.0
  0
POINT
  5
9198
  8
DEFPOINTS
 62
     0
 10
-1415.14792269291
 20
4749.7326331639651
 30
0.0
  0
POINT
  5
9199
  8
DEFPOINTS
 62
     0
 10
-1415.14792269291
 20
6211.2875301007589
 30
0.0
  0
ENDBLK
  5
908B
  8
0
  0
BLOCK
  8
0
  2
*D33
 70
     1
 10
0.0
 20
0.0
 30
0.0
  3
*D33
  1

  0
LINE
  5
919A
  8
3
 62
     0
 10
-1415.14792269291
 20
3519.7326331639638
 30
0.0
 11
-1415.14792269291
 21
2679.3151865753821
 31
0.0
  0
LINE
  5
919B
  8
3
 62
     0
 10
2284.8520773070891
 20
3519.7326331639638
 30
0.0
 11
2284.8520773070891
 21
2679.3151865753821
 31
0.0
  0
LINE
  5
919C
  8
3
 62
     0
 10
-1295.14792269291
 20
2739.3151865753821
 30
0.0
 11
2164.8520773070891
 21
2739.3151865753821
 31
0.0
  0
INSERT
  5
919D
  8
3
 62
     0
  2
_OPEN30
 10
-1415.14792269291
 20
2739.3151865753821
 30
0.0
 41
120.0
 42
120.0
 43
120.0
 50
180.0
  0
INSERT
  5
919E
  8
3
 62
     0
  2
_OPEN30
 10
2284.8520773070891
 20
2739.3151865753821
 30
0.0
 41
120.0
 42
120.0
 43
120.0
  0
TEXT
  8
3
  40
180
  5
91ED
  62
0
  72
0
  71
0
 10
74.8521
 20
2570.72
 30
0.000000
  1
3700
  0
POINT
  5
91A0
  8
DEFPOINTS
 62
     0
 10
-1415.14792269291
 20
3549.7326331639638
 30
0.0
  0
POINT
  5
91A1
  8
DEFPOINTS
 62
     0
 10
2284.8520773070891
 20
3549.7326331639638
 30
0.0
  0
POINT
  5
91A2
  8
DEFPOINTS
 62
     0
 10
2284.8520773070891
 20
2739.3151865753821
 30
0.0
  0
ENDBLK
  5
90C3
  8
0
  0
BLOCK
  8
0
  2
*D34
 70
     1
 10
0.0
 20
0.0
 30
0.0
  3
*D34
  1

  0
LINE
  5
91A3
  8
3
 62
     0
 10
-1445.14792269291
 20
4749.7326331639651
 30
0.0
 11
-2330.0895603809331
 21
4749.7326331639661
 31
0.0
  0
LINE
  5
91A4
  8
3
 62
     0
 10
-1445.14792269291
 20
3549.7326331639638
 30
0.0
 11
-2330.0895603809331
 21
3549.7326331639638
 31
0.0
  0
LINE
  5
91A5
  8
3
 62
     0
 10
-2270.0895603809331
 20
4629.7326331639661
 30
0.0
 11
-2270.0895603809331
 21
3669.7326331639638
 31
0.0
  0
INSERT
  5
91A6
  8
3
 62
     0
  2
_OPEN30
 10
-2270.0895603809331
 20
4749.7326331639661
 30
0.0
 41
120.0
 42
120.0
 43
120.0
 50
90.0
  0
INSERT
  5
91A7
  8
3
 62
     0
  2
_OPEN30
 10
-2270.0895603809331
 20
3549.7326331639638
 30
0.0
 41
120.0
 42
120.0
 43
120.0
 50
270.0
  0
TEXT
  8
3
  40
180
  5
91EE
  62
0
  72
0
  71
0
 10
-2780.09
 20
3831.13
 30
0.000000
  1
1200
  0
POINT
  5
91A9
  8
DEFPOINTS
 62
     0
 10
-1415.14792269291
 20
4749.7326331639651
 30
0.0
  0
POINT
  5
91AA
  8
DEFPOINTS
 62
     0
 10
-1415.14792269291
 20
3549.7326331639638
 30
0.0
  0
POINT
  5
91AB
  8
DEFPOINTS
 62
     0
 10
-2270.0895603809331
 20
3549.7326331639638
 30
0.0
  0
ENDBLK
  5
90D0
  8
0
  0
BLOCK
  8
0
  2
*D35
 70
     1
 10
0.0
 20
0.0
 30
0.0
  3
*D35
  1

  0
LINE
  5
91AC
  8
3
 62
     0
 10
2314.8520773070891
 20
3549.7326331639638
 30
0.0
 11
3291.0711652073942
 21
3549.7326331639638
 31
0.0
  0
LINE
  5
91AD
  8
3
 62
     0
 10
2314.8520773070891
 20
5609.7326331639642
 30
0.0
 11
3291.0711652073942
 21
5609.7326331639642
 31
0.0
  0
LINE
  5
91AE
  8
3
 62
     0
 10
3231.0711652073942
 20
3669.7326331639629
 30
0.0
 11
3231.0711652073942
 21
5489.7326331639633
 31
0.0
  0
INSERT
  5
91AF
  8
3
 62
     0
  2
_OPEN30
 10
3231.0711652073942
 20
3549.7326331639638
 30
0.0
 41
120.0
 42
120.0
 43
120.0
 50
270.0
  0
INSERT
  5
91B0
  8
3
 62
     0
  2
_OPEN30
 10
3231.0711652073942
 20
5609.7326331639642
 30
0.0
 41
120.0
 42
120.0
 43
120.0
 50
90.0
  0
TEXT
  8
3
  40
180
  5
91EF
  62
0
  72
0
  71
0
 10
2721.07
 20
4261.13
 30
0.000000
  1
2060
  0
POINT
  5
91B2
  8
DEFPOINTS
 62
     0
 10
2284.8520773070891
 20
3549.7326331639638
 30
0.0
  0
POINT
  5
91B3
  8
DEFPOINTS
 62
     0
 10
2284.8520773070891
 20
5609.7326331639642
 30
0.0
  0
POINT
  5
91B4
  8
DEFPOINTS
 62
     0
 10
3231.0711652073942
 20
5609.7326331639642
 30
0.0
  0
ENDBLK
  5
90DD
  8
0
  0
BLOCK
  8
0
  2
*D36
 70
     1
 10
0.0
 20
0.0
 30
0.0
  3
*D36
  1

  0
LINE
  5
91B5
  8
3
 62
     0
 10
2379.8520773070882
 20
1304.5995816594741
 30
0.0
 11
2379.8520773070882
 21
1879.704708280645
 31
0.0
  0
LINE
  5
91B6
  8
3
 62
     0
 10
1104.8520773070879
 20
1432.9923045975941
 30
0.0
 11
1104.8520773070879
 21
1879.704708280645
 31
0.0
  0
LINE
  5
91B7
  8
3
 62
     0
 10
2259.8520773070882
 20
1819.7047082806439
 30
0.0
 11
1224.8520773070879
 21
1819.7047082806439
 31
0.0
  0
INSERT
  5
91B8
  8
3
 62
     0
  2
_OPEN30
 10
2379.8520773070882
 20
1819.7047082806439
 30
0.0
 41
120.0
 42
120.0
 43
120.0
  0
INSERT
  5
91B9
  8
3
 62
     0
  2
_OPEN30
 10
1104.8520773070879
 20
1819.7047082806439
 30
0.0
 41
120.0
 42
120.0
 43
120.0
 50
180.0
  0
TEXT
  8
3
  40
180
  5
91F0
  62
0
  72
0
  71
0
 10
1382.35
 20
1651.10
 30
0.000000
  1
1275
  0
POINT
  5
91BB
  8
DEFPOINTS
 62
     0
 10
2379.8520773070882
 20
1274.5995816594741
 30
0.0
  0
POINT
  5
91BC
  8
DEFPOINTS
 62
     0
 10
1104.8520773070879
 20
1402.992304597595
 30
0.0
  0
POINT
  5
91BD
  8
DEFPOINTS
 62
     0
 10
1104.8520773070879
 20
1819.7047082806439
 30
0.0
  0
ENDBLK
  5
90EA
  8
0
  0
BLOCK
  8
0
  2
*D37
 70
     1
 10
0.0
 20
0.0
 30
0.0
  3
*D37
  1

  0
LINE
  5
91BE
  8
3
 62
     0
 10
2716.6021523941108
 20
-952.40041834052556
 30
0.0
 11
3634.436036076027
 21
-952.40041834052602
 31
0.0
  0
LINE
  5
91BF
  8
3
 62
     0
 10
2314.8520773070891
 20
-2432.400418340525
 30
0.0
 11
3634.436036076027
 21
-2432.400418340525
 31
0.0
  0
LINE
  5
91C0
  8
3
 62
     0
 10
3574.436036076027
 20
-1072.400418340525
 30
0.0
 11
3574.436036076027
 21
-2312.400418340525
 31
0.0
  0
INSERT
  5
91C1
  8
3
 62
     0
  2
_OPEN30
 10
3574.4360360760279
 20
-952.40041834052579
 30
0.0
 41
120.0
 42
120.0
 43
120.0
 50
90.0
  0
INSERT
  5
91C2
  8
3
 62
     0
  2
_OPEN30
 10
3574.436036076027
 20
-2432.400418340525
 30
0.0
 41
120.0
 42
120.0
 43
120.0
 50
270.0
  0
TEXT
  8
3
  40
180
  5
91F1
  62
0
  72
0
  71
0
 10
3064.44
 20
-2011.00
 30
0.000000
  1
1480
  0
POINT
  5
91C4
  8
DEFPOINTS
 62
     0
 10
2686.6021523941122
 20
-952.40041834052556
 30
0.0
  0
POINT
  5
91C5
  8
DEFPOINTS
 62
     0
 10
2284.8520773070891
 20
-2432.400418340525
 30
0.0
  0
POINT
  5
91C6
  8
DEFPOINTS
 62
     0
 10
3574.436036076027
 20
-2432.400418340525
 30
0.0
  0
ENDBLK
  5
90FD
  8
0
  0
BLOCK
  8
0
  2
*D38
 70
     1
 10
0.0
 20
0.0
 30
0.0
  3
*D38
  1

  0
LINE
  5
91C7
  8
3
 62
     0
 10
5244.0871082668818
 20
1225.5995816594741
 30
0.0
 11
5244.0871082668818
 21
1806.228386170056
 31
0.0
  0
LINE
  5
91C8
  8
3
 62
     0
 10
6744.0871082668846
 20
1225.599581659473
 30
0.0
 11
6744.0871082668846
 21
1806.228386170056
 31
0.0
  0
LINE
  5
91C9
  8
3
 62
     0
 10
5364.0871082668818
 20
1746.228386170056
 30
0.0
 11
6624.0871082668837
 21
1746.228386170056
 31
0.0
  0
INSERT
  5
91CA
  8
3
 62
     0
  2
_OPEN30
 10
5244.0871082668818
 20
1746.228386170056
 30
0.0
 41
120.0
 42
120.0
 43
120.0
 50
180.0
  0
INSERT
  5
91CB
  8
3
 62
     0
  2
_OPEN30
 10
6744.0871082668846
 20
1746.228386170056
 30
0.0
 41
120.0
 42
120.0
 43
120.0
  0
TEXT
  8
3
  40
180
  5
91F2
  62
0
  72
0
  71
0
 10
5634.09
 20
1577.63
 30
0.000000
  1
1500
  0
POINT
  5
91CD
  8
DEFPOINTS
 62
     0
 10
5244.0871082668818
 20
1195.5995816594741
 30
0.0
  0
POINT
  5
91CE
  8
DEFPOINTS
 62
     0
 10
6744.0871082668846
 20
1195.5995816594721
 30
0.0
  0
POINT
  5
91CF
  8
DEFPOINTS
 62
     0
 10
6744.0871082668846
 20
1746.228386170056
 30
0.0
  0
ENDBLK
  5
910A
  8
0
  0
BLOCK
  8
0
  2
*D39
 70
     1
 10
0.0
 20
0.0
 30
0.0
  3
*D39
  1

  0
LINE
  5
91D0
  8
3
 62
     0
 10
4744.0871082668837
 20
-372.40041834052528
 30
0.0
 11
4744.0871082668837
 21
2270.4019307734702
 31
0.0
  0
LINE
  5
91D1
  8
3
 62
     0
 10
5994.0871082668846
 20
2220.387276049194
 30
0.0
 11
5994.0871082668846
 21
2270.4019307734702
 31
0.0
  0
LINE
  5
91D2
  8
3
 62
     0
 10
4864.0871082668837
 20
2210.4019307734702
 30
0.0
 11
5874.0871082668837
 21
2210.4019307734702
 31
0.0
  0
INSERT
  5
91D3
  8
3
 62
     0
  2
_OPEN30
 10
4744.0871082668837
 20
2210.4019307734702
 30
0.0
 41
120.0
 42
120.0
 43
120.0
 50
180.0
  0
INSERT
  5
91D4
  8
3
 62
     0
  2
_OPEN30
 10
5994.0871082668846
 20
2210.4019307734702
 30
0.0
 41
120.0
 42
120.0
 43
120.0
  0
TEXT
  8
3
  40
180
  5
91F3
  62
0
  72
0
  71
0
 10
5009.09
 20
2088.94
 30
0.000000
  1
(1250)
  0
POINT
  5
91D6
  8
DEFPOINTS
 62
     0
 10
4744.0871082668837
 20
-402.40041834052528
 30
0.0
  0
POINT
  5
91D7
  8
DEFPOINTS
 62
     0
 10
5994.0871082668846
 20
2190.387276049194
 30
0.0
  0
POINT
  5
91D8
  8
DEFPOINTS
 62
     0
 10
5994.0871082668846
 20
2210.4019307734702
 30
0.0
  0
ENDBLK
  5
9117
  8
0
  0
BLOCK
  8
0
  2
*D40
 70
     1
 10
0.0
 20
0.0
 30
0.0
  3
*D40
  1

  0
LINE
  5
91D9
  8
3
 62
     0
 10
5994.0871082668846
 20
2220.387276049194
 30
0.0
 11
5994.0871082668846
 21
2270.4019307734702
 31
0.0
  0
LINE
  5
91DA
  8
3
 62
     0
 10
6898.0871082668837
 20
152.59958165947319
 30
0.0
 11
6898.0871082668837
 21
2270.4019307734702
 31
0.0
  0
LINE
  5
91DB
  8
3
 62
     0
 10
6114.0871082668837
 20
2210.4019307734702
 30
0.0
 11
6778.0871082668837
 21
2210.4019307734702
 31
0.0
  0
INSERT
  5
91DC
  8
3
 62
     0
  2
_OPEN30
 10
5994.0871082668846
 20
2210.4019307734702
 30
0.0
 41
120.0
 42
120.0
 43
120.0
 50
180.0
  0
INSERT
  5
91DD
  8
3
 62
     0
  2
_OPEN30
 10
6898.0871082668837
 20
2210.4019307734702
 30
0.0
 41
120.0
 42
120.0
 43
120.0
  0
TEXT
  8
3
  40
180
  5
91F4
  62
0
  72
0
  71
0
 10
6086.09
 20
2041.80
 30
0.000000
  1
904
  0
POINT
  5
91DF
  8
DEFPOINTS
 62
     0
 10
5994.0871082668846
 20
2190.387276049194
 30
0.0
  0
POINT
  5
91E0
  8
DEFPOINTS
 62
     0
 10
6898.0871082668837
 20
122.5995816594732
 30
0.0
  0
POINT
  5
91E1
  8
DEFPOINTS
 62
     0
 10
6898.0871082668837
 20
2210.4019307734702
 30
0.0
  0
ENDBLK
  5
9124
  8
0
  0
ENDSEC
  0
SECTION
  2
ENTITIES
  0
LINE
  5
8F6B
  8
2
 10
1104.8520773070879
 20
-3239.5664102275459
 30
0.0
 11
1104.8520773070879
 21
1402.992304597595
 31
0.0
  0
LINE
  5
8F6C
  8
1
 10
-693.35624444639325
 20
-952.40041834052477
 30
0.0
 11
904.85207730708873
 21
-952.40041834052477
 31
0.0
  0
ARC
  5
8F6D
  8
1
 10
1251.8520773070879
 20
-805.40041834052499
 30
0.0
 40
1883.0
 50
95.529355689246785
 51
180.0
  0
ARC
  5
8F6E
  8
1
 10
957.85207730708862
 20
-805.40041834052499
 30
0.0
 40
1589.0
 50
180.0
 51
270.0
  0
ARC
  5
8F6F
  8
1
 10
982.35207730708817
 20
-1074.900418340525
 30
0.0
 40
1319.5
 50
270.0
 51
0.0
  0
ARC
  5
8F70
  8
1
 10
1227.3520773070879
 20
-1074.900418340525
 30
0.0
 40
1074.5
 50
0.0
 51
11.297600230597981
  0
LINE
  5
8F71
  8
1
 10
2379.8520773070882
 20
1274.5995816594741
 30
0.0
 11
2379.8520773070882
 21
-943.40041834052579
 31
0.0
  0
LINE
  5
8F72
  8
1
 10
2379.8520773070882
 20
1195.5995816594741
 30
0.0
 11
1070.414229100759
 21
1068.837908884231
 31
0.0
  0
LINE
  5
8F73
  8
1
 10
2281.0313453958161
 20
-864.40041834052568
 30
0.0
 11
2379.8520773070882
 21
-864.40041834052568
 31
0.0
  0
LINE
  5
8F74
  8
1
 10
957.85207730708862
 20
-2394.400418340525
 30
0.0
 11
982.35207730708817
 21
-2394.400418340525
 31
0.0
  0
LINE
  5
8F75
  8
1
 10
-1415.14792269291
 20
-2432.400418340525
 30
0.0
 11
2284.8520773070891
 21
-2432.400418340525
 31
0.0
  0
LINE
  5
8F76
  8
1
 10
-1415.14792269291
 20
-2252.400418340525
 30
0.0
 11
2284.8520773070891
 21
-2252.400418340525
 31
0.0
  0
LINE
  5
8F77
  8
1
 10
2284.8520773070891
 20
-2432.400418340525
 30
0.0
 11
2284.8520773070891
 21
-2252.400418340525
 31
0.0
  0
LINE
  5
8F78
  8
1
 10
-1415.14792269291
 20
-2432.400418340525
 30
0.0
 11
-1415.14792269291
 21
-2252.400418340525
 31
0.0
  0
LINE
  5
8F79
  8
2
 10
2668.1116105993278
 20
165.5995816594741
 30
0.0
 11
1786.294636585184
 21
165.5995816594745
 31
0.0
  0
LINE
  5
8F7A
  8
1
 10
2304.8520773070882
 20
1274.5995816594741
 30
0.0
 11
2304.8520773070882
 21
-943.40041834052579
 31
0.0
  0
LINE
  5
8F7B
  8
1
 10
2379.8520773070882
 20
1274.5995816594741
 30
0.0
 11
2304.8520773070882
 21
1274.5995816594741
 31
0.0
  0
LINE
  5
8F7C
  8
1
 10
2379.8520773070882
 20
-943.40041834052579
 30
0.0
 11
2304.8520773070882
 21
-943.40041834052579
 31
0.0
  0
LINE
  5
8F7D
  8
1
 10
2373.8520773070882
 20
1274.5995816594741
 30
0.0
 11
2373.8520773070882
 21
-943.40041834052579
 31
0.0
  0
LINE
  5
8F7E
  8
2
 10
4433.3930178519813
 20
-952.40041834052477
 30
0.0
 11
7203.2769952492399
 21
-952.40041834052579
 31
0.0
  0
LINE
  5
8F7F
  8
2
 10
5994.0871082668846
 20
-3096.250785410673
 30
0.0
 11
5994.0871082668846
 21
1709.4327322274539
 31
0.0
  0
LINE
  5
8F80
  8
1
 10
4763.0871082668837
 20
-2432.400418340525
 30
0.0
 11
6823.0871082668837
 21
-2432.400418340525
 31
0.0
  0
LINE
  5
8F81
  8
1
 10
4763.0871082668837
 20
-2252.400418340525
 30
0.0
 11
6823.0871082668873
 21
-2252.400418340525
 31
0.0
  0
LINE
  5
8F82
  8
1
 10
6823.0871082668873
 20
-2432.400418340525
 30
0.0
 11
6823.0871082668837
 21
-2252.400418340525
 31
0.0
  0
LINE
  5
8F83
  8
1
 10
4763.0871082668837
 20
-2432.400418340525
 30
0.0
 11
4763.0871082668837
 21
-2252.400418340525
 31
0.0
  0
LINE
  5
8F84
  8
1
 10
6744.0871082668846
 20
-2252.400418340525
 30
0.0
 11
6744.0871082668846
 21
1195.5995816594721
 31
0.0
  0
LINE
  5
8F85
  8
1
 10
5244.0871082668864
 20
-2252.400418340525
 30
0.0
 11
5244.0871082668846
 21
1195.5995816594741
 31
0.0
  0
LINE
  5
8F86
  8
1
 10
6898.0871082668837
 20
-2027.4004183405241
 30
0.0
 11
6898.0871082668837
 21
122.5995816594732
 31
0.0
  0
LINE
  5
8F87
  8
1
 10
6744.0871082668846
 20
47.599581659473188
 30
0.0
 11
6898.0871082668837
 21
47.59958165947409
 31
0.0
  0
LINE
  5
8F88
  8
1
 10
6744.0871082668846
 20
-1952.4004183405241
 30
0.0
 11
6898.0871082668837
 21
-1952.4004183405241
 31
0.0
  0
LINE
  5
8F89
  8
1
 10
6892.0871082668846
 20
122.5995816594732
 30
0.0
 11
6898.0871082668837
 21
122.599581659474
 31
0.0
  0
LINE
  5
8F8A
  8
1
 10
6892.0871082668846
 20
-2027.4004183405241
 30
0.0
 11
6898.0871082668837
 21
-2027.4004183405241
 31
0.0
  0
LINE
  5
8F8B
  8
1
 10
6892.0871082668846
 20
-2027.4004183405241
 30
0.0
 11
6892.0871082668846
 21
122.5995816594732
 31
0.0
  0
CIRCLE
  5
8F8C
  8
1
 10
1104.8520773070879
 20
-952.40041834052477
 30
0.0
 40
400.0
  0
ARC
  5
8F8D
  8
1
 10
1104.8520773070879
 20
-952.40041834052477
 30
0.0
 40
550.0
 50
287.22638377116539
 51
120.5982513323361
  0
LINE
  5
8F8E
  8
1
 10
4824.5064816308659
 20
-552.40041834052477
 30
0.0
 11
5004.506481630865
 21
-552.40041834052477
 31
0.0
  0
LINE
  5
8F8F
  8
1
 10
4824.5064816308659
 20
-1352.400418340525
 30
0.0
 11
5004.506481630865
 21
-1352.400418340525
 31
0.0
  0
LINE
  5
8F90
  8
1
 10
4744.0871082668837
 20
-402.40041834052528
 30
0.0
 11
5104.0871082668864
 21
-402.40041834052528
 31
0.0
  0
LINE
  5
8F91
  8
2
 10
4597.2378386882738
 20
-1852.400418340525
 30
0.0
 11
5448.1738968458412
 21
-1852.400418340525
 31
0.0
  0
LINE
  5
8F92
  8
1
 10
4824.5064816308659
 20
-1702.4004183405241
 30
0.0
 11
5004.506481630865
 21
-1702.4004183405241
 31
0.0
  0
LINE
  5
8F93
  8
1
 10
4824.5064816308659
 20
-2002.400418340525
 30
0.0
 11
5004.506481630865
 21
-2002.400418340525
 31
0.0
  0
LINE
  5
8F94
  8
1
 10
4744.0871082668837
 20
-2132.4004183405241
 30
0.0
 11
5104.0871082668846
 21
-2132.4004183405232
 31
0.0
  0
LINE
  5
8F95
  8
1
 10
4744.0871082668837
 20
-2132.4004183405241
 30
0.0
 11
4744.0871082668837
 21
-402.40041834052528
 31
0.0
  0
LINE
  5
8F96
  8
1
 10
5104.0871082668864
 20
-2132.4004183405241
 30
0.0
 11
5104.0871082668864
 21
-2073.2079718781151
 31
0.0
  0
LINE
  5
8F97
  8
1
 10
5104.0871082668846
 20
-694.70086403370624
 30
0.0
 11
5104.0871082668846
 21
-402.40041834052528
 31
0.0
  0
LINE
  5
8F98
  8
1
 10
4824.5064816308659
 20
-552.40041834052477
 30
0.0
 11
4824.5064816308659
 21
-2002.400418340525
 31
0.0
  0
LINE
  5
8F99
  8
1
 10
5004.506481630865
 20
-552.40041834052477
 30
0.0
 11
5004.506481630865
 21
-2002.400418340525
 31
0.0
  0
LINE
  5
8F9A
  8
2
 10
-799.19163351048985
 20
4780.7326331639651
 30
0.0
 11
2619.340467274742
 21
4780.7326331639651
 31
0.0
  0
LINE
  5
8F9B
  8
2
 10
1104.8520773070879
 20
3337.505352115847
 30
0.0
 11
1104.8520773070879
 21
5820.1555871955443
 31
0.0
  0
LINE
  5
8F9C
  8
1
 10
-75.147922692911393
 20
5609.7326331639661
 30
0.0
 11
14.852077307088621
 21
5609.7326331639661
 31
0.0
  0
LINE
  5
8F9D
  8
1
 10
-1415.14792269291
 20
3549.7326331639638
 30
0.0
 11
-1298.057051694547
 21
3549.7326331639638
 31
0.0
  0
LINE
  5
8F9E
  8
1
 10
2284.8520773070891
 20
3549.7326331639638
 30
0.0
 11
2284.8520773070891
 21
4030.7326331639638
 31
0.0
  0
LINE
  5
8F9F
  8
1
 10
-1415.14792269291
 20
3549.7326331639638
 30
0.0
 11
-1415.14792269291
 21
3624.7326331639651
 31
0.0
  0
LINE
  5
8FA0
  8
1
 10
-75.147922692911393
 20
3890.7326331639638
 30
0.0
 11
-75.147922692911393
 21
4030.7326331639651
 31
0.0
  0
LINE
  5
8FA1
  8
1
 10
-1415.14792269291
 20
4749.7326331639651
 30
0.0
 11
-631.14792269291138
 21
4749.7326331639688
 31
0.0
  0
LINE
  5
8FA2
  8
1
 10
-1415.14792269291
 20
3624.7326331639651
 30
0.0
 11
-1298.057051694547
 21
3624.7326331639651
 31
0.0
  0
LINE
  5
8FA3
  8
1
 10
-1415.14792269291
 20
4674.7326331639661
 30
0.0
 11
-1326.112987326798
 21
4674.732633163967
 31
0.0
  0
LINE
  5
8FA4
  8
1
 10
-0.1479226929113793
 20
3890.7326331639638
 30
0.0
 11
-0.1479226929113793
 21
4030.7326331639651
 31
0.0
  0
LINE
  5
8FA5
  8
1
 10
2209.8520773070868
 20
3624.7326331639651
 30
0.0
 11
2209.8520773070868
 21
4030.732633163962
 31
0.0
  0
LINE
  5
8FA6
  8
1
 10
-1415.14792269291
 20
4674.7326331639661
 30
0.0
 11
-1415.14792269291
 21
4749.7326331639651
 31
0.0
  0
LINE
  5
8FA7
  8
2
 10
904.85207730708873
 20
-952.40041834052477
 30
0.0
 11
2686.6021523941131
 21
-952.40041834052477
 31
0.0
  0
LINE
  5
8FA8
  8
1
 10
-693.35624444639325
 20
-943.40041834052477
 30
0.0
 11
904.85207730708873
 21
-943.40041834052477
 31
0.0
  0
LINE
  5
8FA9
  8
1
 10
-693.35624444639325
 20
-961.40041834052465
 30
0.0
 11
904.85207730708873
 21
-961.40041834052465
 31
0.0
  0
LINE
  5
8FAA
  8
1
 10
-631.14792269291138
 20
5530.7326331639642
 30
0.0
 11
2379.8520773070882
 21
5530.7326331639642
 31
0.0
  0
LINE
  5
8FAB
  8
1
 10
-631.14792269291127
 20
4030.7326331639651
 30
0.0
 11
2379.8520773070882
 21
4030.7326331639638
 31
0.0
  0
LINE
  5
8FAC
  8
1
 10
-75.147922692911393
 20
5609.7326331639642
 30
0.0
 11
104.85207730708851
 21
5609.7326331639642
 31
0.0
  0
LINE
  5
8FAD
  8
1
 10
2104.8520773070882
 20
5609.7326331639633
 30
0.0
 11
2284.8520773070891
 21
5609.7326331639642
 31
0.0
  0
LINE
  5
8FAE
  8
1
 10
29.852077307088621
 20
5684.7326331639642
 30
0.0
 11
2179.8520773070882
 21
5684.7326331639642
 31
0.0
  0
LINE
  5
8FAF
  8
1
 10
2104.8520773070882
 20
5530.7326331639642
 30
0.0
 11
2104.8520773070882
 21
5684.7326331639651
 31
0.0
  0
LINE
  5
8FB0
  8
1
 10
104.85207730708851
 20
5530.7326331639642
 30
0.0
 11
104.85207730708851
 21
5684.7326331639651
 31
0.0
  0
LINE
  5
8FB1
  8
1
 10
29.852077307088621
 20
5678.7326331639651
 30
0.0
 11
2179.8520773070882
 21
5678.7326331639642
 31
0.0
  0
LINE
  5
8FB2
  8
1
 10
2179.8520773070882
 20
5678.7326331639642
 30
0.0
 11
2179.8520773070882
 21
5684.7326331639651
 31
0.0
  0
LINE
  5
8FB3
  8
1
 10
29.852077307088621
 20
5678.7326331639651
 30
0.0
 11
29.852077307088621
 21
5684.7326331639651
 31
0.0
  0
LINE
  5
8FB4
  8
1
 10
-1298.057051694547
 20
3530.7326331639651
 30
0.0
 11
1654.8520773070879
 21
3530.7326331639651
 31
0.0
  0
LINE
  5
8FB5
  8
1
 10
1654.8520773070879
 20
3530.7326331639651
 30
0.0
 11
1654.8520773070879
 21
3890.7326331639638
 31
0.0
  0
LINE
  5
8FB6
  8
1
 10
-1298.057051694547
 20
3530.7326331639651
 30
0.0
 11
-1298.057051694547
 21
3890.7326331639638
 31
0.0
  0
LINE
  5
8FB7
  8
1
 10
-1298.057051694547
 20
3890.7326331639638
 30
0.0
 11
1654.8520773070879
 21
3890.7326331639638
 31
0.0
  0
LINE
  5
8FB8
  8
1
 10
1504.8520773070879
 20
3610.7326331639638
 30
0.0
 11
1504.8520773070879
 21
3790.7326331639638
 31
0.0
  0
LINE
  5
8FB9
  8
1
 10
704.85207730708862
 20
3610.7326331639638
 30
0.0
 11
704.85207730708862
 21
3790.7326331639638
 31
0.0
  0
LINE
  5
8FBA
  8
1
 10
1654.8520773070879
 20
3624.7326331639638
 30
0.0
 11
2284.8520773070891
 21
3624.7326331639651
 31
0.0
  0
LINE
  5
8FBB
  8
1
 10
1654.8520773070879
 20
3549.7326331639638
 30
0.0
 11
2284.8520773070891
 21
3549.7326331639638
 31
0.0
  0
LINE
  5
8FBC
  8
1
 10
-1168.057051694547
 20
3610.7326331639638
 30
0.0
 11
1504.8520773070879
 21
3610.7326331639638
 31
0.0
  0
LINE
  5
8FBD
  8
1
 10
-1168.057051694547
 20
3790.7326331639638
 30
0.0
 11
1504.8520773070879
 21
3790.7326331639638
 31
0.0
  0
LINE
  5
8FBE
  8
1
 10
-1168.057051694547
 20
3610.7326331639638
 30
0.0
 11
-1168.057051694547
 21
3790.7326331639638
 31
0.0
  0
LINE
  5
8FBF
  8
1
 10
-868.05705169454723
 20
3610.7326331639638
 30
0.0
 11
-868.05705169454723
 21
3790.7326331639638
 31
0.0
  0
LINE
  5
8FC0
  8
4
 10
6537.5888445345481
 20
-4506.8789504127108
 30
0.0
 11
6537.5888445345481
 21
-5706.8789504127108
 31
0.0
  0
LINE
  5
8FC1
  8
4
 10
1641.425359940142
 20
-4506.8789504127108
 30
0.0
 11
1641.425359940142
 21
-5706.8789504127108
 31
0.0
  0
LINE
  5
8FC2
  8
4
 10
-1358.574640059858
 20
-4506.8789504127108
 30
0.0
 11
-1358.574640059858
 21
-5706.8789504127108
 31
0.0
  0
LINE
  5
8FC5
  8
4
 10
-1358.574640059858
 20
-5706.8789504127108
 30
0.0
 11
6537.5888445345481
 21
-5706.8789504127108
 31
0.0
  0
LINE
  5
8FC6
  8
4
 10
-1358.574640059858
 20
-5106.8789504127126
 30
0.0
 11
6537.5888445345481
 21
-5106.8789504127126
 31
0.0
  0
TEXT
  5
8FC7
  8
4
 10
-1127.562154978448
 20
-4917.6207952130362
 30
0.0
 40
300.0
  1
機器名称
  0
TEXT
  5
8FC8
  8
4
 10
-1141.0260039110719
 20
-5577.0080100206469
 30
0.0
 40
300.0
  1
機器型番
  0
TEXT
  5
8FC9
  8
4
 10
1807.49783286613
 20
-4971.4483366672994
 30
0.0
 40
300.0
  1
ミツヤリミットロードファン
  0
TEXT
  5
8FCA
  8
4
 10
1861.352333453023
 20
-5603.9214447330514
 30
0.0
 40
300.0
  1
LL＃12-4
  0
TEXT
  5
8FCC
  8
4
 10
216.8386270284536
 20
7146.1233498315187
 30
0.0
 40
323.99999999999972
  1
床置ベット
  0
TEXT
  5
8FCD
  8
4
 10
-2945.9438318095781
 20
8048.836159032212
 30
0.0
 40
432.0
  1
ベルト駆動式片吸込両持ちリミットロードファン
 41
0.8633410713734663
 72
     5
 11
6751.1030818572044
 21
8048.836159032212
 31
0.0
  0
LINE
  5
8FCE
  8
4
 10
-3196.1230080652308
 20
7662.0028274252518
 30
0.0
 11
6971.0491198745731
 21
7662.0028274252518
 31
0.0
  0
LINE
  5
8FCF
  8
4
 10
-3196.1230080652308
 20
8862.0028274252545
 30
0.0
 11
6971.0491198745731
 21
8862.0028274252545
 31
0.0
  0
LINE
  5
8FD0
  8
4
 10
-1358.574640059858
 20
-4506.8789504127108
 30
0.0
 11
6537.5888445345481
 21
-4506.8789504127108
 31
0.0
  0
LINE
  5
8FD1
  8
4
 10
-3196.1230080652308
 20
8862.0028274252545
 30
0.0
 11
-3196.1230080652308
 21
7662.0028274252518
 31
0.0
  0
TEXT
  5
8FD2
  8
4
 10
-2738.9710651906489
 20
7139.4671671144861
 30
0.0
 40
323.99999999999972
  1
右回転右横向
  0
TEXT
  5
8FD3
  8
4
 10
4684.8664753703124
 20
9081.9167908082782
 30
0.0
 40
336.0
  1
No.
  0
TEXT
  5
8FD4
  8
4
 10
3738.8254954746499
 20
7146.1233498315187
 30
0.0
 40
323.99999999999972
  1
縮尺：1/60
  0
LINE
  5
8FD5
  8
4
 10
6971.0491198745731
 20
8862.0028274252545
 30
0.0
 11
6971.0491198745731
 21
7662.0028274252518
 31
0.0
  0
LINE
  5
8FD6
  8
4
 10
8471.0491198745731
 20
10545.55030183642
 30
0.0
 11
8471.0491198745731
 21
10545.55030183642
 31
0.0
  0
LINE
  5
8FD7
  8
4
 10
4514.7536540337596
 20
8933.1318005888297
 30
0.0
 11
4514.7536540337596
 21
9565.4638711349417
 31
0.0
  0
LINE
  5
8FD8
  8
4
 10
4514.7536540337596
 20
9565.4638711349417
 30
0.0
 11
6971.0491198745731
 21
9565.4638711349417
 31
0.0
  0
LINE
  5
8FD9
  8
4
 10
6971.0491198745731
 20
9565.4638711349417
 30
0.0
 11
6971.0491198745731
 21
8933.1318005888297
 31
0.0
  0
LINE
  5
8FDA
  8
4
 10
6971.0491198745731
 20
8933.1318005888297
 30
0.0
 11
4514.7536540337596
 21
8933.1318005888297
 31
0.0
  0
LINE
  5
8FDB
  8
4
 10
-4128.9508801254269
 20
-7154.4496981635739
 30
0.0
 11
-4128.9508801254269
 21
10545.55030183642
 31
0.0
  0
LINE
  5
8FDC
  8
4
 10
-4128.9508801254269
 20
10545.55030183642
 30
0.0
 11
8471.0491198745731
 21
10545.55030183642
 31
0.0
  0
LINE
  5
8FDD
  8
4
 10
8471.0491198745731
 20
10545.55030183642
 30
0.0
 11
8471.0491198745731
 21
-7154.4496981635739
 31
0.0
  0
LINE
  5
8FDE
  8
4
 10
8471.0491198745731
 20
-7154.4496981635739
 30
0.0
 11
-4128.9508801254269
 21
-7154.4496981635739
 31
0.0
  0
LINE
  5
8FDF
  8
1
 10
5175.0871082668864
 20
-1023.400418340525
 30
0.0
 11
6813.0871082668828
 21
-1023.400418340525
 31
0.0
  0
LINE
  5
8FE0
  8
1
 10
5175.0871082668864
 20
-1041.4004183405241
 30
0.0
 11
6813.0871082668828
 21
-1041.4004183405241
 31
0.0
  0
LINE
  5
8FE1
  8
1
 10
5175.0871082668864
 20
-1041.4004183405241
 30
0.0
 11
5175.0871082668864
 21
-1023.400418340525
 31
0.0
  0
LINE
  5
8FE2
  8
1
 10
5175.0871082668864
 20
-1032.400418340525
 30
0.0
 11
6813.0871082668828
 21
-1032.400418340525
 31
0.0
  0
LINE
  5
8FE3
  8
1
 10
6813.0871082668828
 20
-1041.4004183405241
 30
0.0
 11
6813.0871082668828
 21
-1023.400418340525
 31
0.0
  0
DIMENSION
  5
8FE4
  8
3
  2
*D22
 10
7709.8980415944388
 20
-1952.400418340525
 30
0.0
 11
7559.8980415944397
 21
-952.40041834052465
 31
0.0
 70
     0
  1
%%c<>
 13
6898.0871082668837
 23
47.59958165947387
 33
0.0
 14
6892.0871082668846
 24
-1952.4004183405241
 34
0.0
 50
90.0
1001
ACAD
1000
DSTYLE
1002
{
1070
   287
1070
     3
1070
   287
1070
     3
1070
   287
1070
     3
1070
   287
1070
     3
1070
    40
1040
60.0
1070
   143
1040
0.039
1070
   172
1070
     1
1070
   173
1070
     0
1070
   271
1070
     4
1070
   272
1070
     4
1070
   279
1070
     0
1070
   284
1070
     0
1070
   285
1070
     0
1070
   286
1070
     0
1070
   341
1005
7DAC
1070
     5
1000
OPEN30
1002
}
  0
DIMENSION
  5
8FF1
  8
3
  2
*D23
 10
6823.0871082668837
 20
-3641.6744784385151
 30
0.0
 11
5793.0871082668837
 21
-3491.6744784385151
 31
0.0
 70
     0
 13
4763.0871082668837
 23
-2432.4004183405241
 33
0.0
 14
6823.0871082668837
 24
-2432.4004183405241
 34
0.0
1001
ACAD
1000
DSTYLE
1002
{
1070
   287
1070
     3
1070
   287
1070
     3
1070
   287
1070
     3
1070
   287
1070
     3
1070
    40
1040
60.0
1070
   143
1040
0.039
1070
   172
1070
     1
1070
   173
1070
     0
1070
   271
1070
     4
1070
   272
1070
     4
1070
   279
1070
     0
1070
   284
1070
     0
1070
   285
1070
     0
1070
   286
1070
     0
1070
   341
1005
7DAC
1070
     5
1000
OPEN30
1002
}
  0
DIMENSION
  5
8FFE
  8
3
  2
*D24
 10
5994.0871082668818
 20
-3098.87201561965
 30
0.0
 11
5378.5871082668837
 21
-2948.8720156196509
 31
0.0
 70
     0
 13
4763.0871082668837
 23
-2432.4004183405241
 33
0.0
 14
5994.0871082668818
 24
-3069.0543077413822
 34
0.0
1001
ACAD
1000
DSTYLE
1002
{
1070
   287
1070
     3
1070
   287
1070
     3
1070
   287
1070
     3
1070
   287
1070
     3
1070
    40
1040
60.0
1070
   143
1040
0.039
1070
   172
1070
     1
1070
   173
1070
     0
1070
   271
1070
     4
1070
   272
1070
     4
1070
   279
1070
     0
1070
   284
1070
     0
1070
   285
1070
     0
1070
   286
1070
     0
1070
   341
1005
7DAC
1070
     5
1000
OPEN30
1002
}
  0
DIMENSION
  5
900B
  8
3
  2
*D25
 10
6823.0871082668837
 20
-3098.87201561965
 30
0.0
 11
6408.5871082668828
 21
-2948.8720156196509
 31
0.0
 70
     0
 13
5994.0871082668818
 23
-3069.0543077413822
 33
0.0
 14
6823.0871082668837
 24
-2432.4004183405241
 34
0.0
1001
ACAD
1000
DSTYLE
1002
{
1070
   287
1070
     4
1070
   287
1070
     4
1070
   287
1070
     4
1070
   287
1070
     4
1070
    40
1040
60.0
1070
   143
1040
0.039
1070
   172
1070
     1
1070
   173
1070
     0
1070
   271
1070
     4
1070
   272
1070
     4
1070
   279
1070
     1
1070
   284
1070
     0
1070
   285
1070
     0
1070
   286
1070
     0
1070
   341
1005
7DAC
1070
     5
1000
OPEN30
1002
}
  0
DIMENSION
  5
9018
  8
3
  2
*D26
 10
2284.8520773070891
 20
-3641.6744784385151
 30
0.0
 11
434.85207730708919
 21
-3491.6744784385151
 31
0.0
 70
     0
 13
-1415.14792269291
 23
-2432.400418340525
 33
0.0
 14
2284.8520773070891
 24
-2432.400418340525
 34
0.0
1001
ACAD
1000
DSTYLE
1002
{
1070
   287
1070
     3
1070
   287
1070
     3
1070
   287
1070
     3
1070
   287
1070
     3
1070
    40
1040
60.0
1070
   143
1040
0.039
1070
   172
1070
     1
1070
   173
1070
     0
1070
   271
1070
     4
1070
   272
1070
     4
1070
   279
1070
     0
1070
   284
1070
     0
1070
   285
1070
     0
1070
   286
1070
     0
1070
   341
1005
7DAC
1070
     5
1000
OPEN30
1002
}
  0
DIMENSION
  5
9025
  8
3
  2
*D27
 10
1104.8520773070879
 20
-3092.382360148556
 30
0.0
 11
-155.14792269291129
 21
-2942.382360148556
 31
0.0
 70
     0
 13
-1415.14792269291
 23
-2432.400418340525
 33
0.0
 14
1104.8520773070879
 24
-2905.6230057204011
 34
0.0
1001
ACAD
1000
DSTYLE
1002
{
1070
   287
1070
     3
1070
   287
1070
     3
1070
   287
1070
     3
1070
   287
1070
     3
1070
    40
1040
60.0
1070
   143
1040
0.039
1070
   172
1070
     1
1070
   173
1070
     0
1070
   271
1070
     4
1070
   272
1070
     4
1070
   279
1070
     0
1070
   284
1070
     0
1070
   285
1070
     0
1070
   286
1070
     0
1070
   341
1005
7DAC
1070
     5
1000
OPEN30
1002
}
  0
DIMENSION
  5
9032
  8
3
  2
*D28
 10
2284.8520773070882
 20
-3092.382360148556
 30
0.0
 11
1694.8520773070879
 21
-2942.382360148556
 31
0.0
 70
     0
 13
1104.8520773070879
 23
-2905.6230057204011
 33
0.0
 14
2284.8520773070882
 24
-2432.400418340525
 34
0.0
1001
ACAD
1000
DSTYLE
1002
{
1070
   287
1070
     4
1070
   287
1070
     4
1070
   287
1070
     4
1070
   287
1070
     4
1070
    40
1040
60.0
1070
   143
1040
0.039
1070
   172
1070
     1
1070
   173
1070
     0
1070
   271
1070
     4
1070
   272
1070
     4
1070
   279
1070
     1
1070
   284
1070
     0
1070
   285
1070
     0
1070
   286
1070
     0
1070
   341
1005
7DAC
1070
     5
1000
OPEN30
1002
}
  0
DIMENSION
  5
903F
  8
3
  2
*D29
 10
3117.1129011606549
 20
-864.40041834052556
 30
0.0
 11
2967.1129011606549
 21
165.59958165947461
 31
0.0
 70
     0
 13
2379.8520773070882
 23
1195.5995816594741
 33
0.0
 14
2379.8520773070882
 24
-864.40041834052556
 34
0.0
 50
270.0
1001
ACAD
1000
DSTYLE
1002
{
1070
   287
1070
     3
1070
   287
1070
     3
1070
   287
1070
     3
1070
   287
1070
     3
1070
    40
1040
60.0
1070
   143
1040
0.039
1070
   172
1070
     1
1070
   173
1070
     0
1070
   271
1070
     4
1070
   272
1070
     4
1070
   279
1070
     0
1070
   284
1070
     0
1070
   285
1070
     0
1070
   286
1070
     0
1070
   341
1005
7DAC
1070
     5
1000
OPEN30
1002
}
  0
DIMENSION
  5
904C
  8
3
  2
*D30
 10
3574.436036076027
 20
-952.40041834052579
 30
0.0
 11
3424.436036076027
 21
121.5995816594745
 31
0.0
 70
     0
 13
2379.8520773070882
 23
1195.5995816594741
 33
0.0
 14
2686.6021523941122
 24
-952.40041834052556
 34
0.0
 50
270.0
1001
ACAD
1000
DSTYLE
1002
{
1070
   287
1070
     3
1070
   287
1070
     3
1070
   287
1070
     3
1070
   287
1070
     3
1070
    40
1040
60.0
1070
   143
1040
0.039
1070
   172
1070
     1
1070
   173
1070
     0
1070
   271
1070
     4
1070
   272
1070
     4
1070
   279
1070
     0
1070
   284
1070
     0
1070
   285
1070
     0
1070
   286
1070
     0
1070
   341
1005
7DAC
1070
     5
1000
OPEN30
1002
}
  0
LINE
  5
9059
  8
1
 10
-693.35624444639325
 20
-943.40041834052477
 30
0.0
 11
-693.35624444639325
 21
-961.40041834052465
 31
0.0
  0
LINE
  5
905A
  8
2
 10
-693.35624444639325
 20
-952.40041834052477
 30
0.0
 11
-1454.897872953703
 21
-952.40041834052477
 31
0.0
  0
LINE
  5
905B
  8
1
 10
904.85207730708873
 20
-961.40041834052465
 30
0.0
 11
904.85207730708873
 21
-943.40041834052477
 31
0.0
  0
LINE
  5
905C
  8
1
 10
2373.0189662182438
 20
-1037.2163476781011
 30
0.0
 11
1304.4062691105751
 21
-965.74674868475449
 31
0.0
  0
LINE
  5
905D
  8
1
 10
1303.805684245084
 20
-974.72668731591125
 30
0.0
 11
1305.006853976065
 21
-956.76681005359751
 31
0.0
  0
LINE
  5
905E
  8
1
 10
2372.4183813527529
 20
-1046.1962863092569
 30
0.0
 11
2373.6195510837351
 21
-1028.236409046945
 31
0.0
  0
LINE
  5
905F
  8
1
 10
2373.6195510837351
 20
-1028.236409046945
 30
0.0
 11
1305.006853976065
 21
-956.76681005359751
 31
0.0
  0
LINE
  5
9060
  8
1
 10
2372.4183813527529
 20
-1046.1962863092569
 30
0.0
 11
1303.805684245084
 21
-974.72668731591125
 31
0.0
  0
LINE
  5
9061
  8
2
 10
6929.4715597336317
 20
165.5995816594731
 30
0.0
 11
4863.4945926419332
 21
165.5995816594745
 31
0.0
  0
LINE
  5
9062
  8
1
 10
5165.0871082668837
 20
1274.5995816594741
 30
0.0
 11
6823.0871082668837
 21
1274.5995816594741
 31
0.0
  0
LINE
  5
9063
  8
1
 10
5165.0871082668837
 20
-943.40041834052579
 30
0.0
 11
6823.0871082668837
 21
-943.40041834052624
 31
0.0
  0
LINE
  5
9064
  8
1
 10
6744.0871082668846
 20
1195.5995816594721
 30
0.0
 11
5244.0871082668818
 21
1195.5995816594741
 31
0.0
  0
LINE
  5
9065
  8
1
 10
6744.0871082668846
 20
-864.40041834052704
 30
0.0
 11
5244.0871082668846
 21
-864.40041834052568
 31
0.0
  0
LINE
  5
9066
  8
1
 10
5165.0871082668837
 20
-943.40041834052579
 30
0.0
 11
5165.0871082668837
 21
1274.5995816594741
 31
0.0
  0
LINE
  5
9067
  8
1
 10
6823.0871082668837
 20
-943.40041834052579
 30
0.0
 11
6823.0871082668837
 21
1274.5995816594741
 31
0.0
  0
LINE
  5
9068
  8
1
 10
5244.0871082668846
 20
-864.40041834052568
 30
0.0
 11
6744.0871082668846
 21
1195.5995816594721
 31
0.0
  0
LINE
  5
9069
  8
1
 10
6744.0871082668846
 20
-864.40041834052704
 30
0.0
 11
5244.0871082668846
 21
1195.5995816594741
 31
0.0
  0
LINE
  5
906A
  8
1
 10
-631.14792269291127
 20
4030.7326331639651
 30
0.0
 11
-631.14792269291138
 21
5530.7326331639642
 31
0.0
  0
LINE
  5
906B
  8
1
 10
2379.8520773070882
 20
5609.7326331639606
 30
0.0
 11
2379.8520773070891
 21
3951.7326331639638
 31
0.0
  0
LINE
  5
906C
  8
1
 10
2304.8520773070882
 20
5530.7326331639642
 30
0.0
 11
2304.8520773070882
 21
4030.7326331639651
 31
0.0
  0
LINE
  5
906D
  8
1
 10
2373.8520773070882
 20
5609.7326331639606
 30
0.0
 11
2373.8520773070891
 21
3951.7326331639638
 31
0.0
  0
LINE
  5
906E
  8
1
 10
2373.8520773070882
 20
5609.7326331639606
 30
0.0
 11
2379.8520773070882
 21
5609.7326331639633
 31
0.0
  0
LINE
  5
906F
  8
1
 10
2373.8520773070891
 20
3951.7326331639638
 30
0.0
 11
2379.8520773070891
 21
3951.7326331639638
 31
0.0
  0
LINE
  5
9070
  8
1
 10
2284.8520773070891
 20
5530.7326331639642
 30
0.0
 11
2284.8520773070891
 21
5609.7326331639642
 31
0.0
  0
LINE
  5
9071
  8
1
 10
-75.147922692911351
 20
5530.7326331639642
 30
0.0
 11
-75.147922692911393
 21
5609.7326331639661
 31
0.0
  0
DIMENSION
  5
9072
  8
3
  2
*D31
 10
2284.8520773070891
 20
6211.2875301007589
 30
0.0
 11
1104.8520773070879
 21
6361.2875301007589
 31
0.0
 70
     0
 13
-75.147922692911393
 23
5609.7326331639642
 33
0.0
 14
2284.8520773070891
 24
5609.7326331639642
 34
0.0
1001
ACAD
1000
DSTYLE
1002
{
1070
   287
1070
     3
1070
   287
1070
     3
1070
   287
1070
     3
1070
    40
1040
60.0
1070
   143
1040
0.039
1070
   172
1070
     1
1070
   173
1070
     0
1070
   271
1070
     4
1070
   272
1070
     4
1070
   279
1070
     0
1070
   284
1070
     0
1070
   285
1070
     0
1070
   286
1070
     0
1070
   341
1005
7DAC
1070
     5
1000
OPEN30
1002
}
  0
DIMENSION
  5
907F
  8
3
  2
*D32
 10
-1415.14792269291
 20
6211.2875301007589
 30
0.0
 11
-745.14792269291104
 21
6361.2875301007589
 31
0.0
 70
     0
 13
-75.147922692911393
 23
5609.7326331639642
 33
0.0
 14
-1415.14792269291
 24
4749.7326331639651
 34
0.0
1001
ACAD
1000
DSTYLE
1002
{
1070
   287
1070
     3
1070
   287
1070
     3
1070
   287
1070
     3
1070
    40
1040
60.0
1070
   143
1040
0.039
1070
   172
1070
     1
1070
   173
1070
     0
1070
   271
1070
     4
1070
   272
1070
     4
1070
   279
1070
     0
1070
   284
1070
     0
1070
   285
1070
     0
1070
   286
1070
     0
1070
   341
1005
7DAC
1070
     5
1000
OPEN30
1002
}
  0
LINE
  5
908C
  8
2
 10
-1018.057051694547
 20
-1227.634532414208
 30
0.0
 11
-1018.057051694547
 21
-2369.3719263184248
 31
0.0
  0
LINE
  5
908D
  8
1
 10
-1248.057051694547
 20
-1322.400418340525
 30
0.0
 11
-1248.057051694547
 21
-1547.4004183405259
 31
0.0
  0
LINE
  5
908E
  8
1
 10
-818.05705169454723
 20
-1322.400418340525
 30
0.0
 11
-818.05705169454723
 21
-1547.400418340527
 31
0.0
  0
ARC
  5
908F
  8
1
 10
-1018.057051694547
 20
-1892.400418340525
 30
0.0
 40
310.0
 50
300.10230806830879
 51
239.89769193169101
  0
LINE
  5
9090
  8
1
 10
-1228.057051694547
 20
-1567.400418340525
 30
0.0
 11
-838.057051694547
 21
-1567.4004183405259
 31
0.0
  0
LINE
  5
9091
  8
1
 10
-1173.536183970152
 20
-2160.5910957079991
 30
0.0
 11
-862.5779194189389
 21
-2160.5910957079959
 31
0.0
  0
LINE
  5
9092
  8
2
 10
-1355.516015884305
 20
-1892.400418340525
 30
0.0
 11
-674.77982950151716
 21
-1892.400418340525
 31
0.0
  0
LINE
  5
9093
  8
1
 10
-1298.057051694554
 20
-2025.441765297056
 30
0.0
 11
-1298.057051694545
 21
-2172.4004183405241
 31
0.0
  0
LINE
  5
9094
  8
1
 10
-1298.057051694545
 20
-2172.4004183405241
 30
0.0
 11
-1188.057051694545
 21
-2172.4004183405241
 31
0.0
  0
LINE
  5
9095
  8
1
 10
-1298.057051694547
 20
-2142.400418340525
 30
0.0
 11
-1201.3600794927791
 21
-2142.400418340525
 31
0.0
  0
LINE
  5
9096
  8
1
 10
-1188.057051694547
 20
-2151.630046276839
 30
0.0
 11
-1188.057051694547
 21
-2172.4004183405241
 31
0.0
  0
LINE
  5
9097
  8
1
 10
-1246.557051694547
 20
-2127.2309698508798
 30
0.0
 11
-1246.557051694547
 21
-2218.8565329231351
 31
0.0
  0
ARC
  5
9098
  8
1
 10
-1228.057051694547
 20
-1547.4004183405259
 30
0.0
 40
20.0
 50
180.0
 51
270.0
  0
LINE
  5
9099
  8
1
 10
-848.05705169454745
 20
-2172.4004183405241
 30
0.0
 11
-738.05705169454723
 21
-2172.4004183405241
 31
0.0
  0
LINE
  5
909A
  8
1
 10
-848.05705169454745
 20
-2151.630046276839
 30
0.0
 11
-848.05705169454745
 21
-2172.4004183405241
 31
0.0
  0
LINE
  5
909B
  8
1
 10
-738.05705169454723
 20
-2025.441765297071
 30
0.0
 11
-738.05705169454723
 21
-2172.4004183405241
 31
0.0
  0
LINE
  5
909C
  8
1
 10
-834.75402389631438
 20
-2142.400418340525
 30
0.0
 11
-738.05705169454723
 21
-2142.400418340525
 31
0.0
  0
LINE
  5
909D
  8
1
 10
-789.55705169454723
 20
-2127.2309698508798
 30
0.0
 11
-789.55705169454723
 21
-2214.691734601668
 31
0.0
  0
ARC
  5
909E
  8
1
 10
-838.057051694547
 20
-1547.400418340527
 30
0.0
 40
20.0
 50
270.0
 51
0.0
  0
LINE
  5
909F
  8
1
 10
-1228.057051694547
 20
-1302.400418340525
 30
0.0
 11
-838.057051694547
 21
-1302.400418340525
 31
0.0
  0
ARC
  5
90A0
  8
1
 10
-1228.057051694547
 20
-1322.400418340525
 30
0.0
 40
20.0
 50
90.0
 51
180.0
  0
ARC
  5
90A1
  8
1
 10
-838.057051694547
 20
-1322.400418340525
 30
0.0
 40
20.0
 50
0.0
 51
90.0
  0
LINE
  5
90A2
  8
1
 10
-916.35063707027894
 20
-1442.400418340525
 30
0.0
 11
-762.05369955059268
 21
-1442.400418340525
 31
0.0
  0
LINE
  5
90A3
  8
1
 10
-1407.5220065870401
 20
-2172.4004183405241
 30
0.0
 11
-628.59209680205424
 21
-2172.4004183405241
 31
0.0
  0
LINE
  5
90A4
  8
1
 10
-628.59209680205424
 20
-2172.4004183405241
 30
0.0
 11
-618.05705169454734
 21
-2252.400418340525
 31
0.0
  0
LINE
  5
90A5
  8
1
 10
-1407.5220065870401
 20
-2172.4004183405241
 30
0.0
 11
-1418.057051694547
 21
-2252.400418340525
 31
0.0
  0
LINE
  5
90A6
  8
1
 10
-1415.14792269291
 20
-2252.400418340525
 30
0.0
 11
-1418.057051694547
 21
-2252.400418340525
 31
0.0
  0
LINE
  5
90A7
  8
1
 10
-708.057051694547
 20
4519.6470688482132
 30
0.0
 11
-708.05705169454723
 21
3890.7326331639638
 31
0.0
  0
LINE
  5
90A8
  8
2
 10
-1018.057051694547
 20
4865.5087373097131
 30
0.0
 11
-1018.057051694547
 21
3645.777026795548
 31
0.0
  0
LINE
  5
90A9
  8
1
 10
-708.057051694547
 20
4541.0418950137837
 30
0.0
 11
-1328.0570516945479
 21
4541.0418950137819
 31
0.0
  0
LINE
  5
90AA
  8
1
 10
-758.057051694547
 20
4710.9258576349403
 30
0.0
 11
-1278.057051694547
 21
4710.9258576349366
 31
0.0
  0
LINE
  5
90AB
  8
1
 10
-708.057051694547
 20
4660.9258576349403
 30
0.0
 11
-708.05705169454609
 21
4541.0418950137819
 31
0.0
  0
ARC
  5
90AC
  8
1
 10
-758.057051694547
 20
4660.9258576349403
 30
0.0
 40
50.0
 50
0.0
 51
90.0
  0
LINE
  5
90AD
  8
1
 10
-732.60818212329434
 20
4541.0418950137837
 30
0.0
 11
-708.05705169454791
 21
4519.6470688482132
 31
0.0
  0
LINE
  5
90AE
  8
1
 10
-1298.057051694547
 20
3866.9258576349412
 30
0.0
 11
-1328.057051694544
 21
3866.9258576349412
 31
0.0
  0
LINE
  5
90AF
  8
1
 10
-708.05705169454632
 20
3901.4258576349348
 30
0.0
 11
-1328.057051694544
 21
3901.4258576349362
 31
0.0
  0
LINE
  5
90B0
  8
2
 10
-671.4176837079084
 20
4215.9258576349366
 30
0.0
 11
-1390.0055787116321
 21
4215.9258576349366
 31
0.0
  0
LINE
  5
90B1
  8
1
 10
-618.05705169454734
 20
3927.400798312447
 30
0.0
 11
-618.05705169454734
 21
4030.7326331639638
 31
0.0
  0
LINE
  5
90B2
  8
1
 10
-1418.057051694547
 20
3927.400798312447
 30
0.0
 11
-1418.057051694545
 21
4474.5558672326943
 31
0.0
  0
LINE
  5
90B3
  8
1
 10
-1418.057051694545
 20
4474.5558672326943
 30
0.0
 11
-1328.057051694547
 21
4474.5558672326943
 31
0.0
  0
LINE
  5
90B4
  8
1
 10
-1418.057051694547
 20
3927.400798312447
 30
0.0
 11
-1328.057051694544
 21
3927.400798312447
 31
0.0
  0
LINE
  5
90B5
  8
1
 10
-708.057051694547
 20
4474.5558672326943
 30
0.0
 11
-631.14792269291138
 21
4474.5558672326943
 31
0.0
  0
LINE
  5
90B6
  8
1
 10
-708.05705169454723
 20
3927.400798312447
 30
0.0
 11
-618.05705169454734
 21
3927.4007983124461
 31
0.0
  0
DIMENSION
  5
90B7
  8
3
  2
*D33
 10
2284.8520773070891
 20
2739.3151865753821
 30
0.0
 11
434.85207730708919
 21
2889.3151865753821
 31
0.0
 70
     0
 13
-1415.14792269291
 23
3549.7326331639638
 33
0.0
 14
2284.8520773070891
 24
3549.7326331639638
 34
0.0
1001
ACAD
1000
DSTYLE
1002
{
1070
   287
1070
     3
1070
   287
1070
     3
1070
   287
1070
     3
1070
    40
1040
60.0
1070
   143
1040
0.039
1070
   172
1070
     1
1070
   173
1070
     0
1070
   271
1070
     4
1070
   272
1070
     4
1070
   279
1070
     0
1070
   284
1070
     0
1070
   285
1070
     0
1070
   286
1070
     0
1070
   341
1005
7DAC
1070
     5
1000
OPEN30
1002
}
  0
DIMENSION
  5
90C4
  8
3
  2
*D34
 10
-2270.0895603809331
 20
3549.7326331639638
 30
0.0
 11
-2420.0895603809331
 21
4149.7326331639642
 31
0.0
 70
     0
 13
-1415.14792269291
 23
4749.7326331639651
 33
0.0
 14
-1415.14792269291
 24
3549.7326331639638
 34
0.0
 50
90.0
1001
ACAD
1000
DSTYLE
1002
{
1070
   287
1070
     3
1070
   287
1070
     3
1070
   287
1070
     3
1070
    40
1040
60.0
1070
   143
1040
0.039
1070
   172
1070
     1
1070
   173
1070
     0
1070
   271
1070
     4
1070
   272
1070
     4
1070
   279
1070
     0
1070
   284
1070
     0
1070
   285
1070
     0
1070
   286
1070
     0
1070
   341
1005
7DAC
1070
     5
1000
OPEN30
1002
}
  0
DIMENSION
  5
90D1
  8
3
  2
*D35
 10
3231.0711652073942
 20
5609.7326331639642
 30
0.0
 11
3081.0711652073942
 21
4579.7326331639642
 31
0.0
 70
     0
 13
2284.8520773070891
 23
3549.7326331639638
 33
0.0
 14
2284.8520773070891
 24
5609.7326331639642
 34
0.0
 50
90.0
1001
ACAD
1000
DSTYLE
1002
{
1070
   287
1070
     3
1070
   287
1070
     3
1070
   287
1070
     3
1070
    40
1040
60.0
1070
   143
1040
0.039
1070
   172
1070
     1
1070
   173
1070
     0
1070
   271
1070
     4
1070
   272
1070
     4
1070
   279
1070
     0
1070
   284
1070
     0
1070
   285
1070
     0
1070
   286
1070
     0
1070
   341
1005
7DAC
1070
     5
1000
OPEN30
1002
}
  0
DIMENSION
  5
90DE
  8
3
  2
*D36
 10
1104.8520773070879
 20
1819.7047082806439
 30
0.0
 11
1742.3520773070879
 21
1969.7047082806439
 31
0.0
 70
     0
 13
2379.8520773070882
 23
1274.5995816594741
 33
0.0
 14
1104.8520773070879
 24
1402.992304597595
 34
0.0
1001
ACAD
1000
DSTYLE
1002
{
1070
   287
1070
     3
1070
   287
1070
     3
1070
   287
1070
     3
1070
    40
1040
60.0
1070
   143
1040
0.039
1070
   172
1070
     1
1070
   173
1070
     0
1070
   271
1070
     4
1070
   272
1070
     4
1070
   279
1070
     0
1070
   284
1070
     0
1070
   285
1070
     0
1070
   286
1070
     0
1070
   341
1005
7DAC
1070
     5
1000
OPEN30
1002
}
  0
CIRCLE
  5
90EB
  8
1
 10
-1015.14792269291
 20
-1892.400418340525
 30
0.0
 40
150.0
  0
ARC
  5
90EC
  8
1
 10
-1015.14792269291
 20
-1892.400418340525
 30
0.0
 40
280.0
 50
120.5982513323361
 51
287.22638377116539
  0
LINE
  5
90ED
  8
1
 10
-1090.376760690737
 20
-1762.628996473085
 30
0.0
 11
904.24184264621749
 21
-606.34329336068811
 31
0.0
  0
LINE
  5
90EE
  8
1
 10
-969.48397870772862
 20
-2035.280802647532
 30
0.0
 11
1226.6225946009081
 21
-1333.414776492544
 31
0.0
  0
LINE
  5
90EF
  8
1
 10
-1157.672163477579
 20
-1651.388300826168
 30
0.0
 11
824.89374719434863
 21
-478.98375893732418
 31
0.0
  0
LINE
  5
90F0
  8
1
 10
-932.22650823773404
 20
-2159.8402041330519
 30
0.0
 11
1267.733427129758
 21
-1477.7285690044171
 31
0.0
  0
DIMENSION
  5
90F1
  8
3
  2
*D37
 10
3574.436036076027
 20
-2432.400418340525
 30
0.0
 11
3424.4360360760279
 21
-1692.400418340525
 31
0.0
 70
     0
 13
2686.6021523941122
 23
-952.40041834052556
 33
0.0
 14
2284.8520773070891
 24
-2432.400418340525
 34
0.0
 50
270.0
1001
ACAD
1000
DSTYLE
1002
{
1070
   287
1070
     3
1070
   287
1070
     3
1070
   287
1070
     3
1070
    40
1040
60.0
1070
   143
1040
0.039
1070
   172
1070
     1
1070
   173
1070
     0
1070
   271
1070
     4
1070
   272
1070
     4
1070
   279
1070
     0
1070
   284
1070
     0
1070
   285
1070
     0
1070
   286
1070
     0
1070
   341
1005
7DAC
1070
     5
1000
OPEN30
1002
}
  0
DIMENSION
  5
90FE
  8
3
  2
*D38
 10
6744.0871082668846
 20
1746.228386170056
 30
0.0
 11
5994.0871082668828
 21
1896.228386170056
 31
0.0
 70
     0
 13
5244.0871082668818
 23
1195.5995816594741
 33
0.0
 14
6744.0871082668846
 24
1195.5995816594721
 34
0.0
1001
ACAD
1000
DSTYLE
1002
{
1070
   287
1070
     3
1070
   287
1070
     3
1070
   287
1070
     3
1070
    40
1040
60.0
1070
   143
1040
0.039
1070
   172
1070
     1
1070
   173
1070
     0
1070
   271
1070
     4
1070
   272
1070
     4
1070
   279
1070
     0
1070
   284
1070
     0
1070
   285
1070
     0
1070
   286
1070
     0
1070
   341
1005
7DAC
1070
     5
1000
OPEN30
1002
}
  0
DIMENSION
  5
910B
  8
3
  2
*D39
 10
5994.0871082668846
 20
2210.4019307734702
 30
0.0
 11
5369.0871082668846
 21
2407.544787916328
 31
0.0
 70
     0
  1
(<>)
 13
4744.0871082668837
 23
-402.40041834052528
 33
0.0
 14
5994.0871082668846
 24
2190.387276049194
 34
0.0
1001
ACAD
1000
DSTYLE
1002
{
1070
   287
1070
     3
1070
   287
1070
     3
1070
   287
1070
     3
1070
    40
1040
60.0
1070
   143
1040
0.039
1070
   172
1070
     1
1070
   173
1070
     0
1070
   271
1070
     4
1070
   272
1070
     4
1070
   279
1070
     0
1070
   284
1070
     0
1070
   285
1070
     0
1070
   286
1070
     0
1070
   341
1005
7DAC
1070
     5
1000
OPEN30
1002
}
  0
DIMENSION
  5
9118
  8
3
  2
*D40
 10
6898.0871082668837
 20
2210.4019307734702
 30
0.0
 11
6446.0871082668828
 21
2360.4019307734702
 31
0.0
 70
     0
 13
5994.0871082668846
 23
2190.387276049194
 33
0.0
 14
6898.0871082668837
 24
122.5995816594732
 34
0.0
1001
ACAD
1000
DSTYLE
1002
{
1070
   287
1070
     4
1070
   287
1070
     4
1070
   287
1070
     4
1070
    40
1040
60.0
1070
   143
1040
0.039
1070
   172
1070
     1
1070
   173
1070
     0
1070
   271
1070
     4
1070
   272
1070
     4
1070
   279
1070
     1
1070
   284
1070
     0
1070
   285
1070
     0
1070
   286
1070
     0
1070
   341
1005
7DAC
1070
     5
1000
OPEN30
1002
}
  0
LINE
  5
9125
  8
2
 10
5994.0871082668846
 20
2029.0658610641251
 30
0.0
 11
5994.0871082668846
 21
2380.5268050313521
 31
0.0
  0
LINE
  5
9126
  8
1
 10
-1328.057051694547
 20
4519.6470688482123
 30
0.0
 11
-1328.057051694544
 21
3866.9258576349412
 31
0.0
  0
LINE
  5
9127
  8
1
 10
-1303.5059212658
 20
4541.0418950137819
 30
0.0
 11
-1328.0570516945461
 21
4519.6470688482123
 31
0.0
  0
ARC
  5
9128
  8
1
 10
-1278.057051694547
 20
4660.9258576349393
 30
0.0
 40
50.0
 50
90.000000000000185
 51
180.00000000000011
  0
LINE
  5
9129
  8
1
 10
-1328.057051694547
 20
4660.9258576349393
 30
0.0
 11
-1328.0570516945479
 21
4541.0418950137819
 31
0.0
  0
LINE
  5
912A
  8
1
 10
-710.00111606229689
 20
4674.7326331639688
 30
0.0
 11
-631.14792269291138
 21
4674.7326331639688
 31
0.0
  0
ENDSEC
  0
EOF
