  0
SECTION
  2
HEADER
  9
$ACADVER
  1
AC1009
  9
$INSBASE
 10
0.0
 20
0.0
 30
0.0
  9
$EXTMIN
 10
19743.6842405604
 20
-4133.7711895956081
 30
0.0
  9
$EXTMAX
 10
32343.684240560389
 20
13566.228810404389
 30
0.0
  9
$LIMMIN
 10
0.0
 20
0.0
  9
$LIMMAX
 10
297.0
 20
210.0
  9
$ORTHOMODE
 70
     0
  9
$REGENMODE
 70
     1
  9
$FILLMODE
 70
     1
  9
$QTEXTMODE
 70
     0
  9
$MIRRTEXT
 70
     0
  9
$DRAGMODE
 70
     2
  9
$LTSCALE
 40
225.0
  9
$OSMODE
 70
    37
  9
$ATTMODE
 70
     1
  9
$TEXTSIZE
 40
120.0
  9
$TRACEWID
 40
0.05
  9
$TEXTSTYLE
  7
STANDARD
  9
$CLAYER
  8
SP
  9
$CELTYPE
  6
BYLAYER
  9
$CECOLOR
 62
   256
  9
$DIMSCALE
 40
45.0
  9
$DIMASZ
 40
2.0
  9
$DIMEXO
 40
1.0
  9
$DIMDLI
 40
10.0
  9
$DIMRND
 40
0.0
  9
$DIMDLE
 40
0.0
  9
$DIMEXE
 40
1.0
  9
$DIMTP
 40
0.0
  9
$DIMTM
 40
0.0
  9
$DIMTXT
 40
3.0
  9
$DIMCEN
 40
0.0
  9
$DIMTSZ
 40
0.0
  9
$DIMTOL
 70
     0
  9
$DIMLIM
 70
     0
  9
$DIMTIH
 70
     0
  9
$DIMTOH
 70
     0
  9
$DIMSE1
 70
     0
  9
$DIMSE2
 70
     0
  9
$DIMTAD
 70
     1
  9
$DIMZIN
 70
     8
  9
$DIMBLK
  1

  9
$DIMASO
 70
     1
  9
$DIMSHO
 70
     1
  9
$DIMPOST
  1

  9
$DIMAPOST
  1

  9
$DIMALT
 70
     0
  9
$DIMALTD
 70
     2
  9
$DIMALTF
 40
25.399999999999999
  9
$DIMLFAC
 40
1.0
  9
$DIMTOFL
 70
     1
  9
$DIMTVP
 40
0.0
  9
$DIMTIX
 70
     0
  9
$DIMSOXD
 70
     0
  9
$DIMSAH
 70
     1
  9
$DIMBLK1
  1
OPEN
  9
$DIMBLK2
  1
OPEN
  9
$DIMSTYLE
  2
DIA1
  9
$DIMCLRD
 70
     2
  9
$DIMCLRE
 70
     2
  9
$DIMCLRT
 70
     2
  9
$DIMTFAC
 40
1.0
  9
$DIMGAP
 40
0.5
  9
$LUNITS
 70
     2
  9
$LUPREC
 70
     3
  9
$SKETCHINC
 40
0.1
  9
$FILLETRAD
 40
10.0
  9
$AUNITS
 70
     0
  9
$AUPREC
 70
     2
  9
$MENU
  1
acad
  9
$ELEVATION
 40
0.0
  9
$PELEVATION
 40
0.0
  9
$THICKNESS
 40
0.0
  9
$LIMCHECK
 70
     0
  9
$BLIPMODE
 70
     0
  9
$CHAMFERA
 40
10.0
  9
$CHAMFERB
 40
10.0
  9
$SKPOLY
 70
     0
  9
$TDCREATE
 40
2451270.426261805
  9
$TDUPDATE
 40
2454953.6376432292
  9
$TDINDWG
 40
0.8499386343000001
  9
$TDUSRTIMER
 40
0.8499386343000001
  9
$USRTIMER
 70
     1
  9
$ANGBASE
 50
0.0
  9
$ANGDIR
 70
     0
  9
$PDMODE
 70
     0
  9
$PDSIZE
 40
1.0
  9
$PLINEWID
 40
0.0
  9
$COORDS
 70
     1
  9
$SPLFRAME
 70
     0
  9
$SPLINETYPE
 70
     6
  9
$SPLINESEGS
 70
     8
  9
$ATTDIA
 70
     0
  9
$ATTREQ
 70
     1
  9
$HANDLING
 70
 10241
  9
$HANDSEED
  5
3152
  9
$SURFTAB1
 70
     6
  9
$SURFTAB2
 70
     6
  9
$SURFTYPE
 70
     6
  9
$SURFU
 70
     6
  9
$SURFV
 70
     6
  9
$UCSNAME
  2

  9
$UCSORG
 10
0.0
 20
0.0
 30
0.0
  9
$UCSXDIR
 10
1.0
 20
0.0
 30
0.0
  9
$UCSYDIR
 10
0.0
 20
1.0
 30
0.0
  9
$PUCSNAME
  2

  9
$PUCSORG
 10
0.0
 20
0.0
 30
0.0
  9
$PUCSXDIR
 10
1.0
 20
0.0
 30
0.0
  9
$PUCSYDIR
 10
0.0
 20
1.0
 30
0.0
  9
$USERI1
 70
     0
  9
$USERI2
 70
     0
  9
$USERI3
 70
     0
  9
$USERI4
 70
     0
  9
$USERI5
 70
     0
  9
$USERR1
 40
0.0
  9
$USERR2
 40
0.0
  9
$USERR3
 40
0.0
  9
$USERR4
 40
0.0
  9
$USERR5
 40
0.0
  9
$WORLDVIEW
 70
     1
  9
$SHADEDGE
 70
     3
  9
$SHADEDIF
 70
    70
  9
$TILEMODE
 70
     1
  9
$MAXACTVP
 70
    16
  9
$PLIMCHECK
 70
     0
  9
$PEXTMIN
 10
1.0000000000000000E+020
 20
1.0000000000000000E+020
 30
1.0000000000000000E+020
  9
$PEXTMAX
 10
-1.0000000000000000E+020
 20
-1.0000000000000000E+020
 30
-1.0000000000000000E+020
  9
$PLIMMIN
 10
0.0
 20
0.0
  9
$PLIMMAX
 10
12.0
 20
9.0
  9
$UNITMODE
 70
     0
  9
$VISRETAIN
 70
     0
  9
$PLINEGEN
 70
     0
  9
$PSLTSCALE
 70
     0
  0
ENDSEC
  0
SECTION
  2
TABLES
  0
TABLE
  2
VPORT
 70
     2
  0
VPORT
  2
*ACTIVE
 70
     0
 10
0.0
 20
0.0
 11
1.0
 21
1.0
 12
31754.94597168811
 22
-2070.3118629651171
 13
0.0
 23
0.0
 14
5.0
 24
5.0
 15
0.0
 25
0.0
 16
0.0
 26
0.0
 36
1.0
 17
0.0
 27
0.0
 37
0.0
 40
5363.5648566021282
 41
3.1666666666666661
 42
50.0
 43
0.0
 44
0.0
 50
0.0
 51
0.0
 71
     0
 72
   100
 73
     1
 74
     0
 75
     0
 76
     0
 77
     0
 78
     0
  0
ENDTAB
  0
TABLE
  2
LTYPE
 70
     4
  0
LTYPE
  2
CONTINUOUS
 70
     0
  3
Solid line
 72
    65
 73
     0
 40
0.0
  0
LTYPE
  2
CENTER
 70
     0
  3
____ _ ____ _ ____ _ ____ _ ____ _ ____ _ ____ 
 72
    65
 73
     4
 40
2.0
 49
1.25
 49
-0.25
 49
0.25
 49
-0.25
  0
LTYPE
  2
HIDDEN
 70
     0
  3
__ __ __ __ __ __ __ __ __ __ __ __ __ __ __ __
 72
    65
 73
     2
 40
0.375
 49
0.25
 49
-0.125
  0
LTYPE
  2
PHANTOM
 70
     0
  3
______  __  __  ______  __  __  ______  __  __ 
 72
    65
 73
     6
 40
2.5
 49
1.25
 49
-0.25
 49
0.25
 49
-0.25
 49
0.25
 49
-0.25
  0
ENDTAB
  0
TABLE
  2
LAYER
 70
     9
  0
LAYER
  2
0
 70
     0
 62
     7
  6
CONTINUOUS
  0
LAYER
  2
CT
 70
     0
 62
     3
  6
CENTER
  0
LAYER
  2
FUTO
 70
     0
 62
     4
  6
CONTINUOUS
  0
LAYER
  2
HOSO
 70
     0
 62
     7
  6
CONTINUOUS
  0
LAYER
  2
KL
 70
     0
 62
     7
  6
HIDDEN
  0
LAYER
  2
SL
 70
     0
 62
     1
  6
PHANTOM
  0
LAYER
  2
SP
 70
     0
 62
     2
  6
CONTINUOUS
  0
LAYER
  2
DEFPOINTS
 70
     0
 62
     7
  6
CONTINUOUS
  0
LAYER
  2
4
 70
     0
 62
     7
  6
CONTINUOUS
  0
ENDTAB
  0
TABLE
  2
STYLE
 70
     1
  0
STYLE
  2
STANDARD
 70
     0
 40
0.0
 41
1.0
 50
15.0
 71
     0
 42
120.0
  3
C:\Program Files\AutoCAD LT\simplex.shx
  4
C:\Program Files\AutoCAD LT\extfont.shx
  0
ENDTAB
  0
TABLE
  2
VIEW
 70
     0
  0
ENDTAB
  0
TABLE
  2
UCS
 70
     0
  0
ENDTAB
  0
TABLE
  2
APPID
 70
     2
  0
APPID
  2
ACAD
 70
     0
  0
APPID
  2
CONTENTBLOCKICON
 70
     0
  0
ENDTAB
  0
TABLE
  2
DIMSTYLE
 70
     2
  0
DIMSTYLE
  2
DIA1
 70
     0
  3

  4

  5

  6

  7

 40
1.0
 41
2.0
 42
1.0
 43
10.0
 44
1.0
 45
0.0
 46
0.0
 47
0.0
 48
0.0
140
2.5
141
0.0
142
0.0
143
25.399999999999999
144
1.0
145
0.0
146
1.0
147
0.09
 71
     0
 72
     0
 73
     0
 74
     0
 75
     0
 76
     0
 77
     1
 78
     8
170
     0
171
     2
172
     1
173
     0
174
     0
175
     0
176
     2
177
     2
178
     2
  0
DIMSTYLE
  2
STANDARD
 70
     0
  3

  4

  5

  6

  7

 40
1.0
 41
0.18
 42
0.0625
 43
0.38
 44
0.18
 45
0.0
 46
0.0
 47
0.0
 48
0.0
140
0.18
141
0.09
142
0.0
143
25.399999999999999
144
1.0
145
0.0
146
1.0
147
0.09
 71
     0
 72
     0
 73
     1
 74
     1
 75
     0
 76
     0
 77
     0
 78
     0
170
     0
171
     2
172
     0
173
     0
174
     0
175
     0
176
     0
177
     0
178
     0
  0
ENDTAB
  0
ENDSEC
  0
SECTION
  2
BLOCKS
  0
BLOCK
  8
0
  2
$MODEL_SPACE
 70
     0
 10
0.0
 20
0.0
 30
0.0
  3
$MODEL_SPACE
  1

  0
ENDBLK
  5
7
  8
0
  0
BLOCK
 67
     1
  8
0
  2
$PAPER_SPACE
 70
     0
 10
0.0
 20
0.0
 30
0.0
  3
$PAPER_SPACE
  1

  0
ENDBLK
  5
A
 67
     1
  8
0
  0
BLOCK
  8
0
  2
_OPEN
 70
     0
 10
0.0
 20
0.0
 30
0.0
  3
_OPEN
  1

  0
LINE
  5
25
  8
0
  6
BYBLOCK
 62
     0
 10
-1.0
 20
0.1666666666666666
 30
0.0
 11
0.0
 21
0.0
 31
0.0
  0
LINE
  5
26
  8
0
  6
BYBLOCK
 62
     0
 10
0.0
 20
0.0
 30
0.0
 11
-1.0
 21
-0.1666666666666666
 31
0.0
  0
LINE
  5
27
  8
0
  6
BYBLOCK
 62
     0
 10
0.0
 20
0.0
 30
0.0
 11
-1.0
 21
0.0
 31
0.0
  0
ENDBLK
  5
29
  8
0
  0
BLOCK
  8
0
  2
_DOT
 70
     0
 10
0.0
 20
0.0
 30
0.0
  3
_DOT
  1

  0
POLYLINE
  5
16D
  8
0
  6
BYBLOCK
 62
     0
 66
     1
 10
0.0
 20
0.0
 30
0.0
 70
     1
 40
0.25
 41
0.25
  0
VERTEX
  5
30D8
  8
0
  6
BYBLOCK
 62
     0
 10
-0.125
 20
0.0
 30
0.0
 42
1.0
  0
VERTEX
  5
30D9
  8
0
  6
BYBLOCK
 62
     0
 10
0.125
 20
0.0
 30
0.0
 42
1.0
  0
SEQEND
  5
30DA
  8
0
  6
BYBLOCK
 62
     0
  0
LINE
  5
171
  8
0
  6
BYBLOCK
 62
     0
 10
-0.25
 20
0.0
 30
0.0
 11
-1.0
 21
0.0
 31
0.0
  0
ENDBLK
  5
173
  8
0
  0
BLOCK
  8
0
  2
L-75-6
 70
     0
 10
0.0
 20
0.0
 30
0.0
  3
L-75-6
  1

  0
LINE
  5
293
  8
0
 10
114.6064614035558
 20
81.429596884474719
 30
0.0
 11
189.60646140355581
 21
81.429596884474719
 31
0.0
  0
LINE
  5
294
  8
0
 10
114.6064614035558
 20
81.429596884474719
 30
0.0
 11
114.6064614035558
 21
156.42959688447471
 31
0.0
  0
LINE
  5
295
  8
0
 10
189.60646140355581
 20
81.429596884474719
 30
0.0
 11
189.60646140355581
 21
83.429596884474705
 31
0.0
  0
LINE
  5
296
  8
0
 10
114.6064614035558
 20
156.42959688447471
 30
0.0
 11
116.6064614035558
 21
156.42959688447471
 31
0.0
  0
LINE
  5
297
  8
0
 10
120.6064614035558
 20
95.929596884474705
 30
0.0
 11
120.6064614035558
 21
152.42959688447471
 31
0.0
  0
LINE
  5
298
  8
0
 10
129.10646140355581
 20
87.429596884474719
 30
0.0
 11
185.60646140355581
 21
87.429596884474719
 31
0.0
  0
ARC
  5
299
  8
0
 10
185.60646140355581
 20
83.429596884474705
 30
0.0
 40
4.0
 50
0.0
 51
90.0
  0
ARC
  5
29A
  8
0
 10
116.6064614035558
 20
152.42959688447471
 30
0.0
 40
4.0
 50
0.0
 51
90.0
  0
ARC
  5
29B
  8
0
 10
129.10646140355581
 20
95.929596884474705
 30
0.0
 40
8.5
 50
180.0
 51
270.0
  0
ENDBLK
  5
29D
  8
0
  0
BLOCK
  8
0
  2
22222F
 70
     0
 10
0.0
 20
0.0
 30
0.0
  3
22222F
  1

  0
ARC
  5
228
  8
FUTO
 10
-0.0000000000000568
 20
0.0
 30
0.0
 40
130.0
 50
124.6637959032814
 51
175.3362040967184
  0
ARC
  5
229
  8
FUTO
 10
-0.0000000000000568
 20
0.0
 30
0.0
 40
130.0
 50
4.6637959032815717
 51
55.336204096718511
  0
ARC
  5
22A
  8
FUTO
 10
-0.0000000000000568
 20
0.0
 30
0.0
 40
115.0
 50
8.9772148936872895
 51
51.022785106312661
  0
ARC
  5
22B
  8
FUTO
 10
-0.0000000000000568
 20
0.0
 30
0.0
 40
115.0
 50
128.9772148936872
 51
171.02278510631271
  0
ARC
  5
22C
  8
FUTO
 10
-57.499999999999829
 20
99.592921435210386
 30
0.0
 40
18.0
 50
25.51139255315622
 51
214.4886074468437
  0
ARC
  5
22D
  8
FUTO
 10
57.5
 20
99.592921435210243
 30
0.0
 40
18.0
 50
325.51139255315621
 51
154.4886074468437
  0
LINE
  5
22E
  8
FUTO
 10
-110.0
 20
-127.0
 30
0.0
 11
-0.0000000000000568
 21
-127.0
 31
0.0
  0
ARC
  5
22F
  8
FUTO
 10
-0.0000000000000568
 20
0.0
 30
0.0
 40
115.0
 50
248.9772148936872
 51
291.0227851063126
  0
CIRCLE
  5
230
  8
FUTO
 10
-0.0000000000000568
 20
0.0
 30
0.0
 40
54.0
  0
LINE
  5
231
  8
CT
 10
-190.0
 20
-140.0
 30
0.0
 11
-190.0
 21
-70.0
 31
0.0
  0
LINE
  5
232
  8
FUTO
 10
-225.0
 20
-130.0
 30
0.0
 11
-110.0
 21
-130.0
 31
0.0
  0
LINE
  5
233
  8
FUTO
 10
-125.0000000000001
 20
-80.0
 30
0.0
 11
-222.0
 21
-80.0
 31
0.0
  0
ARC
  5
234
  8
FUTO
 10
-222.0
 20
-83.0
 30
0.0
 40
3.0
 50
90.0
 51
180.0
  0
LINE
  5
235
  8
FUTO
 10
-225.0
 20
-83.0
 30
0.0
 11
-225.0
 21
-130.0
 31
0.0
  0
LINE
  5
236
  8
FUTO
 10
-129.99999999999929
 20
-9.9498743710669828
 30
0.0
 11
-130.0
 21
-60.0
 31
0.0
  0
ARC
  5
237
  8
FUTO
 10
-0.0000000000000568
 20
0.0
 30
0.0
 40
115.0
 50
188.9772148936872
 51
231.02278510631271
  0
LINE
  5
238
  8
FUTO
 10
-125.0000000000001
 20
-80.0
 30
0.0
 11
-110.0000000000001
 21
-95.0
 31
0.0
  0
ARC
  5
239
  8
FUTO
 10
-150.0
 20
-60.0
 30
0.0
 40
20.0
 50
270.0
 51
0.0
  0
LINE
  5
23A
  8
FUTO
 10
-110.0
 20
-130.0
 30
0.0
 11
-110.0000000000001
 21
-95.0
 31
0.0
  0
ARC
  5
23B
  8
FUTO
 10
-57.500000000000057
 20
-99.592921435210542
 30
0.0
 40
18.0
 50
145.51139255315621
 51
334.48860744684367
  0
ARC
  5
23C
  8
FUTO
 10
-115.0
 20
0.0
 30
0.0
 40
18.0
 50
85.511392553156256
 51
274.48860744684367
  0
LINE
  5
23D
  8
CT
 10
190.0
 20
-140.0
 30
0.0
 11
190.0
 21
-70.0
 31
0.0
  0
ARC
  5
23E
  8
FUTO
 10
150.0
 20
-60.0
 30
0.0
 40
20.0
 50
180.0
 51
270.0
  0
LINE
  5
23F
  8
FUTO
 10
222.0000000000004
 20
-80.0
 30
0.0
 11
124.9999999999997
 21
-80.0
 31
0.0
  0
LINE
  5
240
  8
FUTO
 10
110.0
 20
-130.0
 30
0.0
 11
225.0
 21
-130.0
 31
0.0
  0
LINE
  5
241
  8
FUTO
 10
130.0
 20
-60.0
 30
0.0
 11
130.0
 21
-9.9498743710661302
 31
0.0
  0
ARC
  5
242
  8
FUTO
 10
-0.0000000000000568
 20
0.0
 30
0.0
 40
115.0
 50
308.97721489368718
 51
351.02278510631271
  0
LINE
  5
243
  8
FUTO
 10
-0.0000000000000568
 20
-127.0
 30
0.0
 11
110.0
 21
-127.0
 31
0.0
  0
ARC
  5
244
  8
FUTO
 10
57.5
 20
-99.592921435210542
 30
0.0
 40
18.0
 50
205.51139255315621
 51
34.488607446843737
  0
LINE
  5
245
  8
FUTO
 10
109.9999999999997
 20
-95.0
 30
0.0
 11
124.9999999999997
 21
-80.0
 31
0.0
  0
LINE
  5
246
  8
FUTO
 10
109.9999999999997
 20
-95.0
 30
0.0
 11
110.0
 21
-130.0
 31
0.0
  0
ARC
  5
247
  8
FUTO
 10
115.0
 20
0.0
 30
0.0
 40
18.0
 50
265.51139255315621
 51
94.488607446843773
  0
ARC
  5
248
  8
FUTO
 10
222.0000000000004
 20
-83.0
 30
0.0
 40
3.0
 50
0.0
 51
90.0
  0
LINE
  5
249
  8
FUTO
 10
225.0
 20
-130.0
 30
0.0
 11
225.0000000000004
 21
-83.0
 31
0.0
  0
LINE
  5
24A
  8
FUTO
 10
19.227247756821669
 20
132.99999999999989
 30
0.0
 11
-19.227247756821779
 21
132.99999999999989
 31
0.0
  0
ARC
  5
24B
  8
FUTO
 10
-0.0000000000000568
 20
0.0
 30
0.0
 40
115.0
 50
68.977214893687218
 51
111.0227851063126
  0
ARC
  5
24C
  8
FUTO
 10
-0.0000000000000568
 20
0.0
 30
0.0
 40
130.0
 50
98.505358450480756
 51
115.3362040967184
  0
LINE
  5
24D
  8
FUTO
 10
-19.227247756821779
 20
113.3812724558063
 30
0.0
 11
-19.227247756821779
 21
132.99999999999989
 31
0.0
  0
ARC
  5
24E
  8
FUTO
 10
-0.0000000000000568
 20
0.0
 30
0.0
 40
130.0
 50
64.663795903281382
 51
81.494641549519287
  0
LINE
  5
24F
  8
FUTO
 10
19.227247756821669
 20
113.3812724558063
 30
0.0
 11
19.227247756821669
 21
132.99999999999989
 31
0.0
  0
ENDBLK
  5
251
  8
0
  0
BLOCK
  8
0
  2
まっすぐの矢印
 70
     0
 10
0.0
 20
0.0
 30
0.0
  3
まっすぐの矢印
  1

  0
LINE
  5
2CF
  8
SP
 10
0.6962157491662495
 20
-2.216890595009601
 30
0.0
 11
0.6962157491662495
 21
-5.0
 31
0.0
  0
LINE
  5
2D0
  8
SP
 10
0.6962157491662495
 20
-5.0
 30
0.0
 11
-0.6962157491662495
 21
-5.0
 31
0.0
  0
LINE
  5
2D1
  8
SP
 10
-0.6962157491662495
 20
-5.0
 30
0.0
 11
-0.6962157491662495
 21
-2.216890595009601
 31
0.0
  0
LINE
  5
2D2
  8
SP
 10
-0.6962157491662495
 20
-2.216890595009601
 30
0.0
 11
-1.7145256852758151
 21
-2.216890595009601
 31
0.0
  0
LINE
  5
2D3
  8
SP
 10
-1.7145256852758151
 20
-2.216890595009601
 30
0.0
 11
0.0
 21
0.0
 31
0.0
  0
LINE
  5
2D4
  8
SP
 10
0.0
 20
0.0
 30
0.0
 11
1.7145256852758151
 21
-2.216890595009601
 31
0.0
  0
LINE
  5
2D5
  8
SP
 10
1.7145256852758151
 20
-2.216890595009601
 30
0.0
 11
0.6962157491662495
 21
-2.216890595009601
 31
0.0
  0
ENDBLK
  5
2D7
  8
0
  0
BLOCK
  8
0
  2
右回転矢印
 70
     0
 10
0.0
 20
0.0
 30
0.0
  3
右回転矢印
  1

  0
LINE
  5
1E3
  8
SP
 10
-2.7705290305565882
 20
1.567794835092901
 30
0.0
 11
-2.4288000558398148
 21
2.8051227455822878
 31
0.0
  0
LINE
  5
1E4
  8
SP
 10
-2.4288000558398148
 20
2.8051227455822878
 30
0.0
 11
0.0
 21
0.0
 31
0.0
  0
LINE
  5
1E5
  8
SP
 10
0.0
 20
0.0
 30
0.0
 11
-3.3160037613098718
 21
-0.4072531086382499
 31
0.0
  0
LINE
  5
1E6
  8
SP
 10
-3.3160037613098718
 20
-0.4072531086382499
 30
0.0
 11
-3.0391574735299112
 21
0.5951483970269315
 31
0.0
  0
ARC
  5
1E7
  8
SP
 10
-5.9215210782018062
 20
-9.8412769578768184
 30
0.0
 40
10.82714154973578
 50
74.560750721316467
 51
112.11861101078711
  0
LINE
  5
1E8
  8
SP
 10
-9.9982127316752951
 20
0.1890560027239694
 30
0.0
 11
-10.37814929817227
 21
1.1238557349100611
 31
0.0
  0
ARC
  5
1E9
  8
SP
 10
-5.9215210782018062
 20
-9.8412769578768291
 30
0.0
 40
11.83620167374065
 50
74.560750721316396
 51
112.11861101078701
  0
ENDBLK
  5
1EB
  8
0
  0
BLOCK
  8
0
  2
*D6
 70
     1
 10
0.0
 20
0.0
 30
0.0
  3
*D6
  1

  0
LINE
  5
3020
  8
SP
 62
     2
 10
26030.968093474628
 20
295.33220140462799
 30
0.0
 11
26030.968093474628
 21
-372.2885256092577
 31
0.0
  0
LINE
  5
3021
  8
SP
 62
     2
 10
23780.968093474628
 20
295.33220140462799
 30
0.0
 11
23780.968093474628
 21
-372.2885256092577
 31
0.0
  0
LINE
  5
3022
  8
SP
 62
     2
 10
25940.968093474628
 20
-327.28852560925759
 30
0.0
 11
23870.968093474628
 21
-327.28852560925759
 31
0.0
  0
INSERT
  5
3023
  8
SP
 62
     2
  2
_OPEN
 10
26030.968093474628
 20
-327.28852560925759
 30
0.0
 41
90.0
 42
90.0
 43
90.0
  0
INSERT
  5
3024
  8
SP
 62
     2
  2
_OPEN
 10
23780.968093474628
 20
-327.28852560925759
 30
0.0
 41
90.0
 42
90.0
 43
90.0
 50
180.0
  0
TEXT
  5
3025
  8
SP
 62
     2
 10
24656.683726888208
 20
-304.7885256092577
 30
0.0
 40
135.0
  1
2250
 51
15.0
  0
POINT
  5
3026
  8
DEFPOINTS
 62
     0
 10
26030.968093474628
 20
340.33220140462788
 30
0.0
  0
POINT
  5
3027
  8
DEFPOINTS
 62
     0
 10
23780.968093474628
 20
340.33220140462788
 30
0.0
  0
POINT
  5
3028
  8
DEFPOINTS
 62
     0
 10
23780.968093474628
 20
-327.28852560925759
 30
0.0
  0
ENDBLK
  5
A67
  8
0
  0
BLOCK
  8
0
  2
*D7
 70
     1
 10
0.0
 20
0.0
 30
0.0
  3
*D7
  1

  0
LINE
  5
3051
  8
SP
 62
     2
 10
23780.968093474628
 20
295.33220140462799
 30
0.0
 11
23780.968093474628
 21
-372.2885256092577
 31
0.0
  0
LINE
  5
3052
  8
SP
 62
     2
 10
22630.968093474628
 20
295.33220140462799
 30
0.0
 11
22630.968093474628
 21
-372.2885256092577
 31
0.0
  0
LINE
  5
3053
  8
SP
 62
     2
 10
23690.968093474628
 20
-327.28852560925759
 30
0.0
 11
22720.968093474628
 21
-327.28852560925759
 31
0.0
  0
INSERT
  5
3054
  8
SP
 62
     2
  2
_OPEN
 10
23780.968093474628
 20
-327.28852560925759
 30
0.0
 41
90.0
 42
90.0
 43
90.0
  0
INSERT
  5
3055
  8
SP
 62
     2
  2
_OPEN
 10
22630.968093474628
 20
-327.28852560925759
 30
0.0
 41
90.0
 42
90.0
 43
90.0
 50
180.0
  0
TEXT
  5
3056
  8
SP
 62
     2
 10
22967.75650315894
 20
-304.7885256092577
 30
0.0
 40
135.0
  1
1150
 51
15.0
  0
POINT
  5
3057
  8
DEFPOINTS
 62
     0
 10
23780.968093474628
 20
340.33220140462788
 30
0.0
  0
POINT
  5
3058
  8
DEFPOINTS
 62
     0
 10
22630.968093474628
 20
340.33220140462788
 30
0.0
  0
POINT
  5
3059
  8
DEFPOINTS
 62
     0
 10
22630.968093474628
 20
-327.28852560925759
 30
0.0
  0
ENDBLK
  5
A74
  8
0
  0
BLOCK
  8
0
  2
*D8
 70
     1
 10
0.0
 20
0.0
 30
0.0
  3
*D8
  1

  0
LINE
  5
30C4
  8
SP
 10
22630.968093474628
 20
295.33220140462799
 30
0.0
 11
22630.968093474628
 21
-667.6214225094609
 31
0.0
  0
LINE
  5
30C5
  8
SP
 10
26030.968093474628
 20
295.33220140462799
 30
0.0
 11
26030.968093474628
 21
-667.6214225094609
 31
0.0
  0
LINE
  5
30C6
  8
SP
 10
22720.968093474628
 20
-622.6214225094609
 30
0.0
 11
25940.968093474628
 21
-622.6214225094609
 31
0.0
  0
INSERT
  5
30C7
  8
SP
  2
_OPEN
 10
22630.968093474628
 20
-622.6214225094609
 30
0.0
 41
90.0
 42
90.0
 43
90.0
 50
180.0
  0
INSERT
  5
30C8
  8
SP
  2
_OPEN
 10
26030.968093474628
 20
-622.6214225094609
 30
0.0
 41
90.0
 42
90.0
 43
90.0
  0
TEXT
  8
0
  40
135
  5
3144
  72
0
  71
0
 10
24061.0
 20
-771.571
 30
0.000000
  1
3400
  0
POINT
  5
30CA
  8
DEFPOINTS
 62
     0
 10
22630.968093474628
 20
340.33220140462788
 30
0.0
  0
POINT
  5
30CB
  8
DEFPOINTS
 62
     0
 10
26030.968093474628
 20
340.33220140462788
 30
0.0
  0
POINT
  5
30CC
  8
DEFPOINTS
 62
     0
 10
26030.968093474628
 20
-622.6214225094609
 30
0.0
  0
ENDBLK
  5
14BE
  8
0
  0
BLOCK
  8
0
  2
*D9
 70
     1
 10
0.0
 20
0.0
 30
0.0
  3
*D9
  1

  0
LINE
  5
30CD
  8
SP
 10
22619.935424060779
 20
520.33220140462788
 30
0.0
 11
21996.86224317921
 21
520.33220140462811
 31
0.0
  0
LINE
  5
30CE
  8
SP
 10
22619.935424060779
 20
340.33220140462799
 30
0.0
 11
21996.86224317921
 21
340.33220140462822
 31
0.0
  0
LINE
  5
30CF
  8
SP
 10
22041.86224317921
 20
610.33220140462799
 30
0.0
 11
22041.86224317921
 21
700.33220140462811
 31
0.0
  0
LINE
  5
30D0
  8
SP
 10
22041.86224317921
 20
250.33220140462819
 30
0.0
 11
22041.86224317921
 21
-199.66779859537169
 31
0.0
  0
LINE
  5
30D1
  8
SP
 10
22041.86224317921
 20
520.33220140462811
 30
0.0
 11
22041.86224317921
 21
340.33220140462822
 31
0.0
  0
INSERT
  5
30D2
  8
SP
  2
_DOT
 10
22041.86224317921
 20
520.33220140462811
 30
0.0
 41
90.0
 42
90.0
 43
90.0
 50
270.0
  0
INSERT
  5
30D3
  8
SP
  2
_OPEN
 10
22041.86224317921
 20
340.33220140462822
 30
0.0
 41
90.0
 42
90.0
 43
90.0
 50
90.0
  0
TEXT
  8
0
  40
135
  5
3145
  72
0
  71
0
 10
21681.9
 20
-258.618
 30
0.000000
  1
180
  0
POINT
  5
30D5
  8
DEFPOINTS
 62
     0
 10
22664.935424060779
 20
520.33220140462788
 30
0.0
  0
POINT
  5
30D6
  8
DEFPOINTS
 62
     0
 10
22664.935424060779
 20
340.33220140462788
 30
0.0
  0
POINT
  5
30D7
  8
DEFPOINTS
 62
     0
 10
22041.86224317921
 20
340.33220140462822
 30
0.0
  0
ENDBLK
  5
14D8
  8
0
  0
BLOCK
  8
0
  2
*D10
 70
     1
 10
0.0
 20
0.0
 30
0.0
  3
*D10
  1

  0
LINE
  5
30DB
  8
SP
 10
30259.707703045511
 20
4010.332201404628
 30
0.0
 11
30753.897421424539
 21
4010.332201404628
 31
0.0
  0
LINE
  5
30DC
  8
SP
 10
30259.707703045511
 20
2010.332201404628
 30
0.0
 11
30753.897421424539
 21
2010.332201404628
 31
0.0
  0
LINE
  5
30DD
  8
SP
 10
30708.897421424532
 20
3920.332201404628
 30
0.0
 11
30708.897421424532
 21
2100.3322014046271
 31
0.0
  0
INSERT
  5
30DE
  8
SP
  2
_OPEN
 10
30708.897421424532
 20
4010.332201404628
 30
0.0
 41
90.0
 42
90.0
 43
90.0
 50
90.0
  0
INSERT
  5
30DF
  8
SP
  2
_OPEN
 10
30708.897421424532
 20
2010.332201404628
 30
0.0
 41
90.0
 42
90.0
 43
90.0
 50
270.0
  0
TEXT
  8
0
  40
135
  5
3146
  72
0
  71
0
 10
30348.9
 20
2771.38
 30
0.000000
  1
%%C2000
  0
POINT
  5
30E1
  8
DEFPOINTS
 62
     0
 10
30214.707703045511
 20
4010.332201404628
 30
0.0
  0
POINT
  5
30E2
  8
DEFPOINTS
 62
     0
 10
30214.707703045511
 20
2010.332201404628
 30
0.0
  0
POINT
  5
30E3
  8
DEFPOINTS
 62
     0
 10
30708.897421424532
 20
2010.332201404628
 30
0.0
  0
ENDBLK
  5
1561
  8
0
  0
BLOCK
  8
0
  2
*D11
 70
     1
 10
0.0
 20
0.0
 30
0.0
  3
*D11
  1

  0
LINE
  5
30E4
  8
SP
 10
29309.707703045511
 20
4714.2029840563764
 30
0.0
 11
29309.707703045511
 21
4830.1626473783863
 31
0.0
  0
LINE
  5
30E5
  8
SP
 10
30214.707703045511
 20
4130.332201404628
 30
0.0
 11
30214.707703045511
 21
4830.1626473783863
 31
0.0
  0
LINE
  5
30E6
  8
SP
 10
29399.707703045511
 20
4785.1626473783854
 30
0.0
 11
30124.707703045511
 21
4785.1626473783854
 31
0.0
  0
INSERT
  5
30E7
  8
SP
  2
_OPEN
 10
29309.707703045511
 20
4785.1626473783854
 30
0.0
 41
90.0
 42
90.0
 43
90.0
 50
180.0
  0
INSERT
  5
30E8
  8
SP
  2
_OPEN
 10
30214.707703045511
 20
4785.1626473783854
 30
0.0
 41
90.0
 42
90.0
 43
90.0
  0
TEXT
  8
0
  40
135
  5
3147
  72
0
  71
0
 10
29492.2
 20
4636.21
 30
0.000000
  1
905
  0
POINT
  5
30EA
  8
DEFPOINTS
 62
     0
 10
29309.707703045511
 20
4669.2029840563746
 30
0.0
  0
POINT
  5
30EB
  8
DEFPOINTS
 62
     0
 10
30214.707703045511
 20
4085.332201404628
 30
0.0
  0
POINT
  5
30EC
  8
DEFPOINTS
 62
     0
 10
30214.707703045511
 20
4785.1626473783854
 30
0.0
  0
ENDBLK
  5
1576
  8
0
  0
BLOCK
  8
0
  2
*D12
 70
     1
 10
0.0
 20
0.0
 30
0.0
  3
*D12
  1

  0
LINE
  5
30ED
  8
SP
 62
     2
 10
26938.707703045511
 20
295.33220140462782
 30
0.0
 11
26938.707703045511
 21
-377.74521886361788
 31
0.0
  0
LINE
  5
30EE
  8
SP
 62
     2
 10
29309.707703045511
 20
295.33220140462771
 30
0.0
 11
29309.707703045511
 21
-377.74521886361788
 31
0.0
  0
LINE
  5
30EF
  8
SP
 62
     2
 10
27028.707703045511
 20
-332.74521886361799
 30
0.0
 11
29219.707703045511
 21
-332.74521886361799
 31
0.0
  0
INSERT
  5
30F0
  8
SP
 62
     2
  2
_OPEN
 10
26938.707703045511
 20
-332.74521886361799
 30
0.0
 41
90.0
 42
90.0
 43
90.0
 50
180.0
  0
INSERT
  5
30F1
  8
SP
 62
     2
  2
_OPEN
 10
29309.707703045511
 20
-332.74521886361799
 30
0.0
 41
90.0
 42
90.0
 43
90.0
  0
TEXT
  8
0
  40
135
  5
3148
  62
2
  72
0
  71
0
 10
27854.2
 20
-481.695
 30
0.000000
  1
2371
  0
POINT
  5
30F3
  8
DEFPOINTS
 62
     0
 10
26938.707703045511
 20
340.33220140462782
 30
0.0
  0
POINT
  5
30F4
  8
DEFPOINTS
 62
     0
 10
29309.707703045511
 20
340.33220140462771
 30
0.0
  0
POINT
  5
30F5
  8
DEFPOINTS
 62
     0
 10
29309.707703045511
 20
-332.74521886361799
 30
0.0
  0
ENDBLK
  5
1B15
  8
0
  0
BLOCK
  8
0
  2
*D13
 70
     1
 10
0.0
 20
0.0
 30
0.0
  3
*D13
  1

  0
LINE
  5
30F6
  8
SP
 62
     2
 10
30138.707703045511
 20
295.33220140462782
 30
0.0
 11
30138.707703045511
 21
-377.74521886361788
 31
0.0
  0
LINE
  5
30F7
  8
SP
 62
     2
 10
29399.707703045511
 20
-332.74521886361799
 30
0.0
 11
30048.707703045511
 21
-332.74521886361799
 31
0.0
  0
INSERT
  5
30F8
  8
SP
 62
     2
  2
_OPEN
 10
29309.707703045511
 20
-332.74521886361799
 30
0.0
 41
90.0
 42
90.0
 43
90.0
 50
180.0
  0
INSERT
  5
30F9
  8
SP
 62
     2
  2
_OPEN
 10
30138.707703045511
 20
-332.74521886361799
 30
0.0
 41
90.0
 42
90.0
 43
90.0
  0
TEXT
  8
0
  40
135
  5
3149
  62
2
  72
0
  71
0
 10
29454.2
 20
-481.695
 30
0.000000
  1
829
  0
POINT
  5
30FB
  8
DEFPOINTS
 62
     0
 10
29309.707703045511
 20
340.33220140462771
 30
0.0
  0
POINT
  5
30FC
  8
DEFPOINTS
 62
     0
 10
30138.707703045511
 20
340.33220140462782
 30
0.0
  0
POINT
  5
30FD
  8
DEFPOINTS
 62
     0
 10
30138.707703045511
 20
-332.74521886361799
 30
0.0
  0
ENDBLK
  5
1B21
  8
0
  0
BLOCK
  8
0
  2
*D14
 70
     1
 10
0.0
 20
0.0
 30
0.0
  3
*D14
  1

  0
LINE
  5
30FE
  8
SP
 62
     2
 10
30138.707703045511
 20
-377.74521886361788
 30
0.0
 11
30138.707703045511
 21
-669.86751911651481
 31
0.0
  0
LINE
  5
30FF
  8
SP
 62
     2
 10
26938.707703045511
 20
-377.74521886361788
 30
0.0
 11
26938.707703045511
 21
-669.86751911651481
 31
0.0
  0
LINE
  5
3100
  8
SP
 62
     2
 10
30048.707703045511
 20
-624.86751911651481
 30
0.0
 11
27028.707703045511
 21
-624.86751911651481
 31
0.0
  0
INSERT
  5
3101
  8
SP
 62
     2
  2
_OPEN
 10
30138.707703045511
 20
-624.86751911651481
 30
0.0
 41
90.0
 42
90.0
 43
90.0
  0
INSERT
  5
3102
  8
SP
 62
     2
  2
_OPEN
 10
26938.707703045511
 20
-624.86751911651481
 30
0.0
 41
90.0
 42
90.0
 43
90.0
 50
180.0
  0
TEXT
  8
0
  40
135
  5
314A
  62
2
  72
0
  71
0
 10
28268.7
 20
-773.818
 30
0.000000
  1
3200
  0
POINT
  5
3104
  8
DEFPOINTS
 62
     0
 10
30138.707703045511
 20
-332.74521886361799
 30
0.0
  0
POINT
  5
3105
  8
DEFPOINTS
 62
     0
 10
26938.707703045511
 20
-332.74521886361799
 30
0.0
  0
POINT
  5
3106
  8
DEFPOINTS
 62
     0
 10
26938.707703045511
 20
-624.86751911651481
 30
0.0
  0
ENDBLK
  5
1B2E
  8
0
  0
BLOCK
  8
0
  2
*D15
 70
     1
 10
0.0
 20
0.0
 30
0.0
  3
*D15
  1

  0
LINE
  5
3107
  8
SP
 62
     2
 10
26799.707703045511
 20
4785.1626473783854
 30
0.0
 11
29219.707703045511
 21
4785.1626473783854
 31
0.0
  0
INSERT
  5
3108
  8
SP
 62
     2
  2
_OPEN
 10
26709.707703045511
 20
4785.1626473783854
 30
0.0
 41
90.0
 42
90.0
 43
90.0
 50
180.0
  0
INSERT
  5
3109
  8
SP
 62
     2
  2
_OPEN
 10
29309.707703045511
 20
4785.1626473783854
 30
0.0
 41
90.0
 42
90.0
 43
90.0
  0
TEXT
  8
0
  40
135
  5
314B
  62
2
  72
0
  71
0
 10
27739.7
 20
4636.21
 30
0.000000
  1
2600
  0
POINT
  5
310B
  8
DEFPOINTS
 62
     0
 10
26709.707703045511
 20
4785.1626473783854
 30
0.0
  0
POINT
  5
310C
  8
DEFPOINTS
 62
     0
 10
29309.707703045511
 20
4785.1626473783854
 30
0.0
  0
POINT
  5
310D
  8
DEFPOINTS
 62
     0
 10
29309.707703045511
 20
4785.1626473783854
 30
0.0
  0
ENDBLK
  5
1BFE
  8
0
  0
BLOCK
  8
0
  2
*D16
 70
     1
 10
0.0
 20
0.0
 30
0.0
  3
*D16
  1

  0
LINE
  5
303B
  8
SP
 10
22619.935424060779
 20
660.33220140462799
 30
0.0
 11
21996.86224317921
 21
660.33220140462799
 31
0.0
  0
LINE
  5
303C
  8
SP
 10
22619.935424060779
 20
520.33220140462788
 30
0.0
 11
21996.86224317921
 21
520.33220140462811
 31
0.0
  0
LINE
  5
303D
  8
SP
 10
22041.86224317921
 20
750.33220140462811
 30
0.0
 11
22041.86224317921
 21
840.33220140462811
 31
0.0
  0
LINE
  5
303E
  8
SP
 10
22041.86224317921
 20
430.33220140462811
 30
0.0
 11
22041.86224317921
 21
340.33220140462811
 31
0.0
  0
TEXT
  5
303F
  8
SP
 10
21865.37784975981
 20
379.15402473595191
 30
0.0
 40
135.0
  1
(140)
 50
90.0
 51
15.0
  0
LINE
  5
3040
  8
SP
 10
22041.86224317921
 20
660.33220140462799
 30
0.0
 11
22041.86224317921
 21
520.33220140462811
 31
0.0
  0
INSERT
  5
3041
  8
SP
  2
_OPEN
 10
22041.86224317921
 20
660.33220140462799
 30
0.0
 41
90.0
 42
90.0
 43
90.0
 50
270.0
  0
INSERT
  5
3042
  8
SP
  2
_DOT
 10
22041.86224317921
 20
520.33220140462811
 30
0.0
 41
90.0
 42
90.0
 43
90.0
 50
90.0
  0
POINT
  5
3043
  8
DEFPOINTS
 62
     0
 10
22664.935424060779
 20
660.33220140462799
 30
0.0
  0
POINT
  5
3044
  8
DEFPOINTS
 62
     0
 10
22664.935424060779
 20
520.33220140462788
 30
0.0
  0
POINT
  5
3045
  8
DEFPOINTS
 62
     0
 10
22041.86224317921
 20
520.33220140462811
 30
0.0
  0
ENDBLK
  5
1C46
  8
0
  0
BLOCK
  8
0
  2
*D17
 70
     1
 10
0.0
 20
0.0
 30
0.0
  3
*D17
  1

  0
LINE
  5
310E
  8
SP
 62
     2
 10
23780.968093474628
 20
9256.0913930444603
 30
0.0
 11
23780.968093474628
 21
9539.369100673217
 31
0.0
  0
LINE
  5
310F
  8
SP
 62
     2
 10
22505.96809347325
 20
8926.4730126104187
 30
0.0
 11
22505.96809347325
 21
9539.369100673217
 31
0.0
  0
LINE
  5
3110
  8
SP
 62
     2
 10
23690.968093474628
 20
9494.3691006732151
 30
0.0
 11
22595.96809347325
 21
9494.3691006732151
 31
0.0
  0
INSERT
  5
3111
  8
SP
 62
     2
  2
_OPEN
 10
23780.968093474628
 20
9494.3691006732151
 30
0.0
 41
90.0
 42
90.0
 43
90.0
  0
INSERT
  5
3112
  8
SP
 62
     2
  2
_OPEN
 10
22505.96809347325
 20
9494.3691006732151
 30
0.0
 41
90.0
 42
90.0
 43
90.0
 50
180.0
  0
TEXT
  8
0
  40
135
  5
314C
  62
2
  72
0
  71
0
 10
22873.5
 20
9345.42
 30
0.000000
  1
1275
  0
POINT
  5
3114
  8
DEFPOINTS
 62
     0
 10
23780.968093474628
 20
9211.0913930444603
 30
0.0
  0
POINT
  5
3115
  8
DEFPOINTS
 62
     0
 10
22505.96809347325
 20
8881.4730126104187
 30
0.0
  0
POINT
  5
3116
  8
DEFPOINTS
 62
     0
 10
22505.96809347325
 20
9494.3691006732151
 30
0.0
  0
ENDBLK
  5
2546
  8
0
  0
BLOCK
  8
0
  2
*D18
 70
     1
 10
0.0
 20
0.0
 30
0.0
  3
*D18
  1

  0
LINE
  5
3117
  8
SP
 62
     2
 10
22660.968093474628
 20
8957.4730126104168
 30
0.0
 11
21894.964672820512
 21
8957.4730126104168
 31
0.0
  0
LINE
  5
3118
  8
SP
 62
     2
 10
22240.06138179245
 20
8052.4730126104141
 30
0.0
 11
21894.964672820512
 21
8052.4730126104141
 31
0.0
  0
LINE
  5
3119
  8
SP
 62
     2
 10
21939.964672820512
 20
8867.4730126104168
 30
0.0
 11
21939.964672820512
 21
8142.4730126104141
 31
0.0
  0
INSERT
  5
311A
  8
SP
 62
     2
  2
_OPEN
 10
21939.964672820512
 20
8957.4730126104168
 30
0.0
 41
90.0
 42
90.0
 43
90.0
 50
90.0
  0
INSERT
  5
311B
  8
SP
 62
     2
  2
_OPEN
 10
21939.964672820512
 20
8052.4730126104141
 30
0.0
 41
90.0
 42
90.0
 43
90.0
 50
270.0
  0
TEXT
  8
0
  40
135
  5
314D
  62
2
  72
0
  71
0
 10
21580.0
 20
8266.02
 30
0.000000
  1
905
  0
POINT
  5
311D
  8
DEFPOINTS
 62
     0
 10
22705.968093474628
 20
8957.4730126104168
 30
0.0
  0
POINT
  5
311E
  8
DEFPOINTS
 62
     0
 10
22285.06138179246
 20
8052.4730126104141
 30
0.0
  0
POINT
  5
311F
  8
DEFPOINTS
 62
     0
 10
21939.964672820512
 20
8052.4730126104141
 30
0.0
  0
ENDBLK
  5
2561
  8
0
  0
BLOCK
  8
0
  2
*D19
 70
     1
 10
0.0
 20
0.0
 30
0.0
  3
*D19
  1

  0
LINE
  5
3120
  8
SP
 62
     2
 10
22240.06138179245
 20
8052.4730126104141
 30
0.0
 11
21894.964672820512
 21
8052.4730126104141
 31
0.0
  0
LINE
  5
3121
  8
SP
 62
     2
 10
23255.968093474628
 20
5452.4730126104178
 30
0.0
 11
21894.964672820512
 21
5452.4730126104187
 31
0.0
  0
LINE
  5
3122
  8
SP
 62
     2
 10
21939.964672820512
 20
7962.473012610415
 30
0.0
 11
21939.964672820512
 21
5542.4730126104187
 31
0.0
  0
INSERT
  5
3123
  8
SP
 62
     2
  2
_OPEN
 10
21939.964672820512
 20
8052.4730126104141
 30
0.0
 41
90.0
 42
90.0
 43
90.0
 50
90.0
  0
INSERT
  5
3124
  8
SP
 62
     2
  2
_OPEN
 10
21939.964672820512
 20
5452.4730126104187
 30
0.0
 41
90.0
 42
90.0
 43
90.0
 50
270.0
  0
TEXT
  8
0
  40
135
  5
314E
  62
2
  72
0
  71
0
 10
21580.0
 20
6513.52
 30
0.000000
  1
2600
  0
POINT
  5
3126
  8
DEFPOINTS
 62
     0
 10
22285.06138179246
 20
8052.4730126104141
 30
0.0
  0
POINT
  5
3127
  8
DEFPOINTS
 62
     0
 10
23300.968093474628
 20
5452.4730126104178
 30
0.0
  0
POINT
  5
3128
  8
DEFPOINTS
 62
     0
 10
21939.964672820512
 20
5452.4730126104187
 30
0.0
  0
ENDBLK
  5
256E
  8
0
  0
BLOCK
  8
0
  2
*D20
 70
     1
 10
0.0
 20
0.0
 30
0.0
  3
*D20
  1

  0
LINE
  5
3129
  8
SP
 62
     2
 10
22585.968093474628
 20
660.33220140462799
 30
0.0
 11
21996.862243179221
 21
660.33220140462799
 31
0.0
  0
LINE
  5
312A
  8
SP
 62
     2
 10
22364.684686450291
 20
3010.332201404628
 30
0.0
 11
21996.862243179221
 21
3010.332201404628
 31
0.0
  0
LINE
  5
312B
  8
SP
 62
     2
 10
22041.86224317921
 20
750.33220140462811
 30
0.0
 11
22041.86224317921
 21
2920.332201404628
 31
0.0
  0
INSERT
  5
312C
  8
SP
 62
     2
  2
_OPEN
 10
22041.86224317921
 20
660.33220140462799
 30
0.0
 41
90.0
 42
90.0
 43
90.0
 50
270.0
  0
INSERT
  5
312D
  8
SP
 62
     2
  2
_OPEN
 10
22041.86224317921
 20
3010.332201404628
 30
0.0
 41
90.0
 42
90.0
 43
90.0
 50
90.0
  0
TEXT
  8
0
  40
135
  5
314F
  62
2
  72
0
  71
0
 10
21681.9
 20
1596.38
 30
0.000000
  1
2350
  0
POINT
  5
312F
  8
DEFPOINTS
 62
     0
 10
22630.968093474628
 20
660.33220140462799
 30
0.0
  0
POINT
  5
3130
  8
DEFPOINTS
 62
     0
 10
22409.684686450291
 20
3010.332201404628
 30
0.0
  0
POINT
  5
3131
  8
DEFPOINTS
 62
     0
 10
22041.86224317921
 20
3010.332201404628
 30
0.0
  0
ENDBLK
  5
2751
  8
0
  0
BLOCK
  8
0
  2
*D21
 70
     1
 10
0.0
 20
0.0
 30
0.0
  3
*D21
  1

  0
LINE
  5
3132
  8
SP
 62
     2
 10
23735.968093474628
 20
4452.3322014046216
 30
0.0
 11
21996.862243179221
 21
4452.3322014046234
 31
0.0
  0
LINE
  5
3133
  8
SP
 62
     2
 10
22364.684686450291
 20
3010.332201404628
 30
0.0
 11
21996.862243179221
 21
3010.332201404628
 31
0.0
  0
LINE
  5
3134
  8
SP
 62
     2
 10
22041.86224317921
 20
4362.3322014046234
 30
0.0
 11
22041.86224317921
 21
3100.3322014046271
 31
0.0
  0
INSERT
  5
3135
  8
SP
 62
     2
  2
_OPEN
 10
22041.86224317921
 20
4452.3322014046234
 30
0.0
 41
90.0
 42
90.0
 43
90.0
 50
90.0
  0
INSERT
  5
3136
  8
SP
 62
     2
  2
_OPEN
 10
22041.86224317921
 20
3010.332201404628
 30
0.0
 41
90.0
 42
90.0
 43
90.0
 50
270.0
  0
TEXT
  8
0
  40
135
  5
3150
  62
2
  72
0
  71
0
 10
21681.9
 20
3492.38
 30
0.000000
  1
1442
  0
POINT
  5
3138
  8
DEFPOINTS
 62
     0
 10
23780.968093474628
 20
4452.3322014046216
 30
0.0
  0
POINT
  5
3139
  8
DEFPOINTS
 62
     0
 10
22409.684686450291
 20
3010.332201404628
 30
0.0
  0
POINT
  5
313A
  8
DEFPOINTS
 62
     0
 10
22041.86224317921
 20
3010.332201404628
 30
0.0
  0
ENDBLK
  5
275F
  8
0
  0
BLOCK
  8
0
  2
*D22
 70
     1
 10
0.0
 20
0.0
 30
0.0
  3
*D22
  1

  0
LINE
  5
313B
  8
SP
 62
     2
 10
23780.968093474628
 20
9301.0913930444603
 30
0.0
 11
23780.968093474628
 21
9539.369100673217
 31
0.0
  0
LINE
  5
313C
  8
SP
 62
     2
 10
26030.968093474628
 20
7343.4730126104132
 30
0.0
 11
26030.968093474628
 21
9539.369100673217
 31
0.0
  0
LINE
  5
313D
  8
SP
 62
     2
 10
23870.968093474628
 20
9494.3691006732151
 30
0.0
 11
25940.968093474628
 21
9494.3691006732151
 31
0.0
  0
INSERT
  5
313E
  8
SP
 62
     2
  2
_OPEN
 10
23780.968093474628
 20
9494.3691006732151
 30
0.0
 41
90.0
 42
90.0
 43
90.0
 50
180.0
  0
INSERT
  5
313F
  8
SP
 62
     2
  2
_OPEN
 10
26030.968093474628
 20
9494.3691006732151
 30
0.0
 41
90.0
 42
90.0
 43
90.0
  0
TEXT
  8
0
  40
135
  5
3151
  62
2
  72
0
  71
0
 10
24636.0
 20
9345.42
 30
0.000000
  1
2250
  0
POINT
  5
3141
  8
DEFPOINTS
 62
     0
 10
23780.968093474628
 20
9256.0913930444603
 30
0.0
  0
POINT
  5
3142
  8
DEFPOINTS
 62
     0
 10
26030.968093474628
 20
7298.4730126104141
 30
0.0
  0
POINT
  5
3143
  8
DEFPOINTS
 62
     0
 10
26030.968093474628
 20
9494.3691006732151
 30
0.0
  0
ENDBLK
  5
27A0
  8
0
  0
ENDSEC
  0
SECTION
  2
ENTITIES
  0
LINE
  5
46
  8
FUTO
 10
27193.707703045511
 20
2850.3322014046271
 30
0.0
 11
28443.707703045511
 21
2850.3322014046271
 31
0.0
  0
LINE
  5
49
  8
FUTO
 10
28251.707703045511
 20
3067.832201404628
 30
0.0
 11
27189.707703045511
 21
3067.832201404628
 31
0.0
  0
LINE
  5
4A
  8
FUTO
 10
28251.707703045511
 20
2952.832201404628
 30
0.0
 11
27189.707703045511
 21
2952.832201404628
 31
0.0
  0
LINE
  5
4B
  8
FUTO
 10
26938.707703045511
 20
840.33220140462788
 30
0.0
 11
30152.907703045508
 21
840.33220140462788
 31
0.0
  0
LINE
  5
4C
  8
CT
 10
30335.97091504448
 20
3010.332201404628
 30
0.0
 11
26604.930280047101
 21
3010.332201404628
 31
0.0
  0
LINE
  5
4F
  8
FUTO
 10
26938.707703045511
 20
520.33220140462788
 30
0.0
 11
30138.707703045511
 21
520.33220140462788
 31
0.0
  0
LINE
  5
50
  8
FUTO
 10
27013.707703045511
 20
660.33220140462799
 30
0.0
 11
30063.707703045511
 21
660.33220140462799
 31
0.0
  0
LINE
  5
51
  8
FUTO
 10
27013.707703045511
 20
352.33220140462788
 30
0.0
 11
28526.852781499649
 21
352.33220140462788
 31
0.0
  0
LINE
  5
52
  8
FUTO
 10
27013.707703045511
 20
508.33220140462799
 30
0.0
 11
28526.852781499649
 21
508.33220140462799
 31
0.0
  0
LINE
  5
53
  8
FUTO
 10
27013.707703045511
 20
672.33220140462799
 30
0.0
 11
28526.852781499649
 21
672.33220140462799
 31
0.0
  0
LINE
  5
54
  8
FUTO
 10
27028.707703045511
 20
828.33220140462799
 30
0.0
 11
28526.852781499649
 21
828.33220140462799
 31
0.0
  0
DIMENSION
  5
6B
  8
SP
  2
*D8
 10
26030.968093474628
 20
-622.6214225094609
 30
0.0
 11
24330.968093474628
 21
-532.62142250946079
 31
0.0
 70
     0
 13
22630.968093474628
 23
340.33220140462788
 33
0.0
 14
26030.968093474628
 24
340.33220140462788
 34
0.0
 50
180.0
1001
ACAD
1000
DSTYLE
1002
{
1070
   287
1070
     0
1070
   287
1070
     0
1070
    40
1040
45.0
1070
   140
1040
3.0
1070
   143
1040
0.03937
1070
   147
1040
0.5
1070
   173
1070
     1
1070
   176
1070
   256
1070
   177
1070
   256
1070
   178
1070
   256
1070
   271
1070
     4
1070
   272
1070
     4
1070
   279
1070
     0
1070
   285
1070
     0
1070
   286
1070
     0
1070
   289
1070
     0
1070
     6
1000
OPEN
1070
     7
1000
OPEN
1002
}
  0
LINE
  5
78
  8
CT
 10
25576.20108671315
 20
3010.332201404628
 30
0.0
 11
25874.00129361478
 21
3010.332201404628
 31
0.0
  0
LINE
  5
80
  8
FUTO
 10
25306.20108671315
 20
660.33220140462799
 30
0.0
 11
25871.734784289321
 21
660.33220140462799
 31
0.0
  0
ARC
  5
86
  8
KL
 10
23927.968093474628
 20
2863.332201404628
 30
0.0
 40
1589.0
 50
0.0
 51
90.000000000000028
  0
LINE
  5
89
  8
FUTO
 10
22630.968093474628
 20
660.33220140462799
 30
0.0
 11
26030.968093474628
 21
660.33220140462799
 31
0.0
  0
LINE
  5
8A
  8
FUTO
 10
22630.968093474628
 20
840.33220140462788
 30
0.0
 11
26030.968093474628
 21
840.33220140462788
 31
0.0
  0
LINE
  5
8C
  8
FUTO
 10
22630.968093474628
 20
520.33220140462788
 30
0.0
 11
26030.968093474628
 21
520.33220140462788
 31
0.0
  0
LINE
  5
8D
  8
FUTO
 10
22630.968093474628
 20
340.33220140462788
 30
0.0
 11
26030.968093474628
 21
340.33220140462788
 31
0.0
  0
LINE
  5
8E
  8
FUTO
 10
22630.968093474628
 20
824.33220140462788
 30
0.0
 11
26030.968093474628
 21
824.33220140462788
 31
0.0
  0
LINE
  5
8F
  8
FUTO
 10
22630.968093474628
 20
676.33220140462799
 30
0.0
 11
26030.968093474628
 21
676.33220140462799
 31
0.0
  0
LINE
  5
90
  8
FUTO
 10
22630.968093474628
 20
504.33220140462799
 30
0.0
 11
26030.968093474628
 21
504.33220140462799
 31
0.0
  0
LINE
  5
91
  8
FUTO
 10
22630.968093474628
 20
356.33220140462799
 30
0.0
 11
26030.968093474628
 21
356.33220140462799
 31
0.0
  0
ARC
  5
92
  8
KL
 10
23633.968093474628
 20
2863.332201404628
 30
0.0
 40
1883.0
 50
275.57161837836708
 51
0.0
  0
ARC
  5
93
  8
FUTO
 10
23633.968093474628
 20
2863.332201404628
 30
0.0
 40
1903.0
 50
297.31625957685532
 51
311.64437825047548
  0
LINE
  5
A6
  8
FUTO
 10
26030.968093474628
 20
660.33220140462799
 30
0.0
 11
26030.968093474628
 21
840.33220140462788
 31
0.0
  0
LINE
  5
A7
  8
FUTO
 10
26030.968093474628
 20
340.33220140462788
 30
0.0
 11
26030.968093474628
 21
520.33220140462788
 31
0.0
  0
LINE
  5
FF
  8
FUTO
 10
27193.707703045511
 20
2870.3322014046271
 30
0.0
 11
27193.707703045511
 21
2850.3322014046271
 31
0.0
  0
LINE
  5
100
  8
FUTO
 10
27013.707703045511
 20
2870.3322014046271
 30
0.0
 11
27013.707703045511
 21
840.33220140462788
 31
0.0
  0
LINE
  5
101
  8
SL
 10
26957.50770304551
 20
3385.332201404628
 30
0.0
 11
26957.50770304551
 21
1035.332201404628
 31
0.0
  0
LINE
  5
102
  8
SL
 10
26827.50770304551
 20
3385.332201404628
 30
0.0
 11
26827.50770304551
 21
1035.332201404628
 31
0.0
  0
LINE
  5
103
  8
FUTO
 10
26709.707703045511
 20
3490.332201404628
 30
0.0
 11
26709.707703045511
 21
940.33220140462788
 31
0.0
  0
LINE
  5
104
  8
FUTO
 10
22639.968093474628
 20
840.33220140462788
 30
0.0
 11
22639.968093474628
 21
2922.9947584996189
 31
0.0
  0
LINE
  5
105
  8
FUTO
 10
22630.968093474628
 20
660.33220140462799
 30
0.0
 11
22630.968093474628
 21
2922.3928319151019
 31
0.0
  0
ARC
  5
10A
  8
KL
 10
23903.468093474628
 20
3132.832201404628
 30
0.0
 40
1319.5
 50
88.936091497372161
 51
180.0
  0
ARC
  5
10B
  8
FUTO
 10
23903.468093474628
 20
3132.832201404628
 30
0.0
 40
1339.5
 50
95.247147065838774
 51
180.0
  0
LINE
  5
10C
  8
CT
 10
23780.968093474628
 20
1330.332201404628
 30
0.0
 11
23780.968093474628
 21
4607.4353316116194
 31
0.0
  0
LINE
  5
10D
  8
CT
 10
23780.968093474628
 20
350.3290576223971
 30
0.0
 11
23780.968093474628
 21
4345.4080621183111
 31
0.0
  0
LINE
  5
10E
  8
KL
 10
24939.968093474628
 20
1513.256394439104
 30
0.0
 11
24939.968093474628
 21
2033.5125856916659
 31
0.0
  0
ARC
  5
10F
  8
FUTO
 10
23927.968093474628
 20
2863.332201404628
 30
0.0
 40
1609.0
 50
5.5638312990269281
 51
95.241914654673977
  0
LINE
  5
110
  8
CT
 10
25630.968093474628
 20
1823.5472901364751
 30
0.0
 11
25630.968093474628
 21
340.33220140462788
 31
0.0
  0
LINE
  5
111
  8
FUTO
 10
24921.968093474628
 20
840.33220140462788
 30
0.0
 11
24921.968093474628
 21
1421.4994361625379
 31
0.0
  0
LINE
  5
112
  8
FUTO
 10
24930.968093474639
 20
660.33220140462799
 30
0.0
 11
24930.968093474628
 21
1413.9175916300051
 31
0.0
  0
LINE
  5
127
  8
KL
 10
24930.968093474628
 20
1488.8557113046211
 30
0.0
 11
24966.323432533962
 21
1453.5003722452941
 31
0.0
  0
LINE
  5
128
  8
KL
 10
24930.968093474628
 20
1522.256394439104
 30
0.0
 11
24984.323432533962
 21
1468.9010553797771
 31
0.0
  0
LINE
  5
129
  8
KL
 10
24930.968093474628
 20
1505.4979537306531
 30
0.0
 11
24975.323432533962
 21
1461.142614671327
 31
0.0
  0
LINE
  5
156
  8
KL
 10
24984.323432533962
 20
1468.9010553797771
 30
0.0
 11
24966.323432533962
 21
1453.5003722452941
 31
0.0
  0
LINE
  5
157
  8
FUTO
 10
24580.968093474628
 20
660.33220140462879
 30
0.0
 11
24580.968093474628
 21
854.54424788233871
 31
0.0
  0
LINE
  5
15F
  8
CT
 10
22764.495414247809
 20
747.94058954883258
 30
0.0
 11
22764.495414247809
 21
436.63219605897569
 31
0.0
  0
LINE
  5
160
  8
FUTO
 10
22980.968093474628
 20
660.33220140462799
 30
0.0
 11
22980.968093474628
 21
854.5442478823378
 31
0.0
  0
LINE
  5
162
  8
SP
 10
22724.495414247809
 20
660.33220140462799
 30
0.0
 11
22724.495414247809
 21
520.33220140462788
 31
0.0
  0
LINE
  5
163
  8
SP
 10
22804.495414247809
 20
660.33220140462799
 30
0.0
 11
22804.495414247809
 21
520.33220140462788
 31
0.0
  0
DIMENSION
  5
164
  8
SP
  2
*D9
 10
22041.86224317921
 20
340.33220140462822
 30
0.0
 11
21951.86224317921
 21
-19.667798595368222
 31
0.0
 70
     0
 13
22664.935424060779
 23
520.33220140462788
 33
0.0
 14
22664.935424060779
 24
340.33220140462788
 34
0.0
 50
90.0
1001
ACAD
1000
DSTYLE
1002
{
1070
   287
1070
     0
1070
   287
1070
     0
1070
    40
1040
45.0
1070
   140
1040
3.0
1070
   143
1040
0.03937
1070
   147
1040
0.5
1070
   173
1070
     1
1070
   176
1070
   256
1070
   177
1070
   256
1070
   178
1070
   256
1070
   271
1070
     4
1070
   272
1070
     4
1070
   279
1070
     0
1070
   285
1070
     0
1070
   286
1070
     0
1070
   289
1070
     0
1070
     6
1000
DOT
1070
     7
1000
OPEN
1002
}
  0
DIMENSION
  5
17B
  8
SP
  2
*D16
 10
22041.86224317921
 20
520.33220140462811
 30
0.0
 11
21820.37784975981
 21
636.12794261119507
 31
0.0
 70
   128
  1
(<>)
 13
22664.935424060779
 23
660.33220140462799
 33
0.0
 14
22664.935424060779
 24
520.33220140462788
 34
0.0
 50
90.0
1001
ACAD
1000
DSTYLE
1002
{
1070
   140
1040
3.0
1070
   272
1070
     4
1070
    40
1040
45.0
1070
   173
1070
     1
1070
   147
1040
0.5
1070
   271
1070
     4
1070
   178
1070
   256
1070
   177
1070
   256
1070
   176
1070
   256
1070
     7
1000
_DOT
1070
     6
1000
_OPEN
1070
     5
1000

1070
   285
1070
     0
1070
   286
1070
     0
1070
   143
1040
0.03937
1002
}
  0
LINE
  5
18A
  8
FUTO
 10
22630.968093474628
 20
340.33220140462788
 30
0.0
 11
22630.968093474628
 21
520.33220140462788
 31
0.0
  0
ARC
  5
19A
  8
FUTO
 10
26996.707703045511
 20
683.40757102231328
 30
0.0
 40
10.0
 50
275.0
 51
0.0
  0
LINE
  5
19B
  8
FUTO
 10
27013.707703045511
 20
840.33220140462788
 30
0.0
 11
27013.707703045511
 21
660.33220140462799
 31
0.0
  0
ARC
  5
1A0
  8
FUTO
 10
26996.707703045511
 20
497.25683178694271
 30
0.0
 40
10.0
 50
0.0
 51
85.000000000000014
  0
LINE
  5
1A1
  8
FUTO
 10
26938.707703045511
 20
663.25520870527998
 30
0.0
 11
26938.707703045511
 21
660.33220140462799
 31
0.0
  0
ARC
  5
1A2
  8
FUTO
 10
26944.207703045511
 20
663.25520870528078
 30
0.0
 40
5.5
 50
95.000000000000057
 51
180.00000000000051
  0
LINE
  5
1A3
  8
FUTO
 10
26938.707703045511
 20
517.40919410397498
 30
0.0
 11
26938.707703045511
 21
520.33220140462788
 31
0.0
  0
ARC
  5
1A4
  8
FUTO
 10
26944.207703045511
 20
517.40919410397498
 30
0.0
 40
5.5
 50
180.0
 51
265.0
  0
LINE
  5
1A5
  8
FUTO
 10
27013.707703045511
 20
660.33220140462799
 30
0.0
 11
26938.707703045511
 21
660.33220140462799
 31
0.0
  0
LINE
  5
1A6
  8
FUTO
 10
26997.57926047298
 20
673.4456240413956
 30
0.0
 11
26943.728346460401
 21
668.73427954478484
 31
0.0
  0
LINE
  5
1A7
  8
FUTO
 10
26997.57926047298
 20
507.21877876786027
 30
0.0
 11
26943.728346460401
 21
511.93012326447109
 31
0.0
  0
LINE
  5
1A8
  8
FUTO
 10
27013.707703045511
 20
520.33220140462788
 30
0.0
 11
26938.707703045511
 21
520.33220140462788
 31
0.0
  0
ARC
  5
1A9
  8
FUTO
 10
26996.707703045511
 20
363.40757102231322
 30
0.0
 40
10.0
 50
275.0
 51
0.0
  0
LINE
  5
1AA
  8
FUTO
 10
26938.707703045511
 20
343.25520870527993
 30
0.0
 11
26938.707703045511
 21
340.33220140462788
 31
0.0
  0
ARC
  5
1AB
  8
FUTO
 10
26944.207703045511
 20
343.25520870528078
 30
0.0
 40
5.5
 50
95.000000000000057
 51
180.00000000000051
  0
LINE
  5
1AC
  8
FUTO
 10
27013.707703045511
 20
340.33220140462788
 30
0.0
 11
26938.707703045511
 21
340.33220140462788
 31
0.0
  0
LINE
  5
1AD
  8
FUTO
 10
26997.57926047298
 20
353.44562404139549
 30
0.0
 11
26943.728346460401
 21
348.73427954478478
 31
0.0
  0
LINE
  5
1AE
  8
FUTO
 10
27013.707703045511
 20
520.33220140462788
 30
0.0
 11
27013.707703045511
 21
340.33220140462788
 31
0.0
  0
LINE
  5
1AF
  8
FUTO
 10
27006.707703045511
 20
497.25683178694271
 30
0.0
 11
27006.707703045511
 21
363.40757102231322
 31
0.0
  0
LINE
  5
1B0
  8
CT
 10
27086.104011052099
 20
1190.332201404618
 30
0.0
 11
26611.899654130841
 21
1190.332201404618
 31
0.0
  0
LINE
  5
1B1
  8
SL
 10
26957.50770304551
 20
1035.332201404628
 30
0.0
 11
26827.50770304551
 21
1035.332201404628
 31
0.0
  0
LINE
  5
1B2
  8
FUTO
 10
26990.45673720802
 20
940.33220140462788
 30
0.0
 11
26709.707703045511
 21
940.33220140462788
 31
0.0
  0
ARC
  5
1B3
  8
FUTO
 10
26996.707703045511
 20
817.2568317869426
 30
0.0
 40
10.0
 50
0.0
 51
85.000000000000014
  0
LINE
  5
1B4
  8
FUTO
 10
26938.707703045511
 20
837.40919410397498
 30
0.0
 11
26938.707703045511
 21
840.33220140462788
 31
0.0
  0
ARC
  5
1B5
  8
FUTO
 10
26944.207703045511
 20
837.40919410397498
 30
0.0
 40
5.5
 50
180.0
 51
265.0
  0
LINE
  5
1B6
  8
FUTO
 10
26997.57926047298
 20
827.21877876786027
 30
0.0
 11
26943.728346460401
 21
831.93012326447115
 31
0.0
  0
LINE
  5
1B7
  8
FUTO
 10
27013.707703045511
 20
840.33220140462788
 30
0.0
 11
26938.707703045511
 21
840.33220140462788
 31
0.0
  0
LINE
  5
1B8
  8
FUTO
 10
27006.707703045511
 20
817.2568317869426
 30
0.0
 11
27006.707703045511
 21
683.40757102231328
 31
0.0
  0
LINE
  5
1B9
  8
FUTO
 10
26990.45673720802
 20
1061.8539173647271
 30
0.0
 11
26990.45673720802
 21
940.33220140462788
 31
0.0
  0
LINE
  5
1C7
  8
KL
 10
22505.968093474628
 20
862.33220140462981
 30
0.0
 11
23816.78837363642
 21
989.22821678649598
 31
0.0
  0
LINE
  5
1C8
  8
FUTO
 10
22580.968093474628
 20
849.49919758457872
 30
0.0
 11
22991.827009497851
 21
889.27304005291717
 31
0.0
  0
LINE
  5
1CD
  8
CT
 10
22436.384201054068
 20
3010.332201404628
 30
0.0
 11
23980.968093474628
 21
3010.332201404628
 31
0.0
  0
LINE
  5
1CE
  8
FUTO
 10
22519.945317800612
 20
3085.6502210358231
 30
0.0
 11
23301.521642605981
 21
3033.3778246215529
 31
0.0
  0
LINE
  5
1CF
  8
FUTO
 10
22521.146487531591
 20
3103.610098298137
 30
0.0
 11
23285.879772909309
 21
3052.4641766833738
 31
0.0
  0
LINE
  5
1D0
  8
FUTO
 10
22520.545902666101
 20
3094.63015966698
 30
0.0
 11
23302.038033146258
 21
3042.3633942307779
 31
0.0
  0
ARC
  5
1D3
  8
KL
 10
23658.468093474628
 20
3132.832201404628
 30
0.0
 40
1074.5
 50
180.0
 51
213.15191494409041
  0
INSERT
  5
1E1
  8
FUTO
  2
右回転矢印
 10
23992.1122464037
 20
3918.1074917339361
 30
0.0
 41
40.0
 42
40.0
 43
40.0
 50
0.9969545352170786
  0
LINE
  5
1F0
  8
FUTO
 10
24930.968093474628
 20
3019.332201404628
 30
0.0
 11
24930.968093474628
 21
4121.4546119831857
 31
0.0
  0
LINE
  5
1F1
  8
FUTO
 10
24921.968093474628
 20
3019.332201404628
 30
0.0
 11
24921.968093474628
 21
4128.5772369609822
 31
0.0
  0
LINE
  5
1F3
  8
KL
 10
23980.968093474628
 20
3010.332201404628
 30
0.0
 11
24417.441856344409
 21
3010.332201404628
 31
0.0
  0
LINE
  5
1F4
  8
KL
 10
23980.968093474628
 20
3019.332201404628
 30
0.0
 11
24409.604920416259
 21
3019.3322014046271
 31
0.0
  0
LINE
  5
1F5
  8
KL
 10
23980.968093474628
 20
3001.332201404628
 30
0.0
 11
24425.278792272558
 21
3001.332201404628
 31
0.0
  0
LINE
  5
21D
  8
FUTO
 10
25576.20108671315
 20
3019.332201404628
 30
0.0
 11
25576.20108671315
 21
3001.332201404628
 31
0.0
  0
INSERT
  5
226
  8
FUTO
  2
22222F
 10
23780.968093474628
 20
3010.332201404628
 30
0.0
 41
-1.0
  0
LINE
  5
259
  8
KL
 10
23780.968093474628
 20
2870.3322014046271
 30
0.0
 11
24130.554897952072
 21
2870.3322014046271
 31
0.0
  0
LINE
  5
25C
  8
KL
 10
23980.968093474628
 20
3001.332201404628
 30
0.0
 11
23980.968093474628
 21
3019.332201404628
 31
0.0
  0
LINE
  5
25E
  8
KL
 10
23780.968093474628
 20
2870.3322014046271
 30
0.0
 11
23431.381288997189
 21
2870.3322014046271
 31
0.0
  0
LINE
  5
25F
  8
FUTO
 10
23582.014486536631
 20
3032.658470380014
 30
0.0
 11
23580.813316805648
 21
3014.6985931177001
 31
0.0
  0
CIRCLE
  5
265
  8
KL
 10
22738.35940424275
 20
2531.832201404628
 30
0.0
 40
24.5
  0
LINE
  5
26B
  8
FUTO
 10
23789.968093474628
 20
966.53834087410905
 30
0.0
 11
23818.715496071221
 21
969.32127831968501
 31
0.0
  0
LINE
  5
26C
  8
SP
 10
26709.707703045511
 20
3530.332201404628
 30
0.0
 11
26709.707703045511
 21
4825.1626473783863
 31
0.0
  0
LINE
  5
289
  8
FUTO
 10
22580.968093474628
 20
2926.332201404628
 30
0.0
 11
22580.968093474628
 21
849.49919758457872
 31
0.0
  0
LINE
  5
28A
  8
FUTO
 10
22511.968093474628
 20
2926.332201404628
 30
0.0
 11
22511.968093474628
 21
858.33220140462993
 31
0.0
  0
LINE
  5
28B
  8
FUTO
 10
22505.968093474628
 20
3001.332201404628
 30
0.0
 11
22505.968093474628
 21
783.33220140462606
 31
0.0
  0
LINE
  5
28C
  8
FUTO
 10
22630.968093474628
 20
3551.1669955587831
 30
0.0
 11
22630.968093474628
 21
854.33952609117648
 31
0.0
  0
LINE
  5
28D
  8
FUTO
 10
22639.968093474628
 20
3577.6107980119741
 30
0.0
 11
22639.968093474628
 21
855.21078522236519
 31
0.0
  0
LINE
  5
28E
  8
FUTO
 10
22505.96809347417
 20
3001.3322014047262
 30
0.0
 11
22505.96809347317
 21
783.33220140472622
 31
0.0
  0
LINE
  5
28F
  8
FUTO
 10
22505.968093474679
 20
3001.3322014047299
 30
0.0
 11
22505.96809347317
 21
783.33220140472974
 31
0.0
  0
INSERT
  5
291
  8
FUTO
  2
L-75-6
 10
22424.538496590161
 20
2811.7257400010722
 30
0.0
 41
-1.0
 50
270.0
  0
ARC
  5
29E
  8
FUTO
 10
23658.468093474628
 20
3132.832201404628
 30
0.0
 40
1094.5
 50
182.62900583996429
 51
190.02349966759661
  0
LINE
  5
2A1
  8
CT
 10
22409.684686450291
 20
3010.332201404628
 30
0.0
 11
22541.683423092731
 21
3010.332201404628
 31
0.0
  0
LINE
  5
2A2
  8
FUTO
 10
22545.30364536255
 20
2966.1002620611912
 30
0.0
 11
22450.607334133929
 21
2966.1002620611498
 31
0.0
  0
ARC
  5
2A3
  8
FUTO
 10
23658.468093474628
 20
3132.832201404628
 30
0.0
 40
1094.5
 50
180.0
 51
181.68155800307329
  0
LINE
  5
2A4
  8
FUTO
 10
22519.945317800612
 20
3085.6502210358231
 30
0.0
 11
22521.146487531591
 21
3103.610098298137
 31
0.0
  0
LINE
  5
2A5
  8
KL
 10
22604.788825385898
 20
2922.332201404628
 30
0.0
 11
22505.968093474628
 21
2922.332201404628
 31
0.0
  0
LINE
  5
2A6
  8
FUTO
 10
22580.968093474628
 20
2926.332201404628
 30
0.0
 11
22505.968093474628
 21
2926.332201404628
 31
0.0
  0
LINE
  5
2A7
  8
FUTO
 10
22580.674050069309
 20
2942.332201404628
 30
0.0
 11
22580.674050069309
 21
2929.4094194345948
 31
0.0
  0
LINE
  5
2A8
  8
FUTO
 10
27039.707703045511
 20
3125.332201404628
 30
0.0
 11
27039.707703045511
 21
2930.332201404628
 31
0.0
  0
LINE
  5
2A9
  8
FUTO
 10
27167.707703045511
 20
3125.332201404628
 30
0.0
 11
27167.707703045511
 21
2930.332201404628
 31
0.0
  0
LINE
  5
2AA
  8
CT
 10
27103.707703045511
 20
3173.823819914458
 30
0.0
 11
27103.707703045511
 21
2859.1750476425891
 31
0.0
  0
LINE
  5
2AB
  8
FUTO
 10
27025.707703045511
 20
3125.332201404628
 30
0.0
 11
27025.707703045511
 21
2895.3322014046271
 31
0.0
  0
LINE
  5
2AC
  8
FUTO
 10
27181.707703045511
 20
3125.332201404628
 30
0.0
 11
27181.707703045511
 21
2895.3322014046271
 31
0.0
  0
LINE
  5
2AD
  8
FUTO
 10
27167.707703045511
 20
3125.332201404628
 30
0.0
 11
27167.707703045511
 21
2930.332201404628
 31
0.0
  0
LINE
  5
2AE
  8
FUTO
 10
27017.707703045511
 20
3090.332201404628
 30
0.0
 11
27017.707703045511
 21
2930.332201404628
 31
0.0
  0
LINE
  5
2AF
  8
FUTO
 10
27189.707703045511
 20
3090.332201404628
 30
0.0
 11
27189.707703045511
 21
2930.332201404628
 31
0.0
  0
LINE
  5
2B1
  8
SL
 10
26957.50770304551
 20
1315.332201404618
 30
0.0
 11
26827.50770304551
 21
1315.332201404618
 31
0.0
  0
LINE
  5
2B2
  8
SL
 10
26957.50770304551
 20
2635.332201404628
 30
0.0
 11
26827.50770304551
 21
2635.332201404628
 31
0.0
  0
LINE
  5
2B3
  8
FUTO
 10
27033.707703045511
 20
2880.332201404628
 30
0.0
 11
27173.707703045511
 21
2880.332201404628
 31
0.0
  0
LINE
  5
2B4
  8
FUTO
 10
27033.707703045511
 20
2930.332201404628
 30
0.0
 11
27173.707703045511
 21
2930.332201404628
 31
0.0
  0
LINE
  5
2B5
  8
FUTO
 10
27013.707703045511
 20
2870.3322014046271
 30
0.0
 11
27193.707703045511
 21
2870.3322014046271
 31
0.0
  0
LINE
  5
2B6
  8
CT
 10
27058.707703045511
 20
2957.078858881981
 30
0.0
 11
27058.707703045511
 21
2859.1750476425891
 31
0.0
  0
LINE
  5
2B7
  8
FUTO
 10
27033.707703045511
 20
2930.332201404628
 30
0.0
 11
27033.707703045511
 21
2870.3322014046271
 31
0.0
  0
LINE
  5
2B8
  8
FUTO
 10
27017.707703045511
 20
2930.332201404628
 30
0.0
 11
27025.707703045511
 21
2910.332201404628
 31
0.0
  0
LINE
  5
2B9
  8
FUTO
 10
27025.707703045511
 20
2895.3322014046271
 30
0.0
 11
27033.707703045511
 21
2895.3322014046271
 31
0.0
  0
LINE
  5
2BA
  8
FUTO
 10
27017.707703045511
 20
3062.832201404628
 30
0.0
 11
26957.50770304551
 21
3062.832201404628
 31
0.0
  0
LINE
  5
2BB
  8
FUTO
 10
27017.707703045511
 20
2957.8322014046271
 30
0.0
 11
26957.50770304551
 21
2957.8322014046271
 31
0.0
  0
LINE
  5
2BC
  8
CT
 10
27148.707703045511
 20
2957.078858881981
 30
0.0
 11
27148.707703045511
 21
2859.1750476425891
 31
0.0
  0
LINE
  5
2BD
  8
FUTO
 10
27173.707703045511
 20
2930.332201404628
 30
0.0
 11
27173.707703045511
 21
2870.3322014046271
 31
0.0
  0
LINE
  5
2BE
  8
FUTO
 10
27181.707703045511
 20
2895.3322014046271
 30
0.0
 11
27173.707703045511
 21
2895.3322014046271
 31
0.0
  0
LINE
  5
2BF
  8
FUTO
 10
27189.707703045511
 20
2930.332201404628
 30
0.0
 11
27181.707703045511
 21
2910.332201404628
 31
0.0
  0
LINE
  5
2C0
  8
SL
 10
26957.50770304551
 20
3385.332201404628
 30
0.0
 11
26827.50770304551
 21
3385.332201404628
 31
0.0
  0
LINE
  5
2C1
  8
FUTO
 10
26990.45673720802
 20
3490.332201404628
 30
0.0
 11
26709.707703045511
 21
3490.332201404628
 31
0.0
  0
POINT
  5
2C2
  8
DEFPOINTS
 10
26709.707703045511
 20
3490.332201404628
 30
0.0
  0
LINE
  5
2C3
  8
FUTO
 10
26990.45673720802
 20
3490.332201404628
 30
0.0
 11
26990.45673720802
 21
3223.054447908909
 31
0.0
  0
LINE
  5
2C4
  8
FUTO
 10
27049.707703045511
 20
3143.332201404628
 30
0.0
 11
27157.707703045511
 21
3143.332201404628
 31
0.0
  0
LINE
  5
2C5
  8
FUTO
 10
27017.707703045511
 20
3090.332201404628
 30
0.0
 11
27025.707703045511
 21
3110.332201404628
 31
0.0
  0
LINE
  5
2C6
  8
FUTO
 10
27025.707703045511
 20
3125.332201404628
 30
0.0
 11
27039.707703045511
 21
3125.332201404628
 31
0.0
  0
LINE
  5
2C7
  8
FUTO
 10
27049.707703045511
 20
3143.332201404628
 30
0.0
 11
27049.707703045511
 21
3125.332201404628
 31
0.0
  0
LINE
  5
2C8
  8
FUTO
 10
27039.707703045511
 20
3125.332201404628
 30
0.0
 11
27049.707703045511
 21
3125.332201404628
 31
0.0
  0
LINE
  5
2C9
  8
FUTO
 10
27157.707703045511
 20
3143.332201404628
 30
0.0
 11
27157.707703045511
 21
3125.332201404628
 31
0.0
  0
LINE
  5
2CA
  8
FUTO
 10
27157.707703045511
 20
3125.332201404628
 30
0.0
 11
27167.707703045511
 21
3125.332201404628
 31
0.0
  0
LINE
  5
2CB
  8
FUTO
 10
27181.707703045511
 20
3125.332201404628
 30
0.0
 11
27167.707703045511
 21
3125.332201404628
 31
0.0
  0
LINE
  5
2CC
  8
FUTO
 10
27189.707703045511
 20
3090.332201404628
 30
0.0
 11
27181.707703045511
 21
3110.332201404628
 31
0.0
  0
INSERT
  5
2CD
  8
FUTO
  2
まっすぐの矢印
 10
22132.843424295519
 20
1468.7636191829531
 30
0.0
 41
40.0
 42
40.0
 43
40.0
 50
90.0
  0
LINE
  5
2D8
  8
FUTO
 10
22545.30364536255
 20
818.33220140463891
 30
0.0
 11
22450.607334133929
 21
818.33220140467893
 31
0.0
  0
INSERT
  5
2D9
  8
FUTO
  2
L-75-6
 10
22424.538496590161
 20
972.93866280818293
 30
0.0
 50
270.0
  0
LINE
  5
2DA
  8
FUTO
 10
22505.968093473199
 20
858.33220140472611
 30
0.0
 11
22505.96809347317
 21
783.33220140472622
 31
0.0
  0
LINE
  5
2DB
  8
FUTO
 10
22505.968093473221
 20
858.33220140472986
 30
0.0
 11
22505.96809347317
 21
783.33220140472974
 31
0.0
  0
LINE
  5
33E
  8
FUTO
 10
22505.968093474381
 20
7298.4730126104141
 30
0.0
 11
25516.968093474628
 21
7298.4730126104141
 31
0.0
  0
LINE
  5
33F
  8
FUTO
 10
22505.968093474428
 20
7223.4730126104141
 30
0.0
 11
26030.968093474628
 21
7223.4730126104141
 31
0.0
  0
LINE
  5
340
  8
FUTO
 10
22980.968093474628
 20
5681.4730126104132
 30
0.0
 11
26030.968093474628
 21
5681.4730126104132
 31
0.0
  0
LINE
  5
341
  8
FUTO
 10
22980.968093474628
 20
5756.473012610415
 30
0.0
 11
26030.968093474628
 21
5756.4730126104132
 31
0.0
  0
LINE
  5
35D
  8
FUTO
 10
26030.968093474628
 20
5681.4730126104132
 30
0.0
 11
26030.968093474628
 21
5756.4730126104132
 31
0.0
  0
LINE
  5
35E
  8
SL
 10
25855.968093474628
 20
5756.4730126104132
 30
0.0
 11
25855.968093474628
 21
6660.2730126103452
 31
0.0
  0
POINT
  5
388
  8
DEFPOINTS
 10
26030.968093474628
 20
7298.4730126104141
 30
0.0
  0
LINE
  5
3AB
  8
CT
 10
23780.968093474628
 20
5231.6984513796242
 30
0.0
 11
23780.968093474628
 21
9211.0913930444603
 31
0.0
  0
LINE
  5
3AE
  8
FUTO
 10
24930.968093474628
 20
7248.4730126104141
 30
0.0
 11
24930.968093474628
 21
7223.4730126104141
 31
0.0
  0
LINE
  5
44F
  8
FUTO
 10
22980.968093474628
 20
5681.4730126104132
 30
0.0
 11
22980.968093474628
 21
7223.4730126104141
 31
0.0
  0
LINE
  5
450
  8
FUTO
 10
23055.968093474628
 20
5756.4730126104132
 30
0.0
 11
23055.968093474628
 21
7223.4730126104141
 31
0.0
  0
LINE
  5
452
  8
FUTO
 10
24505.968093474628
 20
5756.4730126104132
 30
0.0
 11
24505.968093474628
 21
7223.4730126104141
 31
0.0
  0
LINE
  5
454
  8
FUTO
 10
24580.968093474628
 20
5681.4730126104132
 30
0.0
 11
24580.968093474628
 21
7223.4730126104141
 31
0.0
  0
LINE
  5
546
  8
CT
 10
22285.06138179246
 20
8052.4730126104141
 30
0.0
 11
25720.033084120369
 21
8052.4730126104141
 31
0.0
  0
LINE
  5
547
  8
FUTO
 10
22505.968093474628
 20
8806.4730126104187
 30
0.0
 11
25516.968093474628
 21
8806.4730126104187
 31
0.0
  0
LINE
  5
548
  8
FUTO
 10
22505.968093474628
 20
8881.4730126104187
 30
0.0
 11
24930.968093474628
 21
8881.4730126104168
 31
0.0
  0
LINE
  5
568
  8
FUTO
 10
24930.968093474628
 20
8856.4730126104205
 30
0.0
 11
24930.968093474628
 21
8881.4730126104168
 31
0.0
  0
DIMENSION
  5
5CF
  8
SP
  2
*D10
 10
30708.897421424532
 20
2010.332201404628
 30
0.0
 11
30708.897421424532
 21
3010.332201404628
 31
0.0
 70
   128
  1
%%C<>
 13
30214.707703045511
 23
4010.332201404628
 33
0.0
 14
30214.707703045511
 24
2010.332201404628
 34
0.0
 50
90.0
1001
ACAD
1000
DSTYLE
1002
{
1070
   287
1070
     0
1070
   287
1070
     0
1070
    40
1040
45.0
1070
   140
1040
3.0
1070
   143
1040
0.03937
1070
   147
1040
0.5
1070
   173
1070
     1
1070
   176
1070
   256
1070
   177
1070
   256
1070
   178
1070
   256
1070
   271
1070
     4
1070
   272
1070
     4
1070
   279
1070
     0
1070
   285
1070
     0
1070
   286
1070
     0
1070
   289
1070
     0
1070
     6
1000
OPEN
1070
     7
1000
OPEN
1002
}
  0
LINE
  5
5DE
  8
FUTO
 10
30062.907703045508
 20
840.33220140462788
 30
0.0
 11
30062.907703045508
 21
3010.332201404628
 31
0.0
  0
LINE
  5
5DF
  8
FUTO
 10
30059.707703045511
 20
840.33220140462788
 30
0.0
 11
30059.707703045511
 21
3010.332201404628
 31
0.0
  0
LINE
  5
5E0
  8
FUTO
 10
30152.907703045508
 20
840.33220140462788
 30
0.0
 11
30152.907703045508
 21
3001.332201404628
 31
0.0
  0
LINE
  5
5E5
  8
KL
 10
30071.9077030464
 20
1935.332201404628
 30
0.0
 11
30071.907703046891
 21
4085.332201404628
 31
0.0
  0
LINE
  5
5E6
  8
FUTO
 10
30214.707703045511
 20
1935.332201404628
 30
0.0
 11
30214.707703045511
 21
4085.332201404628
 31
0.0
  0
LINE
  5
5E7
  8
FUTO
 10
30208.707703045511
 20
1935.332201404628
 30
0.0
 11
30208.707703045511
 21
4085.332201404628
 31
0.0
  0
LINE
  5
5EB
  8
FUTO
 10
28556.50770304551
 20
840.33220140462788
 30
0.0
 11
28556.50770304551
 21
3010.332201404628
 31
0.0
  0
LINE
  5
5EC
  8
FUTO
 10
28559.707703045511
 20
840.33220140462788
 30
0.0
 11
28559.707703045511
 21
3010.332201404628
 31
0.0
  0
LINE
  5
5ED
  8
FUTO
 10
28466.50770304551
 20
840.33220140462788
 30
0.0
 11
28466.50770304551
 21
3001.332201404628
 31
0.0
  0
LINE
  5
5EE
  8
FUTO
 10
28443.707703045511
 20
840.33220140462788
 30
0.0
 11
28443.707703045511
 21
2850.3322014046271
 31
0.0
  0
LINE
  5
5F0
  8
CT
 10
29309.707703045511
 20
312.85584538053979
 30
0.0
 11
29309.707703045511
 21
4717.7224190355018
 31
0.0
  0
ARC
  5
614
  8
FUTO
 10
30080.707703045511
 20
683.40757102231328
 30
0.0
 40
10.0
 50
180.0
 51
265.0
  0
LINE
  5
617
  8
FUTO
 10
30063.707703045511
 20
660.33220140462799
 30
0.0
 11
30063.707703045511
 21
840.33220140462788
 31
0.0
  0
LINE
  5
618
  8
FUTO
 10
30063.707703045511
 20
660.33220140462799
 30
0.0
 11
30063.707703045511
 21
840.33220140462788
 31
0.0
  0
LINE
  5
61B
  8
FUTO
 10
30079.836145618028
 20
673.4456240413956
 30
0.0
 11
30133.687059630622
 21
668.73427954478484
 31
0.0
  0
LINE
  5
61C
  8
FUTO
 10
30063.707703045511
 20
660.33220140462799
 30
0.0
 11
30138.707703045511
 21
660.33220140462799
 31
0.0
  0
LINE
  5
61D
  8
FUTO
 10
30063.707703045511
 20
520.33220140462788
 30
0.0
 11
30138.707703045511
 21
520.33220140462788
 31
0.0
  0
LINE
  5
61E
  8
FUTO
 10
30063.707703045511
 20
520.33220140462788
 30
0.0
 11
30138.707703045511
 21
520.33220140462788
 31
0.0
  0
LINE
  5
61F
  8
FUTO
 10
30079.836145618028
 20
507.21877876786027
 30
0.0
 11
30133.687059630622
 21
511.93012326447109
 31
0.0
  0
LINE
  5
620
  8
FUTO
 10
30079.836145618028
 20
353.44562404139549
 30
0.0
 11
30133.687059630622
 21
348.73427954478478
 31
0.0
  0
LINE
  5
621
  8
FUTO
 10
30063.707703045511
 20
340.33220140462788
 30
0.0
 11
30138.707703045511
 21
340.33220140462788
 31
0.0
  0
ARC
  5
623
  8
FUTO
 10
30080.707703045511
 20
497.25683178694271
 30
0.0
 40
10.0
 50
95.0
 51
180.0
  0
ARC
  5
624
  8
FUTO
 10
30080.707703045511
 20
363.40757102231322
 30
0.0
 40
10.0
 50
180.0
 51
265.0
  0
LINE
  5
625
  8
FUTO
 10
30063.707703045511
 20
340.33220140462788
 30
0.0
 11
30063.707703045511
 21
520.33220140462788
 31
0.0
  0
LINE
  5
626
  8
FUTO
 10
30070.707703045511
 20
363.40757102231322
 30
0.0
 11
30070.707703045511
 21
497.25683178694271
 31
0.0
  0
LINE
  5
629
  8
FUTO
 10
30138.707703045511
 20
663.25520870528078
 30
0.0
 11
30138.707703045511
 21
660.33220140462799
 31
0.0
  0
ARC
  5
62A
  8
FUTO
 10
30133.207703045511
 20
663.25520870528078
 30
0.0
 40
5.5
 50
0.0
 51
84.999999999999986
  0
LINE
  5
62B
  8
FUTO
 10
30138.707703045511
 20
517.40919410397601
 30
0.0
 11
30138.707703045511
 21
520.33220140462788
 31
0.0
  0
ARC
  5
62C
  8
FUTO
 10
30133.207703045511
 20
517.40919410397498
 30
0.0
 40
5.5
 50
275.0
 51
0.0000000000005598
  0
LINE
  5
62D
  8
FUTO
 10
30138.707703045511
 20
343.25520870528078
 30
0.0
 11
30138.707703045511
 21
340.33220140462788
 31
0.0
  0
ARC
  5
62E
  8
FUTO
 10
30133.207703045511
 20
343.25520870528078
 30
0.0
 40
5.5
 50
0.0
 51
84.999999999999986
  0
LINE
  5
62F
  8
0
 10
30063.707703045511
 20
840.33220140462788
 30
0.0
 11
30138.707703045511
 21
840.33220140462788
 31
0.0
  0
LINE
  5
630
  8
FUTO
 10
30079.836145618028
 20
827.21877876786027
 30
0.0
 11
30133.687059630622
 21
831.93012326447115
 31
0.0
  0
ARC
  5
631
  8
FUTO
 10
30080.707703045511
 20
817.2568317869426
 30
0.0
 40
10.0
 50
95.0
 51
180.0
  0
LINE
  5
632
  8
FUTO
 10
30070.707703045511
 20
683.40757102231328
 30
0.0
 11
30070.707703045511
 21
817.2568317869426
 31
0.0
  0
LINE
  5
633
  8
FUTO
 10
30138.707703045511
 20
837.40919410397589
 30
0.0
 11
30138.707703045511
 21
840.33220140462788
 31
0.0
  0
ARC
  5
634
  8
FUTO
 10
30133.207703045511
 20
837.40919410397498
 30
0.0
 40
5.5
 50
275.0
 51
0.0000000000005598
  0
LINE
  5
635
  8
KL
 10
30062.907703045508
 20
2010.332201404628
 30
0.0
 11
30214.707703045511
 21
2010.332201404628
 31
0.0
  0
LINE
  5
636
  8
FUTO
 10
30062.907703045508
 20
2004.3322014046271
 30
0.0
 11
30152.907703045508
 21
2004.3322014046271
 31
0.0
  0
LINE
  5
637
  8
HOSO
 10
30071.907703046421
 20
2010.3322014046389
 30
0.0
 11
30062.907703046421
 21
2010.33220140464
 31
0.0
  0
LINE
  5
638
  8
HOSO
 10
30036.787959438308
 20
1970.332201404628
 30
0.0
 11
30094.987115543528
 21
1970.332201404628
 31
0.0
  0
LINE
  5
639
  8
KL
 10
30062.907703045508
 20
1935.332201404628
 30
0.0
 11
30071.9077030464
 21
1935.332201404628
 31
0.0
  0
LINE
  5
63A
  8
FUTO
 10
30152.907703045508
 20
2004.3322014046271
 30
0.0
 11
30208.707703045511
 21
2004.3322014046271
 31
0.0
  0
LINE
  5
63B
  8
HOSO
 10
30186.669513605531
 20
1970.332201404628
 30
0.0
 11
30244.868669710751
 21
1970.332201404628
 31
0.0
  0
LINE
  5
63C
  8
FUTO
 10
30208.707703045511
 20
1935.332201404628
 30
0.0
 11
30214.707703045511
 21
1935.332201404628
 31
0.0
  0
LINE
  5
68C
  8
FUTO
 10
30062.907703045508
 20
3010.332201404628
 30
0.0
 11
30062.907703045508
 21
4452.332201404628
 31
0.0
  0
LINE
  5
68D
  8
FUTO
 10
30059.707703045511
 20
3010.332201404628
 30
0.0
 11
30059.707703045511
 21
4452.332201404628
 31
0.0
  0
LINE
  5
68E
  8
FUTO
 10
30137.907703045508
 20
3001.332201404628
 30
0.0
 11
30137.907703045508
 21
4452.3322014046171
 31
0.0
  0
LINE
  5
68F
  8
FUTO
 10
28559.707703045511
 20
3010.332201404628
 30
0.0
 11
28559.707703045511
 21
4452.332201404628
 31
0.0
  0
LINE
  5
690
  8
FUTO
 10
28556.50770304551
 20
3010.332201404628
 30
0.0
 11
28556.50770304551
 21
4452.332201404628
 31
0.0
  0
LINE
  5
691
  8
FUTO
 10
28481.50770304551
 20
3001.332201404628
 30
0.0
 11
28481.5077030455
 21
4452.3322014046289
 31
0.0
  0
LINE
  5
69A
  8
FUTO
 10
28481.50770304551
 20
3019.332201404628
 30
0.0
 11
30137.907703045508
 21
3019.332201404628
 31
0.0
  0
LINE
  5
69B
  8
FUTO
 10
28466.50770304551
 20
3001.332201404628
 30
0.0
 11
30152.907703045508
 21
3001.332201404628
 31
0.0
  0
LINE
  5
6A4
  8
FUTO
 10
28288.707703045511
 20
2915.332201404628
 30
0.0
 11
28288.707703045511
 21
3145.332201404628
 31
0.0
  0
LINE
  5
6A5
  8
FUTO
 10
28275.707703045511
 20
2915.332201404628
 30
0.0
 11
28275.707703045511
 21
3145.332201404628
 31
0.0
  0
LINE
  5
6A6
  8
FUTO
 10
28251.707703045511
 20
2921.3322014046271
 30
0.0
 11
28251.707703045511
 21
3099.3322014046298
 31
0.0
  0
LINE
  5
6A7
  8
CT
 10
28353.707703045511
 20
2780.040492330128
 30
0.0
 11
28353.707703045511
 21
3239.665903166424
 31
0.0
  0
LINE
  5
6A8
  8
FUTO
 10
28418.707703045511
 20
2915.332201404628
 30
0.0
 11
28418.707703045511
 21
3145.332201404628
 31
0.0
  0
LINE
  5
6A9
  8
FUTO
 10
28455.707703045511
 20
2921.3322014046271
 30
0.0
 11
28455.707703045511
 21
3099.3322014046298
 31
0.0
  0
LINE
  5
6AA
  8
FUTO
 10
28431.707703045511
 20
2915.332201404628
 30
0.0
 11
28431.707703045511
 21
3145.332201404628
 31
0.0
  0
LINE
  5
6AB
  8
FUTO
 10
28418.707703045511
 20
2915.332201404628
 30
0.0
 11
28418.707703045511
 21
3145.332201404628
 31
0.0
  0
LINE
  5
6AF
  8
FUTO
 10
28273.707703045511
 20
2860.332201404628
 30
0.0
 11
28433.707703045511
 21
2860.332201404628
 31
0.0
  0
LINE
  5
6B0
  8
FUTO
 10
28273.707703045511
 20
2915.332201404628
 30
0.0
 11
28433.707703045511
 21
2915.332201404628
 31
0.0
  0
LINE
  5
6B1
  8
CT
 10
28303.707703045511
 20
2821.9674664715271
 30
0.0
 11
28303.707703045511
 21
2944.025782735273
 31
0.0
  0
LINE
  5
6B2
  8
FUTO
 10
28273.707703045511
 20
2850.3322014046271
 30
0.0
 11
28273.707703045511
 21
2915.332201404628
 31
0.0
  0
LINE
  5
6B3
  8
FUTO
 10
28251.707703045511
 20
2921.332201404628
 30
0.0
 11
28273.707703045511
 21
2897.4988680712931
 31
0.0
  0
LINE
  5
6B6
  8
KL
 10
28455.707703045511
 20
2955.332201404628
 30
0.0
 11
28549.351743370171
 21
2955.332201404628
 31
0.0
  0
LINE
  5
6BA
  8
CT
 10
28403.707703045511
 20
2820.0387797585558
 30
0.0
 11
28403.707703045511
 21
2944.025782735273
 31
0.0
  0
LINE
  5
6BB
  8
FUTO
 10
28433.707703045511
 20
2850.3322014046271
 30
0.0
 11
28433.707703045511
 21
2915.332201404628
 31
0.0
  0
LINE
  5
6BC
  8
FUTO
 10
28455.707703045511
 20
2921.332201404628
 30
0.0
 11
28433.707703045511
 21
2897.4988680712931
 31
0.0
  0
LINE
  5
6C2
  8
FUTO
 10
28293.707703045511
 20
3161.3322014046271
 30
0.0
 11
28413.707703045511
 21
3161.3322014046271
 31
0.0
  0
LINE
  5
6C3
  8
FUTO
 10
28293.707703045511
 20
3145.332201404628
 30
0.0
 11
28293.707703045511
 21
3161.3322014046271
 31
0.0
  0
LINE
  5
6C4
  8
FUTO
 10
28251.707703045511
 20
3099.332201404628
 30
0.0
 11
28275.707703045511
 21
3125.332201404628
 31
0.0
  0
LINE
  5
6C5
  8
FUTO
 10
28275.707703045511
 20
3145.332201404628
 30
0.0
 11
28293.707703045511
 21
3145.332201404628
 31
0.0
  0
LINE
  5
6C6
  8
KL
 10
28455.707703045511
 20
3065.332201404628
 30
0.0
 11
28551.79478023736
 21
3065.332201404628
 31
0.0
  0
LINE
  5
6C7
  8
FUTO
 10
28431.707703045511
 20
3145.332201404628
 30
0.0
 11
28413.707703045511
 21
3145.332201404628
 31
0.0
  0
LINE
  5
6C8
  8
FUTO
 10
28413.707703045511
 20
3145.332201404628
 30
0.0
 11
28413.707703045511
 21
3161.3322014046271
 31
0.0
  0
LINE
  5
6C9
  8
FUTO
 10
28455.707703045511
 20
3099.332201404628
 30
0.0
 11
28431.707703045511
 21
3125.332201404628
 31
0.0
  0
LINE
  5
6E2
  8
KL
 10
30062.907703045508
 20
4010.332201404628
 30
0.0
 11
30214.707703045511
 21
4010.332201404628
 31
0.0
  0
LINE
  5
6E3
  8
KL
 10
30062.907703045508
 20
4016.332201404628
 30
0.0
 11
30137.907703045508
 21
4016.332201404628
 31
0.0
  0
LINE
  5
6E4
  8
HOSO
 10
30071.907703046869
 20
4010.332201404638
 30
0.0
 11
30062.907703046869
 21
4010.3322014046398
 31
0.0
  0
LINE
  5
6E5
  8
HOSO
 10
30029.10132920109
 20
4050.332201404628
 30
0.0
 11
30099.728456338911
 21
4050.332201404628
 31
0.0
  0
LINE
  5
6E6
  8
FUTO
 10
30137.907703045508
 20
4016.332201404628
 30
0.0
 11
30208.707703045511
 21
4016.332201404628
 31
0.0
  0
LINE
  5
6E7
  8
HOSO
 10
30178.66177560317
 20
4050.332201404628
 30
0.0
 11
30249.288902740991
 21
4050.332201404628
 31
0.0
  0
DIMENSION
  5
6F9
  8
SP
  2
*D11
 10
30214.707703045511
 20
4785.1626473783854
 30
0.0
 11
29762.207703045511
 21
4875.1626473783863
 31
0.0
 70
     0
  1
905
 13
29309.707703045511
 23
4669.2029840563746
 33
0.0
 14
30214.707703045511
 24
4085.332201404628
 34
0.0
1001
ACAD
1000
DSTYLE
1002
{
1070
   287
1070
     0
1070
   287
1070
     0
1070
    40
1040
45.0
1070
   140
1040
3.0
1070
   143
1040
0.03937
1070
   147
1040
0.5
1070
   173
1070
     1
1070
   176
1070
   256
1070
   177
1070
   256
1070
   178
1070
   256
1070
   271
1070
     4
1070
   272
1070
     4
1070
   279
1070
     0
1070
   285
1070
     0
1070
   286
1070
     0
1070
   289
1070
     0
1070
     6
1000
OPEN
1070
     7
1000
OPEN
1002
}
  0
LINE
  5
706
  8
KL
 10
30062.907703045508
 20
4085.332201404628
 30
0.0
 11
30071.907703046891
 21
4085.332201404628
 31
0.0
  0
LINE
  5
707
  8
KL
 10
30062.907703045501
 20
4083.332201404628
 30
0.0
 11
30062.907703045519
 21
4173.332201404628
 31
0.0
  0
LINE
  5
708
  8
FUTO
 10
30208.707703045511
 20
4085.332201404628
 30
0.0
 11
30214.707703045511
 21
4085.332201404628
 31
0.0
  0
INSERT
  5
71C
  8
FUTO
  2
まっすぐの矢印
 10
30381.203990801539
 20
3561.2564525448201
 30
0.0
 41
40.0
 42
40.0
 43
40.0
 50
90.0
  0
DIMENSION
  5
A68
  8
SP
  2
*D6
 10
23780.968093474628
 20
-327.28852560925759
 30
0.0
 11
24905.968093474628
 21
-237.2885256092577
 31
0.0
 70
     0
 13
26030.968093474628
 23
340.33220140462788
 33
0.0
 14
23780.968093474628
 24
340.33220140462788
 34
0.0
 50
180.0
1001
ACAD
1000
DSTYLE
1002
{
1070
   140
1040
3.0
1070
    40
1040
45.0
1070
   173
1070
     1
1070
   147
1040
0.5
1070
     7
1000
_OPEN
1070
     6
1000
_OPEN
1002
}
  0
DIMENSION
  5
A75
  8
SP
  2
*D7
 10
22630.968093474628
 20
-327.28852560925759
 30
0.0
 11
23205.968093474628
 21
-237.2885256092577
 31
0.0
 70
     0
 13
23780.968093474628
 23
340.33220140462788
 33
0.0
 14
22630.968093474628
 24
340.33220140462788
 34
0.0
 50
180.0
1001
ACAD
1000
DSTYLE
1002
{
1070
   140
1040
3.0
1070
    40
1040
45.0
1070
   173
1070
     1
1070
   147
1040
0.5
1070
     7
1000
_OPEN
1070
     6
1000
_OPEN
1002
}
  0
LINE
  5
AB0
  8
SL
 10
28193.275968819409
 20
3157.5353088989568
 30
0.0
 11
27263.097195941191
 21
3157.5353088989568
 31
0.0
  0
LINE
  5
AB2
  8
CT
 10
25864.495414247809
 20
747.94058954883258
 30
0.0
 11
25864.495414247809
 21
436.63219605897569
 31
0.0
  0
LINE
  5
AB3
  8
SP
 10
25904.495414247809
 20
660.33220140462799
 30
0.0
 11
25904.495414247809
 21
520.33220140462788
 31
0.0
  0
LINE
  5
AB4
  8
SP
 10
25824.495414247809
 20
660.33220140462799
 30
0.0
 11
25824.495414247809
 21
520.33220140462788
 31
0.0
  0
POINT
  5
CAC
  8
DEFPOINTS
  6
BYBLOCK
 62
     0
 10
22980.968093474628
 20
5681.4730126104132
 30
0.0
  0
POINT
  5
CB7
  8
DEFPOINTS
  6
BYBLOCK
 62
     0
 10
22980.968093474628
 20
5681.4730126104132
 30
0.0
  0
LINE
  5
178C
  8
FUTO
 10
25745.968093474628
 20
840.33220140461776
 30
0.0
 11
25980.968093474628
 21
840.33220140461776
 31
0.0
  0
LINE
  5
178D
  8
FUTO
 10
25970.968093474628
 20
910.33220140461765
 30
0.0
 11
25745.968093474628
 21
910.33220140461765
 31
0.0
  0
LINE
  5
178F
  8
FUTO
 10
25280.968093474628
 20
840.33220140461776
 30
0.0
 11
25515.968093474628
 21
840.33220140461776
 31
0.0
  0
LINE
  5
1790
  8
FUTO
 10
25515.968093474621
 20
910.33220140461765
 30
0.0
 11
25290.968093474621
 21
910.33220140461765
 31
0.0
  0
LINE
  5
1791
  8
FUTO
 10
25290.968093474621
 20
910.33220140461765
 30
0.0
 11
25280.968093474628
 21
840.33220140461776
 31
0.0
  0
LINE
  5
1792
  8
FUTO
 10
25745.968093474628
 20
850.33220140461776
 30
0.0
 11
25515.968093474628
 21
850.33220140461776
 31
0.0
  0
LINE
  5
1793
  8
FUTO
 10
25745.968093474628
 20
900.33220140461776
 30
0.0
 11
25515.968093474628
 21
900.33220140461776
 31
0.0
  0
LINE
  5
1794
  8
FUTO
 10
25515.968093474621
 20
910.33220140461765
 30
0.0
 11
25515.968093474628
 21
900.33220140461776
 31
0.0
  0
LINE
  5
1795
  8
FUTO
 10
25515.968093474628
 20
850.33220140461776
 30
0.0
 11
25515.968093474628
 21
840.33220140461776
 31
0.0
  0
LINE
  5
1796
  8
FUTO
 10
25745.968093474628
 20
910.33220140461765
 30
0.0
 11
25745.968093474628
 21
900.33220140461776
 31
0.0
  0
LINE
  5
1797
  8
FUTO
 10
25745.968093474628
 20
850.33220140461776
 30
0.0
 11
25745.968093474628
 21
840.33220140461776
 31
0.0
  0
LINE
  5
1798
  8
FUTO
 10
25873.968093474628
 20
910.33220140461765
 30
0.0
 11
25773.968093474628
 21
910.33220140461765
 31
0.0
  0
LINE
  5
1799
  8
FUTO
 10
25970.968093474628
 20
910.33220140461765
 30
0.0
 11
25980.968093474628
 21
840.33220140461776
 31
0.0
  0
LINE
  5
179B
  8
CT
 10
25732.674508098899
 20
1640.3322014046159
 30
0.0
 11
25886.97144561859
 21
1640.3322014046159
 31
0.0
  0
LINE
  5
179C
  8
FUTO
 10
25420.968093474628
 20
1780.3322014046171
 30
0.0
 11
25810.968093474628
 21
1780.3322014046171
 31
0.0
  0
LINE
  5
179D
  8
FUTO
 10
25420.968093474628
 20
1515.3322014046159
 30
0.0
 11
25810.968093474628
 21
1515.332201404615
 31
0.0
  0
LINE
  5
179E
  8
FUTO
 10
25475.488961199029
 20
922.14152403714399
 30
0.0
 11
25786.447225750238
 21
922.14152403714513
 31
0.0
  0
LINE
  5
17A0
  8
CT
 10
25293.50912928487
 20
1190.3322014046171
 30
0.0
 11
25974.24531566766
 21
1190.3322014046171
 31
0.0
  0
ARC
  5
17A1
  8
FUTO
 10
25630.968093474628
 20
1190.3322014046171
 30
0.0
 40
310.0
 50
300.10230806831191
 51
239.897691931688
  0
LINE
  5
17A3
  8
FUTO
 10
25460.968093474628
 20
931.10257346830326
 30
0.0
 11
25460.968093474628
 21
910.33220140461685
 31
0.0
  0
LINE
  5
17A4
  8
CT
 10
25402.468093474628
 20
955.50164989426196
 30
0.0
 11
25402.468093474628
 21
863.87608682200755
 31
0.0
  0
LINE
  5
17A5
  8
FUTO
 10
25350.968093474628
 20
1057.2908544480861
 30
0.0
 11
25350.968093474628
 21
910.33220140461765
 31
0.0
  0
LINE
  5
17A6
  8
FUTO
 10
25350.968093474628
 20
910.33220140461765
 30
0.0
 11
25460.968093474628
 21
910.33220140461765
 31
0.0
  0
LINE
  5
17A7
  8
FUTO
 10
25350.968093474628
 20
940.33220140461674
 30
0.0
 11
25447.6650656764
 21
940.33220140461674
 31
0.0
  0
LINE
  5
17A8
  8
FUTO
 10
25400.968093474628
 20
1760.3322014046171
 30
0.0
 11
25400.968093474628
 21
1535.3322014046159
 31
0.0
  0
ARC
  5
17A9
  8
FUTO
 10
25420.968093474628
 20
1535.3322014046159
 30
0.0
 40
20.0
 50
180.0
 51
270.0
  0
ARC
  5
17AA
  8
FUTO
 10
25420.968093474628
 20
1760.3322014046171
 30
0.0
 40
20.0
 50
90.0
 51
180.0
  0
LINE
  5
17AB
  8
FUTO
 10
25910.968093474628
 20
1057.2908544480711
 30
0.0
 11
25910.968093474628
 21
910.33220140461685
 31
0.0
  0
LINE
  5
17AC
  8
FUTO
 10
25800.968093474628
 20
931.10257346830326
 30
0.0
 11
25800.968093474628
 21
910.33220140461685
 31
0.0
  0
LINE
  5
17AD
  8
CT
 10
25859.468093474628
 20
955.50164989426196
 30
0.0
 11
25859.468093474628
 21
868.0408851434737
 31
0.0
  0
LINE
  5
17AE
  8
FUTO
 10
25800.968093474628
 20
910.33220140461685
 30
0.0
 11
25910.968093474628
 21
910.33220140461685
 31
0.0
  0
LINE
  5
17AF
  8
FUTO
 10
25814.271121272868
 20
940.33220140461674
 30
0.0
 11
25910.968093474628
 21
940.33220140461674
 31
0.0
  0
LINE
  5
17B0
  8
FUTO
 10
25830.968093474628
 20
1760.3322014046171
 30
0.0
 11
25830.968093474628
 21
1535.3322014046159
 31
0.0
  0
ARC
  5
17B1
  8
FUTO
 10
25810.968093474628
 20
1535.3322014046159
 30
0.0
 40
20.0
 50
270.0
 51
0.000000000000007
  0
ARC
  5
17B2
  8
FUTO
 10
25810.968093474628
 20
1760.3322014046171
 30
0.0
 40
20.0
 50
0.000000000000007
 51
90.0
  0
CIRCLE
  5
17B5
  8
SL
 10
25630.968093474628
 20
1190.3322014046171
 30
0.0
 40
177.5
  0
CIRCLE
  5
17B6
  8
SL
 10
23780.968093474628
 20
3010.332201404628
 30
0.0
 40
315.0
  0
ARC
  5
17B9
  8
FUTO
 10
23780.968093474628
 20
3010.332201404628
 30
0.0
 40
480.0
 50
41.048392050067427
 51
229.88830282815721
  0
ARC
  5
17BA
  8
FUTO
 10
25630.968093474628
 20
1190.3322014046171
 30
0.0
 40
280.0
 50
229.88830282815721
 51
41.048392050067349
  0
DIMENSION
  5
1B16
  8
SP
  2
*D12
 10
29309.707703045511
 20
-332.74521886361799
 30
0.0
 11
28124.207703045511
 21
-242.74521886361799
 31
0.0
 70
     0
 13
26938.707703045511
 23
340.33220140462782
 33
0.0
 14
29309.707703045511
 24
340.33220140462771
 34
0.0
1001
ACAD
1000
DSTYLE
1002
{
1070
   287
1070
     3
1070
    40
1040
45.0
1070
   140
1040
3.0
1070
   147
1040
0.5
1070
   173
1070
     1
1070
   279
1070
     0
1070
     6
1000
OPEN
1070
     7
1000
OPEN
1002
}
  0
DIMENSION
  5
1B22
  8
SP
  2
*D13
 10
30138.707703045511
 20
-332.74521886361799
 30
0.0
 11
29724.207703045511
 21
-242.74521886361799
 31
0.0
 70
     0
 13
29309.707703045511
 23
340.33220140462771
 33
0.0
 14
30138.707703045511
 24
340.33220140462782
 34
0.0
1001
ACAD
1000
DSTYLE
1002
{
1070
   287
1070
     4
1070
    40
1040
45.0
1070
    75
1070
     1
1070
   140
1040
3.0
1070
   147
1040
0.5
1070
   173
1070
     1
1070
   279
1070
     1
1070
     6
1000
OPEN
1070
     7
1000
OPEN
1002
}
  0
DIMENSION
  5
1B2F
  8
SP
  2
*D14
 10
26938.707703045511
 20
-624.86751911651481
 30
0.0
 11
28538.707703045511
 21
-534.86751911651481
 31
0.0
 70
     0
 13
30138.707703045511
 23
-332.74521886361799
 33
0.0
 14
26938.707703045511
 24
-332.74521886361799
 34
0.0
1001
ACAD
1000
DSTYLE
1002
{
1070
   287
1070
     3
1070
    40
1040
45.0
1070
   140
1040
3.0
1070
   147
1040
0.5
1070
   173
1070
     1
1070
   279
1070
     0
1070
     6
1000
OPEN
1070
     7
1000
OPEN
1002
}
  0
LINE
  5
1BAD
  8
FUTO
 10
28548.707703045511
 20
363.40757102231322
 30
0.0
 11
28548.707703045511
 21
497.25683178694271
 31
0.0
  0
LINE
  5
1BAE
  8
FUTO
 10
28555.707703045511
 20
340.33220140462788
 30
0.0
 11
28555.707703045511
 21
520.33220140462788
 31
0.0
  0
ARC
  5
1BAF
  8
FUTO
 10
28486.207703045511
 20
343.25520870528078
 30
0.0
 40
5.5
 50
95.000000000000014
 51
180.0
  0
LINE
  5
1BB0
  8
FUTO
 10
28480.707703045511
 20
343.25520870528078
 30
0.0
 11
28480.707703045511
 21
340.33220140462788
 31
0.0
  0
ARC
  5
1BB1
  8
FUTO
 10
28538.707703045511
 20
363.40757102231322
 30
0.0
 40
10.0
 50
275.0
 51
0.0
  0
LINE
  5
1BB2
  8
FUTO
 10
28555.707703045511
 20
340.33220140462788
 30
0.0
 11
28480.707703045511
 21
340.33220140462788
 31
0.0
  0
LINE
  5
1BB3
  8
FUTO
 10
28539.57926047298
 20
353.44562404139549
 30
0.0
 11
28485.72834646039
 21
348.73427954478478
 31
0.0
  0
ARC
  5
1BB4
  8
FUTO
 10
28486.207703045511
 20
517.40919410397498
 30
0.0
 40
5.5
 50
179.9999999999994
 51
264.99999999999989
  0
LINE
  5
1BB5
  8
FUTO
 10
28480.707703045511
 20
517.40919410397601
 30
0.0
 11
28480.707703045511
 21
520.33220140462788
 31
0.0
  0
ARC
  5
1BB6
  8
FUTO
 10
28486.207703045511
 20
663.25520870528078
 30
0.0
 40
5.5
 50
95.000000000000014
 51
180.0
  0
LINE
  5
1BB7
  8
FUTO
 10
28480.707703045511
 20
663.25520870528078
 30
0.0
 11
28480.707703045511
 21
660.33220140462799
 31
0.0
  0
ARC
  5
1BB8
  8
FUTO
 10
28538.707703045511
 20
497.25683178694271
 30
0.0
 40
10.0
 50
0.0
 51
85.0
  0
LINE
  5
1BBA
  8
FUTO
 10
28539.57926047298
 20
507.21877876786027
 30
0.0
 11
28485.72834646039
 21
511.93012326447109
 31
0.0
  0
LINE
  5
1BBB
  8
FUTO
 10
28555.707703045511
 20
520.33220140462788
 30
0.0
 11
28480.707703045511
 21
520.33220140462788
 31
0.0
  0
LINE
  5
1BBC
  8
FUTO
 10
28555.707703045511
 20
520.33220140462788
 30
0.0
 11
28480.707703045511
 21
520.33220140462788
 31
0.0
  0
LINE
  5
1BBD
  8
FUTO
 10
28555.707703045511
 20
660.33220140462799
 30
0.0
 11
28480.707703045511
 21
660.33220140462799
 31
0.0
  0
LINE
  5
1BBE
  8
FUTO
 10
28539.57926047298
 20
673.4456240413956
 30
0.0
 11
28485.72834646039
 21
668.73427954478484
 31
0.0
  0
ARC
  5
1BBF
  8
FUTO
 10
28538.707703045511
 20
683.40757102231328
 30
0.0
 40
10.0
 50
275.0
 51
0.0
  0
LINE
  5
1BC0
  8
FUTO
 10
28480.707703045511
 20
837.40919410397589
 30
0.0
 11
28480.707703045511
 21
840.33220140462788
 31
0.0
  0
LINE
  5
1BC1
  8
FUTO
 10
28555.707703045511
 20
660.33220140462799
 30
0.0
 11
28555.707703045511
 21
840.33220140462788
 31
0.0
  0
LINE
  5
1BC2
  8
FUTO
 10
28555.707703045511
 20
660.33220140462799
 30
0.0
 11
28555.707703045511
 21
840.33220140462788
 31
0.0
  0
ARC
  5
1BC5
  8
FUTO
 10
28486.207703045511
 20
837.40919410397498
 30
0.0
 40
5.5
 50
179.9999999999994
 51
264.99999999999989
  0
LINE
  5
1BC6
  8
FUTO
 10
28548.707703045511
 20
683.40757102231328
 30
0.0
 11
28548.707703045511
 21
817.2568317869426
 31
0.0
  0
ARC
  5
1BC7
  8
FUTO
 10
28538.707703045511
 20
817.2568317869426
 30
0.0
 40
10.0
 50
0.0
 51
85.0
  0
LINE
  5
1BC8
  8
FUTO
 10
28539.57926047298
 20
827.21877876786027
 30
0.0
 11
28485.72834646039
 21
831.93012326447115
 31
0.0
  0
LINE
  5
1BC9
  8
0
 10
28555.707703045511
 20
840.33220140462788
 30
0.0
 11
28480.707703045511
 21
840.33220140462788
 31
0.0
  0
LINE
  5
1BCA
  8
FUTO
 10
28555.707703045511
 20
672.33220140462799
 30
0.0
 11
30063.707703045511
 21
672.33220140462799
 31
0.0
  0
LINE
  5
1BCB
  8
FUTO
 10
28555.707703045511
 20
828.33220140462799
 30
0.0
 11
30063.707703045511
 21
828.33220140462799
 31
0.0
  0
LINE
  5
1BCC
  8
FUTO
 10
28555.707703045511
 20
508.33220140462799
 30
0.0
 11
30063.707703045511
 21
508.33220140462799
 31
0.0
  0
LINE
  5
1BCD
  8
FUTO
 10
28555.707703045511
 20
352.33220140462788
 30
0.0
 11
30063.707703045511
 21
352.33220140462788
 31
0.0
  0
LINE
  5
1BCE
  8
FUTO
 10
28555.707703045511
 20
340.33220140462788
 30
0.0
 11
30063.707703045511
 21
340.33220140462788
 31
0.0
  0
LINE
  5
1BCF
  8
FUTO
 10
27013.707703045511
 20
340.33220140462788
 30
0.0
 11
28526.852781499649
 21
340.33220140462788
 31
0.0
  0
DIMENSION
  5
1BF2
  8
SP
  2
*D15
 10
29309.707703045511
 20
4785.1626473783854
 30
0.0
 11
28009.707703045511
 21
4875.1626473783863
 31
0.0
 70
     0
 13
26709.707703045511
 23
4785.1626473783854
 33
0.0
 14
29309.707703045511
 24
4785.1626473783854
 34
0.0
1001
ACAD
1000
DSTYLE
1002
{
1070
   287
1070
     3
1070
    40
1040
45.0
1070
   140
1040
3.0
1070
   147
1040
0.5
1070
   173
1070
     1
1070
   279
1070
     0
1070
   341
1005
24
1070
     6
1000
OPEN
1070
     7
1000
OPEN
1002
}
  0
LINE
  5
1C10
  8
FUTO
 10
24930.968093474628
 20
520.33220140462788
 30
0.0
 11
24930.968093474628
 21
340.33220140462788
 31
0.0
  0
LINE
  5
1C11
  8
FUTO
 10
24580.968093474628
 20
520.33220140462788
 30
0.0
 11
24580.968093474628
 21
340.33220140462788
 31
0.0
  0
LINE
  5
1C21
  8
SL
 10
27263.097195941191
 20
3157.5353088989568
 30
0.0
 11
27263.097195941191
 21
2850.3322014046271
 31
0.0
  0
LINE
  5
1C22
  8
SL
 10
28193.275968819409
 20
3157.5353088989568
 30
0.0
 11
28193.275968819409
 21
2850.3322014046271
 31
0.0
  0
LINE
  5
1C5C
  8
FUTO
 10
23691.968093474628
 20
6994.473012610415
 30
0.0
 11
23665.968093474628
 21
7018.4730126104159
 31
0.0
  0
LINE
  5
1C5D
  8
FUTO
 10
23869.968093474628
 20
6994.473012610415
 30
0.0
 11
23893.801426807971
 21
7016.4730126104178
 31
0.0
  0
LINE
  5
1C61
  8
FUTO
 10
23300.968093474628
 20
5452.4730126104178
 30
0.0
 11
25910.968093474628
 21
5452.473012610415
 31
0.0
  0
LINE
  5
1C62
  8
SL
 10
23405.968093474628
 20
5570.273012610417
 30
0.0
 11
25808.468093474628
 21
5570.2730126104143
 31
0.0
  0
LINE
  5
1C63
  8
SL
 10
23405.968093474628
 20
5700.2730126104161
 30
0.0
 11
25808.468093474628
 21
5700.2730126104161
 31
0.0
  0
LINE
  5
1C6B
  8
FUTO
 10
23838.468093474628
 20
6994.473012610415
 30
0.0
 11
23838.468093474628
 21
5932.473012610415
 31
0.0
  0
LINE
  5
1C6C
  8
FUTO
 10
23723.468093474628
 20
6994.473012610415
 30
0.0
 11
23723.468093474628
 21
5932.473012610415
 31
0.0
  0
LINE
  5
1C6D
  8
FUTO
 10
23300.968093474628
 20
5733.2220467729239
 30
0.0
 11
25910.968093474628
 21
5733.2220467729221
 31
0.0
  0
LINE
  5
1C6E
  8
FUTO
 10
23700.968093474628
 20
5932.473012610415
 30
0.0
 11
23860.968093474628
 21
5932.473012610415
 31
0.0
  0
LINE
  5
1C6F
  8
FUTO
 10
23700.968093474628
 20
5760.473012610415
 30
0.0
 11
23860.968093474628
 21
5760.473012610415
 31
0.0
  0
LINE
  5
1C70
  8
FUTO
 10
23665.968093474628
 20
5910.473012610415
 30
0.0
 11
23860.968093474628
 21
5910.473012610415
 31
0.0
  0
LINE
  5
1C71
  8
FUTO
 10
23665.968093474628
 20
5924.473012610415
 30
0.0
 11
23895.968093474628
 21
5924.473012610415
 31
0.0
  0
LINE
  5
1C72
  8
FUTO
 10
23665.968093474628
 20
5768.473012610415
 30
0.0
 11
23895.968093474628
 21
5768.473012610415
 31
0.0
  0
LINE
  5
1C73
  8
CT
 10
23617.476474964798
 20
5846.473012610415
 30
0.0
 11
23932.125247236669
 21
5846.473012610415
 31
0.0
  0
LINE
  5
1C74
  8
FUTO
 10
23665.968093474628
 20
5910.473012610415
 30
0.0
 11
23895.968093474628
 21
5910.473012610415
 31
0.0
  0
LINE
  5
1C75
  8
FUTO
 10
23665.968093474628
 20
5782.473012610415
 30
0.0
 11
23895.968093474628
 21
5782.473012610415
 31
0.0
  0
LINE
  5
1C76
  8
SL
 10
24155.968093474628
 20
5700.2730126104161
 30
0.0
 11
24155.968093474628
 21
5570.2730126104161
 31
0.0
  0
LINE
  5
1C7A
  8
FUTO
 10
23833.468093474628
 20
5760.473012610415
 30
0.0
 11
23833.468093474628
 21
5700.2730126104152
 31
0.0
  0
LINE
  5
1C7B
  8
FUTO
 10
23895.968093474628
 20
5768.473012610415
 30
0.0
 11
23895.968093474628
 21
5776.4730126104159
 31
0.0
  0
LINE
  5
1C7C
  8
FUTO
 10
23860.968093474628
 20
5760.473012610415
 30
0.0
 11
23880.968093474628
 21
5768.473012610415
 31
0.0
  0
LINE
  5
1C7F
  8
FUTO
 10
23860.968093474628
 20
5932.473012610415
 30
0.0
 11
23880.968093474628
 21
5924.473012610415
 31
0.0
  0
LINE
  5
1C80
  8
FUTO
 10
23895.968093474628
 20
5924.473012610415
 30
0.0
 11
23895.968093474628
 21
5916.473012610415
 31
0.0
  0
LINE
  5
1C83
  8
SL
 10
23405.968093474628
 20
5700.2730126104152
 30
0.0
 11
23405.968093474628
 21
5570.273012610417
 31
0.0
  0
LINE
  5
1C84
  8
FUTO
 10
23647.968093474628
 20
5792.473012610415
 30
0.0
 11
23647.968093474628
 21
5900.473012610415
 31
0.0
  0
LINE
  5
1C85
  8
FUTO
 10
23665.968093474628
 20
5782.473012610415
 30
0.0
 11
23665.968093474628
 21
5792.473012610415
 31
0.0
  0
LINE
  5
1C86
  8
FUTO
 10
23647.968093474628
 20
5792.473012610415
 30
0.0
 11
23665.968093474628
 21
5792.473012610415
 31
0.0
  0
LINE
  5
1C87
  8
FUTO
 10
23665.968093474628
 20
5768.473012610415
 30
0.0
 11
23665.968093474628
 21
5782.473012610415
 31
0.0
  0
LINE
  5
1C88
  8
FUTO
 10
23700.968093474628
 20
5760.473012610415
 30
0.0
 11
23680.968093474628
 21
5768.473012610415
 31
0.0
  0
LINE
  5
1C89
  8
FUTO
 10
23728.468093474628
 20
5760.473012610415
 30
0.0
 11
23728.468093474628
 21
5700.2730126104152
 31
0.0
  0
LINE
  5
1C8A
  8
FUTO
 10
23700.968093474628
 20
5932.473012610415
 30
0.0
 11
23680.968093474628
 21
5924.473012610415
 31
0.0
  0
LINE
  5
1C8B
  8
FUTO
 10
23665.968093474628
 20
5924.473012610415
 30
0.0
 11
23665.968093474628
 21
5910.473012610415
 31
0.0
  0
LINE
  5
1C8C
  8
FUTO
 10
23665.968093474628
 20
5900.473012610415
 30
0.0
 11
23665.968093474628
 21
5910.473012610415
 31
0.0
  0
LINE
  5
1C8D
  8
FUTO
 10
23647.968093474628
 20
5900.473012610415
 30
0.0
 11
23665.968093474628
 21
5900.473012610415
 31
0.0
  0
LINE
  5
1C8E
  8
FUTO
 10
23300.968093474628
 20
5733.2220467729239
 30
0.0
 11
23300.968093474628
 21
5452.4730126104178
 31
0.0
  0
POINT
  5
1C8F
  8
DEFPOINTS
 10
23300.968093474628
 20
5452.4730126104178
 30
0.0
  0
LINE
  5
1C93
  8
FUTO
 10
23869.968093474628
 20
6994.473012610415
 30
0.0
 11
23691.968093474628
 21
6994.4730126104168
 31
0.0
  0
LINE
  5
1C9A
  8
FUTO
 10
22705.968093474628
 20
8951.473012610415
 30
0.0
 11
24855.968093474628
 21
8951.473012610415
 31
0.0
  0
LINE
  5
1C9B
  8
FUTO
 10
22705.968093474628
 20
8957.4730126104168
 30
0.0
 11
24855.968093474628
 21
8957.4730126104168
 31
0.0
  0
LINE
  5
1C9C
  8
KL
 10
22705.968093474628
 20
8814.6730126113052
 30
0.0
 11
24855.968093474628
 21
8814.6730126117982
 31
0.0
  0
LINE
  5
1CA1
  8
HOSO
 10
22740.968093474628
 20
8779.553269003216
 30
0.0
 11
22740.968093474628
 21
8837.7524251084433
 31
0.0
  0
LINE
  5
1CA2
  8
FUTO
 10
22774.968093474628
 20
8805.6730126104158
 30
0.0
 11
22774.968093474628
 21
8895.6730126104158
 31
0.0
  0
LINE
  5
1CA3
  8
KL
 10
22780.968093474628
 20
8805.6730126104158
 30
0.0
 11
22780.968093474628
 21
8957.4730126104168
 31
0.0
  0
LINE
  5
1CA4
  8
KL
 10
22705.968093474628
 20
8805.6730126104158
 30
0.0
 11
22705.968093474628
 21
8814.6730126113052
 31
0.0
  0
LINE
  5
1CA5
  8
HOSO
 10
22780.968093474639
 20
8814.6730126113252
 30
0.0
 11
22780.968093474639
 21
8805.6730126113252
 31
0.0
  0
LINE
  5
1CA6
  8
FUTO
 10
22705.968093474628
 20
8951.4730126104168
 30
0.0
 11
22705.968093474628
 21
8957.4730126104168
 31
0.0
  0
LINE
  5
1CA7
  8
HOSO
 10
22740.968093474628
 20
8929.4348231704316
 30
0.0
 11
22740.968093474628
 21
8987.6339792756607
 31
0.0
  0
LINE
  5
1CA8
  8
FUTO
 10
22774.968093474628
 20
8895.6730126104158
 30
0.0
 11
22774.968093474628
 21
8951.473012610415
 31
0.0
  0
LINE
  5
1CBE
  8
FUTO
 10
23875.968093474628
 20
7161.4730126104141
 30
0.0
 11
23645.968093474628
 21
7161.4730126104141
 31
0.0
  0
LINE
  5
1CBF
  8
FUTO
 10
23915.968093474628
 20
7174.4730126104159
 30
0.0
 11
23645.968093474628
 21
7174.4730126104159
 31
0.0
  0
LINE
  5
1CC0
  8
FUTO
 10
23869.968093474628
 20
7198.473012610415
 30
0.0
 11
23691.968093474628
 21
7198.473012610415
 31
0.0
  0
LINE
  5
1CC1
  8
FUTO
 10
23915.968093474628
 20
7161.4730126104159
 30
0.0
 11
23645.968093474628
 21
7161.4730126104141
 31
0.0
  0
LINE
  5
1CC2
  8
CT
 10
24011.259802549132
 20
7096.4730126104159
 30
0.0
 11
23551.634391712829
 21
7096.4730126104159
 31
0.0
  0
LINE
  5
1CC3
  8
FUTO
 10
23915.968093474628
 20
7018.4730126104168
 30
0.0
 11
23645.968093474628
 21
7018.4730126104159
 31
0.0
  0
LINE
  5
1CC4
  8
FUTO
 10
23915.968093474628
 20
7031.4730126104159
 30
0.0
 11
23645.968093474628
 21
7031.473012610415
 31
0.0
  0
LINE
  5
1CC5
  8
KL
 10
23835.968093474628
 20
7198.473012610415
 30
0.0
 11
23835.968093474628
 21
7292.1170529350748
 31
0.0
  0
LINE
  5
1CCB
  8
FUTO
 10
23869.968093474628
 20
7198.4730126104168
 30
0.0
 11
23893.801426807971
 21
7176.473012610415
 31
0.0
  0
LINE
  5
1CCE
  8
KL
 10
23725.968093474628
 20
7198.473012610415
 30
0.0
 11
23725.968093474628
 21
7294.560089802264
 31
0.0
  0
LINE
  5
1CCF
  8
FUTO
 10
23629.968093474628
 20
7036.4730126104141
 30
0.0
 11
23629.968093474628
 21
7156.473012610415
 31
0.0
  0
LINE
  5
1CD0
  8
FUTO
 10
23645.968093474628
 20
7018.4730126104168
 30
0.0
 11
23645.968093474628
 21
7036.4730126104141
 31
0.0
  0
LINE
  5
1CD1
  8
FUTO
 10
23645.968093474628
 20
7036.4730126104141
 30
0.0
 11
23629.968093474628
 21
7036.4730126104141
 31
0.0
  0
LINE
  5
1CD2
  8
FUTO
 10
23691.968093474628
 20
7198.4730126104168
 30
0.0
 11
23665.968093474628
 21
7174.4730126104159
 31
0.0
  0
LINE
  5
1CD3
  8
FUTO
 10
23645.968093474628
 20
7156.473012610415
 30
0.0
 11
23629.968093474628
 21
7156.473012610415
 31
0.0
  0
LINE
  5
1CD4
  8
FUTO
 10
23645.968093474628
 20
7174.4730126104159
 30
0.0
 11
23645.968093474628
 21
7156.473012610415
 31
0.0
  0
LINE
  5
1CE0
  8
HOSO
 10
24820.968093474628
 20
8771.8666387659941
 30
0.0
 11
24820.968093474628
 21
8842.4937659038169
 31
0.0
  0
LINE
  5
1CE1
  8
KL
 10
24786.968093474628
 20
8805.6730126104158
 30
0.0
 11
24786.968093474628
 21
8880.6730126104158
 31
0.0
  0
LINE
  5
1CE2
  8
KL
 10
24780.968093474628
 20
8805.6730126104158
 30
0.0
 11
24780.968093474628
 21
8957.4730126104168
 31
0.0
  0
LINE
  5
1CE4
  8
KL
 10
24855.968093474628
 20
8805.6730126104158
 30
0.0
 11
24855.968093474628
 21
8814.6730126117982
 31
0.0
  0
LINE
  5
1CE5
  8
HOSO
 10
24780.968093474639
 20
8814.67301261178
 30
0.0
 11
24780.968093474639
 21
8805.6730126117836
 31
0.0
  0
LINE
  5
1CE6
  8
FUTO
 10
24855.968093474628
 20
8951.473012610415
 30
0.0
 11
24855.968093474628
 21
8957.4730126104168
 31
0.0
  0
LINE
  5
1CE7
  8
HOSO
 10
24820.968093474628
 20
8921.427085168074
 30
0.0
 11
24820.968093474628
 21
8992.0542123058949
 31
0.0
  0
LINE
  5
1CE8
  8
FUTO
 10
24786.968093474628
 20
8880.6730126104158
 30
0.0
 11
24786.968093474628
 21
8951.473012610415
 31
0.0
  0
INSERT
  5
1CE9
  8
FUTO
  2
まっすぐの矢印
 10
24331.892344614818
 20
9123.9693003664452
 30
0.0
 41
-40.0
 42
40.0
 43
40.0
 50
180.0
  0
LINE
  5
1D14
  8
FUTO
 10
23913.968093474628
 20
5792.473012610415
 30
0.0
 11
23913.968093474628
 21
5900.473012610415
 31
0.0
  0
LINE
  5
1D15
  8
FUTO
 10
23895.968093474628
 20
5768.473012610415
 30
0.0
 11
23895.968093474628
 21
5782.473012610415
 31
0.0
  0
LINE
  5
1D16
  8
FUTO
 10
23913.968093474628
 20
5792.473012610415
 30
0.0
 11
23895.968093474628
 21
5792.473012610415
 31
0.0
  0
LINE
  5
1D17
  8
FUTO
 10
23895.968093474628
 20
5782.473012610415
 30
0.0
 11
23895.968093474628
 21
5792.473012610415
 31
0.0
  0
LINE
  5
1D18
  8
FUTO
 10
23913.968093474628
 20
5900.473012610415
 30
0.0
 11
23895.968093474628
 21
5900.473012610415
 31
0.0
  0
LINE
  5
1D19
  8
FUTO
 10
23895.968093474628
 20
5900.473012610415
 30
0.0
 11
23895.968093474628
 21
5910.473012610415
 31
0.0
  0
LINE
  5
1D1A
  8
FUTO
 10
23895.968093474628
 20
5924.473012610415
 30
0.0
 11
23895.968093474628
 21
5910.473012610415
 31
0.0
  0
LINE
  5
1D1B
  8
FUTO
 10
23931.968093474628
 20
7036.4730126104141
 30
0.0
 11
23931.968093474628
 21
7156.473012610415
 31
0.0
  0
LINE
  5
1D1C
  8
FUTO
 10
23915.968093474628
 20
7036.4730126104141
 30
0.0
 11
23931.968093474628
 21
7036.4730126104141
 31
0.0
  0
LINE
  5
1D1D
  8
FUTO
 10
23915.968093474628
 20
7018.4730126104168
 30
0.0
 11
23915.968093474628
 21
7036.4730126104141
 31
0.0
  0
LINE
  5
1D1E
  8
FUTO
 10
23915.968093474628
 20
7174.4730126104159
 30
0.0
 11
23915.968093474628
 21
7156.473012610415
 31
0.0
  0
LINE
  5
1D1F
  8
FUTO
 10
23915.968093474628
 20
7156.473012610415
 30
0.0
 11
23931.968093474628
 21
7156.473012610415
 31
0.0
  0
LINE
  5
1D20
  8
FUTO
 10
24130.554897952072
 20
5750.4730126104123
 30
0.0
 11
24130.554897952072
 21
7223.4730126104141
 31
0.0
  0
LINE
  5
1D21
  8
FUTO
 10
23431.381288997189
 20
5750.4730126104123
 30
0.0
 11
23431.381288997189
 21
7223.4730126104141
 31
0.0
  0
LINE
  5
1D22
  8
FUTO
 10
22505.968093474428
 20
7223.4730126104141
 30
0.0
 11
22505.96809347329
 21
8881.4730126104205
 31
0.0
  0
LINE
  5
1D23
  8
FUTO
 10
22505.968093473999
 20
7223.4730126104141
 30
0.0
 11
22505.96809347325
 21
8881.4730126104205
 31
0.0
  0
LINE
  5
1D24
  8
FUTO
 10
22505.968093474628
 20
7223.4730126104141
 30
0.0
 11
22505.968093474628
 21
8881.4730126104205
 31
0.0
  0
LINE
  5
1D25
  8
FUTO
 10
22511.968093474628
 20
7223.4730126104141
 30
0.0
 11
22511.968093474628
 21
8881.4730126104205
 31
0.0
  0
LINE
  5
1D26
  8
FUTO
 10
22580.968093474628
 20
7223.4730126104141
 30
0.0
 11
22580.968093474628
 21
8881.4730126104187
 31
0.0
  0
LINE
  5
1D35
  8
CT
 10
25630.968093474628
 20
6820.1868249709723
 30
0.0
 11
25630.968093474628
 21
5456.9717362391239
 31
0.0
  0
LINE
  5
1D3A
  8
SL
 10
25808.468093474628
 20
5700.2730126104179
 30
0.0
 11
25808.468093474628
 21
5570.2730126104143
 31
0.0
  0
LINE
  5
1D3B
  8
FUTO
 10
25910.968093474628
 20
5733.2220467729221
 30
0.0
 11
25910.968093474628
 21
5452.473012610415
 31
0.0
  0
LINE
  5
2121
  8
CT
 10
27031.00770304551
 20
1190.332201404618
 30
0.0
 11
26663.187703045511
 21
1190.332201404618
 31
0.0
  0
LINE
  5
2132
  8
FUTO
 10
27291.225703045511
 20
915.33220140461617
 30
0.0
 11
27219.654703045511
 21
915.33220140461617
 31
0.0
  0
LINE
  5
2306
  8
FUTO
 10
25918.46809347489
 20
6405.2730126103261
 30
0.0
 11
25918.468093474949
 21
6600.2730126103261
 31
0.0
  0
LINE
  5
2307
  8
FUTO
 10
25360.968093474949
 20
6618.5338826104962
 30
0.0
 11
25360.96809347489
 21
6405.2730126104971
 31
0.0
  0
LINE
  5
2308
  8
FUTO
 10
25918.468093474949
 20
6600.2730126103261
 30
0.0
 11
25360.968093474941
 21
6600.273012610498
 31
0.0
  0
LINE
  5
2309
  8
FUTO
 10
25400.968093474959
 20
6660.2730126104861
 30
0.0
 11
25860.968093474959
 21
6660.2730126103434
 31
0.0
  0
LINE
  5
230A
  8
FUTO
 10
25360.968093474949
 20
6618.5338826104962
 30
0.0
 11
25400.968093474959
 21
6660.2730126104861
 31
0.0
  0
LINE
  5
230B
  8
FUTO
 10
25918.468093474949
 20
6600.2730126103261
 30
0.0
 11
25860.968093474959
 21
6660.2730126103434
 31
0.0
  0
LINE
  5
230C
  8
CT
 10
25320.653233821689
 20
6139.7730126105116
 30
0.0
 11
25963.728567570659
 21
6139.7730126103124
 31
0.0
  0
LINE
  5
230D
  8
FUTO
 10
25918.46809347489
 20
6405.2730126103261
 30
0.0
 11
25360.96809347489
 21
6405.2730126104971
 31
0.0
  0
LINE
  5
230E
  8
FUTO
 10
25918.468093474708
 20
5856.7730126103252
 30
0.0
 11
25866.402071613949
 21
5856.7730126103406
 31
0.0
  0
LINE
  5
230F
  8
FUTO
 10
25918.468093474679
 20
5756.7730126103252
 30
0.0
 11
25633.968093474679
 21
5756.7730126104134
 31
0.0
  0
LINE
  5
2310
  8
CT
 10
25326.838028507689
 20
6349.2730126105089
 30
0.0
 11
25290.152488507691
 21
6349.2730126105198
 31
0.0
  0
LINE
  5
2311
  8
CT
 10
25326.838028507558
 20
5930.2730126105089
 30
0.0
 11
25290.15248850756
 21
5930.2730126105198
 31
0.0
  0
LINE
  5
2312
  8
FUTO
 10
25588.468093474621
 20
5570.2730126104289
 30
0.0
 11
25588.468093474679
 21
5740.2730126104289
 31
0.0
  0
LINE
  5
2313
  8
FUTO
 10
25673.468093474679
 20
5740.2730126104007
 30
0.0
 11
25673.468093474621
 21
5570.2730126104007
 31
0.0
  0
LINE
  5
2314
  8
FUTO
 10
25678.468093474628
 20
5570.2730126103997
 30
0.0
 11
25678.468093474668
 21
5710.2730126103997
 31
0.0
  0
LINE
  5
2315
  8
FUTO
 10
25580.968093474679
 20
5740.2730126104289
 30
0.0
 11
25680.968093474679
 21
5740.2730126103997
 31
0.0
  0
LINE
  5
2316
  8
FUTO
 10
25545.468093474679
 20
5750.2730126104389
 30
0.0
 11
25716.468093474679
 21
5750.2730126103888
 31
0.0
  0
LINE
  5
2317
  8
FUTO
 10
25543.468093474679
 20
5757.1213876104421
 30
0.0
 11
25543.468093474679
 21
5752.2730126104398
 31
0.0
  0
ARC
  5
2318
  8
FUTO
 10
25545.468093474679
 20
5752.2730126104398
 30
0.0
 40
2.0
 50
180.0
 51
270.0
  0
LINE
  5
2319
  8
FUTO
 10
25580.968093474679
 20
5740.2730126104289
 30
0.0
 11
25580.968093474679
 21
5750.2730126104289
 31
0.0
  0
LINE
  5
231A
  8
FUTO
 10
25680.968093474679
 20
5740.2730126103997
 30
0.0
 11
25680.968093474679
 21
5750.2730126103988
 31
0.0
  0
LINE
  5
231B
  8
FUTO
 10
25673.468093474668
 20
5710.2730126104007
 30
0.0
 11
25678.468093474668
 21
5710.2730126103997
 31
0.0
  0
LINE
  5
231C
  8
FUTO
 10
25718.468093474679
 20
5756.7730126103888
 30
0.0
 11
25718.468093474679
 21
5752.2730126103879
 31
0.0
  0
ARC
  5
231D
  8
FUTO
 10
25716.468093474679
 20
5752.2730126103879
 30
0.0
 40
2.0
 50
270.0
 51
0.000000000000007
  0
LINE
  5
231E
  8
FUTO
 10
25588.468093474621
 20
5570.2730126104289
 30
0.0
 11
25678.468093474628
 21
5570.2730126103997
 31
0.0
  0
LINE
  5
231F
  8
FUTO
 10
25916.782170474798
 20
6139.7730126103261
 30
0.0
 11
25916.782170474718
 21
5884.273012610327
 31
0.0
  0
LINE
  5
2320
  8
FUTO
 10
25866.402071614018
 20
6099.2730126103434
 30
0.0
 11
25468.485053415268
 21
6099.2730126104652
 31
0.0
  0
LINE
  5
2321
  8
FUTO
 10
25866.402071614011
 20
6080.8730186103394
 30
0.0
 11
25468.485053415261
 21
6080.8730186104622
 31
0.0
  0
LINE
  5
2322
  8
CT
 10
25683.50396296386
 20
5954.2730126103979
 30
0.0
 11
25540.359156963859
 21
5954.2730126104434
 31
0.0
  0
LINE
  5
2323
  8
FUTO
 10
25920.96809347489
 20
6395.2730126103252
 30
0.0
 11
25920.968093474781
 21
6084.2730126103252
 31
0.0
  0
LINE
  5
2324
  8
FUTO
 10
25916.782170474798
 20
6139.7730126103261
 30
0.0
 11
25916.782170474879
 21
6395.273012610327
 31
0.0
  0
LINE
  5
2325
  8
FUTO
 10
25916.782170474879
 20
6395.273012610327
 30
0.0
 11
25910.330308474891
 21
6405.2730126103279
 31
0.0
  0
LINE
  5
2326
  8
FUTO
 10
25920.96809347489
 20
6395.2730126103252
 30
0.0
 11
25914.301427474878
 21
6405.273012610327
 31
0.0
  0
LINE
  5
2327
  8
FUTO
 10
25920.968093474781
 20
6084.2730126103252
 30
0.0
 11
25916.782170474791
 21
6080.0870896103261
 31
0.0
  0
LINE
  5
2328
  8
FUTO
 10
25468.48505341517
 20
5809.2730126104652
 30
0.0
 11
25866.402071613931
 21
5809.2730126103443
 31
0.0
  0
LINE
  5
2329
  8
FUTO
 10
25468.485053415181
 20
5827.6730366104603
 30
0.0
 11
25866.402071613931
 21
5827.6730366103384
 31
0.0
  0
LINE
  5
232A
  8
FUTO
 10
25918.468093474679
 20
5756.7730126103252
 30
0.0
 11
25918.468093474708
 21
5856.7730126103252
 31
0.0
  0
LINE
  5
232B
  8
FUTO
 10
25913.48314147472
 20
5873.0455846103268
 30
0.0
 11
25902.634760474721
 21
5856.7730126103306
 31
0.0
  0
LINE
  5
232C
  8
FUTO
 10
25916.782170474718
 20
5884.273012610327
 30
0.0
 11
25899.039550474721
 21
5856.7730126103306
 31
0.0
  0
LINE
  5
232D
  8
FUTO
 10
25907.19669847472
 20
5869.4161046103291
 30
0.0
 11
25915.609109474721
 21
5874.273012610327
 31
0.0
  0
LINE
  5
232E
  8
FUTO
 10
25468.48505341517
 20
5809.2730126104616
 30
0.0
 11
25468.485053415268
 21
6099.2730126104652
 31
0.0
  0
LINE
  5
232F
  8
FUTO
 10
25866.402071613931
 20
5809.2730126103424
 30
0.0
 11
25866.402071614018
 21
6099.2730126103434
 31
0.0
  0
LINE
  5
2330
  8
FUTO
 10
25343.468093474708
 20
5856.7730126105034
 30
0.0
 11
25468.485053415188
 21
5856.7730126104607
 31
0.0
  0
LINE
  5
2331
  8
FUTO
 10
25343.468093474679
 20
5756.7730126105034
 30
0.0
 11
25627.968093474679
 21
5756.7730126104143
 31
0.0
  0
LINE
  5
2332
  8
FUTO
 10
25343.468093474679
 20
5756.7730126105034
 30
0.0
 11
25343.468093474708
 21
5856.7730126105034
 31
0.0
  0
LINE
  5
2333
  8
FUTO
 10
25345.1540164748
 20
6139.7730126105007
 30
0.0
 11
25345.15401647488
 21
6395.2730126105016
 31
0.0
  0
LINE
  5
2334
  8
FUTO
 10
25340.96809347489
 20
6395.2730126105043
 30
0.0
 11
25340.968093474788
 21
6084.2730126105043
 31
0.0
  0
LINE
  5
2335
  8
FUTO
 10
25345.1540164748
 20
6139.7730126105007
 30
0.0
 11
25345.15401647472
 21
5884.2730126105016
 31
0.0
  0
LINE
  5
2336
  8
FUTO
 10
25345.15401647472
 20
5884.2730126105016
 30
0.0
 11
25362.89663647471
 21
5856.773012610498
 31
0.0
  0
LINE
  5
2337
  8
FUTO
 10
25354.739488474719
 20
5869.4161046105
 30
0.0
 11
25346.327077474722
 21
5874.2730126105007
 31
0.0
  0
LINE
  5
2338
  8
FUTO
 10
25348.453045474729
 20
5873.0455846105033
 30
0.0
 11
25359.301426474722
 21
5856.773012610498
 31
0.0
  0
LINE
  5
2339
  8
FUTO
 10
25340.96809347489
 20
6395.2730126105043
 30
0.0
 11
25347.634759474891
 21
6405.2730126105016
 31
0.0
  0
LINE
  5
233A
  8
FUTO
 10
25345.15401647488
 20
6395.2730126105016
 30
0.0
 11
25351.605878474889
 21
6405.2730126105016
 31
0.0
  0
LINE
  5
233B
  8
FUTO
 10
25280.968093474741
 20
5835.6940790719509
 30
0.0
 11
25280.96809347493
 21
6443.8519461490923
 31
0.0
  0
LINE
  5
233C
  8
FUTO
 10
25280.968093474741
 20
5835.6940790719509
 30
0.0
 11
25343.468093474708
 21
5835.6940790719336
 31
0.0
  0
LINE
  5
233D
  8
FUTO
 10
25280.96809347493
 20
6443.8519461490923
 30
0.0
 11
25360.968093474901
 21
6443.851946149066
 31
0.0
  0
LINE
  5
233E
  8
FUTO
 10
25980.968093474679
 20
5835.6940790717363
 30
0.0
 11
25980.968093474861
 21
6443.8519461488777
 31
0.0
  0
LINE
  5
233F
  8
FUTO
 10
25980.968093474861
 20
6443.8519461488777
 30
0.0
 11
25900.968093474901
 21
6443.8519461488977
 31
0.0
  0
LINE
  5
2340
  8
FUTO
 10
25980.968093474679
 20
5835.6940790717363
 30
0.0
 11
25918.468093474708
 21
5835.6940790717572
 31
0.0
  0
LINE
  5
2370
  8
FUTO
 10
27007.507703045481
 20
1087.8017184045791
 30
0.0
 11
27007.50770304547
 21
1002.948904404579
 31
0.0
  0
LINE
  5
2371
  8
FUTO
 10
27091.5077030455
 20
1190.3322014045609
 30
0.0
 11
27091.507703045449
 21
932.33220140456149
 31
0.0
  0
LINE
  5
2372
  8
FUTO
 10
27091.5077030455
 20
1193.3322014045609
 30
0.0
 11
27091.507703045449
 21
960.3322014045616
 31
0.0
  0
LINE
  5
2373
  8
FUTO
 10
27256.507703045481
 20
1036.338306404527
 30
0.0
 11
27256.507703045449
 21
960.33220140452704
 31
0.0
  0
LINE
  5
2374
  8
FUTO
 10
27537.50770304547
 20
1039.8042384044641
 30
0.0
 11
27537.507703045449
 21
960.3322014044652
 31
0.0
  0
LINE
  5
2375
  8
FUTO
 10
27662.507703045569
 20
1477.832201404439
 30
0.0
 11
27662.507703045441
 21
920.33220140443973
 31
0.0
  0
LINE
  5
2376
  8
CT
 10
27397.007703045441
 20
891.38208540449625
 30
0.0
 11
27397.00770304558
 21
1523.0926755003529
 31
0.0
  0
LINE
  5
2377
  8
FUTO
 10
27917.507703045449
 20
960.33220140438334
 30
0.0
 11
27917.50770304555
 21
1420.3322014043831
 31
0.0
  0
LINE
  5
2378
  8
FUTO
 10
27857.507703045569
 20
1477.8322014043961
 30
0.0
 11
27857.507703045449
 21
920.33220140439596
 31
0.0
  0
LINE
  5
2379
  8
FUTO
 10
27652.507703045449
 20
920.28326140444085
 30
0.0
 11
27642.007703045441
 21
920.28326140444278
 31
0.0
  0
LINE
  5
237C
  8
FUTO
 10
27272.007703045441
 20
910.3322014045234
 30
0.0
 11
27701.007703045441
 21
910.33220140443075
 31
0.0
  0
ARC
  5
237D
  8
KL
 10
27039.842404045448
 20
963.13963640457132
 30
0.0
 40
10.0
 50
183.0000000000033
 51
225.0000000001105
  0
LINE
  5
237E
  8
FUTO
 10
27029.856108045449
 20
962.61627740457425
 30
0.0
 11
27027.742365045458
 21
1002.948904404574
 31
0.0
  0
LINE
  5
237F
  8
FUTO
 10
27007.50770304547
 20
1002.948904404579
 30
0.0
 11
27061.50770304547
 21
1002.948904404566
 31
0.0
  0
LINE
  5
2380
  8
FUTO
 10
27236.507703045449
 20
940.33220140453057
 30
0.0
 11
27156.507703045449
 21
940.33220140454694
 31
0.0
  0
LINE
  5
2381
  8
FUTO
 10
27152.007703045441
 20
910.33220140454875
 30
0.0
 11
27272.007703045441
 21
910.3322014045234
 31
0.0
  0
LINE
  5
2383
  8
FUTO
 10
27091.507703045459
 20
1003.75346040456
 30
0.0
 11
27256.50770304547
 21
1003.753460404525
 31
0.0
  0
LINE
  5
2384
  8
FUTO
 10
27272.007703045441
 20
910.3322014045234
 30
0.0
 11
27093.007703045441
 21
910.3322014045616
 31
0.0
  0
ARC
  5
238A
  8
FUTO
 10
27059.707873045441
 20
943.2741674045692
 30
0.0
 40
10.0
 50
225.0000000001105
 51
267.99999999999602
  0
LINE
  5
238B
  8
FUTO
 10
27101.507703045449
 20
960.33220140455978
 30
0.0
 11
27101.507703045449
 21
958.46776940455948
 31
0.0
  0
LINE
  5
238C
  8
FUTO
 10
27101.507703045449
 20
960.33220140455978
 30
0.0
 11
27091.507703045449
 21
960.3322014045616
 31
0.0
  0
ARC
  5
238D
  8
FUTO
 10
27157.007703045449
 20
935.33220140454705
 30
0.0
 40
5.0
 50
90.0
 51
180.0
  0
LINE
  5
238E
  8
FUTO
 10
27141.507703045449
 20
920.2832614045501
 30
0.0
 11
27152.007703045441
 21
920.28326140454828
 31
0.0
  0
LINE
  5
238F
  8
FUTO
 10
27111.507703045441
 20
924.10337040455568
 30
0.0
 11
27141.507703045449
 21
920.2832614045501
 31
0.0
  0
LINE
  5
2390
  8
FUTO
 10
27101.507703045449
 20
958.46776940455948
 30
0.0
 11
27111.507703045441
 21
924.10337040455568
 31
0.0
  0
LINE
  5
2391
  8
FUTO
 10
27059.358878045441
 20
933.28025940456882
 30
0.0
 11
27091.507703045449
 21
932.33220140456149
 31
0.0
  0
LINE
  5
2393
  8
FUTO
 10
27152.007703045449
 20
935.33220140454875
 30
0.0
 11
27152.007703045441
 21
910.33220140454875
 31
0.0
  0
LINE
  5
2394
  8
FUTO
 10
27093.007703045441
 20
910.3322014045616
 30
0.0
 11
27093.007703045419
 21
847.0924322726014
 31
0.0
  0
ARC
  5
2398
  8
FUTO
 10
27236.507703045449
 20
960.33220140453068
 30
0.0
 40
20.0
 50
270.0
 51
0.0
  0
LINE
  5
2399
  8
FUTO
 10
27277.007703045449
 20
920.33220140452158
 30
0.0
 11
27397.007703045449
 21
920.332201404496
 31
0.0
  0
ARC
  5
239B
  8
FUTO
 10
27277.007703045449
 20
915.33220140452147
 30
0.0
 40
5.0
 50
90.0
 51
180.0
  0
LINE
  5
239C
  8
KL
 10
27187.507703045449
 20
944.0925734045386
 30
0.0
 11
27187.507703045441
 21
907.40703340454002
 31
0.0
  0
ARC
  5
239D
  8
FUTO
 10
27557.507703045449
 20
960.33220140446156
 30
0.0
 40
20.0
 50
180.0
 51
270.0
  0
ARC
  5
239E
  8
FUTO
 10
27637.007703045449
 20
935.33220140444325
 30
0.0
 40
5.0
 50
0.0
 51
90.0
  0
LINE
  5
239F
  8
FUTO
 10
27557.507703045449
 20
940.33220140446144
 30
0.0
 11
27637.507703045449
 21
940.33220140444337
 31
0.0
  0
LINE
  5
23A0
  8
FUTO
 10
27522.007703045441
 20
915.33220140446883
 30
0.0
 11
27522.007703045441
 21
910.33220140446895
 31
0.0
  0
LINE
  5
23A1
  8
FUTO
 10
27642.507703045449
 20
910.33220140444325
 30
0.0
 11
27522.007703045441
 21
910.33220140446895
 31
0.0
  0
LINE
  5
23A2
  8
FUTO
 10
27642.007703045449
 20
935.33220140444325
 30
0.0
 11
27642.007703045441
 21
910.33220140444325
 31
0.0
  0
LINE
  5
23A3
  8
FUTO
 10
27606.507703045449
 20
944.09257340444935
 30
0.0
 11
27606.507703045441
 21
907.40703340445077
 31
0.0
  0
ARC
  5
23A4
  8
FUTO
 10
27517.007703045449
 20
915.33220140447065
 30
0.0
 40
5.0
 50
0.0
 51
90.0
  0
LINE
  5
23A5
  8
FUTO
 10
27517.007703045449
 20
920.33220140447065
 30
0.0
 11
27397.007703045449
 21
920.332201404496
 31
0.0
  0
LINE
  5
23A6
  8
FUTO
 10
27052.63680504544
 20
936.20310040456843
 30
0.0
 11
27032.771336045451
 21
956.06856840457385
 31
0.0
  0
LINE
  5
23A7
  8
FUTO
 10
27875.76857304544
 20
920.33220140439255
 30
0.0
 11
27662.507703045441
 21
920.33220140443973
 31
0.0
  0
LINE
  5
23A8
  8
FUTO
 10
27701.007703045441
 20
910.33220140443075
 30
0.0
 11
27701.007703045419
 21
847.1485020575592
 31
0.0
  0
LINE
  5
23A9
  8
FUTO
 10
27875.76857304544
 20
920.33220140439255
 30
0.0
 11
27917.507703045449
 21
960.33220140438334
 31
0.0
  0
LINE
  5
23AA
  8
FUTO
 10
27662.507703045441
 20
921.55663140443801
 30
0.0
 11
27652.507703045449
 21
920.28326140444085
 31
0.0
  0
LINE
  5
23AB
  8
FUTO
 10
27397.007703045569
 20
1476.146278404495
 30
0.0
 11
27652.507703045569
 21
1476.14627840444
 31
0.0
  0
LINE
  5
23AC
  8
FUTO
 10
27652.507703045569
 20
1480.3322014044411
 30
0.0
 11
27341.507703045569
 21
1480.3322014045079
 31
0.0
  0
CIRCLE
  5
23AE
  8
FUTO
 10
27211.50770304559
 20
1615.3322014045359
 30
0.0
 40
59.0
  0
LINE
  5
23AF
  8
FUTO
 10
27084.907727045571
 20
1506.932150404562
 30
0.0
 11
27084.907727045611
 21
1701.8035604045619
 31
0.0
  0
LINE
  5
23B0
  8
FUTO
 10
27066.50770304558
 20
1526.2741344045669
 30
0.0
 11
27066.50770304562
 21
1710.997454404566
 31
0.0
  0
LINE
  5
23B1
  8
CT
 10
27211.50770304562
 20
1684.913851404536
 30
0.0
 11
27211.50770304558
 21
1541.769045404536
 31
0.0
  0
LINE
  5
23B2
  8
FUTO
 10
27338.107709045609
 20
1701.8035604045081
 30
0.0
 11
27338.107709045569
 21
1506.932192404508
 31
0.0
  0
LINE
  5
23B3
  8
FUTO
 10
27356.50770304562
 20
1710.997454404504
 30
0.0
 11
27356.50770304558
 21
1526.274134404505
 31
0.0
  0
LINE
  5
23B4
  8
FUTO
 10
27014.007703045569
 20
1477.832201404578
 30
0.0
 11
27014.0077030455
 21
1193.3322014045771
 31
0.0
  0
LINE
  5
23B5
  8
FUTO
 10
27114.007703045569
 20
1477.8322014045559
 30
0.0
 11
27114.0077030455
 21
1193.3322014045559
 31
0.0
  0
LINE
  5
23B6
  8
CT
 10
26614.802690838998
 20
1190.332201404683
 30
0.0
 11
27976.17905998553
 21
1190.3322014042681
 31
0.0
  0
LINE
  5
23B7
  8
KL
 10
27014.0077030455
 20
1193.3322014045771
 30
0.0
 11
27114.0077030455
 21
1193.3322014045559
 31
0.0
  0
LINE
  5
23B8
  8
FUTO
 10
27091.507703045481
 20
1080.7306504045609
 30
0.0
 11
27007.507703045481
 21
1080.73065040458
 31
0.0
  0
LINE
  5
23B9
  8
FUTO
 10
26827.507703045489
 20
1147.832201404618
 30
0.0
 11
26827.507703045521
 21
1237.832201404618
 31
0.0
  0
ARC
  5
23BA
  8
FUTO
 10
27009.507703045521
 20
1275.8322014045791
 30
0.0
 40
2.0
 50
90.0
 51
180.0
  0
LINE
  5
23BB
  8
FUTO
 10
27014.007703045529
 20
1277.832201404578
 30
0.0
 11
27009.507703045521
 21
1277.8322014045791
 31
0.0
  0
LINE
  5
23BC
  8
FUTO
 10
26967.507703045521
 20
1232.8322014045889
 30
0.0
 11
26967.507703045521
 21
1237.8322014045889
 31
0.0
  0
LINE
  5
23BD
  8
FUTO
 10
26997.507703045521
 20
1240.3322014045809
 30
0.0
 11
27007.507703045521
 21
1240.3322014045791
 31
0.0
  0
LINE
  5
23BE
  8
FUTO
 10
26997.507703045489
 20
1140.3322014045809
 30
0.0
 11
27007.507703045489
 21
1140.3322014045791
 31
0.0
  0
ARC
  5
23BF
  8
FUTO
 10
27009.507703045481
 20
1104.8322014045791
 30
0.0
 40
2.0
 50
180.0
 51
270.0
  0
LINE
  5
23C0
  8
FUTO
 10
27014.356078045479
 20
1102.832201404578
 30
0.0
 11
27009.507703045481
 21
1102.8322014045791
 31
0.0
  0
LINE
  5
23C1
  8
KL
 10
27012.507703045481
 20
1087.8017184045771
 30
0.0
 11
27007.507703045481
 21
1087.8017184045791
 31
0.0
  0
LINE
  5
23C3
  8
FUTO
 10
27007.507703045481
 20
1104.8322014045791
 30
0.0
 11
27007.507703045521
 21
1275.8322014045791
 31
0.0
  0
LINE
  5
23C4
  8
FUTO
 10
26997.507703045489
 20
1140.3322014045809
 30
0.0
 11
26997.507703045521
 21
1240.3322014045809
 31
0.0
  0
LINE
  5
23C6
  8
FUTO
 10
26827.507703045521
 20
1237.832201404618
 30
0.0
 11
26967.507703045521
 21
1237.8322014045889
 31
0.0
  0
LINE
  5
23C7
  8
FUTO
 10
26997.507703045521
 20
1232.8322014045809
 30
0.0
 11
26827.507703045521
 21
1232.832201404618
 31
0.0
  0
LINE
  5
23C8
  8
FUTO
 10
26827.507703045489
 20
1147.832201404618
 30
0.0
 11
26997.5077030455
 21
1147.8322014045809
 31
0.0
  0
ARC
  5
23CD
  8
FUTO
 10
27542.507703045481
 20
1039.8042384044641
 30
0.0
 40
5.0
 50
90.0
 51
180.0
  0
LINE
  5
23CE
  8
FUTO
 10
27014.007703045569
 20
1477.832201404578
 30
0.0
 11
27114.007703045569
 21
1477.8322014045559
 31
0.0
  0
LINE
  5
23CF
  8
FUTO
 10
27326.50770304558
 20
1525.33220140451
 30
0.0
 11
27096.50770304558
 21
1525.3322014045591
 31
0.0
  0
LINE
  5
23D0
  8
CT
 10
27118.026662045591
 20
1615.3322014045559
 30
0.0
 11
27297.950030045591
 21
1615.3322014045179
 31
0.0
  0
LINE
  5
23D1
  8
FUTO
 10
27326.507703045569
 20
1495.33220140451
 30
0.0
 11
27096.507703045569
 21
1495.33220140456
 31
0.0
  0
LINE
  5
23D2
  8
FUTO
 10
27397.007703045569
 20
1476.146278404495
 30
0.0
 11
27141.507703045569
 21
1476.14627840455
 31
0.0
  0
LINE
  5
23D3
  8
FUTO
 10
27131.507703045569
 20
1485.3322014045521
 30
0.0
 11
27291.507703045569
 21
1485.3322014045179
 31
0.0
  0
LINE
  5
23D4
  8
FUTO
 10
27084.907727045571
 20
1526.274134404563
 30
0.0
 11
27066.50770304558
 21
1526.2741344045669
 31
0.0
  0
ARC
  5
23D5
  8
FUTO
 10
27096.507581045578
 20
1536.9320894045579
 30
0.0
 40
11.599888
 50
179.99945399997631
 51
270.0006100000092
  0
LINE
  5
23D6
  8
FUTO
 10
27126.650795045571
 20
1466.5608064045539
 30
0.0
 11
27131.507703045569
 21
1474.9732174045521
 31
0.0
  0
LINE
  5
23D7
  8
FUTO
 10
27141.507703045569
 20
1476.14627840455
 30
0.0
 11
27114.007703045561
 21
1458.4036584045559
 31
0.0
  0
LINE
  5
23D8
  8
FUTO
 10
27130.280275045559
 20
1472.8472494045529
 30
0.0
 11
27114.007703045569
 21
1461.998868404555
 31
0.0
  0
LINE
  5
23D9
  8
FUTO
 10
27131.507703045569
 20
1474.9732174045521
 30
0.0
 11
27131.507703045569
 21
1495.3322014045521
 31
0.0
  0
ARC
  5
23DA
  8
FUTO
 10
27096.50770304558
 20
1506.932150404559
 30
0.0
 40
11.599949000000001
 50
179.9997550000013
 51
270.0
  0
LINE
  5
23DB
  8
FUTO
 10
27291.507703045569
 20
1495.3322014045179
 30
0.0
 11
27291.507703045569
 21
1476.146278404517
 31
0.0
  0
ARC
  5
23DC
  8
FUTO
 10
27326.507734045579
 20
1536.93217740451
 30
0.0
 40
11.599976
 50
269.99984700005228
 51
0.0001069999742915
  0
LINE
  5
23DD
  8
FUTO
 10
27338.107709045569
 20
1526.274134404508
 30
0.0
 11
27356.50770304558
 21
1526.274134404505
 31
0.0
  0
ARC
  5
23DE
  8
FUTO
 10
27326.507703045569
 20
1506.93219840451
 30
0.0
 40
11.600006
 50
270.0
 51
0.0000150000275647
  0
LINE
  5
23DF
  8
KL
 10
27341.507703045569
 20
1480.3322014045079
 30
0.0
 11
27337.32178004556
 21
1476.1462784045079
 31
0.0
  0
LINE
  5
23E0
  8
FUTO
 10
27066.50770304562
 20
1710.997454404566
 30
0.0
 11
27356.50770304562
 21
1710.997454404504
 31
0.0
  0
LINE
  5
23E1
  8
FUTO
 10
27084.907727045611
 20
1701.8035604045619
 30
0.0
 11
27338.107709045609
 21
1701.8035604045081
 31
0.0
  0
LINE
  5
23E2
  8
FUTO
 10
27326.50770304563
 20
1743.390352404509
 30
0.0
 11
27096.50770304563
 21
1743.3903524045591
 31
0.0
  0
ARC
  5
23E3
  8
FUTO
 10
27096.50770304562
 20
1731.7904074045589
 30
0.0
 40
11.599976
 50
90.0
 51
180.0003050000046
  0
LINE
  5
23E4
  8
FUTO
 10
27084.907727045611
 20
1710.9974544045619
 30
0.0
 11
27084.907727045618
 21
1731.7903464045619
 31
0.0
  0
ARC
  5
23E5
  8
FUTO
 10
27326.50770304562
 20
1731.7903624045091
 30
0.0
 40
11.599990999999999
 50
359.99992399997137
 51
90.0
  0
LINE
  5
23E6
  8
FUTO
 10
27338.10770904562
 20
1731.7903464045071
 30
0.0
 11
27338.107709045609
 21
1710.9974544045081
 31
0.0
  0
LINE
  5
23E8
  8
FUTO
 10
27662.507703045569
 20
1477.832201404439
 30
0.0
 11
27857.507703045569
 21
1477.8322014043961
 31
0.0
  0
LINE
  5
23E9
  8
FUTO
 10
27857.507703045569
 20
1477.8322014043961
 30
0.0
 11
27917.50770304555
 21
1420.3322014043831
 31
0.0
  0
LINE
  5
23EA
  8
FUTO
 10
27652.507703045569
 20
1480.3322014044411
 30
0.0
 11
27662.507703045569
 21
1473.6655354044381
 31
0.0
  0
LINE
  5
23EB
  8
FUTO
 10
27652.507703045569
 20
1476.14627840444
 30
0.0
 11
27662.507703045569
 21
1469.6944164044371
 31
0.0
  0
LINE
  5
2519
  8
SL
 10
25930.968093474628
 20
5756.4730126104132
 30
0.0
 11
25930.968093474628
 21
6443.8519461488913
 31
0.0
  0
LINE
  5
251A
  8
FUTO
 10
26030.968093474628
 20
7223.4730126104141
 30
0.0
 11
26030.968093474628
 21
7298.4730126104141
 31
0.0
  0
LINE
  5
251B
  8
FUTO
 10
25855.968093474628
 20
6660.2730126103452
 30
0.0
 11
25855.968093474628
 21
7223.4730126104141
 31
0.0
  0
LINE
  5
251C
  8
FUTO
 10
25930.968093474628
 20
6443.8519461488913
 30
0.0
 11
25930.968093474628
 21
7223.4730126104141
 31
0.0
  0
LINE
  5
251D
  8
SL
 10
25405.968093474628
 20
5756.4730126104123
 30
0.0
 11
25405.968093474628
 21
6660.2730126103434
 31
0.0
  0
LINE
  5
251E
  8
SL
 10
25330.968093474628
 20
5756.4730126104114
 30
0.0
 11
25330.968093474628
 21
6443.8519461488877
 31
0.0
  0
LINE
  5
251F
  8
FUTO
 10
25330.968093474628
 20
6443.8519461488877
 30
0.0
 11
25330.968093474621
 21
7223.4730126104141
 31
0.0
  0
LINE
  5
2520
  8
FUTO
 10
25405.968093474628
 20
6660.2730126103434
 30
0.0
 11
25405.968093474628
 21
7223.4730126104141
 31
0.0
  0
LINE
  5
2521
  8
FUTO
 10
25516.968093474628
 20
7298.4730126104141
 30
0.0
 11
25516.968093474628
 21
8806.4730126104187
 31
0.0
  0
LINE
  5
2522
  8
FUTO
 10
25566.968093474628
 20
7248.4730126104141
 30
0.0
 11
25566.968093474628
 21
8856.4730126104205
 31
0.0
  0
LINE
  5
2523
  8
FUTO
 10
22580.968093474628
 20
8856.4730126104205
 30
0.0
 11
25566.968093474628
 21
8856.4730126104205
 31
0.0
  0
LINE
  5
2524
  8
FUTO
 10
22580.968093474628
 20
7248.473012610415
 30
0.0
 11
25566.968093474628
 21
7248.4730126104141
 31
0.0
  0
LINE
  5
2525
  8
FUTO
 10
25566.968093474628
 20
7298.4730126104141
 30
0.0
 11
26030.968093474628
 21
7298.4730126104141
 31
0.0
  0
DIMENSION
  5
253A
  8
SP
  2
*D17
 10
22505.96809347325
 20
9494.3691006732151
 30
0.0
 11
23143.468093473941
 21
9584.369100673217
 31
0.0
 70
     0
 13
23780.968093474628
 23
9211.0913930444603
 33
0.0
 14
22505.96809347325
 24
8881.4730126104187
 34
0.0
 50
180.0
1001
ACAD
1000
DSTYLE
1002
{
1070
   287
1070
     3
1070
    40
1040
45.0
1070
   140
1040
3.0
1070
   147
1040
0.5
1070
   173
1070
     1
1070
   279
1070
     0
1070
   341
1005
24
1070
     6
1000
OPEN
1070
     7
1000
OPEN
1002
}
  0
DIMENSION
  5
2555
  8
SP
  2
*D18
 10
21939.964672820512
 20
8052.4730126104141
 30
0.0
 11
21849.964672820512
 21
8504.9730126104187
 31
0.0
 70
     0
 13
22705.968093474628
 23
8957.4730126104168
 33
0.0
 14
22285.06138179246
 24
8052.4730126104141
 34
0.0
 50
90.0
1001
ACAD
1000
DSTYLE
1002
{
1070
   287
1070
     3
1070
    40
1040
45.0
1070
   140
1040
3.0
1070
   147
1040
0.5
1070
   173
1070
     1
1070
   279
1070
     0
1070
   341
1005
24
1070
     6
1000
OPEN
1070
     7
1000
OPEN
1002
}
  0
DIMENSION
  5
2562
  8
SP
  2
*D19
 10
21939.964672820512
 20
5452.4730126104187
 30
0.0
 11
21849.964672820512
 21
6752.4730126104223
 31
0.0
 70
     0
 13
22285.06138179246
 23
8052.4730126104141
 33
0.0
 14
23300.968093474628
 24
5452.4730126104178
 34
0.0
 50
90.0
1001
ACAD
1000
DSTYLE
1002
{
1070
   287
1070
     3
1070
    40
1040
45.0
1070
   140
1040
3.0
1070
   147
1040
0.5
1070
   173
1070
     1
1070
   279
1070
     0
1070
   341
1005
24
1070
     6
1000
OPEN
1070
     7
1000
OPEN
1002
}
  0
LINE
  5
259B
  8
KL
 10
24921.968093474628
 20
2040.662005660324
 30
0.0
 11
24921.968093474628
 21
2430.930229026601
 31
0.0
  0
LINE
  5
259C
  8
KL
 10
24930.968093474628
 20
2101.0791315372749
 30
0.0
 11
24930.968093474628
 21
2420.5945569294222
 31
0.0
  0
LINE
  5
259D
  8
KL
 10
24939.968093474628
 20
2033.5125856916659
 30
0.0
 11
24939.968093474628
 21
2410.2588848322398
 31
0.0
  0
LINE
  5
259E
  8
FUTO
 10
24939.968093474628
 20
2410.258884832238
 30
0.0
 11
24939.968093474628
 21
3001.332201404628
 31
0.0
  0
LINE
  5
259F
  8
FUTO
 10
24930.968093474628
 20
2420.5945569294222
 30
0.0
 11
24930.968093474628
 21
3001.332201404628
 31
0.0
  0
LINE
  5
25A0
  8
FUTO
 10
24921.968093474628
 20
2430.9302290265982
 30
0.0
 11
24921.968093474628
 21
3001.332201404628
 31
0.0
  0
LINE
  5
25A1
  8
FUTO
 10
24409.604920416259
 20
3019.332201404628
 30
0.0
 11
25576.20108671315
 21
3019.332201404628
 31
0.0
  0
LINE
  5
25A2
  8
FUTO
 10
24417.441856344409
 20
3010.332201404628
 30
0.0
 11
25576.20108671315
 21
3010.332201404628
 31
0.0
  0
LINE
  5
25A3
  8
FUTO
 10
24425.278792272558
 20
3001.332201404628
 30
0.0
 11
25576.20108671315
 21
3001.332201404628
 31
0.0
  0
LINE
  5
25A5
  8
KL
 10
23301.521642605981
 20
3033.3778246215529
 30
0.0
 11
23580.813316805648
 21
3014.6985931177001
 31
0.0
  0
LINE
  5
25A6
  8
KL
 10
23302.038033146258
 20
3042.3633942307779
 30
0.0
 11
23581.413901671142
 21
3023.678531748857
 31
0.0
  0
LINE
  5
25A7
  8
KL
 10
23302.72281233696
 20
3051.3377018838678
 30
0.0
 11
23582.014486536631
 21
3032.658470380014
 31
0.0
  0
INSERT
  5
2632
  8
FUTO
  2
まっすぐの矢印
 10
22132.843424295519
 20
7727.013995656851
 30
0.0
 41
-40.0
 42
40.0
 43
40.0
 50
90.0
  0
LINE
  5
2731
  8
FUTO
 10
28556.50770304551
 20
856.3322014046297
 30
0.0
 11
30062.907703045508
 21
856.3322014046297
 31
0.0
  0
LINE
  5
2732
  8
KL
 10
28481.50770304551
 20
787.33220140462981
 30
0.0
 11
30137.907703045508
 21
787.33220140462981
 31
0.0
  0
LINE
  5
2733
  8
KL
 10
28559.707703045511
 20
862.33220140462981
 30
0.0
 11
30059.707703045511
 21
862.33220140462981
 31
0.0
  0
LINE
  5
2734
  8
FUTO
 10
22980.968093474628
 20
840.33220140462788
 30
0.0
 11
23398.18488497712
 21
2720.7169129747081
 31
0.0
  0
LINE
  5
2735
  8
FUTO
 10
24580.968093474628
 20
840.33220140462788
 30
0.0
 11
24343.985122429
 21
1908.407994931272
 31
0.0
  0
LINE
  5
2736
  8
FUTO
 10
24142.962591034371
 20
3325.5463884845781
 30
0.0
 11
25842.131550384482
 21
1374.207143867922
 31
0.0
  0
LINE
  5
2737
  8
SL
 10
24013.465757025751
 20
3222.8641671021919
 30
0.0
 11
25761.978681666129
 21
1310.092277313563
 31
0.0
  0
LINE
  5
2738
  8
SL
 10
23572.265326655459
 20
2774.3912021653632
 30
0.0
 11
25513.365740743189
 21
1057.381320880904
 31
0.0
  0
LINE
  5
2739
  8
FUTO
 10
23471.713799926831
 20
2643.2330568642851
 30
0.0
 11
25450.569755571742
 21
976.19103375608427
 31
0.0
  0
ARC
  5
273A
  8
FUTO
 10
23633.968093474628
 20
2863.332201404628
 30
0.0
 40
1903.0
 50
332.22332148101083
 51
4.1585727740168483
  0
LINE
  5
273B
  8
KL
 10
24930.968093474628
 20
1413.9175916300051
 30
0.0
 11
24930.968093474628
 21
2037.087295675994
 31
0.0
  0
LINE
  5
273C
  8
KL
 10
24921.968093474628
 20
1421.4994361625379
 30
0.0
 11
24921.968093474628
 21
2040.662005660324
 31
0.0
  0
LINE
  5
273D
  8
KL
 10
23398.18488497712
 20
2720.7169129747081
 30
0.0
 11
23431.381288997189
 21
2870.3322014046271
 31
0.0
  0
LINE
  5
273E
  8
KL
 10
24343.985122429
 20
1908.407994931272
 30
0.0
 11
24130.554897952072
 21
2870.3322014046271
 31
0.0
  0
LINE
  5
273F
  8
KL
 10
28481.50770304551
 20
787.33220140462981
 30
0.0
 11
28481.50770304551
 21
1130.5118199433509
 31
0.0
  0
LINE
  5
2740
  8
KL
 10
30137.907703045508
 20
787.33220140462981
 30
0.0
 11
30137.907703045508
 21
1184.7178127393181
 31
0.0
  0
LINE
  5
2742
  8
FUTO
 10
30137.907703045508
 20
4452.3322014046171
 30
0.0
 11
28481.5077030455
 21
4452.3322014046289
 31
0.0
  0
LINE
  5
2743
  8
FUTO
 10
28481.50770304551
 20
4103.043861428845
 30
0.0
 11
28559.707703045511
 21
4103.043861428845
 31
0.0
  0
LINE
  5
2744
  8
FUTO
 10
30062.907703045508
 20
4103.043861428845
 30
0.0
 11
30137.907703045508
 21
4103.043861428845
 31
0.0
  0
DIMENSION
  5
2745
  8
SP
  2
*D20
 10
22041.86224317921
 20
3010.332201404628
 30
0.0
 11
21951.862243179221
 21
1835.332201404631
 31
0.0
 70
     0
 13
22630.968093474628
 23
660.33220140462799
 33
0.0
 14
22409.684686450291
 24
3010.332201404628
 34
0.0
 50
90.0
1001
ACAD
1000
DSTYLE
1002
{
1070
   287
1070
     3
1070
    40
1040
45.0
1070
   140
1040
3.0
1070
   147
1040
0.5
1070
   173
1070
     1
1070
   279
1070
     0
1070
   341
1005
24
1070
     6
1000
OPEN
1070
     7
1000
OPEN
1002
}
  0
LINE
  5
2752
  8
FUTO
 10
23927.968093474639
 20
4452.3322014046216
 30
0.0
 11
23780.968093474628
 21
4452.3322014046216
 31
0.0
  0
DIMENSION
  5
2753
  8
SP
  2
*D21
 10
22041.86224317921
 20
3010.332201404628
 30
0.0
 11
21951.862243179221
 21
3731.3322014046289
 31
0.0
 70
     0
 13
23780.968093474628
 23
4452.3322014046216
 33
0.0
 14
22409.684686450291
 24
3010.332201404628
 34
0.0
 50
90.0
1001
ACAD
1000
DSTYLE
1002
{
1070
   287
1070
     3
1070
    40
1040
45.0
1070
   140
1040
3.0
1070
   147
1040
0.5
1070
   173
1070
     1
1070
   279
1070
     0
1070
   341
1005
24
1070
     6
1000
OPEN
1070
     7
1000
OPEN
1002
}
  0
DIMENSION
  5
2794
  8
SP
  2
*D22
 10
26030.968093474628
 20
9494.3691006732151
 30
0.0
 11
24905.968093474628
 21
9584.369100673217
 31
0.0
 70
     0
 13
23780.968093474628
 23
9256.0913930444603
 33
0.0
 14
26030.968093474628
 24
7298.4730126104141
 34
0.0
1001
ACAD
1000
DSTYLE
1002
{
1070
   287
1070
     3
1070
    40
1040
45.0
1070
   140
1040
3.0
1070
   147
1040
0.5
1070
   173
1070
     1
1070
   279
1070
     0
1070
   341
1005
24
1070
     6
1000
OPEN
1070
     7
1000
OPEN
1002
}
  0
LINE
  5
2E7C
  8
4
 10
30843.6842405604
 20
-1133.771189595609
 30
0.0
 11
30843.6842405604
 21
-2333.771189595609
 31
0.0
  0
LINE
  5
2E7D
  8
4
 10
26643.6842405604
 20
-1133.771189595609
 30
0.0
 11
26643.6842405604
 21
-2333.771189595609
 31
0.0
  0
LINE
  5
2E7E
  8
4
 10
23643.6842405604
 20
-1133.771189595609
 30
0.0
 11
23643.6842405604
 21
-2333.771189595609
 31
0.0
  0
LINE
  5
2E81
  8
4
 10
23643.6842405604
 20
-2333.771189595609
 30
0.0
 11
30843.6842405604
 21
-2333.771189595609
 31
0.0
  0
LINE
  5
2E82
  8
4
 10
23643.6842405604
 20
-1733.771189595609
 30
0.0
 11
30843.6842405604
 21
-1733.771189595609
 31
0.0
  0
TEXT
  5
2E83
  8
4
 10
23874.69672564181
 20
-1544.5130343959311
 30
0.0
 40
300.0
  1
機器名称
  0
TEXT
  5
2E84
  8
4
 10
23861.232876709179
 20
-2203.9002492035429
 30
0.0
 40
300.0
  1
機器型番
  0
TEXT
  5
2E85
  8
4
 10
26672.442610766651
 20
-1600.647375453929
 30
0.0
 40
270.0
  1
ミツヤリミットロードファン
  0
TEXT
  5
2E86
  8
4
 10
26863.611214073291
 20
-2230.8136839159479
 30
0.0
 40
300.0
  1
LL#12-1
  0
TEXT
  5
2E88
  8
4
 10
21640.689800537071
 20
11069.51466760017
 30
0.0
 40
432.0
  1
遠心式片吸込片持リミットロードファン
  0
LINE
  5
2E89
  8
4
 10
21243.6842405604
 20
10682.68133599322
 30
0.0
 11
30843.6842405604
 21
10682.68133599322
 31
0.0
  0
LINE
  5
2E8A
  8
4
 10
21243.6842405604
 20
11882.68133599322
 30
0.0
 11
30843.6842405604
 21
11882.68133599322
 31
0.0
  0
LINE
  5
2E8B
  8
4
 10
23643.6842405604
 20
-1133.771189595609
 30
0.0
 11
30843.6842405604
 21
-1133.771189595609
 31
0.0
  0
LINE
  5
2E8C
  8
4
 10
21243.6842405604
 20
11882.68133599322
 30
0.0
 11
21243.6842405604
 21
10682.68133599322
 31
0.0
  0
TEXT
  5
2E8D
  8
4
 10
28557.50159605614
 20
12102.59529937624
 30
0.0
 40
336.00000000000011
  1
No.
  0
TEXT
  5
2E8E
  8
4
 10
28642.755211442069
 20
9519.0299140467978
 30
0.0
 40
323.99999999999989
  1
縮尺：1/60
  0
LINE
  5
2E8F
  8
4
 10
30843.6842405604
 20
11882.68133599322
 30
0.0
 11
30843.6842405604
 21
10682.68133599322
 31
0.0
  0
LINE
  5
2E90
  8
4
 10
32343.684240560389
 20
13566.228810404389
 30
0.0
 11
32343.684240560389
 21
13566.228810404389
 31
0.0
  0
LINE
  5
2E91
  8
4
 10
28387.38877471958
 20
11953.81030915679
 30
0.0
 11
28387.38877471958
 21
12586.1423797029
 31
0.0
  0
LINE
  5
2E92
  8
4
 10
28387.38877471958
 20
12586.1423797029
 30
0.0
 11
30843.6842405604
 21
12586.1423797029
 31
0.0
  0
LINE
  5
2E93
  8
4
 10
30843.6842405604
 20
12586.1423797029
 30
0.0
 11
30843.6842405604
 21
11953.81030915679
 31
0.0
  0
LINE
  5
2E94
  8
4
 10
30843.6842405604
 20
11953.81030915679
 30
0.0
 11
28387.38877471958
 21
11953.81030915679
 31
0.0
  0
LINE
  5
2E95
  8
4
 10
19743.6842405604
 20
-4133.7711895956081
 30
0.0
 11
19743.6842405604
 21
13566.228810404389
 31
0.0
  0
LINE
  5
2E96
  8
4
 10
19743.6842405604
 20
13566.228810404389
 30
0.0
 11
32343.684240560389
 21
13566.228810404389
 31
0.0
  0
LINE
  5
2E97
  8
4
 10
32343.684240560389
 20
13566.228810404389
 30
0.0
 11
32343.684240560389
 21
-4133.7711895956081
 31
0.0
  0
LINE
  5
2E98
  8
4
 10
32343.684240560389
 20
-4133.7711895956081
 30
0.0
 11
19743.6842405604
 21
-4133.7711895956081
 31
0.0
  0
TEXT
  5
2E99
  8
4
 10
24692.501316607199
 20
10126.791337661711
 30
0.0
 40
323.99999999999989
  1
床置防振ベット
  0
TEXT
  5
2E9A
  8
4
 10
21524.39486581301
 20
10145.300475011691
 30
0.0
 40
323.99999999999989
  1
右回転左横向
  0
ENDSEC
  0
EOF
