  0
SECTION
  2
HEADER
  9
$ACADVER
  1
AC1009
  9
$INSBASE
 10
0.0
 20
0.0
 30
0.0
  9
$EXTMIN
 10
19350.743050034689
 20
-2816.6179504339379
 30
0.0
  9
$EXTMAX
 10
31950.7430500347
 20
14883.38204956606
 30
0.0
  9
$LIMMIN
 10
0.0
 20
0.0
  9
$LIMMAX
 10
297.0
 20
210.0
  9
$ORTHOMODE
 70
     0
  9
$REGENMODE
 70
     1
  9
$FILLMODE
 70
     1
  9
$QTEXTMODE
 70
     0
  9
$MIRRTEXT
 70
     0
  9
$DRAGMODE
 70
     2
  9
$LTSCALE
 40
225.0
  9
$OSMODE
 70
    37
  9
$ATTMODE
 70
     1
  9
$TEXTSIZE
 40
120.0
  9
$TRACEWID
 40
0.05
  9
$TEXTSTYLE
  7
STANDARD
  9
$CLAYER
  8
FUTO
  9
$CELTYPE
  6
BYLAYER
  9
$CECOLOR
 62
   256
  9
$DIMSCALE
 40
45.0
  9
$DIMASZ
 40
2.0
  9
$DIMEXO
 40
1.0
  9
$DIMDLI
 40
10.0
  9
$DIMRND
 40
0.0
  9
$DIMDLE
 40
0.0
  9
$DIMEXE
 40
1.0
  9
$DIMTP
 40
0.0
  9
$DIMTM
 40
0.0
  9
$DIMTXT
 40
3.0
  9
$DIMCEN
 40
0.0
  9
$DIMTSZ
 40
0.0
  9
$DIMTOL
 70
     0
  9
$DIMLIM
 70
     0
  9
$DIMTIH
 70
     0
  9
$DIMTOH
 70
     0
  9
$DIMSE1
 70
     0
  9
$DIMSE2
 70
     0
  9
$DIMTAD
 70
     1
  9
$DIMZIN
 70
     8
  9
$DIMBLK
  1

  9
$DIMASO
 70
     1
  9
$DIMSHO
 70
     1
  9
$DIMPOST
  1

  9
$DIMAPOST
  1

  9
$DIMALT
 70
     0
  9
$DIMALTD
 70
     2
  9
$DIMALTF
 40
25.399999999999999
  9
$DIMLFAC
 40
1.0
  9
$DIMTOFL
 70
     1
  9
$DIMTVP
 40
0.0
  9
$DIMTIX
 70
     0
  9
$DIMSOXD
 70
     0
  9
$DIMSAH
 70
     1
  9
$DIMBLK1
  1
OPEN
  9
$DIMBLK2
  1
OPEN
  9
$DIMSTYLE
  2
DIA1
  9
$DIMCLRD
 70
     2
  9
$DIMCLRE
 70
     2
  9
$DIMCLRT
 70
     2
  9
$DIMTFAC
 40
1.0
  9
$DIMGAP
 40
0.5
  9
$LUNITS
 70
     2
  9
$LUPREC
 70
     3
  9
$SKETCHINC
 40
0.1
  9
$FILLETRAD
 40
10.0
  9
$AUNITS
 70
     0
  9
$AUPREC
 70
     2
  9
$MENU
  1
acad
  9
$ELEVATION
 40
0.0
  9
$PELEVATION
 40
0.0
  9
$THICKNESS
 40
0.0
  9
$LIMCHECK
 70
     0
  9
$BLIPMODE
 70
     0
  9
$CHAMFERA
 40
10.0
  9
$CHAMFERB
 40
10.0
  9
$SKPOLY
 70
     0
  9
$TDCREATE
 40
2451270.426261805
  9
$TDUPDATE
 40
2454953.6375898728
  9
$TDINDWG
 40
0.8576236111
  9
$TDUSRTIMER
 40
0.8576236111
  9
$USRTIMER
 70
     1
  9
$ANGBASE
 50
0.0
  9
$ANGDIR
 70
     0
  9
$PDMODE
 70
     0
  9
$PDSIZE
 40
1.0
  9
$PLINEWID
 40
0.0
  9
$COORDS
 70
     1
  9
$SPLFRAME
 70
     0
  9
$SPLINETYPE
 70
     6
  9
$SPLINESEGS
 70
     8
  9
$ATTDIA
 70
     0
  9
$ATTREQ
 70
     1
  9
$HANDLING
 70
 10241
  9
$HANDSEED
  5
3186
  9
$SURFTAB1
 70
     6
  9
$SURFTAB2
 70
     6
  9
$SURFTYPE
 70
     6
  9
$SURFU
 70
     6
  9
$SURFV
 70
     6
  9
$UCSNAME
  2

  9
$UCSORG
 10
0.0
 20
0.0
 30
0.0
  9
$UCSXDIR
 10
1.0
 20
0.0
 30
0.0
  9
$UCSYDIR
 10
0.0
 20
1.0
 30
0.0
  9
$PUCSNAME
  2

  9
$PUCSORG
 10
0.0
 20
0.0
 30
0.0
  9
$PUCSXDIR
 10
1.0
 20
0.0
 30
0.0
  9
$PUCSYDIR
 10
0.0
 20
1.0
 30
0.0
  9
$USERI1
 70
     0
  9
$USERI2
 70
     0
  9
$USERI3
 70
     0
  9
$USERI4
 70
     0
  9
$USERI5
 70
     0
  9
$USERR1
 40
0.0
  9
$USERR2
 40
0.0
  9
$USERR3
 40
0.0
  9
$USERR4
 40
0.0
  9
$USERR5
 40
0.0
  9
$WORLDVIEW
 70
     1
  9
$SHADEDGE
 70
     3
  9
$SHADEDIF
 70
    70
  9
$TILEMODE
 70
     1
  9
$MAXACTVP
 70
    16
  9
$PLIMCHECK
 70
     0
  9
$PEXTMIN
 10
1.0000000000000000E+020
 20
1.0000000000000000E+020
 30
1.0000000000000000E+020
  9
$PEXTMAX
 10
-1.0000000000000000E+020
 20
-1.0000000000000000E+020
 30
-1.0000000000000000E+020
  9
$PLIMMIN
 10
0.0
 20
0.0
  9
$PLIMMAX
 10
12.0
 20
9.0
  9
$UNITMODE
 70
     0
  9
$VISRETAIN
 70
     0
  9
$PLINEGEN
 70
     0
  9
$PSLTSCALE
 70
     0
  0
ENDSEC
  0
SECTION
  2
TABLES
  0
TABLE
  2
VPORT
 70
     2
  0
VPORT
  2
*ACTIVE
 70
     0
 10
0.0
 20
0.0
 11
1.0
 21
1.0
 12
31220.850587984602
 22
-753.03029207748114
 13
0.0
 23
0.0
 14
5.0
 24
5.0
 15
0.0
 25
0.0
 16
0.0
 26
0.0
 36
1.0
 17
0.0
 27
0.0
 37
0.0
 40
5590.5234886887501
 41
3.1666666666666661
 42
50.0
 43
0.0
 44
0.0
 50
0.0
 51
0.0
 71
     0
 72
   100
 73
     1
 74
     0
 75
     0
 76
     0
 77
     0
 78
     0
  0
ENDTAB
  0
TABLE
  2
LTYPE
 70
     4
  0
LTYPE
  2
CONTINUOUS
 70
     0
  3
Solid line
 72
    65
 73
     0
 40
0.0
  0
LTYPE
  2
CENTER
 70
     0
  3
____ _ ____ _ ____ _ ____ _ ____ _ ____ _ ____ 
 72
    65
 73
     4
 40
2.0
 49
1.25
 49
-0.25
 49
0.25
 49
-0.25
  0
LTYPE
  2
HIDDEN
 70
     0
  3
__ __ __ __ __ __ __ __ __ __ __ __ __ __ __ __
 72
    65
 73
     2
 40
0.375
 49
0.25
 49
-0.125
  0
LTYPE
  2
PHANTOM
 70
     0
  3
______  __  __  ______  __  __  ______  __  __ 
 72
    65
 73
     6
 40
2.5
 49
1.25
 49
-0.25
 49
0.25
 49
-0.25
 49
0.25
 49
-0.25
  0
ENDTAB
  0
TABLE
  2
LAYER
 70
     9
  0
LAYER
  2
0
 70
     0
 62
     7
  6
CONTINUOUS
  0
LAYER
  2
CT
 70
     0
 62
     3
  6
CENTER
  0
LAYER
  2
FUTO
 70
     0
 62
     4
  6
CONTINUOUS
  0
LAYER
  2
HOSO
 70
     0
 62
     7
  6
CONTINUOUS
  0
LAYER
  2
KL
 70
     0
 62
     7
  6
HIDDEN
  0
LAYER
  2
SL
 70
     0
 62
     1
  6
PHANTOM
  0
LAYER
  2
SP
 70
     0
 62
     2
  6
CONTINUOUS
  0
LAYER
  2
DEFPOINTS
 70
     0
 62
     7
  6
CONTINUOUS
  0
LAYER
  2
4
 70
     0
 62
     7
  6
CONTINUOUS
  0
ENDTAB
  0
TABLE
  2
STYLE
 70
     1
  0
STYLE
  2
STANDARD
 70
     0
 40
0.0
 41
1.0
 50
15.0
 71
     0
 42
120.0
  3
C:\Program Files\AutoCAD LT\simplex.shx
  4
C:\Program Files\AutoCAD LT\extfont.shx
  0
ENDTAB
  0
TABLE
  2
VIEW
 70
     0
  0
ENDTAB
  0
TABLE
  2
UCS
 70
     0
  0
ENDTAB
  0
TABLE
  2
APPID
 70
     2
  0
APPID
  2
ACAD
 70
     0
  0
APPID
  2
CONTENTBLOCKICON
 70
     0
  0
ENDTAB
  0
TABLE
  2
DIMSTYLE
 70
     2
  0
DIMSTYLE
  2
DIA1
 70
     0
  3

  4

  5

  6

  7

 40
1.0
 41
2.0
 42
1.0
 43
10.0
 44
1.0
 45
0.0
 46
0.0
 47
0.0
 48
0.0
140
2.5
141
0.0
142
0.0
143
25.399999999999999
144
1.0
145
0.0
146
1.0
147
0.09
 71
     0
 72
     0
 73
     0
 74
     0
 75
     0
 76
     0
 77
     1
 78
     8
170
     0
171
     2
172
     1
173
     0
174
     0
175
     0
176
     2
177
     2
178
     2
  0
DIMSTYLE
  2
STANDARD
 70
     0
  3

  4

  5

  6

  7

 40
1.0
 41
0.18
 42
0.0625
 43
0.38
 44
0.18
 45
0.0
 46
0.0
 47
0.0
 48
0.0
140
0.18
141
0.09
142
0.0
143
25.399999999999999
144
1.0
145
0.0
146
1.0
147
0.09
 71
     0
 72
     0
 73
     1
 74
     1
 75
     0
 76
     0
 77
     0
 78
     0
170
     0
171
     2
172
     0
173
     0
174
     0
175
     0
176
     0
177
     0
178
     0
  0
ENDTAB
  0
ENDSEC
  0
SECTION
  2
BLOCKS
  0
BLOCK
  8
0
  2
$MODEL_SPACE
 70
     0
 10
0.0
 20
0.0
 30
0.0
  3
$MODEL_SPACE
  1

  0
ENDBLK
  5
7
  8
0
  0
BLOCK
 67
     1
  8
0
  2
$PAPER_SPACE
 70
     0
 10
0.0
 20
0.0
 30
0.0
  3
$PAPER_SPACE
  1

  0
ENDBLK
  5
A
 67
     1
  8
0
  0
BLOCK
  8
0
  2
_OPEN
 70
     0
 10
0.0
 20
0.0
 30
0.0
  3
_OPEN
  1

  0
LINE
  5
25
  8
0
  6
BYBLOCK
 62
     0
 10
-1.0
 20
0.1666666666666666
 30
0.0
 11
0.0
 21
0.0
 31
0.0
  0
LINE
  5
26
  8
0
  6
BYBLOCK
 62
     0
 10
0.0
 20
0.0
 30
0.0
 11
-1.0
 21
-0.1666666666666666
 31
0.0
  0
LINE
  5
27
  8
0
  6
BYBLOCK
 62
     0
 10
0.0
 20
0.0
 30
0.0
 11
-1.0
 21
0.0
 31
0.0
  0
ENDBLK
  5
29
  8
0
  0
BLOCK
  8
0
  2
_DOT
 70
     0
 10
0.0
 20
0.0
 30
0.0
  3
_DOT
  1

  0
POLYLINE
  5
16D
  8
0
  6
BYBLOCK
 62
     0
 66
     1
 10
0.0
 20
0.0
 30
0.0
 70
     1
 40
0.25
 41
0.25
  0
VERTEX
  5
3102
  8
0
  6
BYBLOCK
 62
     0
 10
-0.125
 20
0.0
 30
0.0
 42
1.0
  0
VERTEX
  5
3103
  8
0
  6
BYBLOCK
 62
     0
 10
0.125
 20
0.0
 30
0.0
 42
1.0
  0
SEQEND
  5
3104
  8
0
  6
BYBLOCK
 62
     0
  0
LINE
  5
171
  8
0
  6
BYBLOCK
 62
     0
 10
-0.25
 20
0.0
 30
0.0
 11
-1.0
 21
0.0
 31
0.0
  0
ENDBLK
  5
173
  8
0
  0
BLOCK
  8
0
  2
L-75-6
 70
     0
 10
0.0
 20
0.0
 30
0.0
  3
L-75-6
  1

  0
LINE
  5
293
  8
0
 10
114.6064614035558
 20
81.429596884474719
 30
0.0
 11
189.60646140355581
 21
81.429596884474719
 31
0.0
  0
LINE
  5
294
  8
0
 10
114.6064614035558
 20
81.429596884474719
 30
0.0
 11
114.6064614035558
 21
156.42959688447471
 31
0.0
  0
LINE
  5
295
  8
0
 10
189.60646140355581
 20
81.429596884474719
 30
0.0
 11
189.60646140355581
 21
83.429596884474705
 31
0.0
  0
LINE
  5
296
  8
0
 10
114.6064614035558
 20
156.42959688447471
 30
0.0
 11
116.6064614035558
 21
156.42959688447471
 31
0.0
  0
LINE
  5
297
  8
0
 10
120.6064614035558
 20
95.929596884474705
 30
0.0
 11
120.6064614035558
 21
152.42959688447471
 31
0.0
  0
LINE
  5
298
  8
0
 10
129.10646140355581
 20
87.429596884474719
 30
0.0
 11
185.60646140355581
 21
87.429596884474719
 31
0.0
  0
ARC
  5
299
  8
0
 10
185.60646140355581
 20
83.429596884474705
 30
0.0
 40
4.0
 50
0.0
 51
90.0
  0
ARC
  5
29A
  8
0
 10
116.6064614035558
 20
152.42959688447471
 30
0.0
 40
4.0
 50
0.0
 51
90.0
  0
ARC
  5
29B
  8
0
 10
129.10646140355581
 20
95.929596884474705
 30
0.0
 40
8.5
 50
180.0
 51
270.0
  0
ENDBLK
  5
29D
  8
0
  0
BLOCK
  8
0
  2
22222F
 70
     0
 10
0.0
 20
0.0
 30
0.0
  3
22222F
  1

  0
ARC
  5
228
  8
FUTO
 10
-0.0000000000000568
 20
0.0
 30
0.0
 40
130.0
 50
124.6637959032814
 51
175.3362040967184
  0
ARC
  5
229
  8
FUTO
 10
-0.0000000000000568
 20
0.0
 30
0.0
 40
130.0
 50
4.6637959032815717
 51
55.336204096718511
  0
ARC
  5
22A
  8
FUTO
 10
-0.0000000000000568
 20
0.0
 30
0.0
 40
115.0
 50
8.9772148936872895
 51
51.022785106312661
  0
ARC
  5
22B
  8
FUTO
 10
-0.0000000000000568
 20
0.0
 30
0.0
 40
115.0
 50
128.9772148936872
 51
171.02278510631271
  0
ARC
  5
22C
  8
FUTO
 10
-57.499999999999829
 20
99.592921435210386
 30
0.0
 40
18.0
 50
25.51139255315622
 51
214.4886074468437
  0
ARC
  5
22D
  8
FUTO
 10
57.5
 20
99.592921435210243
 30
0.0
 40
18.0
 50
325.51139255315621
 51
154.4886074468437
  0
LINE
  5
22E
  8
FUTO
 10
-110.0
 20
-127.0
 30
0.0
 11
-0.0000000000000568
 21
-127.0
 31
0.0
  0
ARC
  5
22F
  8
FUTO
 10
-0.0000000000000568
 20
0.0
 30
0.0
 40
115.0
 50
248.9772148936872
 51
291.0227851063126
  0
CIRCLE
  5
230
  8
FUTO
 10
-0.0000000000000568
 20
0.0
 30
0.0
 40
54.0
  0
LINE
  5
231
  8
CT
 10
-190.0
 20
-140.0
 30
0.0
 11
-190.0
 21
-70.0
 31
0.0
  0
LINE
  5
232
  8
FUTO
 10
-225.0
 20
-130.0
 30
0.0
 11
-110.0
 21
-130.0
 31
0.0
  0
LINE
  5
233
  8
FUTO
 10
-125.0000000000001
 20
-80.0
 30
0.0
 11
-222.0
 21
-80.0
 31
0.0
  0
ARC
  5
234
  8
FUTO
 10
-222.0
 20
-83.0
 30
0.0
 40
3.0
 50
90.0
 51
180.0
  0
LINE
  5
235
  8
FUTO
 10
-225.0
 20
-83.0
 30
0.0
 11
-225.0
 21
-130.0
 31
0.0
  0
LINE
  5
236
  8
FUTO
 10
-129.99999999999929
 20
-9.9498743710669828
 30
0.0
 11
-130.0
 21
-60.0
 31
0.0
  0
ARC
  5
237
  8
FUTO
 10
-0.0000000000000568
 20
0.0
 30
0.0
 40
115.0
 50
188.9772148936872
 51
231.02278510631271
  0
LINE
  5
238
  8
FUTO
 10
-125.0000000000001
 20
-80.0
 30
0.0
 11
-110.0000000000001
 21
-95.0
 31
0.0
  0
ARC
  5
239
  8
FUTO
 10
-150.0
 20
-60.0
 30
0.0
 40
20.0
 50
270.0
 51
0.0
  0
LINE
  5
23A
  8
FUTO
 10
-110.0
 20
-130.0
 30
0.0
 11
-110.0000000000001
 21
-95.0
 31
0.0
  0
ARC
  5
23B
  8
FUTO
 10
-57.500000000000057
 20
-99.592921435210542
 30
0.0
 40
18.0
 50
145.51139255315621
 51
334.48860744684367
  0
ARC
  5
23C
  8
FUTO
 10
-115.0
 20
0.0
 30
0.0
 40
18.0
 50
85.511392553156256
 51
274.48860744684367
  0
LINE
  5
23D
  8
CT
 10
190.0
 20
-140.0
 30
0.0
 11
190.0
 21
-70.0
 31
0.0
  0
ARC
  5
23E
  8
FUTO
 10
150.0
 20
-60.0
 30
0.0
 40
20.0
 50
180.0
 51
270.0
  0
LINE
  5
23F
  8
FUTO
 10
222.0000000000004
 20
-80.0
 30
0.0
 11
124.9999999999997
 21
-80.0
 31
0.0
  0
LINE
  5
240
  8
FUTO
 10
110.0
 20
-130.0
 30
0.0
 11
225.0
 21
-130.0
 31
0.0
  0
LINE
  5
241
  8
FUTO
 10
130.0
 20
-60.0
 30
0.0
 11
130.0
 21
-9.9498743710661302
 31
0.0
  0
ARC
  5
242
  8
FUTO
 10
-0.0000000000000568
 20
0.0
 30
0.0
 40
115.0
 50
308.97721489368718
 51
351.02278510631271
  0
LINE
  5
243
  8
FUTO
 10
-0.0000000000000568
 20
-127.0
 30
0.0
 11
110.0
 21
-127.0
 31
0.0
  0
ARC
  5
244
  8
FUTO
 10
57.5
 20
-99.592921435210542
 30
0.0
 40
18.0
 50
205.51139255315621
 51
34.488607446843737
  0
LINE
  5
245
  8
FUTO
 10
109.9999999999997
 20
-95.0
 30
0.0
 11
124.9999999999997
 21
-80.0
 31
0.0
  0
LINE
  5
246
  8
FUTO
 10
109.9999999999997
 20
-95.0
 30
0.0
 11
110.0
 21
-130.0
 31
0.0
  0
ARC
  5
247
  8
FUTO
 10
115.0
 20
0.0
 30
0.0
 40
18.0
 50
265.51139255315621
 51
94.488607446843773
  0
ARC
  5
248
  8
FUTO
 10
222.0000000000004
 20
-83.0
 30
0.0
 40
3.0
 50
0.0
 51
90.0
  0
LINE
  5
249
  8
FUTO
 10
225.0
 20
-130.0
 30
0.0
 11
225.0000000000004
 21
-83.0
 31
0.0
  0
LINE
  5
24A
  8
FUTO
 10
19.227247756821669
 20
132.99999999999989
 30
0.0
 11
-19.227247756821779
 21
132.99999999999989
 31
0.0
  0
ARC
  5
24B
  8
FUTO
 10
-0.0000000000000568
 20
0.0
 30
0.0
 40
115.0
 50
68.977214893687218
 51
111.0227851063126
  0
ARC
  5
24C
  8
FUTO
 10
-0.0000000000000568
 20
0.0
 30
0.0
 40
130.0
 50
98.505358450480756
 51
115.3362040967184
  0
LINE
  5
24D
  8
FUTO
 10
-19.227247756821779
 20
113.3812724558063
 30
0.0
 11
-19.227247756821779
 21
132.99999999999989
 31
0.0
  0
ARC
  5
24E
  8
FUTO
 10
-0.0000000000000568
 20
0.0
 30
0.0
 40
130.0
 50
64.663795903281382
 51
81.494641549519287
  0
LINE
  5
24F
  8
FUTO
 10
19.227247756821669
 20
113.3812724558063
 30
0.0
 11
19.227247756821669
 21
132.99999999999989
 31
0.0
  0
ENDBLK
  5
251
  8
0
  0
BLOCK
  8
0
  2
まっすぐの矢印
 70
     0
 10
0.0
 20
0.0
 30
0.0
  3
まっすぐの矢印
  1

  0
LINE
  5
2CF
  8
SP
 10
0.6962157491662495
 20
-2.216890595009601
 30
0.0
 11
0.6962157491662495
 21
-5.0
 31
0.0
  0
LINE
  5
2D0
  8
SP
 10
0.6962157491662495
 20
-5.0
 30
0.0
 11
-0.6962157491662495
 21
-5.0
 31
0.0
  0
LINE
  5
2D1
  8
SP
 10
-0.6962157491662495
 20
-5.0
 30
0.0
 11
-0.6962157491662495
 21
-2.216890595009601
 31
0.0
  0
LINE
  5
2D2
  8
SP
 10
-0.6962157491662495
 20
-2.216890595009601
 30
0.0
 11
-1.7145256852758151
 21
-2.216890595009601
 31
0.0
  0
LINE
  5
2D3
  8
SP
 10
-1.7145256852758151
 20
-2.216890595009601
 30
0.0
 11
0.0
 21
0.0
 31
0.0
  0
LINE
  5
2D4
  8
SP
 10
0.0
 20
0.0
 30
0.0
 11
1.7145256852758151
 21
-2.216890595009601
 31
0.0
  0
LINE
  5
2D5
  8
SP
 10
1.7145256852758151
 20
-2.216890595009601
 30
0.0
 11
0.6962157491662495
 21
-2.216890595009601
 31
0.0
  0
ENDBLK
  5
2D7
  8
0
  0
BLOCK
  8
0
  2
右回転矢印
 70
     0
 10
0.0
 20
0.0
 30
0.0
  3
右回転矢印
  1

  0
LINE
  5
1E3
  8
SP
 10
-2.7705290305565882
 20
1.567794835092901
 30
0.0
 11
-2.4288000558398148
 21
2.8051227455822878
 31
0.0
  0
LINE
  5
1E4
  8
SP
 10
-2.4288000558398148
 20
2.8051227455822878
 30
0.0
 11
0.0
 21
0.0
 31
0.0
  0
LINE
  5
1E5
  8
SP
 10
0.0
 20
0.0
 30
0.0
 11
-3.3160037613098718
 21
-0.4072531086382499
 31
0.0
  0
LINE
  5
1E6
  8
SP
 10
-3.3160037613098718
 20
-0.4072531086382499
 30
0.0
 11
-3.0391574735299112
 21
0.5951483970269315
 31
0.0
  0
ARC
  5
1E7
  8
SP
 10
-5.9215210782018062
 20
-9.8412769578768184
 30
0.0
 40
10.82714154973578
 50
74.560750721316467
 51
112.11861101078711
  0
LINE
  5
1E8
  8
SP
 10
-9.9982127316752951
 20
0.1890560027239694
 30
0.0
 11
-10.37814929817227
 21
1.1238557349100611
 31
0.0
  0
ARC
  5
1E9
  8
SP
 10
-5.9215210782018062
 20
-9.8412769578768291
 30
0.0
 40
11.83620167374065
 50
74.560750721316396
 51
112.11861101078701
  0
ENDBLK
  5
1EB
  8
0
  0
BLOCK
  8
0
  2
*D6
 70
     1
 10
0.0
 20
0.0
 30
0.0
  3
*D6
  1

  0
LINE
  5
306E
  8
SP
 62
     2
 10
21318.69368735424
 20
1739.392649677116
 30
0.0
 11
21318.69368735424
 21
1071.77192266323
 31
0.0
  0
LINE
  5
306F
  8
SP
 62
     2
 10
23568.69368735424
 20
1739.392649677116
 30
0.0
 11
23568.69368735424
 21
1071.77192266323
 31
0.0
  0
LINE
  5
3070
  8
SP
 62
     2
 10
21408.69368735424
 20
1116.77192266323
 30
0.0
 11
23478.69368735424
 21
1116.77192266323
 31
0.0
  0
INSERT
  5
3071
  8
SP
 62
     2
  2
_OPEN
 10
21318.69368735424
 20
1116.77192266323
 30
0.0
 41
90.0
 42
90.0
 43
90.0
 50
180.0
  0
INSERT
  5
3072
  8
SP
 62
     2
  2
_OPEN
 10
23568.69368735424
 20
1116.77192266323
 30
0.0
 41
90.0
 42
90.0
 43
90.0
  0
TEXT
  5
3073
  8
FUTO
 62
     2
 10
22194.40932076782
 20
1139.27192266323
 30
0.0
 40
135.0
  1
2250
 51
15.0
  0
POINT
  5
3074
  8
DEFPOINTS
 62
     0
 10
21318.69368735424
 20
1784.392649677116
 30
0.0
  0
POINT
  5
3075
  8
DEFPOINTS
 62
     0
 10
23568.69368735424
 20
1784.392649677116
 30
0.0
  0
POINT
  5
3076
  8
DEFPOINTS
 62
     0
 10
23568.69368735424
 20
1116.77192266323
 30
0.0
  0
ENDBLK
  5
A67
  8
0
  0
BLOCK
  8
0
  2
*D7
 70
     1
 10
0.0
 20
0.0
 30
0.0
  3
*D7
  1

  0
LINE
  5
3053
  8
SP
 62
     2
 10
23568.69368735424
 20
1739.392649677116
 30
0.0
 11
23568.69368735424
 21
1071.77192266323
 31
0.0
  0
LINE
  5
3054
  8
SP
 62
     2
 10
24718.693687354229
 20
1739.392649677116
 30
0.0
 11
24718.693687354229
 21
1071.77192266323
 31
0.0
  0
LINE
  5
3055
  8
SP
 62
     2
 10
23658.693687354229
 20
1116.77192266323
 30
0.0
 11
24628.693687354229
 21
1116.77192266323
 31
0.0
  0
INSERT
  5
3056
  8
SP
 62
     2
  2
_OPEN
 10
23568.69368735424
 20
1116.77192266323
 30
0.0
 41
90.0
 42
90.0
 43
90.0
 50
180.0
  0
INSERT
  5
3057
  8
SP
 62
     2
  2
_OPEN
 10
24718.693687354229
 20
1116.77192266323
 30
0.0
 41
90.0
 42
90.0
 43
90.0
  0
TEXT
  5
3058
  8
FUTO
 62
     2
 10
23905.482097038552
 20
1139.27192266323
 30
0.0
 40
135.0
  1
1150
 51
15.0
  0
POINT
  5
3059
  8
DEFPOINTS
 62
     0
 10
23568.69368735424
 20
1784.392649677116
 30
0.0
  0
POINT
  5
305A
  8
DEFPOINTS
 62
     0
 10
24718.693687354229
 20
1784.392649677116
 30
0.0
  0
POINT
  5
305B
  8
DEFPOINTS
 62
     0
 10
24718.693687354229
 20
1116.77192266323
 30
0.0
  0
ENDBLK
  5
A74
  8
0
  0
BLOCK
  8
0
  2
*D8
 70
     1
 10
0.0
 20
0.0
 30
0.0
  3
*D8
  1

  0
LINE
  5
30EE
  8
SP
 10
24718.693687354229
 20
1739.392649677116
 30
0.0
 11
24718.693687354229
 21
776.43902576302696
 31
0.0
  0
LINE
  5
30EF
  8
SP
 10
21318.69368735424
 20
1739.392649677116
 30
0.0
 11
21318.69368735424
 21
776.43902576302696
 31
0.0
  0
LINE
  5
30F0
  8
SP
 10
24628.693687354229
 20
821.43902576302696
 30
0.0
 11
21408.69368735424
 21
821.43902576302696
 31
0.0
  0
INSERT
  5
30F1
  8
SP
  2
_OPEN
 10
24718.693687354229
 20
821.43902576302696
 30
0.0
 41
90.0
 42
90.0
 43
90.0
  0
INSERT
  5
30F2
  8
SP
  2
_OPEN
 10
21318.69368735424
 20
821.43902576302696
 30
0.0
 41
90.0
 42
90.0
 43
90.0
 50
180.0
  0
TEXT
  8
0
  40
135
  5
3177
  72
0
  71
0
 10
22748.7
 20
672.489
 30
0.000000
  1
3400
  0
POINT
  5
30F4
  8
DEFPOINTS
 62
     0
 10
24718.693687354229
 20
1784.392649677116
 30
0.0
  0
POINT
  5
30F5
  8
DEFPOINTS
 62
     0
 10
21318.69368735424
 20
1784.392649677116
 30
0.0
  0
POINT
  5
30F6
  8
DEFPOINTS
 62
     0
 10
21318.69368735424
 20
821.43902576302696
 30
0.0
  0
ENDBLK
  5
14BE
  8
0
  0
BLOCK
  8
0
  2
*D9
 70
     1
 10
0.0
 20
0.0
 30
0.0
  3
*D9
  1

  0
LINE
  5
30F7
  8
SP
 10
24729.726356768078
 20
1964.392649677116
 30
0.0
 11
25352.799537649651
 21
1964.3926496771151
 31
0.0
  0
LINE
  5
30F8
  8
SP
 10
24729.726356768078
 20
1784.392649677116
 30
0.0
 11
25352.799537649651
 21
1784.3926496771151
 31
0.0
  0
LINE
  5
30F9
  8
SP
 10
25307.799537649651
 20
2054.392649677116
 30
0.0
 11
25307.799537649651
 21
2144.3926496771151
 31
0.0
  0
LINE
  5
30FA
  8
SP
 10
25307.799537649651
 20
1694.392649677116
 30
0.0
 11
25307.799537649651
 21
1244.3926496771151
 31
0.0
  0
LINE
  5
30FB
  8
SP
 10
25307.799537649651
 20
1964.3926496771151
 30
0.0
 11
25307.799537649651
 21
1784.3926496771151
 31
0.0
  0
INSERT
  5
30FC
  8
SP
  2
_DOT
 10
25307.799537649651
 20
1964.3926496771151
 30
0.0
 41
90.0
 42
90.0
 43
90.0
 50
270.0
  0
INSERT
  5
30FD
  8
SP
  2
_OPEN
 10
25307.799537649651
 20
1784.3926496771151
 30
0.0
 41
90.0
 42
90.0
 43
90.0
 50
90.0
  0
TEXT
  8
0
  40
135
  5
3178
  72
0
  71
0
 10
24947.8
 20
1185.44
 30
0.000000
  1
180
  0
POINT
  5
30FF
  8
DEFPOINTS
 62
     0
 10
24684.726356768078
 20
1964.392649677116
 30
0.0
  0
POINT
  5
3100
  8
DEFPOINTS
 62
     0
 10
24684.726356768078
 20
1784.392649677116
 30
0.0
  0
POINT
  5
3101
  8
DEFPOINTS
 62
     0
 10
25307.799537649651
 20
1784.3926496771151
 30
0.0
  0
ENDBLK
  5
14D8
  8
0
  0
BLOCK
  8
0
  2
*D10
 70
     1
 10
0.0
 20
0.0
 30
0.0
  3
*D10
  1

  0
LINE
  5
3105
  8
SP
 10
30047.433296925112
 20
4874.3926496771164
 30
0.0
 11
30541.62301530414
 21
4874.3926496771164
 31
0.0
  0
LINE
  5
3106
  8
SP
 10
30047.433296925112
 20
2874.3926496771151
 30
0.0
 11
30541.62301530414
 21
2874.3926496771151
 31
0.0
  0
LINE
  5
3107
  8
SP
 10
30496.62301530414
 20
4784.3926496771164
 30
0.0
 11
30496.62301530414
 21
2964.392649677116
 31
0.0
  0
INSERT
  5
3108
  8
SP
  2
_OPEN
 10
30496.62301530414
 20
4874.3926496771164
 30
0.0
 41
90.0
 42
90.0
 43
90.0
 50
90.0
  0
INSERT
  5
3109
  8
SP
  2
_OPEN
 10
30496.62301530414
 20
2874.3926496771151
 30
0.0
 41
90.0
 42
90.0
 43
90.0
 50
270.0
  0
TEXT
  8
0
  40
135
  5
3179
  72
0
  71
0
 10
30136.6
 20
3635.44
 30
0.000000
  1
%%C2000
  0
POINT
  5
310B
  8
DEFPOINTS
 62
     0
 10
30002.433296925112
 20
4874.3926496771164
 30
0.0
  0
POINT
  5
310C
  8
DEFPOINTS
 62
     0
 10
30002.433296925112
 20
2874.3926496771151
 30
0.0
  0
POINT
  5
310D
  8
DEFPOINTS
 62
     0
 10
30496.62301530414
 20
2874.3926496771151
 30
0.0
  0
ENDBLK
  5
1561
  8
0
  0
BLOCK
  8
0
  2
*D11
 70
     1
 10
0.0
 20
0.0
 30
0.0
  3
*D11
  1

  0
LINE
  5
310E
  8
SP
 62
     2
 10
26726.433296925112
 20
1739.392649677116
 30
0.0
 11
26726.433296925112
 21
1066.31522940887
 31
0.0
  0
LINE
  5
310F
  8
SP
 62
     2
 10
29097.433296925112
 20
1739.392649677116
 30
0.0
 11
29097.433296925112
 21
1066.31522940887
 31
0.0
  0
LINE
  5
3110
  8
SP
 62
     2
 10
26816.433296925112
 20
1111.3152294088691
 30
0.0
 11
29007.433296925112
 21
1111.3152294088691
 31
0.0
  0
INSERT
  5
3111
  8
SP
 62
     2
  2
_OPEN
 10
26726.433296925112
 20
1111.3152294088691
 30
0.0
 41
90.0
 42
90.0
 43
90.0
 50
180.0
  0
INSERT
  5
3112
  8
SP
 62
     2
  2
_OPEN
 10
29097.433296925112
 20
1111.3152294088691
 30
0.0
 41
90.0
 42
90.0
 43
90.0
  0
TEXT
  8
0
  40
135
  5
317A
  62
2
  72
0
  71
0
 10
27641.9
 20
962.365
 30
0.000000
  1
2371
  0
POINT
  5
3114
  8
DEFPOINTS
 62
     0
 10
26726.433296925112
 20
1784.392649677116
 30
0.0
  0
POINT
  5
3115
  8
DEFPOINTS
 62
     0
 10
29097.433296925112
 20
1784.392649677116
 30
0.0
  0
POINT
  5
3116
  8
DEFPOINTS
 62
     0
 10
29097.433296925112
 20
1111.3152294088691
 30
0.0
  0
ENDBLK
  5
1B15
  8
0
  0
BLOCK
  8
0
  2
*D12
 70
     1
 10
0.0
 20
0.0
 30
0.0
  3
*D12
  1

  0
LINE
  5
3117
  8
SP
 62
     2
 10
29926.433296925112
 20
1739.392649677116
 30
0.0
 11
29926.433296925112
 21
1066.31522940887
 31
0.0
  0
LINE
  5
3118
  8
SP
 62
     2
 10
29187.433296925112
 20
1111.3152294088691
 30
0.0
 11
29836.433296925112
 21
1111.3152294088691
 31
0.0
  0
INSERT
  5
3119
  8
SP
 62
     2
  2
_OPEN
 10
29097.433296925112
 20
1111.3152294088691
 30
0.0
 41
90.0
 42
90.0
 43
90.0
 50
180.0
  0
INSERT
  5
311A
  8
SP
 62
     2
  2
_OPEN
 10
29926.433296925112
 20
1111.3152294088691
 30
0.0
 41
90.0
 42
90.0
 43
90.0
  0
TEXT
  8
0
  40
135
  5
317B
  62
2
  72
0
  71
0
 10
29241.9
 20
962.365
 30
0.000000
  1
829
  0
POINT
  5
311C
  8
DEFPOINTS
 62
     0
 10
29097.433296925112
 20
1784.392649677116
 30
0.0
  0
POINT
  5
311D
  8
DEFPOINTS
 62
     0
 10
29926.433296925112
 20
1784.392649677116
 30
0.0
  0
POINT
  5
311E
  8
DEFPOINTS
 62
     0
 10
29926.433296925112
 20
1111.3152294088691
 30
0.0
  0
ENDBLK
  5
1B21
  8
0
  0
BLOCK
  8
0
  2
*D13
 70
     1
 10
0.0
 20
0.0
 30
0.0
  3
*D13
  1

  0
LINE
  5
311F
  8
SP
 62
     2
 10
29926.433296925112
 20
1066.31522940887
 30
0.0
 11
29926.433296925112
 21
774.19292915597305
 31
0.0
  0
LINE
  5
3120
  8
SP
 62
     2
 10
26726.433296925112
 20
1066.31522940887
 30
0.0
 11
26726.433296925112
 21
774.19292915597305
 31
0.0
  0
LINE
  5
3121
  8
SP
 62
     2
 10
29836.433296925112
 20
819.19292915597305
 30
0.0
 11
26816.433296925112
 21
819.19292915597305
 31
0.0
  0
INSERT
  5
3122
  8
SP
 62
     2
  2
_OPEN
 10
29926.433296925112
 20
819.19292915597305
 30
0.0
 41
90.0
 42
90.0
 43
90.0
  0
INSERT
  5
3123
  8
SP
 62
     2
  2
_OPEN
 10
26726.433296925112
 20
819.19292915597305
 30
0.0
 41
90.0
 42
90.0
 43
90.0
 50
180.0
  0
TEXT
  8
0
  40
135
  5
317C
  62
2
  72
0
  71
0
 10
28056.4
 20
670.243
 30
0.000000
  1
3200
  0
POINT
  5
3125
  8
DEFPOINTS
 62
     0
 10
29926.433296925112
 20
1111.3152294088691
 30
0.0
  0
POINT
  5
3126
  8
DEFPOINTS
 62
     0
 10
26726.433296925112
 20
1111.3152294088691
 30
0.0
  0
POINT
  5
3127
  8
DEFPOINTS
 62
     0
 10
26726.433296925112
 20
819.19292915597305
 30
0.0
  0
ENDBLK
  5
1B2E
  8
0
  0
BLOCK
  8
0
  2
*D14
 70
     1
 10
0.0
 20
0.0
 30
0.0
  3
*D14
  1

  0
LINE
  5
3128
  8
SP
 62
     2
 10
26587.433296925112
 20
5625.5246550905013
 30
0.0
 11
29007.433296925112
 21
5625.5246550905013
 31
0.0
  0
INSERT
  5
3129
  8
SP
 62
     2
  2
_OPEN
 10
26497.433296925112
 20
5625.5246550905013
 30
0.0
 41
90.0
 42
90.0
 43
90.0
 50
180.0
  0
INSERT
  5
312A
  8
SP
 62
     2
  2
_OPEN
 10
29097.433296925112
 20
5625.5246550905013
 30
0.0
 41
90.0
 42
90.0
 43
90.0
  0
TEXT
  8
0
  40
135
  5
317D
  62
2
  72
0
  71
0
 10
27527.4
 20
5476.57
 30
0.000000
  1
2600
  0
POINT
  5
312C
  8
DEFPOINTS
 62
     0
 10
26497.433296925112
 20
5625.5246550905013
 30
0.0
  0
POINT
  5
312D
  8
DEFPOINTS
 62
     0
 10
29097.433296925112
 20
5625.5246550905013
 30
0.0
  0
POINT
  5
312E
  8
DEFPOINTS
 62
     0
 10
29097.433296925112
 20
5625.5246550905013
 30
0.0
  0
ENDBLK
  5
1BFE
  8
0
  0
BLOCK
  8
0
  2
*D15
 70
     1
 10
0.0
 20
0.0
 30
0.0
  3
*D15
  1

  0
LINE
  5
312F
  8
SP
 62
     2
 10
23568.693687354229
 20
5262.7342155063134
 30
0.0
 11
23568.693687354229
 21
5658.498499972533
 31
0.0
  0
LINE
  5
3130
  8
SP
 62
     2
 10
21341.693687354229
 20
5194.3926496785762
 30
0.0
 11
21341.693687354229
 21
5658.498499972533
 31
0.0
  0
LINE
  5
3131
  8
SP
 62
     2
 10
23478.693687354229
 20
5613.498499972533
 30
0.0
 11
21431.693687354229
 21
5613.498499972533
 31
0.0
  0
INSERT
  5
3132
  8
SP
 62
     2
  2
_OPEN
 10
23568.693687354229
 20
5613.498499972533
 30
0.0
 41
90.0
 42
90.0
 43
90.0
  0
INSERT
  5
3133
  8
SP
 62
     2
  2
_OPEN
 10
21341.693687354229
 20
5613.498499972533
 30
0.0
 41
90.0
 42
90.0
 43
90.0
 50
180.0
  0
TEXT
  8
0
  40
135
  5
317E
  62
2
  72
0
  71
0
 10
22185.2
 20
5464.55
 30
0.000000
  1
2227
  0
POINT
  5
3135
  8
DEFPOINTS
 62
     0
 10
23568.693687354229
 20
5217.7342155063116
 30
0.0
  0
POINT
  5
3136
  8
DEFPOINTS
 62
     0
 10
21341.693687354229
 20
5149.3926496785753
 30
0.0
  0
POINT
  5
3137
  8
DEFPOINTS
 62
     0
 10
21341.693687354229
 20
5613.498499972533
 30
0.0
  0
ENDBLK
  5
1C2F
  8
0
  0
BLOCK
  8
0
  2
*D16
 70
     1
 10
0.0
 20
0.0
 30
0.0
  3
*D16
  1

  0
LINE
  5
30AB
  8
SP
 10
24729.726356768078
 20
2104.3926496771151
 30
0.0
 11
25352.799537649651
 21
2104.3926496771151
 31
0.0
  0
LINE
  5
30AC
  8
SP
 10
24729.726356768078
 20
1964.392649677116
 30
0.0
 11
25352.799537649651
 21
1964.3926496771151
 31
0.0
  0
LINE
  5
30AD
  8
SP
 10
25307.799537649651
 20
2194.3926496771151
 30
0.0
 11
25307.799537649651
 21
2284.392649677116
 31
0.0
  0
LINE
  5
30AE
  8
SP
 10
25307.799537649651
 20
1874.3926496771151
 30
0.0
 11
25307.799537649651
 21
1784.3926496771151
 31
0.0
  0
TEXT
  5
30AF
  8
FUTO
 10
25574.283931069051
 20
1823.214473008439
 30
0.0
 40
135.0
  1
(140)
 50
90.0
 51
15.0
  0
LINE
  5
30B0
  8
SP
 10
25307.799537649651
 20
2104.3926496771151
 30
0.0
 11
25307.799537649651
 21
1964.3926496771151
 31
0.0
  0
INSERT
  5
30B1
  8
SP
  2
_OPEN
 10
25307.799537649651
 20
2104.3926496771151
 30
0.0
 41
90.0
 42
90.0
 43
90.0
 50
270.0
  0
INSERT
  5
30B2
  8
SP
  2
_DOT
 10
25307.799537649651
 20
1964.3926496771151
 30
0.0
 41
90.0
 42
90.0
 43
90.0
 50
90.0
  0
POINT
  5
30B3
  8
DEFPOINTS
 62
     0
 10
24684.726356768078
 20
2104.3926496771151
 30
0.0
  0
POINT
  5
30B4
  8
DEFPOINTS
 62
     0
 10
24684.726356768078
 20
1964.392649677116
 30
0.0
  0
POINT
  5
30B5
  8
DEFPOINTS
 62
     0
 10
25307.799537649651
 20
1964.3926496771151
 30
0.0
  0
ENDBLK
  5
1C46
  8
0
  0
BLOCK
  8
0
  2
*D17
 70
     1
 10
0.0
 20
0.0
 30
0.0
  3
*D17
  1

  0
LINE
  5
3138
  8
SP
 62
     2
 10
24688.69368735424
 20
9931.7001271919708
 30
0.0
 11
25452.960995835849
 21
9931.7001271919708
 31
0.0
  0
LINE
  5
3139
  8
SP
 62
     2
 10
25109.600399036412
 20
9026.7001271919708
 30
0.0
 11
25452.960995835849
 21
9026.7001271919708
 31
0.0
  0
LINE
  5
313A
  8
SP
 62
     2
 10
25407.960995835849
 20
9841.7001271919708
 30
0.0
 11
25407.960995835849
 21
9116.7001271919671
 31
0.0
  0
INSERT
  5
313B
  8
SP
 62
     2
  2
_OPEN
 10
25407.960995835849
 20
9931.7001271919708
 30
0.0
 41
90.0
 42
90.0
 43
90.0
 50
90.0
  0
INSERT
  5
313C
  8
SP
 62
     2
  2
_OPEN
 10
25407.960995835849
 20
9026.7001271919708
 30
0.0
 41
90.0
 42
90.0
 43
90.0
 50
270.0
  0
TEXT
  8
0
  40
135
  5
317F
  62
2
  72
0
  71
0
 10
25048.0
 20
9223.54
 30
0.000000
  1
905
  0
POINT
  5
313E
  8
DEFPOINTS
 62
     0
 10
24643.69368735424
 20
9931.7001271919708
 30
0.0
  0
POINT
  5
313F
  8
DEFPOINTS
 62
     0
 10
25064.600399036412
 20
9026.7001271919708
 30
0.0
  0
POINT
  5
3140
  8
DEFPOINTS
 62
     0
 10
25407.960995835849
 20
9026.7001271919708
 30
0.0
  0
ENDBLK
  5
2561
  8
0
  0
BLOCK
  8
0
  2
*D18
 70
     1
 10
0.0
 20
0.0
 30
0.0
  3
*D18
  1

  0
LINE
  5
3141
  8
SP
 62
     2
 10
25109.600399036412
 20
9026.7001271919708
 30
0.0
 11
25452.960995835841
 21
9026.7001271919708
 31
0.0
  0
LINE
  5
3142
  8
SP
 62
     2
 10
24093.69368735424
 20
6426.7001271919717
 30
0.0
 11
25452.960995835841
 21
6426.7001271919717
 31
0.0
  0
LINE
  5
3143
  8
SP
 62
     2
 10
25407.960995835849
 20
8936.7001271919689
 30
0.0
 11
25407.960995835841
 21
6516.7001271919726
 31
0.0
  0
INSERT
  5
3144
  8
SP
 62
     2
  2
_OPEN
 10
25407.960995835849
 20
9026.7001271919708
 30
0.0
 41
90.0
 42
90.0
 43
90.0
 50
90.0
  0
INSERT
  5
3145
  8
SP
 62
     2
  2
_OPEN
 10
25407.960995835841
 20
6426.7001271919717
 30
0.0
 41
90.0
 42
90.0
 43
90.0
 50
270.0
  0
TEXT
  8
0
  40
135
  5
3180
  62
2
  72
0
  71
0
 10
25048.0
 20
7487.75
 30
0.000000
  1
2600
  0
POINT
  5
3147
  8
DEFPOINTS
 62
     0
 10
25064.600399036412
 20
9026.7001271919708
 30
0.0
  0
POINT
  5
3148
  8
DEFPOINTS
 62
     0
 10
24048.69368735424
 20
6426.7001271919717
 30
0.0
  0
POINT
  5
3149
  8
DEFPOINTS
 62
     0
 10
25407.960995835841
 20
6426.7001271919717
 30
0.0
  0
ENDBLK
  5
256E
  8
0
  0
BLOCK
  8
0
  2
*D19
 70
     1
 10
0.0
 20
0.0
 30
0.0
  3
*D19
  1

  0
LINE
  5
314A
  8
FUTO
 62
     2
 10
21318.693687354229
 20
8317.7001271919671
 30
0.0
 11
21318.693687354229
 21
10406.66591669787
 31
0.0
  0
LINE
  5
314B
  8
FUTO
 62
     2
 10
23568.69368735424
 20
10230.318507626011
 30
0.0
 11
23568.69368735424
 21
10406.66591669787
 31
0.0
  0
LINE
  5
314C
  8
FUTO
 62
     2
 10
21408.693687354229
 20
10361.66591669787
 30
0.0
 11
23478.69368735424
 21
10361.66591669787
 31
0.0
  0
INSERT
  5
314D
  8
FUTO
 62
     2
  2
_OPEN
 10
21318.693687354229
 20
10361.66591669787
 30
0.0
 41
90.0
 42
90.0
 43
90.0
 50
180.0
  0
INSERT
  5
314E
  8
FUTO
 62
     2
  2
_OPEN
 10
23568.69368735424
 20
10361.66591669787
 30
0.0
 41
90.0
 42
90.0
 43
90.0
  0
TEXT
  8
0
  40
135
  5
3181
  62
2
  72
0
  71
0
 10
22173.7
 20
10212.7
 30
0.000000
  1
2250
  0
POINT
  5
3150
  8
DEFPOINTS
 62
     0
 10
21318.693687354229
 20
8272.7001271919671
 30
0.0
  0
POINT
  5
3151
  8
DEFPOINTS
 62
     0
 10
23568.69368735424
 20
10185.318507626011
 30
0.0
  0
POINT
  5
3152
  8
DEFPOINTS
 62
     0
 10
23568.69368735424
 20
10361.66591669787
 30
0.0
  0
ENDBLK
  5
2703
  8
0
  0
BLOCK
  8
0
  2
*D20
 70
     1
 10
0.0
 20
0.0
 30
0.0
  3
*D20
  1

  0
LINE
  5
3153
  8
FUTO
 62
     2
 10
23568.69368735424
 20
10230.318507626011
 30
0.0
 11
23568.69368735424
 21
10406.66591669787
 31
0.0
  0
LINE
  5
3154
  8
FUTO
 62
     2
 10
25060.69368735424
 20
9875.7001271919744
 30
0.0
 11
25060.69368735424
 21
10406.66591669787
 31
0.0
  0
LINE
  5
3155
  8
FUTO
 62
     2
 10
23658.693687354229
 20
10361.66591669787
 30
0.0
 11
24970.69368735424
 21
10361.66591669787
 31
0.0
  0
INSERT
  5
3156
  8
FUTO
 62
     2
  2
_OPEN
 10
23568.69368735424
 20
10361.66591669787
 30
0.0
 41
90.0
 42
90.0
 43
90.0
 50
180.0
  0
INSERT
  5
3157
  8
FUTO
 62
     2
  2
_OPEN
 10
25060.69368735424
 20
10361.66591669787
 30
0.0
 41
90.0
 42
90.0
 43
90.0
  0
TEXT
  8
0
  40
135
  5
3182
  62
2
  72
0
  71
0
 10
24044.7
 20
10212.7
 30
0.000000
  1
1492
  0
POINT
  5
3159
  8
DEFPOINTS
 62
     0
 10
23568.69368735424
 20
10185.318507626011
 30
0.0
  0
POINT
  5
315A
  8
DEFPOINTS
 62
     0
 10
25060.69368735424
 20
9830.7001271919744
 30
0.0
  0
POINT
  5
315B
  8
DEFPOINTS
 62
     0
 10
25060.69368735424
 20
10361.66591669787
 30
0.0
  0
ENDBLK
  5
2710
  8
0
  0
BLOCK
  8
0
  2
*D21
 70
     1
 10
0.0
 20
0.0
 30
0.0
  3
*D21
  1

  0
LINE
  5
315C
  8
FUTO
 62
     2
 10
24763.693687354229
 20
2104.3926496771151
 30
0.0
 11
25352.799537649651
 21
2104.3926496771151
 31
0.0
  0
LINE
  5
315D
  8
FUTO
 62
     2
 10
25177.53726518841
 20
3874.3926496771151
 30
0.0
 11
25352.799537649651
 21
3874.3926496771151
 31
0.0
  0
LINE
  5
315E
  8
FUTO
 62
     2
 10
25307.799537649651
 20
2194.3926496771151
 30
0.0
 11
25307.799537649651
 21
3784.392649677116
 31
0.0
  0
INSERT
  5
315F
  8
FUTO
 62
     2
  2
_OPEN
 10
25307.799537649651
 20
2104.3926496771151
 30
0.0
 41
90.0
 42
90.0
 43
90.0
 50
270.0
  0
INSERT
  5
3160
  8
FUTO
 62
     2
  2
_OPEN
 10
25307.799537649651
 20
3874.3926496771151
 30
0.0
 41
90.0
 42
90.0
 43
90.0
 50
90.0
  0
TEXT
  8
0
  40
135
  5
3183
  62
2
  72
0
  71
0
 10
24947.8
 20
2750.44
 30
0.000000
  1
1770
  0
POINT
  5
3162
  8
DEFPOINTS
 62
     0
 10
24718.693687354229
 20
2104.3926496771151
 30
0.0
  0
POINT
  5
3163
  8
DEFPOINTS
 62
     0
 10
25132.53726518841
 20
3874.3926496771151
 30
0.0
  0
POINT
  5
3164
  8
DEFPOINTS
 62
     0
 10
25307.799537649651
 20
3874.3926496771151
 30
0.0
  0
ENDBLK
  5
271D
  8
0
  0
BLOCK
  8
0
  2
*D22
 70
     1
 10
0.0
 20
0.0
 30
0.0
  3
*D22
  1

  0
LINE
  5
3165
  8
FUTO
 62
     2
 10
25177.53726518841
 20
3874.3926496771151
 30
0.0
 11
25352.799537649651
 21
3874.3926496771151
 31
0.0
  0
LINE
  5
3166
  8
FUTO
 62
     2
 10
23604.693687354229
 20
5149.3926496775712
 30
0.0
 11
25352.799537649651
 21
5149.3926496775712
 31
0.0
  0
LINE
  5
3167
  8
FUTO
 62
     2
 10
25307.799537649651
 20
3964.3926496771151
 30
0.0
 11
25307.799537649651
 21
5059.3926496775721
 31
0.0
  0
INSERT
  5
3168
  8
FUTO
 62
     2
  2
_OPEN
 10
25307.799537649651
 20
3874.3926496771151
 30
0.0
 41
90.0
 42
90.0
 43
90.0
 50
270.0
  0
INSERT
  5
3169
  8
FUTO
 62
     2
  2
_OPEN
 10
25307.799537649651
 20
5149.3926496775712
 30
0.0
 41
90.0
 42
90.0
 43
90.0
 50
90.0
  0
TEXT
  8
0
  40
135
  5
3184
  62
2
  72
0
  71
0
 10
24947.8
 20
4272.94
 30
0.000000
  1
1275
  0
POINT
  5
316B
  8
DEFPOINTS
 62
     0
 10
25132.53726518841
 20
3874.3926496771151
 30
0.0
  0
POINT
  5
316C
  8
DEFPOINTS
 62
     0
 10
23559.693687354229
 20
5149.3926496775712
 30
0.0
  0
POINT
  5
316D
  8
DEFPOINTS
 62
     0
 10
25307.799537649651
 20
5149.3926496775712
 30
0.0
  0
ENDBLK
  5
272A
  8
0
  0
BLOCK
  8
0
  2
*D23
 70
     1
 10
0.0
 20
0.0
 30
0.0
  3
*D23
  1

  0
LINE
  5
316E
  8
FUTO
 62
     2
 10
29097.433296925112
 20
5603.0844267476186
 30
0.0
 11
29097.433296925112
 21
5670.5246550905022
 31
0.0
  0
LINE
  5
316F
  8
FUTO
 62
     2
 10
30002.433296925119
 20
4994.3926496771164
 30
0.0
 11
30002.433296925119
 21
5670.5246550905022
 31
0.0
  0
LINE
  5
3170
  8
FUTO
 62
     2
 10
29187.433296925112
 20
5625.5246550905013
 30
0.0
 11
29912.433296925112
 21
5625.5246550905013
 31
0.0
  0
INSERT
  5
3171
  8
FUTO
 62
     2
  2
_OPEN
 10
29097.433296925112
 20
5625.5246550905013
 30
0.0
 41
90.0
 42
90.0
 43
90.0
 50
180.0
  0
INSERT
  5
3172
  8
FUTO
 62
     2
  2
_OPEN
 10
30002.433296925119
 20
5625.5246550905013
 30
0.0
 41
90.0
 42
90.0
 43
90.0
  0
TEXT
  8
0
  40
135
  5
3185
  62
2
  72
0
  71
0
 10
29279.9
 20
5476.57
 30
0.000000
  1
905
  0
POINT
  5
3174
  8
DEFPOINTS
 62
     0
 10
29097.433296925112
 20
5558.0844267476186
 30
0.0
  0
POINT
  5
3175
  8
DEFPOINTS
 62
     0
 10
30002.433296925119
 20
4949.3926496771173
 30
0.0
  0
POINT
  5
3176
  8
DEFPOINTS
 62
     0
 10
30002.433296925119
 20
5625.5246550905013
 30
0.0
  0
ENDBLK
  5
279C
  8
0
  0
ENDSEC
  0
SECTION
  2
ENTITIES
  0
LINE
  5
46
  8
FUTO
 10
26981.433296925112
 20
3714.3926496771151
 30
0.0
 11
28231.433296925112
 21
3714.3926496771151
 31
0.0
  0
LINE
  5
49
  8
FUTO
 10
28039.433296925112
 20
3931.892649677116
 30
0.0
 11
26977.433296925112
 21
3931.892649677116
 31
0.0
  0
LINE
  5
4A
  8
FUTO
 10
28039.433296925112
 20
3816.892649677116
 30
0.0
 11
26977.433296925112
 21
3816.892649677116
 31
0.0
  0
LINE
  5
4B
  8
FUTO
 10
26726.433296925112
 20
2284.392649677116
 30
0.0
 11
29940.633296925109
 21
2284.392649677116
 31
0.0
  0
LINE
  5
4C
  8
CT
 10
30124.69650892408
 20
3874.3926496771151
 30
0.0
 11
26392.655873926698
 21
3874.3926496771151
 31
0.0
  0
LINE
  5
4F
  8
FUTO
 10
26726.433296925112
 20
1964.392649677116
 30
0.0
 11
29926.433296925112
 21
1964.392649677116
 31
0.0
  0
LINE
  5
50
  8
FUTO
 10
26801.433296925112
 20
2104.3926496771151
 30
0.0
 11
29851.433296925112
 21
2104.3926496771151
 31
0.0
  0
LINE
  5
51
  8
FUTO
 10
26801.433296925112
 20
1796.392649677116
 30
0.0
 11
28314.578375379249
 21
1796.392649677116
 31
0.0
  0
LINE
  5
52
  8
FUTO
 10
26801.433296925112
 20
1952.392649677116
 30
0.0
 11
28314.578375379249
 21
1952.392649677116
 31
0.0
  0
LINE
  5
53
  8
FUTO
 10
26801.433296925112
 20
2116.392649677116
 30
0.0
 11
28314.578375379249
 21
2116.392649677116
 31
0.0
  0
LINE
  5
54
  8
FUTO
 10
26801.433296925112
 20
2272.392649677116
 30
0.0
 11
28314.578375379249
 21
2272.392649677116
 31
0.0
  0
DIMENSION
  5
6B
  8
SP
  2
*D8
 10
21318.69368735424
 20
821.43902576302696
 30
0.0
 11
23018.693687354229
 21
911.43902576302708
 31
0.0
 70
     0
 13
24718.693687354229
 23
1784.392649677116
 33
0.0
 14
21318.69368735424
 24
1784.392649677116
 34
0.0
1001
ACAD
1000
DSTYLE
1002
{
1070
   287
1070
     0
1070
   287
1070
     0
1070
    40
1040
45.0
1070
   140
1040
3.0
1070
   143
1040
0.03937
1070
   147
1040
0.5
1070
   173
1070
     1
1070
   176
1070
   256
1070
   177
1070
   256
1070
   178
1070
   256
1070
   271
1070
     4
1070
   272
1070
     4
1070
   279
1070
     0
1070
   285
1070
     0
1070
   286
1070
     0
1070
   289
1070
     0
1070
     6
1000
OPEN
1070
     7
1000
OPEN
1002
}
  0
LINE
  5
78
  8
CT
 10
21457.067054990792
 20
3874.3926496771151
 30
0.0
 11
21475.660487214082
 21
3874.3926496771151
 31
0.0
  0
LINE
  5
80
  8
FUTO
 10
22043.460694115722
 20
2104.3926496771151
 30
0.0
 11
21477.926996539551
 21
2104.3926496771151
 31
0.0
  0
ARC
  5
86
  8
KL
 10
23421.693687354229
 20
3727.3926496771169
 30
0.0
 40
1589.0
 50
270.0
 51
0.0
  0
LINE
  5
89
  8
FUTO
 10
24718.693687354229
 20
2104.3926496771151
 30
0.0
 11
21318.693687354229
 21
2104.3926496771151
 31
0.0
  0
LINE
  5
8A
  8
FUTO
 10
24718.693687354229
 20
2284.392649677116
 30
0.0
 11
21318.693687354229
 21
2284.392649677116
 31
0.0
  0
LINE
  5
8C
  8
FUTO
 10
24718.693687354229
 20
1964.392649677116
 30
0.0
 11
21318.693687354229
 21
1964.392649677116
 31
0.0
  0
LINE
  5
8D
  8
FUTO
 10
24718.693687354229
 20
1784.392649677116
 30
0.0
 11
21318.693687354229
 21
1784.392649677116
 31
0.0
  0
LINE
  5
8E
  8
FUTO
 10
24718.693687354229
 20
2268.392649677116
 30
0.0
 11
21318.693687354229
 21
2268.392649677116
 31
0.0
  0
LINE
  5
8F
  8
FUTO
 10
24718.693687354229
 20
2120.3926496771151
 30
0.0
 11
21318.693687354229
 21
2120.3926496771151
 31
0.0
  0
LINE
  5
90
  8
FUTO
 10
24718.693687354229
 20
1948.392649677116
 30
0.0
 11
21318.693687354229
 21
1948.392649677116
 31
0.0
  0
LINE
  5
91
  8
FUTO
 10
24718.693687354229
 20
1800.392649677116
 30
0.0
 11
21318.693687354229
 21
1800.392649677116
 31
0.0
  0
ARC
  5
92
  8
KL
 10
23421.693687354229
 20
4021.392649677116
 30
0.0
 40
1883.0
 50
185.57161837836699
 51
270.0
  0
ARC
  5
93
  8
FUTO
 10
23421.693687354229
 20
4021.392649677116
 30
0.0
 40
1903.0
 50
185.48736012707101
 51
204.75963211347539
  0
LINE
  5
A6
  8
FUTO
 10
21318.693687354229
 20
2104.3926496771151
 30
0.0
 11
21318.693687354229
 21
2284.392649677116
 31
0.0
  0
LINE
  5
A7
  8
FUTO
 10
21318.69368735424
 20
1784.392649677116
 30
0.0
 11
21318.693687354229
 21
1964.392649677116
 31
0.0
  0
LINE
  5
FF
  8
FUTO
 10
26981.433296925112
 20
3734.392649677116
 30
0.0
 11
26981.433296925112
 21
3714.3926496771151
 31
0.0
  0
LINE
  5
100
  8
FUTO
 10
26801.433296925112
 20
3734.392649677116
 30
0.0
 11
26801.433296925112
 21
2284.392649677116
 31
0.0
  0
LINE
  5
101
  8
SL
 10
26745.233296925111
 20
4249.3926496771164
 30
0.0
 11
26745.233296925111
 21
2479.392649677116
 31
0.0
  0
LINE
  5
102
  8
SL
 10
26615.233296925111
 20
4249.3926496771164
 30
0.0
 11
26615.233296925111
 21
2479.392649677116
 31
0.0
  0
LINE
  5
103
  8
FUTO
 10
26497.433296925112
 20
4354.3926496771164
 30
0.0
 11
26497.433296925112
 21
2384.392649677116
 31
0.0
  0
LINE
  5
104
  8
FUTO
 10
24709.693687354229
 20
2284.392649677116
 30
0.0
 11
24709.69368735424
 21
4621.9029944431986
 31
0.0
  0
LINE
  5
105
  8
FUTO
 10
24718.693687354229
 20
2104.3926496771151
 30
0.0
 11
24718.69368735424
 21
4611.2552041324489
 31
0.0
  0
ARC
  5
10A
  8
KL
 10
23691.193687354229
 20
3751.8926496771151
 30
0.0
 40
1319.5
 50
358.9360914973721
 51
90.0
  0
ARC
  5
10B
  8
FUTO
 10
23691.193687354229
 20
3751.8926496771151
 30
0.0
 40
1339.5
 50
5.2471470658387798
 51
90.0
  0
LINE
  5
10D
  8
CT
 10
23568.69368735424
 20
1722.062630757963
 30
0.0
 11
23568.69368735424
 21
5294.0100478076538
 31
0.0
  0
LINE
  5
10E
  8
FUTO
 10
22409.69368735424
 20
2439.4303416654761
 30
0.0
 11
22409.69368735424
 21
2693.241784069904
 31
0.0
  0
LINE
  5
110
  8
CT
 10
21718.69368735424
 20
3310.6761269376921
 30
0.0
 11
21718.693687354229
 21
1827.4610382058449
 31
0.0
  0
LINE
  5
111
  8
FUTO
 10
22427.693687354229
 20
2284.392649677116
 30
0.0
 11
22427.693687354229
 21
2703.0885638379841
 31
0.0
  0
LINE
  5
112
  8
FUTO
 10
22418.693687354229
 20
2284.392649677116
 30
0.0
 11
22418.69368735424
 21
2698.1651739539438
 31
0.0
  0
LINE
  5
127
  8
FUTO
 10
22418.69368735424
 20
2415.0296585309929
 30
0.0
 11
22383.33834829491
 21
2379.674319471666
 31
0.0
  0
LINE
  5
128
  8
FUTO
 10
22418.693687354229
 20
2448.4303416654761
 30
0.0
 11
22365.33834829491
 21
2395.0750026061492
 31
0.0
  0
LINE
  5
129
  8
FUTO
 10
22418.693687354229
 20
2431.6719009570261
 30
0.0
 11
22374.33834829491
 21
2387.3165618976991
 31
0.0
  0
LINE
  5
156
  8
FUTO
 10
22365.33834829491
 20
2395.0750026061492
 30
0.0
 11
22383.33834829491
 21
2379.674319471666
 31
0.0
  0
LINE
  5
157
  8
FUTO
 10
22768.693687354229
 20
2104.3926496771169
 30
0.0
 11
22768.693687354229
 21
2298.6046961548259
 31
0.0
  0
LINE
  5
15F
  8
CT
 10
24585.166366581059
 20
2192.0010378213201
 30
0.0
 11
24585.166366581059
 21
1880.692644331463
 31
0.0
  0
LINE
  5
160
  8
FUTO
 10
24368.693687354229
 20
2104.3926496771151
 30
0.0
 11
24368.693687354229
 21
2298.604696154825
 31
0.0
  0
LINE
  5
162
  8
SP
 10
24625.166366581059
 20
2104.3926496771151
 30
0.0
 11
24625.166366581059
 21
1964.392649677116
 31
0.0
  0
LINE
  5
163
  8
SP
 10
24545.166366581059
 20
2104.3926496771151
 30
0.0
 11
24545.166366581059
 21
1964.392649677116
 31
0.0
  0
DIMENSION
  5
164
  8
SP
  2
*D9
 10
25307.799537649651
 20
1784.3926496771151
 30
0.0
 11
25217.799537649651
 21
1424.3926496771201
 31
0.0
 70
     0
 13
24684.726356768078
 23
1964.392649677116
 33
0.0
 14
24684.726356768078
 24
1784.392649677116
 34
0.0
 50
90.0
1001
ACAD
1000
DSTYLE
1002
{
1070
   287
1070
     0
1070
   287
1070
     0
1070
    40
1040
45.0
1070
   140
1040
3.0
1070
   143
1040
0.03937
1070
   147
1040
0.5
1070
   173
1070
     1
1070
   176
1070
   256
1070
   177
1070
   256
1070
   178
1070
   256
1070
   271
1070
     4
1070
   272
1070
     4
1070
   279
1070
     0
1070
   285
1070
     0
1070
   286
1070
     0
1070
   289
1070
     0
1070
     6
1000
DOT
1070
     7
1000
OPEN
1002
}
  0
DIMENSION
  5
17B
  8
SP
  2
*D16
 10
25307.799537649651
 20
1964.3926496771151
 30
0.0
 11
25529.283931069051
 21
2080.188390883683
 31
0.0
 70
   128
  1
(<>)
 13
24684.726356768078
 23
2104.3926496771151
 33
0.0
 14
24684.726356768078
 24
1964.392649677116
 34
0.0
 50
90.0
1001
ACAD
1000
DSTYLE
1002
{
1070
   140
1040
3.0
1070
   272
1070
     4
1070
    40
1040
45.0
1070
   173
1070
     1
1070
   147
1040
0.5
1070
   271
1070
     4
1070
   178
1070
   256
1070
   177
1070
   256
1070
   176
1070
   256
1070
     7
1000
_DOT
1070
     6
1000
_OPEN
1070
     5
1000

1070
   285
1070
     0
1070
   286
1070
     0
1070
   143
1040
0.03937
1002
}
  0
LINE
  5
18A
  8
FUTO
 10
24718.693687354229
 20
1784.392649677116
 30
0.0
 11
24718.693687354229
 21
1964.392649677116
 31
0.0
  0
ARC
  5
19A
  8
FUTO
 10
26784.433296925112
 20
2127.4680192948008
 30
0.0
 40
10.0
 50
275.0
 51
0.0
  0
LINE
  5
19B
  8
FUTO
 10
26801.433296925112
 20
2284.392649677116
 30
0.0
 11
26801.433296925112
 21
2104.3926496771151
 31
0.0
  0
ARC
  5
1A0
  8
FUTO
 10
26784.433296925112
 20
1941.31728005943
 30
0.0
 40
10.0
 50
0.0
 51
85.000000000000014
  0
LINE
  5
1A1
  8
FUTO
 10
26726.433296925112
 20
2107.315656977768
 30
0.0
 11
26726.433296925112
 21
2104.3926496771151
 31
0.0
  0
ARC
  5
1A2
  8
FUTO
 10
26731.933296925112
 20
2107.3156569777689
 30
0.0
 40
5.5
 50
95.000000000000057
 51
180.00000000000051
  0
LINE
  5
1A3
  8
FUTO
 10
26726.433296925112
 20
1961.4696423764631
 30
0.0
 11
26726.433296925112
 21
1964.392649677116
 31
0.0
  0
ARC
  5
1A4
  8
FUTO
 10
26731.933296925112
 20
1961.4696423764631
 30
0.0
 40
5.5
 50
180.0
 51
265.0
  0
LINE
  5
1A5
  8
FUTO
 10
26801.433296925112
 20
2104.3926496771151
 30
0.0
 11
26726.433296925112
 21
2104.3926496771151
 31
0.0
  0
LINE
  5
1A6
  8
FUTO
 10
26785.304854352591
 20
2117.5060723138831
 30
0.0
 11
26731.453940340001
 21
2112.7947278172728
 31
0.0
  0
LINE
  5
1A7
  8
FUTO
 10
26785.304854352591
 20
1951.2792270403479
 30
0.0
 11
26731.453940340001
 21
1955.9905715369589
 31
0.0
  0
LINE
  5
1A8
  8
FUTO
 10
26801.433296925112
 20
1964.392649677116
 30
0.0
 11
26726.433296925112
 21
1964.392649677116
 31
0.0
  0
ARC
  5
1A9
  8
FUTO
 10
26784.433296925112
 20
1807.468019294801
 30
0.0
 40
10.0
 50
275.0
 51
0.0
  0
LINE
  5
1AA
  8
FUTO
 10
26726.433296925112
 20
1787.315656977768
 30
0.0
 11
26726.433296925112
 21
1784.392649677116
 31
0.0
  0
ARC
  5
1AB
  8
FUTO
 10
26731.933296925112
 20
1787.315656977768
 30
0.0
 40
5.5
 50
95.000000000000057
 51
180.00000000000051
  0
LINE
  5
1AC
  8
FUTO
 10
26801.433296925112
 20
1784.392649677116
 30
0.0
 11
26726.433296925112
 21
1784.392649677116
 31
0.0
  0
LINE
  5
1AD
  8
FUTO
 10
26785.304854352591
 20
1797.5060723138829
 30
0.0
 11
26731.453940340001
 21
1792.7947278172719
 31
0.0
  0
LINE
  5
1AE
  8
FUTO
 10
26801.433296925112
 20
1964.392649677116
 30
0.0
 11
26801.433296925112
 21
1784.392649677116
 31
0.0
  0
LINE
  5
1AF
  8
FUTO
 10
26794.433296925112
 20
1941.31728005943
 30
0.0
 11
26794.433296925112
 21
1807.468019294801
 31
0.0
  0
LINE
  5
1B0
  8
CT
 10
26873.8296049317
 20
2634.392649677106
 30
0.0
 11
26399.625248010441
 21
2634.392649677106
 31
0.0
  0
LINE
  5
1B1
  8
SL
 10
26745.233296925118
 20
2479.392649677116
 30
0.0
 11
26615.233296925111
 21
2479.392649677116
 31
0.0
  0
LINE
  5
1B2
  8
FUTO
 10
26778.182331087621
 20
2384.392649677116
 30
0.0
 11
26497.433296925112
 21
2384.392649677116
 31
0.0
  0
ARC
  5
1B3
  8
FUTO
 10
26784.433296925112
 20
2261.3172800594298
 30
0.0
 40
10.0
 50
0.0
 51
85.000000000000014
  0
LINE
  5
1B4
  8
FUTO
 10
26726.433296925112
 20
2281.4696423764631
 30
0.0
 11
26726.433296925112
 21
2284.392649677116
 31
0.0
  0
ARC
  5
1B5
  8
FUTO
 10
26731.933296925112
 20
2281.4696423764631
 30
0.0
 40
5.5
 50
180.0
 51
265.0
  0
LINE
  5
1B6
  8
FUTO
 10
26785.304854352591
 20
2271.2792270403479
 30
0.0
 11
26731.453940340001
 21
2275.9905715369591
 31
0.0
  0
LINE
  5
1B7
  8
FUTO
 10
26801.433296925112
 20
2284.392649677116
 30
0.0
 11
26726.433296925112
 21
2284.392649677116
 31
0.0
  0
LINE
  5
1B8
  8
FUTO
 10
26794.433296925112
 20
2261.3172800594298
 30
0.0
 11
26794.433296925112
 21
2127.4680192948008
 31
0.0
  0
LINE
  5
1B9
  8
FUTO
 10
26778.182331087621
 20
2505.9143656372148
 30
0.0
 11
26778.182331087621
 21
2384.392649677116
 31
0.0
  0
LINE
  5
1C7
  8
KL
 10
21420.69368735424
 20
5149.3926496771173
 30
0.0
 11
21547.589702736099
 21
3838.5723695153229
 31
0.0
  0
LINE
  5
1C8
  8
FUTO
 10
21407.860683534182
 20
5074.3926496771173
 30
0.0
 11
21527.683472762968
 21
3836.6379284277641
 31
0.0
  0
LINE
  5
1CD
  8
CT
 10
24913.2775797748
 20
3874.3926496771151
 30
0.0
 11
23368.69368735424
 21
3874.3926496771151
 31
0.0
  0
ARC
  5
1D3
  8
KL
 10
23691.193687354229
 20
3996.892649677116
 30
0.0
 40
1074.5
 50
90.0
 51
123.15191494409029
  0
INSERT
  5
1E1
  8
FUTO
  2
右回転矢印
 10
23779.837840283311
 20
4692.6550634831037
 30
0.0
 41
40.0
 42
40.0
 43
40.0
 50
0.996954535217047
  0
LINE
  5
1F0
  8
FUTO
 10
22418.69368735424
 20
3883.392649677116
 30
0.0
 11
22418.69368735424
 21
5074.3926496771173
 31
0.0
  0
LINE
  5
1F1
  8
FUTO
 10
22427.693687354229
 20
3883.392649677116
 30
0.0
 11
22427.693687354229
 21
5074.3926496771173
 31
0.0
  0
LINE
  5
1F3
  8
KL
 10
23368.69368735424
 20
3874.3926496771151
 30
0.0
 11
22805.719006198411
 21
3874.3926496771151
 31
0.0
  0
LINE
  5
1F4
  8
KL
 10
23368.69368735424
 20
3883.392649677116
 30
0.0
 11
22816.839042444921
 21
3883.392649677116
 31
0.0
  0
LINE
  5
1F5
  8
KL
 10
23368.69368735424
 20
3865.392649677116
 30
0.0
 11
22794.598969951909
 21
3865.392649677116
 31
0.0
  0
INSERT
  5
226
  8
FUTO
  2
22222F
 10
23568.69368735424
 20
3874.3926496771151
 30
0.0
  0
LINE
  5
259
  8
KL
 10
23568.693687354229
 20
3734.392649677116
 30
0.0
 11
23219.106882876789
 21
3734.392649677116
 31
0.0
  0
LINE
  5
25C
  8
KL
 10
23368.69368735424
 20
3865.392649677116
 30
0.0
 11
23368.69368735424
 21
3883.392649677116
 31
0.0
  0
LINE
  5
25E
  8
KL
 10
23568.69368735424
 20
3734.392649677116
 30
0.0
 11
23918.28049183168
 21
3734.392649677116
 31
0.0
  0
CIRCLE
  5
265
  8
KL
 10
23090.193687354229
 20
4917.0013389089909
 30
0.0
 40
24.5
  0
LINE
  5
26C
  8
SP
 10
26497.433296925112
 20
4394.3926496771164
 30
0.0
 11
26497.433296925112
 21
5665.5246550905013
 31
0.0
  0
LINE
  5
289
  8
FUTO
 10
23484.693687354229
 20
5074.3926496771173
 30
0.0
 11
21407.860683534182
 21
5074.3926496771173
 31
0.0
  0
LINE
  5
28A
  8
FUTO
 10
23484.693687354229
 20
5143.3926496771164
 30
0.0
 11
21416.69368735424
 21
5143.3926496771164
 31
0.0
  0
LINE
  5
28B
  8
FUTO
 10
23559.693687354229
 20
5149.3926496771173
 30
0.0
 11
21341.693687354229
 21
5149.3926496771173
 31
0.0
  0
LINE
  5
28E
  8
FUTO
 10
23559.693687354331
 20
5149.3926496775712
 30
0.0
 11
21341.693687354331
 21
5149.3926496785753
 31
0.0
  0
LINE
  5
28F
  8
FUTO
 10
23559.693687354331
 20
5149.3926496770619
 30
0.0
 11
21341.693687354331
 21
5149.3926496785753
 31
0.0
  0
INSERT
  5
291
  8
FUTO
  2
L-75-6
 10
23370.08722595068
 20
5230.8222465615909
 30
0.0
 41
-1.0
 50
180.0
  0
ARC
  5
29E
  8
FUTO
 10
23691.193687354229
 20
3996.892649677116
 30
0.0
 40
1094.5
 50
92.629005839964307
 51
100.0234996675966
  0
LINE
  5
2A1
  8
CT
 10
23568.693687354229
 20
5245.6760567014526
 30
0.0
 11
23568.693687354229
 21
5113.6773200590133
 31
0.0
  0
LINE
  5
2A2
  8
FUTO
 10
23524.461748010792
 20
5110.0570977891966
 30
0.0
 11
23524.461748010759
 21
5204.7534090178178
 31
0.0
  0
ARC
  5
2A3
  8
FUTO
 10
23691.193687354229
 20
3996.892649677116
 30
0.0
 40
1094.5
 50
90.0
 51
91.681558003073349
  0
LINE
  5
2A5
  8
KL
 10
23480.693687354229
 20
5050.5719177658448
 30
0.0
 11
23480.693687354229
 21
5149.3926496771173
 31
0.0
  0
LINE
  5
2A6
  8
FUTO
 10
23484.693687354229
 20
5074.3926496771173
 30
0.0
 11
23484.693687354229
 21
5149.3926496771173
 31
0.0
  0
LINE
  5
2A7
  8
FUTO
 10
23500.693687354229
 20
5074.6866930824408
 30
0.0
 11
23487.770905384201
 21
5074.6866930824408
 31
0.0
  0
LINE
  5
2A8
  8
FUTO
 10
26827.433296925112
 20
3989.392649677116
 30
0.0
 11
26827.433296925112
 21
3794.392649677116
 31
0.0
  0
LINE
  5
2A9
  8
FUTO
 10
26955.433296925112
 20
3989.392649677116
 30
0.0
 11
26955.433296925112
 21
3794.392649677116
 31
0.0
  0
LINE
  5
2AA
  8
CT
 10
26891.433296925112
 20
4037.8842681869451
 30
0.0
 11
26891.433296925112
 21
3723.2354959150762
 31
0.0
  0
LINE
  5
2AB
  8
FUTO
 10
26813.433296925112
 20
3989.392649677116
 30
0.0
 11
26813.433296925112
 21
3759.392649677116
 31
0.0
  0
LINE
  5
2AC
  8
FUTO
 10
26969.433296925112
 20
3989.392649677116
 30
0.0
 11
26969.433296925112
 21
3759.392649677116
 31
0.0
  0
LINE
  5
2AD
  8
FUTO
 10
26955.433296925112
 20
3989.392649677116
 30
0.0
 11
26955.433296925112
 21
3794.392649677116
 31
0.0
  0
LINE
  5
2AE
  8
FUTO
 10
26805.433296925112
 20
3954.392649677116
 30
0.0
 11
26805.433296925112
 21
3794.392649677116
 31
0.0
  0
LINE
  5
2AF
  8
FUTO
 10
26977.433296925112
 20
3954.392649677116
 30
0.0
 11
26977.433296925112
 21
3794.392649677116
 31
0.0
  0
LINE
  5
2B1
  8
SL
 10
26745.233296925118
 20
2759.392649677106
 30
0.0
 11
26615.233296925111
 21
2759.392649677106
 31
0.0
  0
LINE
  5
2B2
  8
SL
 10
26745.233296925111
 20
3499.3926496771151
 30
0.0
 11
26615.233296925111
 21
3499.3926496771151
 31
0.0
  0
LINE
  5
2B3
  8
FUTO
 10
26821.433296925112
 20
3744.392649677116
 30
0.0
 11
26961.433296925112
 21
3744.392649677116
 31
0.0
  0
LINE
  5
2B4
  8
FUTO
 10
26821.433296925112
 20
3794.392649677116
 30
0.0
 11
26961.433296925112
 21
3794.392649677116
 31
0.0
  0
LINE
  5
2B5
  8
FUTO
 10
26801.433296925112
 20
3734.392649677116
 30
0.0
 11
26981.433296925112
 21
3734.392649677116
 31
0.0
  0
LINE
  5
2B6
  8
CT
 10
26846.433296925112
 20
3821.139307154469
 30
0.0
 11
26846.433296925112
 21
3723.2354959150762
 31
0.0
  0
LINE
  5
2B7
  8
FUTO
 10
26821.433296925112
 20
3794.392649677116
 30
0.0
 11
26821.433296925112
 21
3734.392649677116
 31
0.0
  0
LINE
  5
2B8
  8
FUTO
 10
26805.433296925112
 20
3794.392649677116
 30
0.0
 11
26813.433296925112
 21
3774.392649677116
 31
0.0
  0
LINE
  5
2B9
  8
FUTO
 10
26813.433296925112
 20
3759.392649677116
 30
0.0
 11
26821.433296925112
 21
3759.392649677116
 31
0.0
  0
LINE
  5
2BA
  8
FUTO
 10
26805.433296925112
 20
3926.892649677116
 30
0.0
 11
26745.233296925111
 21
3926.892649677116
 31
0.0
  0
LINE
  5
2BB
  8
FUTO
 10
26805.433296925112
 20
3821.892649677116
 30
0.0
 11
26745.233296925111
 21
3821.892649677116
 31
0.0
  0
LINE
  5
2BC
  8
CT
 10
26936.433296925112
 20
3821.139307154469
 30
0.0
 11
26936.433296925112
 21
3723.2354959150762
 31
0.0
  0
LINE
  5
2BD
  8
FUTO
 10
26961.433296925112
 20
3794.392649677116
 30
0.0
 11
26961.433296925112
 21
3734.392649677116
 31
0.0
  0
LINE
  5
2BE
  8
FUTO
 10
26969.433296925112
 20
3759.392649677116
 30
0.0
 11
26961.433296925112
 21
3759.392649677116
 31
0.0
  0
LINE
  5
2BF
  8
FUTO
 10
26977.433296925112
 20
3794.392649677116
 30
0.0
 11
26969.433296925112
 21
3774.392649677116
 31
0.0
  0
LINE
  5
2C0
  8
SL
 10
26745.233296925111
 20
4249.3926496771164
 30
0.0
 11
26615.233296925111
 21
4249.3926496771164
 31
0.0
  0
LINE
  5
2C1
  8
FUTO
 10
26778.182331087621
 20
4354.3926496771164
 30
0.0
 11
26497.433296925112
 21
4354.3926496771164
 31
0.0
  0
POINT
  5
2C2
  8
DEFPOINTS
 10
26497.433296925112
 20
4354.3926496771164
 30
0.0
  0
LINE
  5
2C3
  8
FUTO
 10
26778.182331087621
 20
4354.3926496771164
 30
0.0
 11
26778.182331087621
 21
4087.1148961813969
 31
0.0
  0
LINE
  5
2C4
  8
FUTO
 10
26837.433296925112
 20
4007.3926496771151
 30
0.0
 11
26945.433296925112
 21
4007.3926496771151
 31
0.0
  0
LINE
  5
2C5
  8
FUTO
 10
26805.433296925112
 20
3954.392649677116
 30
0.0
 11
26813.433296925112
 21
3974.3926496771151
 31
0.0
  0
LINE
  5
2C6
  8
FUTO
 10
26813.433296925112
 20
3989.392649677116
 30
0.0
 11
26827.433296925112
 21
3989.392649677116
 31
0.0
  0
LINE
  5
2C7
  8
FUTO
 10
26837.433296925112
 20
4007.3926496771151
 30
0.0
 11
26837.433296925112
 21
3989.392649677116
 31
0.0
  0
LINE
  5
2C8
  8
FUTO
 10
26827.433296925112
 20
3989.392649677116
 30
0.0
 11
26837.433296925112
 21
3989.392649677116
 31
0.0
  0
LINE
  5
2C9
  8
FUTO
 10
26945.433296925112
 20
4007.3926496771151
 30
0.0
 11
26945.433296925112
 21
3989.392649677116
 31
0.0
  0
LINE
  5
2CA
  8
FUTO
 10
26945.433296925112
 20
3989.392649677116
 30
0.0
 11
26955.433296925112
 21
3989.392649677116
 31
0.0
  0
LINE
  5
2CB
  8
FUTO
 10
26969.433296925112
 20
3989.392649677116
 30
0.0
 11
26955.433296925112
 21
3989.392649677116
 31
0.0
  0
LINE
  5
2CC
  8
FUTO
 10
26977.433296925112
 20
3954.392649677116
 30
0.0
 11
26969.433296925112
 21
3974.3926496771151
 31
0.0
  0
INSERT
  5
2CD
  8
FUTO
  2
まっすぐの矢印
 10
22027.12510513256
 20
5522.5173188562258
 30
0.0
 41
40.0
 42
40.0
 43
40.0
  0
LINE
  5
2D8
  8
FUTO
 10
21376.693687354251
 20
5110.0570977891985
 30
0.0
 11
21376.69368735428
 21
5204.753409017816
 31
0.0
  0
INSERT
  5
2D9
  8
FUTO
  2
L-75-6
 10
21531.300148757789
 20
5230.8222465615909
 30
0.0
 50
180.0
  0
LINE
  5
2DA
  8
FUTO
 10
21416.693687354342
 20
5149.3926496785389
 30
0.0
 11
21341.693687354331
 21
5149.3926496785753
 31
0.0
  0
LINE
  5
2DB
  8
FUTO
 10
21416.693687354342
 20
5149.3926496785243
 30
0.0
 11
21341.693687354331
 21
5149.3926496785753
 31
0.0
  0
LINE
  5
33E
  8
FUTO
 10
25010.693687354229
 20
8272.7001271919653
 30
0.0
 11
23559.693687354229
 21
8272.7001271919671
 31
0.0
  0
LINE
  5
33F
  8
FUTO
 10
24718.693687354229
 20
8197.7001271919653
 30
0.0
 11
21318.693687354229
 21
8197.7001271919671
 31
0.0
  0
LINE
  5
340
  8
FUTO
 10
24368.69368735424
 20
6655.7001271919671
 30
0.0
 11
21318.693687354229
 21
6655.7001271919671
 31
0.0
  0
LINE
  5
341
  8
FUTO
 10
24368.69368735424
 20
6730.7001271919689
 30
0.0
 11
21318.693687354229
 21
6730.7001271919671
 31
0.0
  0
LINE
  5
35D
  8
FUTO
 10
21318.693687354229
 20
6655.7001271919671
 30
0.0
 11
21318.693687354229
 21
6730.7001271919671
 31
0.0
  0
LINE
  5
35E
  8
SL
 10
21493.693687354229
 20
6730.7001271919671
 30
0.0
 11
21493.693687354229
 21
7634.5001271918982
 31
0.0
  0
POINT
  5
388
  8
DEFPOINTS
 10
21318.693687354229
 20
8272.7001271919671
 30
0.0
  0
LINE
  5
3AB
  8
CT
 10
23568.69368735424
 20
6205.925565961179
 30
0.0
 11
23568.69368735424
 21
10185.318507626011
 31
0.0
  0
LINE
  5
3AE
  8
FUTO
 10
22418.693687354229
 20
8272.7001271919653
 30
0.0
 11
22418.69368735424
 21
8197.7001271919671
 31
0.0
  0
LINE
  5
44F
  8
FUTO
 10
24368.69368735424
 20
6655.7001271919671
 30
0.0
 11
24368.69368735424
 21
8197.7001271919671
 31
0.0
  0
LINE
  5
450
  8
FUTO
 10
24293.69368735424
 20
6730.7001271919671
 30
0.0
 11
24293.69368735424
 21
8197.7001271919671
 31
0.0
  0
LINE
  5
452
  8
FUTO
 10
22843.69368735424
 20
6730.7001271919671
 30
0.0
 11
22843.69368735424
 21
8197.7001271919671
 31
0.0
  0
LINE
  5
454
  8
FUTO
 10
22768.69368735424
 20
6655.7001271919671
 30
0.0
 11
22768.69368735424
 21
8197.7001271919671
 31
0.0
  0
LINE
  5
546
  8
CT
 10
25064.600399036412
 20
9026.7001271919708
 30
0.0
 11
21151.308256884309
 21
9026.7001271919708
 31
0.0
  0
LINE
  5
547
  8
FUTO
 10
25010.693687354229
 20
9780.7001271919726
 30
0.0
 11
23559.693687354229
 21
9780.7001271919726
 31
0.0
  0
LINE
  5
548
  8
FUTO
 10
24718.69368735424
 20
9855.7001271919726
 30
0.0
 11
21341.693687354229
 21
9855.7001271919671
 31
0.0
  0
LINE
  5
568
  8
FUTO
 10
22418.693687354229
 20
9780.7001271919726
 30
0.0
 11
22418.69368735424
 21
9855.7001271919726
 31
0.0
  0
DIMENSION
  5
5CF
  8
SP
  2
*D10
 10
30496.62301530414
 20
2874.3926496771151
 30
0.0
 11
30496.62301530414
 21
3874.3926496771151
 31
0.0
 70
   128
  1
%%C<>
 13
30002.433296925112
 23
4874.3926496771164
 33
0.0
 14
30002.433296925112
 24
2874.3926496771151
 34
0.0
 50
90.0
1001
ACAD
1000
DSTYLE
1002
{
1070
   287
1070
     0
1070
   287
1070
     0
1070
    40
1040
45.0
1070
   140
1040
3.0
1070
   143
1040
0.03937
1070
   147
1040
0.5
1070
   173
1070
     1
1070
   176
1070
   256
1070
   177
1070
   256
1070
   178
1070
   256
1070
   271
1070
     4
1070
   272
1070
     4
1070
   279
1070
     0
1070
   285
1070
     0
1070
   286
1070
     0
1070
   289
1070
     0
1070
     6
1000
OPEN
1070
     7
1000
OPEN
1002
}
  0
LINE
  5
5DE
  8
FUTO
 10
29850.633296925109
 20
2284.392649677116
 30
0.0
 11
29850.633296925109
 21
3887.3926496771151
 31
0.0
  0
LINE
  5
5DF
  8
FUTO
 10
29847.433296925112
 20
2284.392649677116
 30
0.0
 11
29847.433296925112
 21
3887.3926496771151
 31
0.0
  0
LINE
  5
5E0
  8
FUTO
 10
29940.633296925109
 20
2284.392649677116
 30
0.0
 11
29940.633296925109
 21
3865.392649677116
 31
0.0
  0
LINE
  5
5E5
  8
KL
 10
29859.633296926
 20
2799.392649677116
 30
0.0
 11
29859.633296926491
 21
4949.3926496771173
 31
0.0
  0
LINE
  5
5E6
  8
FUTO
 10
30002.433296925112
 20
2799.392649677116
 30
0.0
 11
30002.433296925119
 21
4949.3926496771173
 31
0.0
  0
LINE
  5
5E7
  8
FUTO
 10
29996.433296925112
 20
2799.392649677116
 30
0.0
 11
29996.433296925112
 21
4949.3926496771173
 31
0.0
  0
LINE
  5
5EB
  8
FUTO
 10
28344.233296925118
 20
2284.392649677116
 30
0.0
 11
28344.233296925111
 21
3785.3926496771151
 31
0.0
  0
LINE
  5
5EC
  8
FUTO
 10
28347.433296925112
 20
2284.392649677116
 30
0.0
 11
28347.433296925112
 21
3785.3926496771151
 31
0.0
  0
LINE
  5
5ED
  8
FUTO
 10
28254.233296925111
 20
2284.392649677116
 30
0.0
 11
28254.233296925111
 21
3865.392649677116
 31
0.0
  0
LINE
  5
5EE
  8
FUTO
 10
28231.433296925112
 20
2284.392649677116
 30
0.0
 11
28231.433296925112
 21
3714.3926496771151
 31
0.0
  0
LINE
  5
5F0
  8
CT
 10
29097.433296925112
 20
1747.4047966757471
 30
0.0
 11
29097.433296925112
 21
5558.0844267476186
 31
0.0
  0
LINE
  5
603
  8
KL
 10
28347.433296925112
 20
2142.392649677116
 30
0.0
 11
29850.633296925109
 21
2142.392649677116
 31
0.0
  0
LINE
  5
604
  8
KL
 10
28347.433296925112
 20
2122.392649677116
 30
0.0
 11
28347.433296925112
 21
2284.392649677116
 31
0.0
  0
LINE
  5
605
  8
KL
 10
28344.233296925111
 20
2122.392649677116
 30
0.0
 11
28344.233296925111
 21
2284.392649677116
 31
0.0
  0
LINE
  5
606
  8
KL
 10
28344.233296925111
 20
2122.392649677116
 30
0.0
 11
28347.433296925112
 21
2122.392649677116
 31
0.0
  0
ARC
  5
614
  8
FUTO
 10
29868.433296925112
 20
2127.4680192948008
 30
0.0
 40
10.0
 50
180.0
 51
265.0
  0
LINE
  5
615
  8
KL
 10
29847.433296925112
 20
2122.392649677116
 30
0.0
 11
29847.433296925112
 21
2284.392649677116
 31
0.0
  0
LINE
  5
616
  8
KL
 10
29850.633296925109
 20
2122.392649677116
 30
0.0
 11
29850.633296925109
 21
2284.392649677116
 31
0.0
  0
LINE
  5
617
  8
FUTO
 10
29851.433296925112
 20
2104.3926496771151
 30
0.0
 11
29851.433296925112
 21
2284.392649677116
 31
0.0
  0
LINE
  5
618
  8
FUTO
 10
29851.433296925112
 20
2104.3926496771151
 30
0.0
 11
29851.433296925112
 21
2284.392649677116
 31
0.0
  0
LINE
  5
61B
  8
FUTO
 10
29867.56173949764
 20
2117.5060723138831
 30
0.0
 11
29921.41265351023
 21
2112.7947278172728
 31
0.0
  0
LINE
  5
61C
  8
FUTO
 10
29851.433296925112
 20
2104.3926496771151
 30
0.0
 11
29926.433296925112
 21
2104.3926496771151
 31
0.0
  0
LINE
  5
61D
  8
FUTO
 10
29851.433296925112
 20
1964.392649677116
 30
0.0
 11
29926.433296925112
 21
1964.392649677116
 31
0.0
  0
LINE
  5
61E
  8
FUTO
 10
29851.433296925112
 20
1964.392649677116
 30
0.0
 11
29926.433296925112
 21
1964.392649677116
 31
0.0
  0
LINE
  5
61F
  8
FUTO
 10
29867.56173949764
 20
1951.2792270403479
 30
0.0
 11
29921.41265351023
 21
1955.9905715369589
 31
0.0
  0
LINE
  5
620
  8
FUTO
 10
29867.56173949764
 20
1797.5060723138829
 30
0.0
 11
29921.41265351023
 21
1792.7947278172719
 31
0.0
  0
LINE
  5
621
  8
FUTO
 10
29851.433296925112
 20
1784.392649677116
 30
0.0
 11
29926.433296925112
 21
1784.392649677116
 31
0.0
  0
LINE
  5
622
  8
KL
 10
29847.433296925112
 20
2122.392649677116
 30
0.0
 11
29850.633296925109
 21
2122.392649677116
 31
0.0
  0
ARC
  5
623
  8
FUTO
 10
29868.433296925112
 20
1941.31728005943
 30
0.0
 40
10.0
 50
95.0
 51
180.0
  0
ARC
  5
624
  8
FUTO
 10
29868.433296925112
 20
1807.468019294801
 30
0.0
 40
10.0
 50
180.0
 51
265.0
  0
LINE
  5
625
  8
FUTO
 10
29851.433296925112
 20
1784.392649677116
 30
0.0
 11
29851.433296925112
 21
1964.392649677116
 31
0.0
  0
LINE
  5
626
  8
FUTO
 10
29858.433296925112
 20
1807.468019294801
 30
0.0
 11
29858.433296925112
 21
1941.31728005943
 31
0.0
  0
LINE
  5
629
  8
FUTO
 10
29926.433296925112
 20
2107.3156569777689
 30
0.0
 11
29926.433296925112
 21
2104.3926496771151
 31
0.0
  0
ARC
  5
62A
  8
FUTO
 10
29920.933296925112
 20
2107.3156569777689
 30
0.0
 40
5.5
 50
0.0
 51
84.999999999999986
  0
LINE
  5
62B
  8
FUTO
 10
29926.433296925112
 20
1961.469642376464
 30
0.0
 11
29926.433296925112
 21
1964.392649677116
 31
0.0
  0
ARC
  5
62C
  8
FUTO
 10
29920.933296925112
 20
1961.4696423764631
 30
0.0
 40
5.5
 50
275.0
 51
0.0000000000005598
  0
LINE
  5
62D
  8
FUTO
 10
29926.433296925112
 20
1787.315656977768
 30
0.0
 11
29926.433296925112
 21
1784.392649677116
 31
0.0
  0
ARC
  5
62E
  8
FUTO
 10
29920.933296925112
 20
1787.315656977768
 30
0.0
 40
5.5
 50
0.0
 51
84.999999999999986
  0
LINE
  5
62F
  8
0
 10
29851.433296925112
 20
2284.392649677116
 30
0.0
 11
29926.433296925112
 21
2284.392649677116
 31
0.0
  0
LINE
  5
630
  8
FUTO
 10
29867.56173949764
 20
2271.2792270403479
 30
0.0
 11
29921.41265351023
 21
2275.9905715369591
 31
0.0
  0
ARC
  5
631
  8
FUTO
 10
29868.433296925112
 20
2261.3172800594298
 30
0.0
 40
10.0
 50
95.0
 51
180.0
  0
LINE
  5
632
  8
FUTO
 10
29858.433296925112
 20
2127.4680192948008
 30
0.0
 11
29858.433296925112
 21
2261.3172800594298
 31
0.0
  0
LINE
  5
633
  8
FUTO
 10
29926.433296925112
 20
2281.4696423764631
 30
0.0
 11
29926.433296925112
 21
2284.392649677116
 31
0.0
  0
ARC
  5
634
  8
FUTO
 10
29920.933296925112
 20
2281.4696423764631
 30
0.0
 40
5.5
 50
275.0
 51
0.0000000000005598
  0
LINE
  5
635
  8
KL
 10
29850.633296925109
 20
2874.3926496771151
 30
0.0
 11
30002.433296925112
 21
2874.3926496771151
 31
0.0
  0
LINE
  5
636
  8
FUTO
 10
29850.633296925109
 20
2868.392649677116
 30
0.0
 11
29940.633296925109
 21
2868.392649677116
 31
0.0
  0
LINE
  5
637
  8
HOSO
 10
29859.633296926018
 20
2874.392649677126
 30
0.0
 11
29850.633296926018
 21
2874.3926496771278
 31
0.0
  0
LINE
  5
638
  8
HOSO
 10
29824.513553317909
 20
2834.392649677116
 30
0.0
 11
29882.71270942314
 21
2834.392649677116
 31
0.0
  0
LINE
  5
639
  8
KL
 10
29850.633296925109
 20
2799.392649677116
 30
0.0
 11
29859.633296926
 21
2799.392649677116
 31
0.0
  0
LINE
  5
63A
  8
FUTO
 10
29940.633296925109
 20
2868.392649677116
 30
0.0
 11
29996.433296925112
 21
2868.392649677116
 31
0.0
  0
LINE
  5
63B
  8
HOSO
 10
29974.395107485128
 20
2834.392649677116
 30
0.0
 11
30032.594263590348
 21
2834.392649677116
 31
0.0
  0
LINE
  5
63C
  8
FUTO
 10
29996.433296925119
 20
2799.392649677116
 30
0.0
 11
30002.433296925112
 21
2799.392649677116
 31
0.0
  0
LINE
  5
68C
  8
FUTO
 10
29850.633296925109
 20
3874.3926496771151
 30
0.0
 11
29850.633296925109
 21
5149.3926496773092
 31
0.0
  0
LINE
  5
68D
  8
FUTO
 10
29847.433296925112
 20
3874.3926496771151
 30
0.0
 11
29847.433296925112
 21
5149.392649677312
 31
0.0
  0
LINE
  5
68E
  8
FUTO
 10
29925.633296925109
 20
3865.392649677116
 30
0.0
 11
29925.633296925109
 21
5149.3926496772592
 31
0.0
  0
LINE
  5
68F
  8
FUTO
 10
28347.433296925112
 20
3883.392649677116
 30
0.0
 11
28347.433296925112
 21
5149.3926496771173
 31
0.0
  0
LINE
  5
690
  8
FUTO
 10
28344.233296925111
 20
3883.3926496771151
 30
0.0
 11
28344.233296925111
 21
5149.3926496771173
 31
0.0
  0
LINE
  5
691
  8
FUTO
 10
28269.233296925111
 20
3865.392649677116
 30
0.0
 11
28269.233296925111
 21
5149.3926496771173
 31
0.0
  0
LINE
  5
69A
  8
FUTO
 10
28269.233296925111
 20
3883.392649677116
 30
0.0
 11
29925.633296925109
 21
3883.392649677116
 31
0.0
  0
LINE
  5
69B
  8
FUTO
 10
28254.233296925111
 20
3865.392649677116
 30
0.0
 11
29940.633296925109
 21
3865.392649677116
 31
0.0
  0
LINE
  5
6A4
  8
FUTO
 10
28076.433296925119
 20
3779.392649677116
 30
0.0
 11
28076.433296925112
 21
4009.392649677116
 31
0.0
  0
LINE
  5
6A5
  8
FUTO
 10
28063.433296925112
 20
3779.392649677116
 30
0.0
 11
28063.433296925112
 21
4009.392649677116
 31
0.0
  0
LINE
  5
6A6
  8
FUTO
 10
28039.433296925112
 20
3785.3926496771151
 30
0.0
 11
28039.433296925119
 21
3963.3926496771178
 31
0.0
  0
LINE
  5
6A7
  8
CT
 10
28141.433296925112
 20
3644.1009406026169
 30
0.0
 11
28141.433296925112
 21
4103.7263514389124
 31
0.0
  0
LINE
  5
6A8
  8
FUTO
 10
28206.433296925112
 20
3779.392649677116
 30
0.0
 11
28206.433296925112
 21
4009.392649677116
 31
0.0
  0
LINE
  5
6A9
  8
FUTO
 10
28243.433296925112
 20
3785.3926496771151
 30
0.0
 11
28243.433296925112
 21
3963.3926496771178
 31
0.0
  0
LINE
  5
6AA
  8
FUTO
 10
28219.433296925112
 20
3779.392649677116
 30
0.0
 11
28219.433296925112
 21
4009.392649677116
 31
0.0
  0
LINE
  5
6AB
  8
FUTO
 10
28206.433296925112
 20
3779.392649677116
 30
0.0
 11
28206.433296925112
 21
4009.392649677116
 31
0.0
  0
LINE
  5
6AF
  8
FUTO
 10
28061.433296925112
 20
3724.392649677116
 30
0.0
 11
28221.433296925112
 21
3724.392649677116
 31
0.0
  0
LINE
  5
6B0
  8
FUTO
 10
28061.433296925112
 20
3779.392649677116
 30
0.0
 11
28221.433296925119
 21
3779.392649677116
 31
0.0
  0
LINE
  5
6B1
  8
CT
 10
28091.433296925112
 20
3686.027914744016
 30
0.0
 11
28091.433296925112
 21
3808.0862310077609
 31
0.0
  0
LINE
  5
6B2
  8
FUTO
 10
28061.433296925119
 20
3714.3926496771151
 30
0.0
 11
28061.433296925119
 21
3779.392649677116
 31
0.0
  0
LINE
  5
6B3
  8
FUTO
 10
28039.433296925112
 20
3785.3926496771151
 30
0.0
 11
28061.433296925119
 21
3761.559316343782
 31
0.0
  0
LINE
  5
6B6
  8
KL
 10
28243.433296925112
 20
3819.392649677116
 30
0.0
 11
28337.077337249772
 21
3819.392649677116
 31
0.0
  0
LINE
  5
6B7
  8
FUTO
 10
28347.433296925112
 20
3803.392649677116
 30
0.0
 11
28347.433296925112
 21
3887.3926496771151
 31
0.0
  0
LINE
  5
6B8
  8
FUTO
 10
28344.233296925111
 20
3803.392649677116
 30
0.0
 11
28344.233296925111
 21
3887.3926496771151
 31
0.0
  0
LINE
  5
6BA
  8
CT
 10
28191.433296925112
 20
3684.0992280310438
 30
0.0
 11
28191.433296925112
 21
3808.0862310077609
 31
0.0
  0
LINE
  5
6BB
  8
FUTO
 10
28221.433296925119
 20
3714.3926496771151
 30
0.0
 11
28221.433296925119
 21
3779.392649677116
 31
0.0
  0
LINE
  5
6BC
  8
FUTO
 10
28243.433296925119
 20
3785.3926496771151
 30
0.0
 11
28221.433296925112
 21
3761.559316343782
 31
0.0
  0
LINE
  5
6C2
  8
FUTO
 10
28081.433296925112
 20
4025.3926496771151
 30
0.0
 11
28201.433296925112
 21
4025.3926496771151
 31
0.0
  0
LINE
  5
6C3
  8
FUTO
 10
28081.433296925112
 20
4009.392649677116
 30
0.0
 11
28081.433296925112
 21
4025.3926496771151
 31
0.0
  0
LINE
  5
6C4
  8
FUTO
 10
28039.433296925112
 20
3963.392649677116
 30
0.0
 11
28063.433296925112
 21
3989.392649677116
 31
0.0
  0
LINE
  5
6C5
  8
FUTO
 10
28063.433296925112
 20
4009.392649677116
 30
0.0
 11
28081.433296925112
 21
4009.392649677116
 31
0.0
  0
LINE
  5
6C6
  8
KL
 10
28243.433296925112
 20
3929.392649677116
 30
0.0
 11
28339.520374116961
 21
3929.392649677116
 31
0.0
  0
LINE
  5
6C7
  8
FUTO
 10
28219.433296925112
 20
4009.392649677116
 30
0.0
 11
28201.433296925112
 21
4009.392649677116
 31
0.0
  0
LINE
  5
6C8
  8
FUTO
 10
28201.433296925112
 20
4009.392649677116
 30
0.0
 11
28201.433296925112
 21
4025.3926496771151
 31
0.0
  0
LINE
  5
6C9
  8
FUTO
 10
28243.433296925119
 20
3963.392649677116
 30
0.0
 11
28219.433296925112
 21
3989.392649677116
 31
0.0
  0
LINE
  5
6E2
  8
KL
 10
29850.633296925109
 20
4874.3926496771164
 30
0.0
 11
30001.433296925112
 21
4874.3926496771164
 31
0.0
  0
LINE
  5
6E3
  8
KL
 10
29850.633296925109
 20
4880.3926496771173
 30
0.0
 11
29925.633296925109
 21
4880.3926496771173
 31
0.0
  0
LINE
  5
6E4
  8
HOSO
 10
29859.63329692648
 20
4874.3926496771264
 30
0.0
 11
29850.63329692648
 21
4874.3926496771301
 31
0.0
  0
LINE
  5
6E5
  8
HOSO
 10
29816.826923080691
 20
4914.3926496771164
 30
0.0
 11
29887.454050218508
 21
4914.3926496771164
 31
0.0
  0
LINE
  5
6E6
  8
FUTO
 10
29925.633296925109
 20
4880.3926496771173
 30
0.0
 11
29995.433296925112
 21
4880.3926496771173
 31
0.0
  0
LINE
  5
6E7
  8
HOSO
 10
29965.387369482771
 20
4914.3926496771164
 30
0.0
 11
30036.014496620592
 21
4914.3926496771164
 31
0.0
  0
LINE
  5
706
  8
KL
 10
29850.633296925109
 20
4949.3926496771173
 30
0.0
 11
29859.633296926491
 21
4949.3926496771173
 31
0.0
  0
LINE
  5
707
  8
KL
 10
29850.633296925102
 20
4947.3926496771164
 30
0.0
 11
29850.63329692512
 21
5037.3926496771164
 31
0.0
  0
LINE
  5
708
  8
FUTO
 10
29996.433296925112
 20
4949.3926496771173
 30
0.0
 11
30002.433296925119
 21
4949.3926496771173
 31
0.0
  0
INSERT
  5
71C
  8
FUTO
  2
まっすぐの矢印
 10
30169.92958468114
 20
4425.3169008173081
 30
0.0
 41
40.0
 42
40.0
 43
40.0
 50
90.0
  0
DIMENSION
  5
A68
  8
SP
  2
*D6
 10
23568.69368735424
 20
1116.77192266323
 30
0.0
 11
22443.69368735424
 21
1206.77192266323
 31
0.0
 70
     0
 13
21318.69368735424
 23
1784.392649677116
 33
0.0
 14
23568.69368735424
 24
1784.392649677116
 34
0.0
1001
ACAD
1000
DSTYLE
1002
{
1070
   140
1040
3.0
1070
    40
1040
45.0
1070
   173
1070
     1
1070
   147
1040
0.5
1070
     7
1000
_OPEN
1070
     6
1000
_OPEN
1002
}
  0
DIMENSION
  5
A75
  8
SP
  2
*D7
 10
24718.693687354229
 20
1116.77192266323
 30
0.0
 11
24143.693687354229
 21
1206.77192266323
 31
0.0
 70
     0
 13
23568.69368735424
 23
1784.392649677116
 33
0.0
 14
24718.693687354229
 24
1784.392649677116
 34
0.0
1001
ACAD
1000
DSTYLE
1002
{
1070
   140
1040
3.0
1070
    40
1040
45.0
1070
   173
1070
     1
1070
   147
1040
0.5
1070
     7
1000
_OPEN
1070
     6
1000
_OPEN
1002
}
  0
LINE
  5
AB0
  8
SL
 10
27981.00156269901
 20
4021.5957571714462
 30
0.0
 11
27050.822789820799
 21
4021.5957571714462
 31
0.0
  0
LINE
  5
AB2
  8
CT
 10
21485.166366581059
 20
2192.0010378213201
 30
0.0
 11
21485.166366581059
 21
1880.692644331463
 31
0.0
  0
LINE
  5
AB3
  8
SP
 10
21445.166366581059
 20
2104.3926496771151
 30
0.0
 11
21445.166366581059
 21
1964.392649677116
 31
0.0
  0
LINE
  5
AB4
  8
SP
 10
21525.166366581059
 20
2104.3926496771151
 30
0.0
 11
21525.166366581059
 21
1964.392649677116
 31
0.0
  0
POINT
  5
CAC
  8
DEFPOINTS
  6
BYBLOCK
 62
     0
 10
24368.69368735424
 20
6655.7001271919671
 30
0.0
  0
POINT
  5
CB7
  8
DEFPOINTS
  6
BYBLOCK
 62
     0
 10
24368.69368735424
 20
6655.7001271919671
 30
0.0
  0
LINE
  5
178C
  8
FUTO
 10
21603.69368735424
 20
2284.3926496771051
 30
0.0
 11
21368.69368735424
 21
2284.3926496771051
 31
0.0
  0
LINE
  5
178D
  8
FUTO
 10
21378.69368735424
 20
2354.3926496771051
 30
0.0
 11
21603.69368735424
 21
2354.3926496771051
 31
0.0
  0
LINE
  5
178F
  8
FUTO
 10
22068.69368735424
 20
2284.3926496771051
 30
0.0
 11
21833.69368735424
 21
2284.3926496771051
 31
0.0
  0
LINE
  5
1790
  8
FUTO
 10
21833.69368735424
 20
2354.3926496771051
 30
0.0
 11
22058.69368735424
 21
2354.3926496771051
 31
0.0
  0
LINE
  5
1791
  8
FUTO
 10
22058.69368735424
 20
2354.3926496771051
 30
0.0
 11
22068.69368735424
 21
2284.3926496771051
 31
0.0
  0
LINE
  5
1792
  8
FUTO
 10
21603.69368735424
 20
2294.3926496771051
 30
0.0
 11
21833.69368735424
 21
2294.3926496771051
 31
0.0
  0
LINE
  5
1793
  8
FUTO
 10
21603.69368735424
 20
2344.3926496771051
 30
0.0
 11
21833.69368735424
 21
2344.3926496771051
 31
0.0
  0
LINE
  5
1794
  8
FUTO
 10
21833.69368735424
 20
2354.3926496771051
 30
0.0
 11
21833.69368735424
 21
2344.3926496771051
 31
0.0
  0
LINE
  5
1795
  8
FUTO
 10
21833.69368735424
 20
2294.3926496771051
 30
0.0
 11
21833.69368735424
 21
2284.3926496771051
 31
0.0
  0
LINE
  5
1796
  8
FUTO
 10
21603.69368735424
 20
2354.3926496771051
 30
0.0
 11
21603.69368735424
 21
2344.3926496771051
 31
0.0
  0
LINE
  5
1797
  8
FUTO
 10
21603.69368735424
 20
2294.3926496771051
 30
0.0
 11
21603.69368735424
 21
2284.3926496771051
 31
0.0
  0
LINE
  5
1798
  8
FUTO
 10
21475.69368735424
 20
2354.3926496771051
 30
0.0
 11
21575.69368735424
 21
2354.3926496771051
 31
0.0
  0
LINE
  5
1799
  8
FUTO
 10
21378.69368735424
 20
2354.3926496771051
 30
0.0
 11
21368.69368735424
 21
2284.3926496771051
 31
0.0
  0
LINE
  5
179B
  8
CT
 10
21616.98727272997
 20
3084.3926496771041
 30
0.0
 11
21462.690335210282
 21
3084.3926496771041
 31
0.0
  0
LINE
  5
179C
  8
FUTO
 10
21928.693687354229
 20
3224.3926496771051
 30
0.0
 11
21538.69368735424
 21
3224.3926496771051
 31
0.0
  0
LINE
  5
179D
  8
FUTO
 10
21928.693687354229
 20
2959.3926496771041
 30
0.0
 11
21538.69368735424
 21
2959.3926496771041
 31
0.0
  0
LINE
  5
179E
  8
FUTO
 10
21874.172819629839
 20
2366.2019723096309
 30
0.0
 11
21563.21455507863
 21
2366.2019723096332
 31
0.0
  0
LINE
  5
17A0
  8
CT
 10
22056.152651543998
 20
2634.3926496771051
 30
0.0
 11
21375.416465161201
 21
2634.3926496771051
 31
0.0
  0
ARC
  5
17A1
  8
FUTO
 10
21718.69368735424
 20
2634.3926496771051
 30
0.0
 40
310.0
 50
300.10230806831191
 51
0.0
  0
LINE
  5
17A3
  8
FUTO
 10
21888.693687354229
 20
2375.163021740791
 30
0.0
 11
21888.693687354229
 21
2354.3926496771041
 31
0.0
  0
LINE
  5
17A4
  8
CT
 10
21947.19368735424
 20
2399.5620981667498
 30
0.0
 11
21947.19368735424
 21
2307.936535094495
 31
0.0
  0
LINE
  5
17A5
  8
FUTO
 10
21998.69368735424
 20
2501.351302720574
 30
0.0
 11
21998.693687354229
 21
2354.3926496771051
 31
0.0
  0
LINE
  5
17A6
  8
FUTO
 10
21998.693687354229
 20
2354.3926496771051
 30
0.0
 11
21888.693687354229
 21
2354.3926496771051
 31
0.0
  0
LINE
  5
17A7
  8
FUTO
 10
21998.69368735424
 20
2384.3926496771041
 30
0.0
 11
21901.996715152469
 21
2384.3926496771041
 31
0.0
  0
LINE
  5
17A8
  8
FUTO
 10
21948.69368735424
 20
3204.3926496771051
 30
0.0
 11
21948.69368735424
 21
2979.3926496771041
 31
0.0
  0
ARC
  5
17A9
  8
FUTO
 10
21928.693687354229
 20
2979.3926496771041
 30
0.0
 40
20.0
 50
270.0
 51
0.0
  0
ARC
  5
17AA
  8
FUTO
 10
21928.693687354229
 20
3204.3926496771051
 30
0.0
 40
20.0
 50
0.0
 51
90.0
  0
LINE
  5
17AB
  8
FUTO
 10
21438.693687354229
 20
2501.351302720559
 30
0.0
 11
21438.693687354229
 21
2354.3926496771041
 31
0.0
  0
LINE
  5
17AC
  8
FUTO
 10
21548.69368735424
 20
2375.163021740791
 30
0.0
 11
21548.69368735424
 21
2354.3926496771041
 31
0.0
  0
LINE
  5
17AD
  8
CT
 10
21490.193687354229
 20
2399.5620981667498
 30
0.0
 11
21490.193687354229
 21
2312.1013334159611
 31
0.0
  0
LINE
  5
17AE
  8
FUTO
 10
21548.69368735424
 20
2354.3926496771041
 30
0.0
 11
21438.693687354229
 21
2354.3926496771041
 31
0.0
  0
LINE
  5
17AF
  8
FUTO
 10
21535.390659556
 20
2384.3926496771041
 30
0.0
 11
21438.693687354229
 21
2384.3926496771041
 31
0.0
  0
LINE
  5
17B0
  8
FUTO
 10
21518.69368735424
 20
3204.3926496771051
 30
0.0
 11
21518.69368735424
 21
2979.3926496771028
 31
0.0
  0
ARC
  5
17B1
  8
FUTO
 10
21538.69368735424
 20
2979.3926496771028
 30
0.0
 40
20.0
 50
180.0
 51
270.0
  0
ARC
  5
17B2
  8
FUTO
 10
21538.69368735424
 20
3204.3926496771051
 30
0.0
 40
20.0
 50
90.0
 51
180.0
  0
CIRCLE
  5
17B5
  8
SL
 10
21718.69368735424
 20
2634.3926496771051
 30
0.0
 40
177.5
  0
CIRCLE
  5
17B6
  8
SL
 10
23568.69368735424
 20
3874.3926496771151
 30
0.0
 40
315.0
  0
ARC
  5
17B9
  8
FUTO
 10
23568.69368735424
 20
3874.3926496771151
 30
0.0
 40
480.0
 50
298.68056976234618
 51
128.98497331470739
  0
ARC
  5
17BA
  8
FUTO
 10
21718.69368735424
 20
2634.3926496771051
 30
0.0
 40
280.0
 50
128.9849733147073
 51
298.68056976234629
  0
ARC
  5
17BE
  8
FUTO
 10
23421.693687354229
 20
3727.3926496771169
 30
0.0
 40
1609.0
 50
304.47559625067748
 51
5.2419146546739741
  0
DIMENSION
  5
1B16
  8
SP
  2
*D11
 10
29097.433296925112
 20
1111.3152294088691
 30
0.0
 11
27911.933296925112
 21
1201.31522940887
 31
0.0
 70
     0
 13
26726.433296925112
 23
1784.392649677116
 33
0.0
 14
29097.433296925112
 24
1784.392649677116
 34
0.0
1001
ACAD
1000
DSTYLE
1002
{
1070
   287
1070
     3
1070
    40
1040
45.0
1070
   140
1040
3.0
1070
   147
1040
0.5
1070
   173
1070
     1
1070
   279
1070
     0
1070
     6
1000
OPEN
1070
     7
1000
OPEN
1002
}
  0
DIMENSION
  5
1B22
  8
SP
  2
*D12
 10
29926.433296925112
 20
1111.3152294088691
 30
0.0
 11
29511.933296925112
 21
1201.31522940887
 31
0.0
 70
     0
 13
29097.433296925112
 23
1784.392649677116
 33
0.0
 14
29926.433296925112
 24
1784.392649677116
 34
0.0
1001
ACAD
1000
DSTYLE
1002
{
1070
   287
1070
     4
1070
    40
1040
45.0
1070
    75
1070
     1
1070
   140
1040
3.0
1070
   147
1040
0.5
1070
   173
1070
     1
1070
   279
1070
     1
1070
     6
1000
OPEN
1070
     7
1000
OPEN
1002
}
  0
DIMENSION
  5
1B2F
  8
SP
  2
*D13
 10
26726.433296925112
 20
819.19292915597305
 30
0.0
 11
28326.433296925112
 21
909.19292915597305
 31
0.0
 70
     0
 13
29926.433296925112
 23
1111.3152294088691
 33
0.0
 14
26726.433296925112
 24
1111.3152294088691
 34
0.0
1001
ACAD
1000
DSTYLE
1002
{
1070
   287
1070
     3
1070
    40
1040
45.0
1070
   140
1040
3.0
1070
   147
1040
0.5
1070
   173
1070
     1
1070
   279
1070
     0
1070
     6
1000
OPEN
1070
     7
1000
OPEN
1002
}
  0
LINE
  5
1BAD
  8
FUTO
 10
28336.433296925112
 20
1807.468019294801
 30
0.0
 11
28336.433296925112
 21
1941.31728005943
 31
0.0
  0
LINE
  5
1BAE
  8
FUTO
 10
28343.433296925112
 20
1784.392649677116
 30
0.0
 11
28343.433296925112
 21
1964.392649677116
 31
0.0
  0
ARC
  5
1BAF
  8
FUTO
 10
28273.933296925112
 20
1787.315656977768
 30
0.0
 40
5.5
 50
95.000000000000014
 51
180.0
  0
LINE
  5
1BB0
  8
FUTO
 10
28268.433296925112
 20
1787.315656977768
 30
0.0
 11
28268.433296925112
 21
1784.392649677116
 31
0.0
  0
ARC
  5
1BB1
  8
FUTO
 10
28326.433296925112
 20
1807.468019294801
 30
0.0
 40
10.0
 50
275.0
 51
0.0
  0
LINE
  5
1BB2
  8
FUTO
 10
28343.433296925112
 20
1784.392649677116
 30
0.0
 11
28268.433296925112
 21
1784.392649677116
 31
0.0
  0
LINE
  5
1BB3
  8
FUTO
 10
28327.304854352591
 20
1797.5060723138829
 30
0.0
 11
28273.453940340001
 21
1792.7947278172719
 31
0.0
  0
ARC
  5
1BB4
  8
FUTO
 10
28273.933296925112
 20
1961.4696423764631
 30
0.0
 40
5.5
 50
179.9999999999994
 51
264.99999999999989
  0
LINE
  5
1BB5
  8
FUTO
 10
28268.433296925112
 20
1961.469642376464
 30
0.0
 11
28268.433296925112
 21
1964.392649677116
 31
0.0
  0
ARC
  5
1BB6
  8
FUTO
 10
28273.933296925112
 20
2107.3156569777689
 30
0.0
 40
5.5
 50
95.000000000000014
 51
180.0
  0
LINE
  5
1BB7
  8
FUTO
 10
28268.433296925112
 20
2107.3156569777689
 30
0.0
 11
28268.433296925112
 21
2104.3926496771151
 31
0.0
  0
ARC
  5
1BB8
  8
FUTO
 10
28326.433296925112
 20
1941.31728005943
 30
0.0
 40
10.0
 50
0.0
 51
85.0
  0
LINE
  5
1BB9
  8
KL
 10
28347.433296925112
 20
2122.392649677116
 30
0.0
 11
28344.233296925111
 21
2122.392649677116
 31
0.0
  0
LINE
  5
1BBA
  8
FUTO
 10
28327.304854352591
 20
1951.2792270403479
 30
0.0
 11
28273.453940340001
 21
1955.9905715369589
 31
0.0
  0
LINE
  5
1BBB
  8
FUTO
 10
28343.433296925112
 20
1964.392649677116
 30
0.0
 11
28268.433296925112
 21
1964.392649677116
 31
0.0
  0
LINE
  5
1BBC
  8
FUTO
 10
28343.433296925112
 20
1964.392649677116
 30
0.0
 11
28268.433296925112
 21
1964.392649677116
 31
0.0
  0
LINE
  5
1BBD
  8
FUTO
 10
28343.433296925112
 20
2104.3926496771151
 30
0.0
 11
28268.433296925112
 21
2104.3926496771151
 31
0.0
  0
LINE
  5
1BBE
  8
FUTO
 10
28327.304854352591
 20
2117.5060723138831
 30
0.0
 11
28273.453940340001
 21
2112.7947278172728
 31
0.0
  0
ARC
  5
1BBF
  8
FUTO
 10
28326.433296925112
 20
2127.4680192948008
 30
0.0
 40
10.0
 50
275.0
 51
0.0
  0
LINE
  5
1BC0
  8
FUTO
 10
28268.433296925112
 20
2281.4696423764631
 30
0.0
 11
28268.433296925112
 21
2284.392649677116
 31
0.0
  0
LINE
  5
1BC1
  8
FUTO
 10
28343.433296925112
 20
2104.3926496771151
 30
0.0
 11
28343.433296925112
 21
2284.392649677116
 31
0.0
  0
LINE
  5
1BC2
  8
FUTO
 10
28343.433296925119
 20
2104.3926496771151
 30
0.0
 11
28343.433296925112
 21
2284.392649677116
 31
0.0
  0
LINE
  5
1BC3
  8
KL
 10
28344.233296925111
 20
2122.392649677116
 30
0.0
 11
28344.233296925111
 21
2284.392649677116
 31
0.0
  0
LINE
  5
1BC4
  8
KL
 10
28347.433296925112
 20
2122.392649677116
 30
0.0
 11
28347.433296925112
 21
2284.392649677116
 31
0.0
  0
ARC
  5
1BC5
  8
FUTO
 10
28273.933296925112
 20
2281.4696423764631
 30
0.0
 40
5.5
 50
179.9999999999994
 51
264.99999999999989
  0
LINE
  5
1BC6
  8
FUTO
 10
28336.433296925112
 20
2127.4680192948008
 30
0.0
 11
28336.433296925112
 21
2261.3172800594298
 31
0.0
  0
ARC
  5
1BC7
  8
FUTO
 10
28326.433296925112
 20
2261.3172800594298
 30
0.0
 40
10.0
 50
0.0
 51
85.0
  0
LINE
  5
1BC8
  8
FUTO
 10
28327.304854352591
 20
2271.2792270403479
 30
0.0
 11
28273.453940340001
 21
2275.9905715369591
 31
0.0
  0
LINE
  5
1BC9
  8
0
 10
28343.433296925112
 20
2284.392649677116
 30
0.0
 11
28268.433296925112
 21
2284.392649677116
 31
0.0
  0
LINE
  5
1BCA
  8
FUTO
 10
28343.433296925112
 20
2116.392649677116
 30
0.0
 11
29851.433296925112
 21
2116.392649677116
 31
0.0
  0
LINE
  5
1BCB
  8
FUTO
 10
28343.433296925112
 20
2272.392649677116
 30
0.0
 11
29851.433296925112
 21
2272.392649677116
 31
0.0
  0
LINE
  5
1BCC
  8
FUTO
 10
28343.433296925112
 20
1952.392649677116
 30
0.0
 11
29851.433296925112
 21
1952.392649677116
 31
0.0
  0
LINE
  5
1BCD
  8
FUTO
 10
28343.433296925112
 20
1796.392649677116
 30
0.0
 11
29851.433296925112
 21
1796.392649677116
 31
0.0
  0
LINE
  5
1BCE
  8
FUTO
 10
28343.433296925112
 20
1784.392649677116
 30
0.0
 11
29851.433296925112
 21
1784.392649677116
 31
0.0
  0
LINE
  5
1BCF
  8
FUTO
 10
26801.433296925112
 20
1784.392649677116
 30
0.0
 11
28314.578375379249
 21
1784.392649677116
 31
0.0
  0
DIMENSION
  5
1BF2
  8
SP
  2
*D14
 10
29097.433296925112
 20
5625.5246550905013
 30
0.0
 11
27797.433296925119
 21
5715.5246550905013
 31
0.0
 70
     0
 13
26497.433296925112
 23
5625.5246550905013
 33
0.0
 14
29097.433296925112
 24
5625.5246550905013
 34
0.0
1001
ACAD
1000
DSTYLE
1002
{
1070
   287
1070
     3
1070
    40
1040
45.0
1070
   140
1040
3.0
1070
   147
1040
0.5
1070
   173
1070
     1
1070
   279
1070
     0
1070
   341
1005
24
1070
     6
1000
OPEN
1070
     7
1000
OPEN
1002
}
  0
LINE
  5
1C10
  8
FUTO
 10
22418.693687354229
 20
1964.392649677116
 30
0.0
 11
22418.693687354229
 21
1784.392649677116
 31
0.0
  0
LINE
  5
1C11
  8
FUTO
 10
22768.693687354229
 20
1964.392649677116
 30
0.0
 11
22768.693687354229
 21
1784.392649677116
 31
0.0
  0
LINE
  5
1C21
  8
SL
 10
27050.822789820792
 20
4021.5957571714462
 30
0.0
 11
27050.822789820792
 21
3714.3926496771151
 31
0.0
  0
LINE
  5
1C22
  8
SL
 10
27981.00156269901
 20
4021.5957571714462
 30
0.0
 11
27981.00156269901
 21
3714.3926496771151
 31
0.0
  0
DIMENSION
  5
1C23
  8
SP
  2
*D15
 10
21341.693687354229
 20
5613.498499972533
 30
0.0
 11
22455.193687354229
 21
5703.498499972533
 31
0.0
 70
     0
 13
23568.693687354229
 23
5217.7342155063116
 33
0.0
 14
21341.693687354229
 24
5149.3926496785753
 34
0.0
 50
180.0
1001
ACAD
1000
DSTYLE
1002
{
1070
   287
1070
     3
1070
    40
1040
45.0
1070
   140
1040
3.0
1070
   147
1040
0.5
1070
   173
1070
     1
1070
   279
1070
     0
1070
   341
1005
24
1070
     6
1000
OPEN
1070
     7
1000
OPEN
1002
}
  0
LINE
  5
1C5C
  8
FUTO
 10
23657.69368735424
 20
7968.7001271919689
 30
0.0
 11
23683.693687354229
 21
7992.7001271919689
 31
0.0
  0
LINE
  5
1C5D
  8
FUTO
 10
23479.693687354229
 20
7968.7001271919689
 30
0.0
 11
23455.860354020901
 21
7990.7001271919708
 31
0.0
  0
LINE
  5
1C61
  8
FUTO
 10
24048.69368735424
 20
6426.7001271919717
 30
0.0
 11
21438.693687354229
 21
6426.7001271919698
 31
0.0
  0
LINE
  5
1C62
  8
SL
 10
23943.69368735424
 20
6544.5001271919718
 30
0.0
 11
21541.19368735424
 21
6544.5001271919682
 31
0.0
  0
LINE
  5
1C63
  8
SL
 10
23943.69368735424
 20
6674.50012719197
 30
0.0
 11
21541.19368735424
 21
6674.50012719197
 31
0.0
  0
LINE
  5
1C6B
  8
FUTO
 10
23511.19368735424
 20
7968.7001271919689
 30
0.0
 11
23511.19368735424
 21
6906.7001271919689
 31
0.0
  0
LINE
  5
1C6C
  8
FUTO
 10
23626.193687354229
 20
7968.7001271919689
 30
0.0
 11
23626.193687354229
 21
6906.7001271919689
 31
0.0
  0
LINE
  5
1C6D
  8
FUTO
 10
24048.69368735424
 20
6707.4491613544778
 30
0.0
 11
21438.693687354229
 21
6707.449161354476
 31
0.0
  0
LINE
  5
1C6E
  8
FUTO
 10
23648.69368735424
 20
6906.7001271919689
 30
0.0
 11
23488.69368735424
 21
6906.7001271919689
 31
0.0
  0
LINE
  5
1C6F
  8
FUTO
 10
23648.69368735424
 20
6734.7001271919689
 30
0.0
 11
23488.69368735424
 21
6734.7001271919689
 31
0.0
  0
LINE
  5
1C70
  8
FUTO
 10
23683.693687354229
 20
6884.7001271919689
 30
0.0
 11
23488.69368735424
 21
6884.7001271919689
 31
0.0
  0
LINE
  5
1C71
  8
FUTO
 10
23683.693687354229
 20
6898.7001271919689
 30
0.0
 11
23453.69368735424
 21
6898.7001271919689
 31
0.0
  0
LINE
  5
1C72
  8
FUTO
 10
23683.693687354229
 20
6742.7001271919689
 30
0.0
 11
23453.69368735424
 21
6742.7001271919689
 31
0.0
  0
LINE
  5
1C73
  8
CT
 10
23732.18530586407
 20
6820.7001271919689
 30
0.0
 11
23417.5365335922
 21
6820.7001271919689
 31
0.0
  0
LINE
  5
1C74
  8
FUTO
 10
23683.693687354229
 20
6884.7001271919689
 30
0.0
 11
23453.69368735424
 21
6884.7001271919689
 31
0.0
  0
LINE
  5
1C75
  8
FUTO
 10
23683.693687354229
 20
6756.7001271919689
 30
0.0
 11
23453.69368735424
 21
6756.7001271919689
 31
0.0
  0
LINE
  5
1C76
  8
SL
 10
23193.693687354229
 20
6674.50012719197
 30
0.0
 11
23193.693687354229
 21
6544.50012719197
 31
0.0
  0
LINE
  5
1C7A
  8
FUTO
 10
23516.19368735424
 20
6734.7001271919689
 30
0.0
 11
23516.19368735424
 21
6674.5001271919682
 31
0.0
  0
LINE
  5
1C7B
  8
FUTO
 10
23453.69368735424
 20
6742.7001271919689
 30
0.0
 11
23453.69368735424
 21
6750.7001271919689
 31
0.0
  0
LINE
  5
1C7C
  8
FUTO
 10
23488.69368735424
 20
6734.7001271919689
 30
0.0
 11
23468.69368735424
 21
6742.7001271919689
 31
0.0
  0
LINE
  5
1C7F
  8
FUTO
 10
23488.69368735424
 20
6906.7001271919689
 30
0.0
 11
23468.69368735424
 21
6898.7001271919689
 31
0.0
  0
LINE
  5
1C80
  8
FUTO
 10
23453.69368735424
 20
6898.7001271919689
 30
0.0
 11
23453.69368735424
 21
6890.7001271919689
 31
0.0
  0
LINE
  5
1C83
  8
SL
 10
23943.69368735424
 20
6674.5001271919682
 30
0.0
 11
23943.69368735424
 21
6544.5001271919718
 31
0.0
  0
LINE
  5
1C84
  8
FUTO
 10
23701.69368735424
 20
6766.7001271919689
 30
0.0
 11
23701.69368735424
 21
6874.700127191968
 31
0.0
  0
LINE
  5
1C85
  8
FUTO
 10
23683.693687354229
 20
6756.7001271919689
 30
0.0
 11
23683.693687354229
 21
6766.7001271919689
 31
0.0
  0
LINE
  5
1C86
  8
FUTO
 10
23701.69368735424
 20
6766.7001271919689
 30
0.0
 11
23683.693687354229
 21
6766.7001271919689
 31
0.0
  0
LINE
  5
1C87
  8
FUTO
 10
23683.693687354229
 20
6742.7001271919689
 30
0.0
 11
23683.693687354229
 21
6756.7001271919689
 31
0.0
  0
LINE
  5
1C88
  8
FUTO
 10
23648.69368735424
 20
6734.7001271919689
 30
0.0
 11
23668.69368735424
 21
6742.7001271919689
 31
0.0
  0
LINE
  5
1C89
  8
FUTO
 10
23621.19368735424
 20
6734.7001271919689
 30
0.0
 11
23621.19368735424
 21
6674.5001271919682
 31
0.0
  0
LINE
  5
1C8A
  8
FUTO
 10
23648.69368735424
 20
6906.7001271919689
 30
0.0
 11
23668.69368735424
 21
6898.7001271919689
 31
0.0
  0
LINE
  5
1C8B
  8
FUTO
 10
23683.693687354229
 20
6898.7001271919689
 30
0.0
 11
23683.693687354229
 21
6884.7001271919689
 31
0.0
  0
LINE
  5
1C8C
  8
FUTO
 10
23683.693687354229
 20
6874.700127191968
 30
0.0
 11
23683.693687354229
 21
6884.7001271919689
 31
0.0
  0
LINE
  5
1C8D
  8
FUTO
 10
23701.69368735424
 20
6874.700127191968
 30
0.0
 11
23683.693687354229
 21
6874.700127191968
 31
0.0
  0
LINE
  5
1C8E
  8
FUTO
 10
24048.69368735424
 20
6707.4491613544778
 30
0.0
 11
24048.69368735424
 21
6426.7001271919717
 31
0.0
  0
POINT
  5
1C8F
  8
DEFPOINTS
 10
24048.69368735424
 20
6426.7001271919717
 30
0.0
  0
LINE
  5
1C93
  8
FUTO
 10
23479.693687354229
 20
7968.7001271919689
 30
0.0
 11
23657.69368735424
 21
7968.7001271919708
 31
0.0
  0
LINE
  5
1C9A
  8
FUTO
 10
24643.69368735424
 20
9925.7001271919689
 30
0.0
 11
22493.69368735424
 21
9925.7001271919689
 31
0.0
  0
LINE
  5
1C9B
  8
FUTO
 10
24643.69368735424
 20
9931.7001271919708
 30
0.0
 11
22493.69368735424
 21
9931.7001271919708
 31
0.0
  0
LINE
  5
1C9C
  8
KL
 10
24643.69368735424
 20
9788.9001271928591
 30
0.0
 11
22493.69368735424
 21
9788.9001271933521
 31
0.0
  0
LINE
  5
1CA1
  8
HOSO
 10
24608.69368735424
 20
9753.7803835847699
 30
0.0
 11
24608.69368735424
 21
9811.9795396899972
 31
0.0
  0
LINE
  5
1CA2
  8
FUTO
 10
24574.69368735424
 20
9779.9001271919697
 30
0.0
 11
24574.69368735424
 21
9869.9001271919697
 31
0.0
  0
LINE
  5
1CA3
  8
KL
 10
24568.69368735424
 20
9779.9001271919697
 30
0.0
 11
24568.69368735424
 21
9931.7001271919708
 31
0.0
  0
LINE
  5
1CA4
  8
KL
 10
24643.69368735424
 20
9779.9001271919697
 30
0.0
 11
24643.69368735424
 21
9788.9001271928591
 31
0.0
  0
LINE
  5
1CA5
  8
HOSO
 10
24568.693687354222
 20
9788.9001271928792
 30
0.0
 11
24568.693687354222
 21
9779.9001271928792
 31
0.0
  0
LINE
  5
1CA6
  8
FUTO
 10
24643.69368735424
 20
9925.7001271919708
 30
0.0
 11
24643.69368735424
 21
9931.7001271919708
 31
0.0
  0
LINE
  5
1CA7
  8
HOSO
 10
24608.69368735424
 20
9903.6619377519855
 30
0.0
 11
24608.69368735424
 21
9961.8610938572147
 31
0.0
  0
LINE
  5
1CA8
  8
FUTO
 10
24574.69368735424
 20
9869.9001271919697
 30
0.0
 11
24574.69368735424
 21
9925.7001271919689
 31
0.0
  0
LINE
  5
1CBE
  8
FUTO
 10
23473.69368735424
 20
8135.700127191968
 30
0.0
 11
23703.69368735424
 21
8135.700127191968
 31
0.0
  0
LINE
  5
1CBF
  8
FUTO
 10
23433.69368735424
 20
8148.7001271919698
 30
0.0
 11
23703.69368735424
 21
8148.7001271919698
 31
0.0
  0
LINE
  5
1CC0
  8
FUTO
 10
23479.693687354229
 20
8172.7001271919689
 30
0.0
 11
23657.69368735424
 21
8172.7001271919689
 31
0.0
  0
LINE
  5
1CC1
  8
FUTO
 10
23433.69368735424
 20
8135.7001271919717
 30
0.0
 11
23703.69368735424
 21
8135.700127191968
 31
0.0
  0
LINE
  5
1CC2
  8
CT
 10
23338.40197827974
 20
8070.7001271919689
 30
0.0
 11
23798.027389116029
 21
8070.7001271919689
 31
0.0
  0
LINE
  5
1CC3
  8
FUTO
 10
23433.69368735424
 20
7992.7001271919698
 30
0.0
 11
23703.69368735424
 21
7992.7001271919689
 31
0.0
  0
LINE
  5
1CC4
  8
FUTO
 10
23433.69368735424
 20
8005.7001271919689
 30
0.0
 11
23703.69368735424
 21
8005.7001271919689
 31
0.0
  0
LINE
  5
1CC5
  8
KL
 10
23513.69368735424
 20
8172.7001271919689
 30
0.0
 11
23513.69368735424
 21
8266.3441675166287
 31
0.0
  0
LINE
  5
1CCB
  8
FUTO
 10
23479.693687354229
 20
8172.7001271919708
 30
0.0
 11
23455.860354020901
 21
8150.7001271919689
 31
0.0
  0
LINE
  5
1CCE
  8
KL
 10
23623.69368735424
 20
8172.7001271919689
 30
0.0
 11
23623.69368735424
 21
8268.7872043838179
 31
0.0
  0
LINE
  5
1CCF
  8
FUTO
 10
23719.693687354229
 20
8010.700127191968
 30
0.0
 11
23719.693687354229
 21
8130.7001271919689
 31
0.0
  0
LINE
  5
1CD0
  8
FUTO
 10
23703.69368735424
 20
7992.7001271919698
 30
0.0
 11
23703.69368735424
 21
8010.700127191968
 31
0.0
  0
LINE
  5
1CD1
  8
FUTO
 10
23703.69368735424
 20
8010.700127191968
 30
0.0
 11
23719.693687354229
 21
8010.700127191968
 31
0.0
  0
LINE
  5
1CD2
  8
FUTO
 10
23657.69368735424
 20
8172.7001271919708
 30
0.0
 11
23683.693687354229
 21
8148.7001271919698
 31
0.0
  0
LINE
  5
1CD3
  8
FUTO
 10
23703.69368735424
 20
8130.7001271919689
 30
0.0
 11
23719.693687354229
 21
8130.7001271919689
 31
0.0
  0
LINE
  5
1CD4
  8
FUTO
 10
23703.69368735424
 20
8148.7001271919698
 30
0.0
 11
23703.69368735424
 21
8130.7001271919689
 31
0.0
  0
LINE
  5
1CE0
  8
HOSO
 10
22528.693687354229
 20
9746.0937533475499
 30
0.0
 11
22528.693687354229
 21
9816.7208804853708
 31
0.0
  0
LINE
  5
1CE1
  8
KL
 10
22562.69368735424
 20
9779.9001271919697
 30
0.0
 11
22562.69368735424
 21
9854.9001271919697
 31
0.0
  0
LINE
  5
1CE2
  8
KL
 10
22568.693687354229
 20
9779.9001271919697
 30
0.0
 11
22568.693687354229
 21
9931.7001271919708
 31
0.0
  0
LINE
  5
1CE4
  8
KL
 10
22493.69368735424
 20
9779.9001271919697
 30
0.0
 11
22493.69368735424
 21
9788.9001271933521
 31
0.0
  0
LINE
  5
1CE5
  8
HOSO
 10
22568.693687354229
 20
9788.9001271933339
 30
0.0
 11
22568.693687354222
 21
9779.9001271933375
 31
0.0
  0
LINE
  5
1CE6
  8
FUTO
 10
22493.69368735424
 20
9925.7001271919689
 30
0.0
 11
22493.69368735424
 21
9931.7001271919708
 31
0.0
  0
LINE
  5
1CE7
  8
HOSO
 10
22528.693687354229
 20
9895.6541997496279
 30
0.0
 11
22528.693687354229
 21
9966.2813268874488
 31
0.0
  0
LINE
  5
1CE8
  8
FUTO
 10
22562.69368735424
 20
9854.9001271919697
 30
0.0
 11
22562.69368735424
 21
9925.7001271919689
 31
0.0
  0
INSERT
  5
1CE9
  8
FUTO
  2
まっすぐの矢印
 10
23017.769436214039
 20
10098.19641494799
 30
0.0
 41
40.0
 42
40.0
 43
40.0
 50
180.0
  0
LINE
  5
1D14
  8
FUTO
 10
23435.693687354229
 20
6766.7001271919689
 30
0.0
 11
23435.693687354229
 21
6874.700127191968
 31
0.0
  0
LINE
  5
1D15
  8
FUTO
 10
23453.69368735424
 20
6742.7001271919689
 30
0.0
 11
23453.69368735424
 21
6756.7001271919689
 31
0.0
  0
LINE
  5
1D16
  8
FUTO
 10
23435.693687354229
 20
6766.7001271919689
 30
0.0
 11
23453.69368735424
 21
6766.7001271919689
 31
0.0
  0
LINE
  5
1D17
  8
FUTO
 10
23453.69368735424
 20
6756.7001271919689
 30
0.0
 11
23453.69368735424
 21
6766.7001271919689
 31
0.0
  0
LINE
  5
1D18
  8
FUTO
 10
23435.693687354229
 20
6874.700127191968
 30
0.0
 11
23453.69368735424
 21
6874.700127191968
 31
0.0
  0
LINE
  5
1D19
  8
FUTO
 10
23453.69368735424
 20
6874.700127191968
 30
0.0
 11
23453.69368735424
 21
6884.7001271919689
 31
0.0
  0
LINE
  5
1D1A
  8
FUTO
 10
23453.69368735424
 20
6898.7001271919689
 30
0.0
 11
23453.69368735424
 21
6884.7001271919689
 31
0.0
  0
LINE
  5
1D1B
  8
FUTO
 10
23417.69368735424
 20
8010.700127191968
 30
0.0
 11
23417.69368735424
 21
8130.7001271919689
 31
0.0
  0
LINE
  5
1D1C
  8
FUTO
 10
23433.69368735424
 20
8010.700127191968
 30
0.0
 11
23417.69368735424
 21
8010.700127191968
 31
0.0
  0
LINE
  5
1D1D
  8
FUTO
 10
23433.69368735424
 20
7992.7001271919698
 30
0.0
 11
23433.69368735424
 21
8010.700127191968
 31
0.0
  0
LINE
  5
1D1E
  8
FUTO
 10
23433.69368735424
 20
8148.7001271919698
 30
0.0
 11
23433.69368735424
 21
8130.7001271919689
 31
0.0
  0
LINE
  5
1D1F
  8
FUTO
 10
23433.69368735424
 20
8130.7001271919689
 30
0.0
 11
23417.69368735424
 21
8130.7001271919689
 31
0.0
  0
LINE
  5
1D20
  8
FUTO
 10
23219.106882876789
 20
6724.7001271919653
 30
0.0
 11
23219.106882876789
 21
8197.7001271919671
 31
0.0
  0
LINE
  5
1D21
  8
FUTO
 10
23918.28049183168
 20
6724.7001271919653
 30
0.0
 11
23918.28049183168
 21
8197.7001271919671
 31
0.0
  0
LINE
  5
1D22
  8
FUTO
 10
21416.693687354491
 20
8272.7001271919671
 30
0.0
 11
21416.693687355521
 21
9780.7001271919726
 31
0.0
  0
LINE
  5
1D23
  8
FUTO
 10
21416.693687354891
 20
8272.7001271919671
 30
0.0
 11
21416.693687355579
 21
9780.7001271919726
 31
0.0
  0
LINE
  5
1D24
  8
FUTO
 10
21416.693687354229
 20
8272.7001271919671
 30
0.0
 11
21416.693687354229
 21
9780.7001271919726
 31
0.0
  0
LINE
  5
1D26
  8
FUTO
 10
21341.693687354229
 20
8197.7001271919671
 30
0.0
 11
21341.693687354229
 21
9855.7001271919671
 31
0.0
  0
LINE
  5
1D35
  8
CT
 10
21718.69368735424
 20
7794.4139395525262
 30
0.0
 11
21718.693687354229
 21
6431.1988508206778
 31
0.0
  0
LINE
  5
1D3A
  8
SL
 10
21541.19368735424
 20
6674.5001271919718
 30
0.0
 11
21541.19368735424
 21
6544.5001271919682
 31
0.0
  0
LINE
  5
1D3B
  8
FUTO
 10
21438.693687354229
 20
6707.449161354476
 30
0.0
 11
21438.693687354229
 21
6426.7001271919671
 31
0.0
  0
LINE
  5
2121
  8
CT
 10
26818.733296925111
 20
2634.392649677106
 30
0.0
 11
26450.913296925111
 21
2634.392649677106
 31
0.0
  0
LINE
  5
2132
  8
KL
 10
27078.951296925119
 20
2359.3926496771041
 30
0.0
 11
27007.380296925108
 21
2359.3926496771041
 31
0.0
  0
LINE
  5
2306
  8
FUTO
 10
21431.193687353982
 20
7379.5001271918791
 30
0.0
 11
21431.19368735392
 21
7574.5001271918791
 31
0.0
  0
LINE
  5
2307
  8
FUTO
 10
21988.693687353909
 20
7592.7609971920501
 30
0.0
 11
21988.693687353982
 21
7379.5001271920519
 31
0.0
  0
LINE
  5
2308
  8
FUTO
 10
21431.19368735392
 20
7574.5001271918791
 30
0.0
 11
21988.69368735392
 21
7574.5001271920519
 31
0.0
  0
LINE
  5
2309
  8
FUTO
 10
21948.693687353902
 20
7634.5001271920401
 30
0.0
 11
21488.693687353909
 21
7634.5001271918973
 31
0.0
  0
LINE
  5
230A
  8
FUTO
 10
21988.693687353909
 20
7592.7609971920501
 30
0.0
 11
21948.693687353902
 21
7634.5001271920401
 31
0.0
  0
LINE
  5
230B
  8
FUTO
 10
21431.19368735392
 20
7574.5001271918791
 30
0.0
 11
21488.693687353909
 21
7634.5001271918973
 31
0.0
  0
LINE
  5
230C
  8
CT
 10
22029.008547007172
 20
7114.0001271920673
 30
0.0
 11
21385.933213258199
 21
7114.0001271918663
 31
0.0
  0
LINE
  5
230D
  8
FUTO
 10
21431.193687353982
 20
7379.5001271918791
 30
0.0
 11
21988.693687353982
 21
7379.5001271920519
 31
0.0
  0
LINE
  5
230E
  8
FUTO
 10
21431.193687354149
 20
6831.0001271918791
 30
0.0
 11
21483.259709214919
 21
6831.0001271918954
 31
0.0
  0
LINE
  5
230F
  8
FUTO
 10
21431.193687354182
 20
6731.00012719188
 30
0.0
 11
21715.693687354182
 21
6731.0001271919664
 31
0.0
  0
LINE
  5
2310
  8
CT
 10
22022.823752321179
 20
7323.5001271920619
 30
0.0
 11
22059.509292321171
 21
7323.5001271920728
 31
0.0
  0
LINE
  5
2311
  8
CT
 10
22022.823752321299
 20
6904.5001271920619
 30
0.0
 11
22059.509292321301
 21
6904.5001271920737
 31
0.0
  0
LINE
  5
2312
  8
FUTO
 10
21761.19368735424
 20
6544.5001271919837
 30
0.0
 11
21761.193687354182
 21
6714.5001271919818
 31
0.0
  0
LINE
  5
2313
  8
FUTO
 10
21676.193687354182
 20
6714.5001271919546
 30
0.0
 11
21676.19368735424
 21
6544.5001271919546
 31
0.0
  0
LINE
  5
2314
  8
FUTO
 10
21671.19368735424
 20
6544.5001271919537
 30
0.0
 11
21671.193687354189
 21
6684.5001271919537
 31
0.0
  0
LINE
  5
2315
  8
FUTO
 10
21768.693687354182
 20
6714.5001271919818
 30
0.0
 11
21668.693687354182
 21
6714.5001271919527
 31
0.0
  0
LINE
  5
2316
  8
FUTO
 10
21804.193687354182
 20
6724.5001271919928
 30
0.0
 11
21633.193687354182
 21
6724.5001271919436
 31
0.0
  0
LINE
  5
2317
  8
FUTO
 10
21806.193687354182
 20
6731.3485021919951
 30
0.0
 11
21806.193687354182
 21
6726.5001271919937
 31
0.0
  0
ARC
  5
2318
  8
FUTO
 10
21804.193687354182
 20
6726.5001271919937
 30
0.0
 40
2.0
 50
270.0
 51
0.0
  0
LINE
  5
2319
  8
FUTO
 10
21768.693687354182
 20
6714.5001271919818
 30
0.0
 11
21768.693687354182
 21
6724.5001271919828
 31
0.0
  0
LINE
  5
231A
  8
FUTO
 10
21668.693687354182
 20
6714.5001271919527
 30
0.0
 11
21668.693687354182
 21
6724.5001271919527
 31
0.0
  0
LINE
  5
231B
  8
FUTO
 10
21676.1936873542
 20
6684.5001271919564
 30
0.0
 11
21671.193687354189
 21
6684.5001271919537
 31
0.0
  0
LINE
  5
231C
  8
FUTO
 10
21631.193687354182
 20
6731.0001271919427
 30
0.0
 11
21631.193687354182
 21
6726.5001271919427
 31
0.0
  0
ARC
  5
231D
  8
FUTO
 10
21633.193687354182
 20
6726.5001271919427
 30
0.0
 40
2.0
 50
180.0
 51
270.0
  0
LINE
  5
231E
  8
FUTO
 10
21761.19368735424
 20
6544.5001271919837
 30
0.0
 11
21671.19368735424
 21
6544.5001271919537
 31
0.0
  0
LINE
  5
231F
  8
FUTO
 10
21432.879610354059
 20
7114.00012719188
 30
0.0
 11
21432.879610354139
 21
6858.5001271918809
 31
0.0
  0
LINE
  5
2320
  8
FUTO
 10
21483.25970921485
 20
7073.5001271918982
 30
0.0
 11
21881.1767274136
 21
7073.5001271920191
 31
0.0
  0
LINE
  5
2321
  8
FUTO
 10
21483.25970921485
 20
7055.1001331918924
 30
0.0
 11
21881.1767274136
 21
7055.1001331920161
 31
0.0
  0
LINE
  5
2322
  8
CT
 10
21666.157817865009
 20
6928.5001271919518
 30
0.0
 11
21809.302623865009
 21
6928.5001271919982
 31
0.0
  0
LINE
  5
2323
  8
FUTO
 10
21428.693687353982
 20
7369.50012719188
 30
0.0
 11
21428.69368735408
 21
7058.50012719188
 31
0.0
  0
LINE
  5
2324
  8
FUTO
 10
21432.879610354059
 20
7114.00012719188
 30
0.0
 11
21432.879610353979
 21
7369.5001271918809
 31
0.0
  0
LINE
  5
2325
  8
FUTO
 10
21432.879610353979
 20
7369.5001271918809
 30
0.0
 11
21439.331472353981
 21
7379.5001271918827
 31
0.0
  0
LINE
  5
2326
  8
FUTO
 10
21428.693687353982
 20
7369.50012719188
 30
0.0
 11
21435.360353353979
 21
7379.5001271918809
 31
0.0
  0
LINE
  5
2327
  8
FUTO
 10
21428.69368735408
 20
7058.50012719188
 30
0.0
 11
21432.879610354081
 21
7054.31420419188
 31
0.0
  0
LINE
  5
2328
  8
FUTO
 10
21881.176727413691
 20
6783.5001271920191
 30
0.0
 11
21483.25970921493
 21
6783.5001271918973
 31
0.0
  0
LINE
  5
2329
  8
FUTO
 10
21881.17672741368
 20
6801.9001511920142
 30
0.0
 11
21483.25970921493
 21
6801.9001511918932
 31
0.0
  0
LINE
  5
232A
  8
FUTO
 10
21431.193687354182
 20
6731.00012719188
 30
0.0
 11
21431.193687354149
 21
6831.0001271918791
 31
0.0
  0
LINE
  5
232B
  8
FUTO
 10
21436.178639354152
 20
6847.2726991918798
 30
0.0
 11
21447.027020354151
 21
6831.0001271918836
 31
0.0
  0
LINE
  5
232C
  8
FUTO
 10
21432.879610354139
 20
6858.5001271918809
 30
0.0
 11
21450.622230354151
 21
6831.0001271918836
 31
0.0
  0
LINE
  5
232D
  8
FUTO
 10
21442.465082354141
 20
6843.6432191918821
 30
0.0
 11
21434.05267135414
 21
6848.50012719188
 31
0.0
  0
LINE
  5
232E
  8
FUTO
 10
21881.176727413691
 20
6783.5001271920173
 30
0.0
 11
21881.1767274136
 21
7073.5001271920191
 31
0.0
  0
LINE
  5
232F
  8
FUTO
 10
21483.25970921493
 20
6783.5001271918964
 30
0.0
 11
21483.25970921485
 21
7073.5001271918982
 31
0.0
  0
LINE
  5
2330
  8
FUTO
 10
22006.193687354149
 20
6831.0001271920573
 30
0.0
 11
21881.17672741368
 21
6831.0001271920164
 31
0.0
  0
LINE
  5
2331
  8
FUTO
 10
22006.193687354182
 20
6731.0001271920573
 30
0.0
 11
21721.693687354182
 21
6731.0001271919682
 31
0.0
  0
LINE
  5
2332
  8
FUTO
 10
22006.193687354182
 20
6731.0001271920573
 30
0.0
 11
22006.193687354149
 21
6831.0001271920573
 31
0.0
  0
LINE
  5
2333
  8
FUTO
 10
22004.507764354061
 20
7114.0001271920546
 30
0.0
 11
22004.507764353981
 21
7369.5001271920564
 31
0.0
  0
LINE
  5
2334
  8
FUTO
 10
22008.693687353982
 20
7369.5001271920582
 30
0.0
 11
22008.69368735408
 21
7058.5001271920582
 31
0.0
  0
LINE
  5
2335
  8
FUTO
 10
22004.507764354061
 20
7114.0001271920546
 30
0.0
 11
22004.507764354141
 21
6858.5001271920564
 31
0.0
  0
LINE
  5
2336
  8
FUTO
 10
22004.507764354141
 20
6858.5001271920564
 30
0.0
 11
21986.765144354151
 21
6831.0001271920519
 31
0.0
  0
LINE
  5
2337
  8
FUTO
 10
21994.922292354149
 20
6843.6432191920539
 30
0.0
 11
22003.33470335415
 21
6848.5001271920546
 31
0.0
  0
LINE
  5
2338
  8
FUTO
 10
22001.208735354139
 20
6847.2726991920572
 30
0.0
 11
21990.36035435415
 21
6831.0001271920519
 31
0.0
  0
LINE
  5
2339
  8
FUTO
 10
22008.693687353982
 20
7369.5001271920582
 30
0.0
 11
22002.02702135397
 21
7379.5001271920564
 31
0.0
  0
LINE
  5
233A
  8
FUTO
 10
22004.507764353981
 20
7369.5001271920564
 30
0.0
 11
21998.055902353979
 21
7379.5001271920564
 31
0.0
  0
LINE
  5
233B
  8
FUTO
 10
22068.69368735412
 20
6809.9211936535048
 30
0.0
 11
22068.693687353931
 21
7418.0790607306462
 31
0.0
  0
LINE
  5
233C
  8
FUTO
 10
22068.69368735412
 20
6809.9211936535048
 30
0.0
 11
22006.193687354149
 21
6809.9211936534884
 31
0.0
  0
LINE
  5
233D
  8
FUTO
 10
22068.693687353931
 20
7418.0790607306462
 30
0.0
 11
21988.69368735396
 21
7418.0790607306189
 31
0.0
  0
LINE
  5
233E
  8
FUTO
 10
21368.693687354189
 20
6809.9211936532893
 30
0.0
 11
21368.693687354
 21
7418.0790607304307
 31
0.0
  0
LINE
  5
233F
  8
FUTO
 10
21368.693687354011
 20
7418.0790607304307
 30
0.0
 11
21448.69368735396
 21
7418.0790607304516
 31
0.0
  0
LINE
  5
2340
  8
FUTO
 10
21368.693687354189
 20
6809.9211936532893
 30
0.0
 11
21431.193687354149
 21
6809.9211936533111
 31
0.0
  0
LINE
  5
2370
  8
KL
 10
26795.233296925089
 20
2531.8621666770669
 30
0.0
 11
26795.233296925071
 21
2447.009352677067
 31
0.0
  0
LINE
  5
2371
  8
KL
 10
26879.233296925111
 20
2634.39264967705
 30
0.0
 11
26879.233296925049
 21
2376.3926496770491
 31
0.0
  0
LINE
  5
2372
  8
KL
 10
26879.233296925111
 20
2637.39264967705
 30
0.0
 11
26879.23329692506
 21
2404.3926496770491
 31
0.0
  0
LINE
  5
2373
  8
KL
 10
27044.233296925078
 20
2480.3987546770149
 30
0.0
 11
27044.233296925049
 21
2404.392649677015
 31
0.0
  0
LINE
  5
2374
  8
KL
 10
27325.233296925078
 20
2483.8646866769518
 30
0.0
 11
27325.23329692506
 21
2404.3926496769532
 31
0.0
  0
LINE
  5
2375
  8
KL
 10
27450.233296925169
 20
2921.8926496769268
 30
0.0
 11
27450.233296925049
 21
2364.3926496769268
 31
0.0
  0
LINE
  5
2376
  8
CT
 10
27184.733296925049
 20
2335.4425336769841
 30
0.0
 11
27184.73329692518
 21
2967.1531237728418
 31
0.0
  0
LINE
  5
2377
  8
KL
 10
27705.23329692506
 20
2404.3926496768709
 30
0.0
 11
27705.233296925151
 21
2864.3926496768709
 31
0.0
  0
LINE
  5
2378
  8
KL
 10
27645.233296925169
 20
2921.892649676884
 30
0.0
 11
27645.233296925049
 21
2364.392649676884
 31
0.0
  0
LINE
  5
2379
  8
KL
 10
27440.233296925049
 20
2364.3437096769289
 30
0.0
 11
27429.733296925049
 21
2364.3437096769298
 31
0.0
  0
LINE
  5
237C
  8
KL
 10
27059.733296925049
 20
2354.3926496770109
 30
0.0
 11
27488.733296925049
 21
2354.3926496769182
 31
0.0
  0
ARC
  5
237D
  8
KL
 10
26827.567997925049
 20
2407.2000846770588
 30
0.0
 40
10.0
 50
183.0000000000033
 51
225.0000000001105
  0
LINE
  5
237E
  8
KL
 10
26817.58170192505
 20
2406.6767256770622
 30
0.0
 11
26815.467958925059
 21
2447.009352677062
 31
0.0
  0
LINE
  5
237F
  8
KL
 10
26795.233296925071
 20
2447.009352677067
 30
0.0
 11
26849.233296925071
 21
2447.0093526770552
 31
0.0
  0
LINE
  5
2380
  8
KL
 10
27024.233296925049
 20
2384.3926496770182
 30
0.0
 11
26944.233296925049
 21
2384.392649677035
 31
0.0
  0
LINE
  5
2381
  8
KL
 10
26939.733296925049
 20
2354.3926496770359
 30
0.0
 11
27059.733296925049
 21
2354.3926496770109
 31
0.0
  0
LINE
  5
2383
  8
KL
 10
26879.233296925071
 20
2447.8139086770479
 30
0.0
 11
27044.233296925071
 21
2447.8139086770138
 31
0.0
  0
LINE
  5
2384
  8
KL
 10
27059.733296925049
 20
2354.3926496770109
 30
0.0
 11
26880.733296925049
 21
2354.3926496770491
 31
0.0
  0
ARC
  5
238A
  8
KL
 10
26847.433466925049
 20
2387.3346156770572
 30
0.0
 40
10.0
 50
225.0000000001105
 51
267.99999999999602
  0
LINE
  5
238B
  8
KL
 10
26889.23329692506
 20
2404.3926496770468
 30
0.0
 11
26889.23329692506
 21
2402.528217677047
 31
0.0
  0
LINE
  5
238C
  8
KL
 10
26889.23329692506
 20
2404.3926496770468
 30
0.0
 11
26879.23329692506
 21
2404.3926496770491
 31
0.0
  0
ARC
  5
238D
  8
KL
 10
26944.733296925049
 20
2379.392649677035
 30
0.0
 40
5.0
 50
90.0
 51
180.0
  0
LINE
  5
238E
  8
KL
 10
26929.233296925049
 20
2364.3437096770381
 30
0.0
 11
26939.733296925049
 21
2364.3437096770358
 31
0.0
  0
LINE
  5
238F
  8
KL
 10
26899.233296925049
 20
2368.1638186770429
 30
0.0
 11
26929.233296925049
 21
2364.3437096770381
 31
0.0
  0
LINE
  5
2390
  8
KL
 10
26889.23329692506
 20
2402.528217677047
 30
0.0
 11
26899.233296925049
 21
2368.1638186770429
 31
0.0
  0
LINE
  5
2391
  8
KL
 10
26847.084471925049
 20
2377.3407076770559
 30
0.0
 11
26879.233296925049
 21
2376.3926496770491
 31
0.0
  0
LINE
  5
2393
  8
KL
 10
26939.733296925049
 20
2379.3926496770359
 30
0.0
 11
26939.733296925049
 21
2354.3926496770359
 31
0.0
  0
LINE
  5
2394
  8
KL
 10
26880.733296925049
 20
2354.3926496770491
 30
0.0
 11
26880.733296925031
 21
2291.1528805450889
 31
0.0
  0
ARC
  5
2398
  8
KL
 10
27024.23329692506
 20
2404.3926496770182
 30
0.0
 40
20.0
 50
270.0
 51
0.0
  0
LINE
  5
2399
  8
KL
 10
27064.733296925049
 20
2364.3926496770091
 30
0.0
 11
27184.733296925049
 21
2364.3926496769841
 31
0.0
  0
ARC
  5
239B
  8
KL
 10
27064.733296925049
 20
2359.3926496770091
 30
0.0
 40
5.0
 50
90.0
 51
180.0
  0
LINE
  5
239C
  8
KL
 10
26975.233296925049
 20
2388.1530216770261
 30
0.0
 11
26975.233296925049
 21
2351.467481677028
 31
0.0
  0
ARC
  5
239D
  8
KL
 10
27345.233296925049
 20
2404.39264967695
 30
0.0
 40
20.0
 50
180.0
 51
270.0
  0
ARC
  5
239E
  8
KL
 10
27424.733296925049
 20
2379.3926496769309
 30
0.0
 40
5.0
 50
0.0
 51
90.0
  0
LINE
  5
239F
  8
KL
 10
27345.233296925049
 20
2384.3926496769491
 30
0.0
 11
27425.233296925049
 21
2384.3926496769309
 31
0.0
  0
LINE
  5
23A0
  8
KL
 10
27309.733296925049
 20
2359.3926496769559
 30
0.0
 11
27309.733296925049
 21
2354.3926496769559
 31
0.0
  0
LINE
  5
23A1
  8
KL
 10
27430.233296925049
 20
2354.3926496769309
 30
0.0
 11
27309.733296925049
 21
2354.3926496769559
 31
0.0
  0
LINE
  5
23A2
  8
KL
 10
27429.733296925049
 20
2379.3926496769309
 30
0.0
 11
27429.733296925049
 21
2354.3926496769309
 31
0.0
  0
LINE
  5
23A3
  8
KL
 10
27394.233296925049
 20
2388.153021676937
 30
0.0
 11
27394.233296925049
 21
2351.4674816769389
 31
0.0
  0
ARC
  5
23A4
  8
KL
 10
27304.733296925049
 20
2359.3926496769582
 30
0.0
 40
5.0
 50
0.0
 51
90.0
  0
LINE
  5
23A5
  8
KL
 10
27304.733296925049
 20
2364.3926496769582
 30
0.0
 11
27184.733296925049
 21
2364.3926496769841
 31
0.0
  0
LINE
  5
23A6
  8
KL
 10
26840.362398925041
 20
2380.263548677056
 30
0.0
 11
26820.496929925052
 21
2400.1290166770618
 31
0.0
  0
LINE
  5
23A7
  8
KL
 10
27663.494166925051
 20
2364.39264967688
 30
0.0
 11
27450.233296925049
 21
2364.3926496769268
 31
0.0
  0
LINE
  5
23A8
  8
KL
 10
27488.733296925049
 20
2354.3926496769182
 30
0.0
 11
27488.733296925031
 21
2291.2089503300472
 31
0.0
  0
LINE
  5
23A9
  8
KL
 10
27663.494166925051
 20
2364.39264967688
 30
0.0
 11
27705.23329692506
 21
2404.3926496768709
 31
0.0
  0
LINE
  5
23AA
  8
KL
 10
27450.233296925049
 20
2365.6170796769261
 30
0.0
 11
27440.233296925049
 21
2364.3437096769289
 31
0.0
  0
LINE
  5
23AB
  8
KL
 10
27184.733296925169
 20
2920.2067266769832
 30
0.0
 11
27440.233296925169
 21
2920.2067266769282
 31
0.0
  0
LINE
  5
23AC
  8
KL
 10
27440.233296925169
 20
2924.3926496769291
 30
0.0
 11
27129.233296925169
 21
2924.3926496769968
 31
0.0
  0
CIRCLE
  5
23AE
  8
KL
 10
26999.233296925198
 20
3059.3926496770241
 30
0.0
 40
59.0
  0
LINE
  5
23AF
  8
KL
 10
26872.633320925179
 20
2950.99259867705
 30
0.0
 11
26872.633320925219
 21
3145.8640086770511
 31
0.0
  0
LINE
  5
23B0
  8
KL
 10
26854.23329692518
 20
2970.3345826770551
 30
0.0
 11
26854.23329692522
 21
3155.0579026770538
 31
0.0
  0
LINE
  5
23B1
  8
CT
 10
26999.23329692522
 20
3128.9742996770242
 30
0.0
 11
26999.233296925191
 21
2985.829493677023
 31
0.0
  0
LINE
  5
23B2
  8
KL
 10
27125.833302925221
 20
3145.864008676996
 30
0.0
 11
27125.83330292517
 21
2950.992640676996
 31
0.0
  0
LINE
  5
23B3
  8
KL
 10
27144.233296925231
 20
3155.0579026769919
 30
0.0
 11
27144.233296925191
 21
2970.3345826769928
 31
0.0
  0
LINE
  5
23B4
  8
FUTO
 10
26801.733296925169
 20
2921.892649677065
 30
0.0
 11
26801.733296925111
 21
2637.3926496770659
 31
0.0
  0
LINE
  5
23B5
  8
KL
 10
26901.733296925169
 20
2921.8926496770441
 30
0.0
 11
26901.733296925111
 21
2637.3926496770441
 31
0.0
  0
LINE
  5
23B6
  8
CT
 10
26402.528284718599
 20
2634.392649677171
 30
0.0
 11
27763.904653865131
 21
2634.3926496767558
 31
0.0
  0
LINE
  5
23B7
  8
KL
 10
26801.733296925111
 20
2637.3926496770659
 30
0.0
 11
26901.733296925111
 21
2637.3926496770441
 31
0.0
  0
LINE
  5
23B8
  8
KL
 10
26879.233296925078
 20
2524.7910986770498
 30
0.0
 11
26795.233296925078
 21
2524.791098677068
 31
0.0
  0
LINE
  5
23B9
  8
FUTO
 10
26615.2332969251
 20
2591.892649677106
 30
0.0
 11
26615.233296925118
 21
2681.892649677106
 31
0.0
  0
ARC
  5
23BA
  8
FUTO
 10
26797.233296925129
 20
2719.8926496770669
 30
0.0
 40
2.0
 50
90.0
 51
180.0
  0
LINE
  5
23BB
  8
FUTO
 10
26801.733296925129
 20
2721.8926496770659
 30
0.0
 11
26797.233296925129
 21
2721.8926496770682
 31
0.0
  0
LINE
  5
23BC
  8
FUTO
 10
26755.233296925118
 20
2676.8926496770769
 30
0.0
 11
26755.233296925118
 21
2681.892649677076
 31
0.0
  0
LINE
  5
23BD
  8
FUTO
 10
26785.233296925118
 20
2684.3926496770691
 30
0.0
 11
26795.233296925118
 21
2684.3926496770682
 31
0.0
  0
LINE
  5
23BE
  8
FUTO
 10
26785.233296925089
 20
2584.3926496770691
 30
0.0
 11
26795.2332969251
 21
2584.3926496770669
 31
0.0
  0
ARC
  5
23BF
  8
FUTO
 10
26797.233296925089
 20
2548.8926496770682
 30
0.0
 40
2.0
 50
180.0
 51
270.0
  0
LINE
  5
23C0
  8
FUTO
 10
26802.08167192508
 20
2546.8926496770659
 30
0.0
 11
26797.233296925089
 21
2546.8926496770669
 31
0.0
  0
LINE
  5
23C1
  8
KL
 10
26800.233296925089
 20
2531.862166677065
 30
0.0
 11
26795.233296925089
 21
2531.8621666770669
 31
0.0
  0
LINE
  5
23C3
  8
FUTO
 10
26795.233296925089
 20
2548.8926496770682
 30
0.0
 11
26795.233296925129
 21
2719.8926496770669
 31
0.0
  0
LINE
  5
23C4
  8
FUTO
 10
26785.233296925089
 20
2584.3926496770691
 30
0.0
 11
26785.233296925118
 21
2684.3926496770691
 31
0.0
  0
LINE
  5
23C6
  8
FUTO
 10
26615.233296925118
 20
2681.892649677106
 30
0.0
 11
26755.233296925118
 21
2681.892649677076
 31
0.0
  0
LINE
  5
23C7
  8
FUTO
 10
26785.233296925118
 20
2676.8926496770691
 30
0.0
 11
26615.233296925118
 21
2676.8926496771051
 31
0.0
  0
LINE
  5
23C8
  8
FUTO
 10
26615.2332969251
 20
2591.892649677106
 30
0.0
 11
26785.2332969251
 21
2591.8926496770691
 31
0.0
  0
ARC
  5
23CD
  8
KL
 10
27330.233296925078
 20
2483.8646866769518
 30
0.0
 40
5.0
 50
90.0
 51
180.0
  0
LINE
  5
23CE
  8
KL
 10
26801.733296925169
 20
2921.892649677065
 30
0.0
 11
26901.733296925169
 21
2921.8926496770441
 31
0.0
  0
LINE
  5
23CF
  8
KL
 10
27114.23329692518
 20
2969.3926496769982
 30
0.0
 11
26884.23329692518
 21
2969.3926496770468
 31
0.0
  0
LINE
  5
23D0
  8
CT
 10
26905.752255925188
 20
3059.3926496770441
 30
0.0
 11
27085.675623925199
 21
3059.3926496770059
 31
0.0
  0
LINE
  5
23D1
  8
KL
 10
27114.23329692518
 20
2939.3926496769982
 30
0.0
 11
26884.233296925169
 21
2939.3926496770468
 31
0.0
  0
LINE
  5
23D2
  8
KL
 10
27184.733296925169
 20
2920.2067266769832
 30
0.0
 11
26929.233296925169
 21
2920.2067266770368
 31
0.0
  0
LINE
  5
23D3
  8
KL
 10
26919.23329692518
 20
2929.3926496770409
 30
0.0
 11
27079.23329692518
 21
2929.392649677005
 31
0.0
  0
LINE
  5
23D4
  8
KL
 10
26872.633320925179
 20
2970.334582677051
 30
0.0
 11
26854.23329692518
 21
2970.3345826770551
 31
0.0
  0
ARC
  5
23D5
  8
KL
 10
26884.233174925179
 20
2980.9925376770461
 30
0.0
 40
11.599888
 50
179.99945399997631
 51
270.0006100000092
  0
LINE
  5
23D6
  8
KL
 10
26914.376388925171
 20
2910.6212546770421
 30
0.0
 11
26919.233296925169
 21
2919.0336656770401
 31
0.0
  0
LINE
  5
23D7
  8
KL
 10
26929.233296925169
 20
2920.2067266770368
 30
0.0
 11
26901.733296925169
 21
2902.4641066770441
 31
0.0
  0
LINE
  5
23D8
  8
KL
 10
26918.005868925171
 20
2916.9076976770411
 30
0.0
 11
26901.733296925169
 21
2906.0593166770441
 31
0.0
  0
LINE
  5
23D9
  8
KL
 10
26919.233296925169
 20
2919.0336656770401
 30
0.0
 11
26919.23329692518
 21
2939.39264967704
 31
0.0
  0
ARC
  5
23DA
  8
KL
 10
26884.23329692518
 20
2950.9925986770472
 30
0.0
 40
11.599949000000001
 50
179.9997550000013
 51
270.0
  0
LINE
  5
23DB
  8
KL
 10
27079.23329692518
 20
2939.3926496770059
 30
0.0
 11
27079.233296925169
 21
2920.206726677005
 31
0.0
  0
ARC
  5
23DC
  8
KL
 10
27114.23332792518
 20
2980.9926256769982
 30
0.0
 40
11.599976
 50
269.99984700005228
 51
0.0001069999742915
  0
LINE
  5
23DD
  8
KL
 10
27125.833302925181
 20
2970.3345826769969
 30
0.0
 11
27144.233296925191
 21
2970.3345826769928
 31
0.0
  0
ARC
  5
23DE
  8
KL
 10
27114.23329692518
 20
2950.9926466769971
 30
0.0
 40
11.600006
 50
270.0
 51
0.0000150000275647
  0
LINE
  5
23DF
  8
KL
 10
27129.233296925169
 20
2924.3926496769968
 30
0.0
 11
27125.047373925168
 21
2920.2067266769959
 31
0.0
  0
LINE
  5
23E0
  8
KL
 10
26854.23329692522
 20
3155.0579026770538
 30
0.0
 11
27144.233296925231
 21
3155.0579026769919
 31
0.0
  0
LINE
  5
23E1
  8
KL
 10
26872.633320925219
 20
3145.8640086770511
 30
0.0
 11
27125.833302925221
 21
3145.864008676996
 31
0.0
  0
LINE
  5
23E2
  8
KL
 10
27114.233296925231
 20
3187.4508006769979
 30
0.0
 11
26884.233296925231
 21
3187.450800677047
 31
0.0
  0
ARC
  5
23E3
  8
KL
 10
26884.233296925231
 20
3175.8508556770471
 30
0.0
 40
11.599976
 50
90.0
 51
180.0003050000046
  0
LINE
  5
23E4
  8
KL
 10
26872.633320925219
 20
3155.0579026770502
 30
0.0
 11
26872.633320925219
 21
3175.8507946770501
 31
0.0
  0
ARC
  5
23E5
  8
KL
 10
27114.233296925231
 20
3175.8508106769968
 30
0.0
 40
11.599990999999999
 50
359.99992399997137
 51
90.0
  0
LINE
  5
23E6
  8
KL
 10
27125.833302925221
 20
3175.8507946769951
 30
0.0
 11
27125.833302925221
 21
3155.057902676996
 31
0.0
  0
LINE
  5
23E8
  8
KL
 10
27450.233296925169
 20
2921.8926496769268
 30
0.0
 11
27645.233296925169
 21
2921.892649676884
 31
0.0
  0
LINE
  5
23E9
  8
KL
 10
27645.233296925169
 20
2921.892649676884
 30
0.0
 11
27705.233296925151
 21
2864.3926496768709
 31
0.0
  0
LINE
  5
23EA
  8
KL
 10
27440.233296925169
 20
2924.3926496769291
 30
0.0
 11
27450.233296925169
 21
2917.7259836769272
 31
0.0
  0
LINE
  5
23EB
  8
KL
 10
27440.233296925169
 20
2920.2067266769282
 30
0.0
 11
27450.233296925169
 21
2913.7548646769251
 31
0.0
  0
LINE
  5
2519
  8
SL
 10
21418.693687354229
 20
6730.7001271919671
 30
0.0
 11
21418.693687354229
 21
7418.0790607304452
 31
0.0
  0
LINE
  5
251A
  8
FUTO
 10
21318.693687354229
 20
8197.7001271919671
 30
0.0
 11
21318.693687354229
 21
8272.7001271919671
 31
0.0
  0
LINE
  5
251B
  8
FUTO
 10
21493.693687354229
 20
7634.5001271918982
 30
0.0
 11
21493.693687354229
 21
8197.7001271919671
 31
0.0
  0
LINE
  5
251C
  8
FUTO
 10
21418.693687354229
 20
7418.0790607304452
 30
0.0
 11
21418.693687354229
 21
8197.7001271919671
 31
0.0
  0
LINE
  5
251D
  8
SL
 10
21943.693687354229
 20
6730.7001271919653
 30
0.0
 11
21943.69368735424
 21
7634.5001271918973
 31
0.0
  0
LINE
  5
251E
  8
SL
 10
22018.69368735424
 20
6730.7001271919653
 30
0.0
 11
22018.69368735424
 21
7418.0790607304434
 31
0.0
  0
LINE
  5
251F
  8
FUTO
 10
22018.69368735424
 20
7418.0790607304434
 30
0.0
 11
22018.69368735424
 21
8197.7001271919671
 31
0.0
  0
LINE
  5
2520
  8
FUTO
 10
21943.69368735424
 20
7634.5001271918973
 30
0.0
 11
21943.69368735424
 21
8197.7001271919671
 31
0.0
  0
LINE
  5
2523
  8
FUTO
 10
25060.69368735424
 20
9830.7001271919744
 30
0.0
 11
23559.693687354229
 21
9830.7001271919744
 31
0.0
  0
LINE
  5
2524
  8
FUTO
 10
25060.69368735424
 20
8222.7001271919671
 30
0.0
 11
23559.693687354229
 21
8222.7001271919671
 31
0.0
  0
LINE
  5
2525
  8
FUTO
 10
21341.693687354229
 20
8272.7001271919653
 30
0.0
 11
21318.693687354229
 21
8272.7001271919671
 31
0.0
  0
DIMENSION
  5
2555
  8
SP
  2
*D17
 10
25407.960995835849
 20
9026.7001271919708
 30
0.0
 11
25407.960995835849
 21
9462.4869359321146
 31
0.0
 70
   128
 13
24643.69368735424
 23
9931.7001271919708
 33
0.0
 14
25064.600399036412
 24
9026.7001271919708
 34
0.0
 50
90.0
1001
ACAD
1000
DSTYLE
1002
{
1070
   287
1070
     3
1070
    40
1040
45.0
1070
   140
1040
3.0
1070
   147
1040
0.5
1070
   173
1070
     1
1070
   279
1070
     0
1070
   341
1005
24
1070
     6
1000
OPEN
1070
     7
1000
OPEN
1002
}
  0
DIMENSION
  5
2562
  8
SP
  2
*D18
 10
25407.960995835841
 20
6426.7001271919717
 30
0.0
 11
25407.960995835841
 21
7726.7001271919717
 31
0.0
 70
   128
 13
25064.600399036412
 23
9026.7001271919708
 33
0.0
 14
24048.69368735424
 24
6426.7001271919717
 34
0.0
 50
90.0
1001
ACAD
1000
DSTYLE
1002
{
1070
   287
1070
     3
1070
    40
1040
45.0
1070
   140
1040
3.0
1070
   147
1040
0.5
1070
   173
1070
     1
1070
   279
1070
     0
1070
   341
1005
24
1070
     6
1000
OPEN
1070
     7
1000
OPEN
1002
}
  0
LINE
  5
259B
  8
KL
 10
22427.693687354229
 20
2703.0885638379841
 30
0.0
 11
22427.693687354229
 21
3568.4379032915481
 31
0.0
  0
LINE
  5
259C
  8
KL
 10
22418.69368735424
 20
2698.1651739539438
 30
0.0
 11
22418.69368735424
 21
3561.1537543729278
 31
0.0
  0
LINE
  5
259D
  8
KL
 10
22409.693687354229
 20
2693.241784069904
 30
0.0
 11
22409.69368735424
 21
3553.869605454307
 31
0.0
  0
LINE
  5
259E
  8
FUTO
 10
22409.69368735424
 20
3553.8696054543061
 30
0.0
 11
22409.69368735424
 21
3865.392649677116
 31
0.0
  0
LINE
  5
259F
  8
FUTO
 10
22418.69368735424
 20
3561.1537543729291
 30
0.0
 11
22418.69368735424
 21
3865.392649677116
 31
0.0
  0
LINE
  5
25A0
  8
FUTO
 10
22427.693687354229
 20
3568.4379032915481
 30
0.0
 11
22427.693687354229
 21
3865.392649677116
 31
0.0
  0
LINE
  5
25A1
  8
FUTO
 10
22816.839042444921
 20
3883.392649677116
 30
0.0
 11
21494.122064272469
 21
3883.392649677116
 31
0.0
  0
LINE
  5
25A2
  8
FUTO
 10
22805.719006198411
 20
3874.3926496771151
 30
0.0
 11
21457.067054990792
 21
3874.3926496771151
 31
0.0
  0
LINE
  5
25A3
  8
FUTO
 10
22794.598969951909
 20
3865.3926496771151
 30
0.0
 11
21494.122064272469
 21
3865.392649677116
 31
0.0
  0
LINE
  5
26BF
  8
SP
 10
21494.122064272469
 20
3883.392649677116
 30
0.0
 11
21494.122064272469
 21
3865.392649677116
 31
0.0
  0
LINE
  5
26C0
  8
FUTO
 10
22768.693687354229
 20
2284.392649677116
 30
0.0
 11
22995.185900705121
 21
3013.531388558341
 31
0.0
  0
LINE
  5
26C1
  8
FUTO
 10
24368.69368735424
 20
2284.392649677116
 30
0.0
 11
23960.795796195289
 21
3597.524565127088
 31
0.0
  0
LINE
  5
26C3
  8
KL
 10
23768.69368735424
 20
3865.392649677116
 30
0.0
 11
24048.609304937159
 21
3865.392649677116
 31
0.0
  0
LINE
  5
26C4
  8
KL
 10
23768.69368735424
 20
3883.392649677116
 30
0.0
 11
24048.609304937159
 21
3883.3926496771151
 31
0.0
  0
LINE
  5
26C5
  8
KL
 10
23768.69368735424
 20
3874.3926496771151
 30
0.0
 11
24048.69368735424
 21
3874.3926496771151
 31
0.0
  0
LINE
  5
26C6
  8
KL
 10
23768.69368735424
 20
3865.392649677116
 30
0.0
 11
23768.69368735424
 21
3883.392649677116
 31
0.0
  0
LINE
  5
26C7
  8
FUTO
 10
24048.609304937159
 20
3883.3926496771151
 30
0.0
 11
25060.69368735424
 21
3883.392649677116
 31
0.0
  0
LINE
  5
26C8
  8
FUTO
 10
24048.609304937159
 20
3865.392649677116
 30
0.0
 11
25060.693687354229
 21
3865.3926496771151
 31
0.0
  0
LINE
  5
26C9
  8
CT
 10
24457.193414227841
 20
3874.3926496771151
 30
0.0
 11
25132.53726518841
 21
3874.3926496771151
 31
0.0
  0
LINE
  5
26CD
  8
FUTO
 10
25060.693687354229
 20
3865.3926496771151
 30
0.0
 11
25060.693687354229
 21
3883.392649677116
 31
0.0
  0
LINE
  5
26CE
  8
FUTO
 10
25060.69368735424
 20
8222.7001271919671
 30
0.0
 11
25060.69368735424
 21
9830.7001271919744
 31
0.0
  0
LINE
  5
26CF
  8
FUTO
 10
25010.69368735424
 20
8272.7001271919671
 30
0.0
 11
25010.69368735424
 21
9780.7001271919726
 31
0.0
  0
LINE
  5
26EE
  8
FUTO
 10
23484.693687354229
 20
8272.7001271919653
 30
0.0
 11
23484.69368735424
 21
9780.7001271919726
 31
0.0
  0
LINE
  5
26EF
  8
FUTO
 10
23559.693687354229
 20
8197.7001271919653
 30
0.0
 11
23559.693687354229
 21
9855.7001271919726
 31
0.0
  0
LINE
  5
26F0
  8
FUTO
 10
24718.693687354229
 20
8197.7001271919653
 30
0.0
 11
24718.693687354229
 21
8272.7001271919671
 31
0.0
  0
LINE
  5
26F1
  8
FUTO
 10
24718.693687354229
 20
9780.7001271919726
 30
0.0
 11
24718.69368735424
 21
9855.7001271919726
 31
0.0
  0
LINE
  5
26F2
  8
FUTO
 10
23484.693687354229
 20
8272.7001271919671
 30
0.0
 11
21416.693687354491
 21
8272.7001271919671
 31
0.0
  0
LINE
  5
26F3
  8
FUTO
 10
23484.69368735424
 20
9780.7001271919726
 30
0.0
 11
21416.693687355521
 21
9780.7001271919726
 31
0.0
  0
LINE
  5
26F5
  8
SL
 10
21416.693687355579
 20
9780.7001271919726
 30
0.0
 11
23484.693687354229
 21
8272.7001271919671
 31
0.0
  0
LINE
  5
26F6
  8
SL
 10
23484.69368735424
 20
9780.7001271919726
 30
0.0
 11
21416.693687354891
 21
8272.7001271919671
 31
0.0
  0
DIMENSION
  5
26F7
  8
FUTO
  2
*D19
 10
23568.69368735424
 20
10361.66591669787
 30
0.0
 11
22443.69368735424
 21
10451.66591669787
 31
0.0
 70
     0
 13
21318.693687354229
 23
8272.7001271919671
 33
0.0
 14
23568.69368735424
 24
10185.318507626011
 34
0.0
1001
ACAD
1000
DSTYLE
1002
{
1070
   287
1070
     3
1070
    40
1040
45.0
1070
   140
1040
3.0
1070
   147
1040
0.5
1070
   173
1070
     1
1070
   279
1070
     0
1070
   341
1005
24
1070
     6
1000
OPEN
1070
     7
1000
OPEN
1002
}
  0
DIMENSION
  5
2704
  8
FUTO
  2
*D20
 10
25060.69368735424
 20
10361.66591669787
 30
0.0
 11
24314.69368735424
 21
10451.66591669787
 31
0.0
 70
     0
 13
23568.69368735424
 23
10185.318507626011
 33
0.0
 14
25060.69368735424
 24
9830.7001271919744
 34
0.0
1001
ACAD
1000
DSTYLE
1002
{
1070
   287
1070
     3
1070
    40
1040
45.0
1070
   140
1040
3.0
1070
   147
1040
0.5
1070
   173
1070
     1
1070
   279
1070
     0
1070
   341
1005
24
1070
     6
1000
OPEN
1070
     7
1000
OPEN
1002
}
  0
DIMENSION
  5
2711
  8
FUTO
  2
*D21
 10
25307.799537649651
 20
3874.3926496771151
 30
0.0
 11
25217.799537649651
 21
2989.3926496771201
 31
0.0
 70
     0
 13
24718.693687354229
 23
2104.3926496771151
 33
0.0
 14
25132.53726518841
 24
3874.3926496771151
 34
0.0
 50
90.0
1001
ACAD
1000
DSTYLE
1002
{
1070
   287
1070
     3
1070
    40
1040
45.0
1070
   140
1040
3.0
1070
   147
1040
0.5
1070
   173
1070
     1
1070
   279
1070
     0
1070
   341
1005
24
1070
     6
1000
OPEN
1070
     7
1000
OPEN
1002
}
  0
DIMENSION
  5
271E
  8
FUTO
  2
*D22
 10
25307.799537649651
 20
5149.3926496775712
 30
0.0
 11
25217.799537649651
 21
4511.8926496773474
 31
0.0
 70
     0
 13
25132.53726518841
 23
3874.3926496771151
 33
0.0
 14
23559.693687354229
 24
5149.3926496775712
 34
0.0
 50
90.0
1001
ACAD
1000
DSTYLE
1002
{
1070
   287
1070
     3
1070
    40
1040
45.0
1070
   140
1040
3.0
1070
   147
1040
0.5
1070
   173
1070
     1
1070
   279
1070
     0
1070
   341
1005
24
1070
     6
1000
OPEN
1070
     7
1000
OPEN
1002
}
  0
LINE
  5
272B
  8
SL
 10
21610.9524393676
 20
2775.453180947487
 30
0.0
 11
23377.490909237109
 21
4124.7254234808915
 31
0.0
  0
LINE
  5
272C
  8
SL
 10
21808.229027193858
 20
2481.1292394325092
 30
0.0
 11
23727.587389041451
 21
3602.4040624824802
 31
0.0
  0
LINE
  5
272D
  8
FUTO
 10
21542.54105304087
 20
2852.039725063983
 30
0.0
 11
23266.71774281704
 21
4247.501921768906
 31
0.0
  0
LINE
  5
272E
  8
FUTO
 10
21853.072970323879
 20
2388.7461387949761
 30
0.0
 11
23799.05817244506
 21
3453.2843453077512
 31
0.0
  0
ARC
  5
272F
  8
FUTO
 10
21718.69368735424
 20
2634.3926496771051
 30
0.0
 40
310.0
 50
0.0
 51
239.897691931688
  0
ARC
  5
2730
  8
FUTO
 10
23421.693687354229
 20
4021.392649677116
 30
0.0
 40
1903.0
 50
229.60123389991489
 51
245.89089985454851
  0
LINE
  5
2731
  8
KL
 10
23960.795796195289
 20
3597.524565127088
 30
0.0
 11
23918.28049183168
 21
3734.392649677116
 31
0.0
  0
LINE
  5
2732
  8
KL
 10
22995.185900705121
 20
3013.531388558341
 30
0.0
 11
23219.106882876789
 21
3734.392649677116
 31
0.0
  0
LINE
  5
2733
  8
FUTO
 10
29925.633296925109
 20
5074.3926496771173
 30
0.0
 11
28269.233296925111
 21
5074.3926496771173
 31
0.0
  0
LINE
  5
2734
  8
FUTO
 10
29925.633296925109
 20
5143.3926496771164
 30
0.0
 11
28269.233296925111
 21
5143.3926496771164
 31
0.0
  0
LINE
  5
2735
  8
FUTO
 10
29925.633296925109
 20
5149.3926496771173
 30
0.0
 11
28269.233296925111
 21
5149.3926496771173
 31
0.0
  0
LINE
  5
2736
  8
FUTO
 10
29925.633296925109
 20
5149.3926496777021
 30
0.0
 11
28269.233296925111
 21
5149.3926496784516
 31
0.0
  0
LINE
  5
2737
  8
FUTO
 10
29925.633296925109
 20
5149.3926496772592
 30
0.0
 11
28269.233296925111
 21
5149.3926496783888
 31
0.0
  0
DIMENSION
  5
2790
  8
FUTO
  2
*D23
 10
30002.433296925119
 20
5625.5246550905013
 30
0.0
 11
29549.933296925112
 21
5715.5246550905013
 31
0.0
 70
     0
 13
29097.433296925112
 23
5558.0844267476186
 33
0.0
 14
30002.433296925119
 24
4949.3926496771173
 34
0.0
1001
ACAD
1000
DSTYLE
1002
{
1070
   287
1070
     3
1070
    40
1040
45.0
1070
   140
1040
3.0
1070
   147
1040
0.5
1070
   173
1070
     1
1070
   279
1070
     0
1070
   341
1005
24
1070
     6
1000
OPEN
1070
     7
1000
OPEN
1002
}
  0
LINE
  5
2E9D
  8
4
 10
30450.7430500347
 20
183.38204956606199
 30
0.0
 11
30450.7430500347
 21
-1016.617950433937
 31
0.0
  0
LINE
  5
2E9E
  8
4
 10
26250.7430500347
 20
183.38204956606199
 30
0.0
 11
26250.7430500347
 21
-1016.617950433937
 31
0.0
  0
LINE
  5
2E9F
  8
4
 10
23250.743050034689
 20
183.38204956606199
 30
0.0
 11
23250.743050034689
 21
-1016.617950433937
 31
0.0
  0
LINE
  5
2EA2
  8
4
 10
23250.743050034689
 20
-1016.6179504339379
 30
0.0
 11
30450.7430500347
 21
-1016.6179504339379
 31
0.0
  0
LINE
  5
2EA3
  8
4
 10
23250.743050034689
 20
-416.61795043393789
 30
0.0
 11
30450.7430500347
 21
-416.61795043393789
 31
0.0
  0
TEXT
  5
2EA4
  8
4
 10
23481.755535116121
 20
-227.35979523426059
 30
0.0
 40
300.0
  1
機器名称
  0
TEXT
  5
2EA5
  8
4
 10
23468.291686183478
 20
-886.74701004187227
 30
0.0
 40
300.0
  1
機器型番
  0
TEXT
  5
2EA6
  8
4
 10
26279.501420240951
 20
-283.49413629225808
 30
0.0
 40
270.0
  1
ミツヤリミットロードファン
  0
TEXT
  5
2EA7
  8
4
 10
26470.670023547591
 20
-913.66044475427782
 30
0.0
 40
300.0
  1
LL#12-1
  0
TEXT
  5
2EA9
  8
4
 10
21247.748610011371
 20
12386.66790676185
 30
0.0
 40
432.0
  1
遠心式片吸込片持リミットロードファン
  0
LINE
  5
2EAA
  8
4
 10
20850.7430500347
 20
11999.83457515489
 30
0.0
 11
30450.7430500347
 21
11999.83457515489
 31
0.0
  0
LINE
  5
2EAB
  8
4
 10
20850.7430500347
 20
13199.83457515489
 30
0.0
 11
30450.7430500347
 21
13199.83457515489
 31
0.0
  0
LINE
  5
2EAC
  8
4
 10
23250.743050034689
 20
183.38204956606199
 30
0.0
 11
30450.7430500347
 21
183.38204956606199
 31
0.0
  0
LINE
  5
2EAD
  8
4
 10
20850.7430500347
 20
13199.83457515489
 30
0.0
 11
20850.7430500347
 21
11999.83457515489
 31
0.0
  0
TEXT
  5
2EAE
  8
4
 10
28164.560405530439
 20
13419.74853853791
 30
0.0
 40
336.00000000000011
  1
No.
  0
TEXT
  5
2EAF
  8
4
 10
28249.814020916368
 20
10836.18315320846
 30
0.0
 40
323.99999999999989
  1
縮尺：1/60
  0
LINE
  5
2EB0
  8
4
 10
30450.7430500347
 20
13199.83457515489
 30
0.0
 11
30450.7430500347
 21
11999.83457515489
 31
0.0
  0
LINE
  5
2EB1
  8
4
 10
31950.7430500347
 20
14883.38204956606
 30
0.0
 11
31950.7430500347
 21
14883.38204956606
 31
0.0
  0
LINE
  5
2EB2
  8
4
 10
27994.44758419388
 20
13270.963548318459
 30
0.0
 11
27994.44758419388
 21
13903.295618864569
 31
0.0
  0
LINE
  5
2EB3
  8
4
 10
27994.44758419388
 20
13903.295618864569
 30
0.0
 11
30450.7430500347
 21
13903.295618864569
 31
0.0
  0
LINE
  5
2EB4
  8
4
 10
30450.7430500347
 20
13903.295618864569
 30
0.0
 11
30450.7430500347
 21
13270.963548318459
 31
0.0
  0
LINE
  5
2EB5
  8
4
 10
30450.7430500347
 20
13270.963548318459
 30
0.0
 11
27994.44758419388
 21
13270.963548318459
 31
0.0
  0
LINE
  5
2EB6
  8
4
 10
19350.743050034689
 20
-2816.6179504339379
 30
0.0
 11
19350.743050034689
 21
14883.38204956606
 31
0.0
  0
LINE
  5
2EB7
  8
4
 10
19350.743050034689
 20
14883.38204956606
 30
0.0
 11
31950.7430500347
 21
14883.38204956606
 31
0.0
  0
LINE
  5
2EB8
  8
4
 10
31950.7430500347
 20
14883.38204956606
 30
0.0
 11
31950.7430500347
 21
-2816.6179504339379
 31
0.0
  0
LINE
  5
2EB9
  8
4
 10
31950.7430500347
 20
-2816.6179504339379
 30
0.0
 11
19350.743050034689
 21
-2816.6179504339379
 31
0.0
  0
TEXT
  5
2EBA
  8
4
 10
24299.560126081498
 20
11443.94457682338
 30
0.0
 40
323.99999999999989
  1
床置防振ベット
  0
TEXT
  5
2EBB
  8
4
 10
21131.45367528731
 20
11462.45371417336
 30
0.0
 40
323.99999999999989
  1
右回転上向
  0
ENDSEC
  0
EOF
