  0
SECTION
  2
HEADER
  9
$ACADVER
  1
AC1009
  9
$INSBASE
 10
0.0
 20
0.0
 30
0.0
  9
$EXTMIN
 10
20724.481339530819
 20
-4160.9279063547528
 30
0.0
  9
$EXTMAX
 10
33324.481339530837
 20
13539.07209364524
 30
0.0
  9
$LIMMIN
 10
0.0
 20
0.0
  9
$LIMMAX
 10
297.0
 20
210.0
  9
$ORTHOMODE
 70
     0
  9
$REGENMODE
 70
     1
  9
$FILLMODE
 70
     1
  9
$QTEXTMODE
 70
     0
  9
$MIRRTEXT
 70
     0
  9
$DRAGMODE
 70
     2
  9
$LTSCALE
 40
225.0
  9
$OSMODE
 70
    37
  9
$ATTMODE
 70
     1
  9
$TEXTSIZE
 40
120.0
  9
$TRACEWID
 40
0.05
  9
$TEXTSTYLE
  7
STANDARD
  9
$CLAYER
  8
SP
  9
$CELTYPE
  6
BYLAYER
  9
$CECOLOR
 62
   256
  9
$DIMSCALE
 40
45.0
  9
$DIMASZ
 40
2.0
  9
$DIMEXO
 40
1.0
  9
$DIMDLI
 40
10.0
  9
$DIMRND
 40
0.0
  9
$DIMDLE
 40
0.0
  9
$DIMEXE
 40
1.0
  9
$DIMTP
 40
0.0
  9
$DIMTM
 40
0.0
  9
$DIMTXT
 40
3.0
  9
$DIMCEN
 40
0.0
  9
$DIMTSZ
 40
0.0
  9
$DIMTOL
 70
     0
  9
$DIMLIM
 70
     0
  9
$DIMTIH
 70
     0
  9
$DIMTOH
 70
     0
  9
$DIMSE1
 70
     0
  9
$DIMSE2
 70
     0
  9
$DIMTAD
 70
     1
  9
$DIMZIN
 70
     8
  9
$DIMBLK
  1

  9
$DIMASO
 70
     1
  9
$DIMSHO
 70
     1
  9
$DIMPOST
  1

  9
$DIMAPOST
  1

  9
$DIMALT
 70
     0
  9
$DIMALTD
 70
     2
  9
$DIMALTF
 40
25.399999999999999
  9
$DIMLFAC
 40
1.0
  9
$DIMTOFL
 70
     1
  9
$DIMTVP
 40
0.0
  9
$DIMTIX
 70
     0
  9
$DIMSOXD
 70
     0
  9
$DIMSAH
 70
     1
  9
$DIMBLK1
  1
OPEN
  9
$DIMBLK2
  1
OPEN
  9
$DIMSTYLE
  2
DIA1
  9
$DIMCLRD
 70
     2
  9
$DIMCLRE
 70
     2
  9
$DIMCLRT
 70
     2
  9
$DIMTFAC
 40
1.0
  9
$DIMGAP
 40
0.5
  9
$LUNITS
 70
     2
  9
$LUPREC
 70
     3
  9
$SKETCHINC
 40
0.1
  9
$FILLETRAD
 40
10.0
  9
$AUNITS
 70
     0
  9
$AUPREC
 70
     2
  9
$MENU
  1
acad
  9
$ELEVATION
 40
0.0
  9
$PELEVATION
 40
0.0
  9
$THICKNESS
 40
0.0
  9
$LIMCHECK
 70
     0
  9
$BLIPMODE
 70
     0
  9
$CHAMFERA
 40
10.0
  9
$CHAMFERB
 40
10.0
  9
$SKPOLY
 70
     0
  9
$TDCREATE
 40
2451270.426261805
  9
$TDUPDATE
 40
2454953.6374741308
  9
$TDINDWG
 40
0.8530160532
  9
$TDUSRTIMER
 40
0.8530160532
  9
$USRTIMER
 70
     1
  9
$ANGBASE
 50
0.0
  9
$ANGDIR
 70
     0
  9
$PDMODE
 70
     0
  9
$PDSIZE
 40
1.0
  9
$PLINEWID
 40
0.0
  9
$COORDS
 70
     1
  9
$SPLFRAME
 70
     0
  9
$SPLINETYPE
 70
     6
  9
$SPLINESEGS
 70
     8
  9
$ATTDIA
 70
     0
  9
$ATTREQ
 70
     1
  9
$HANDLING
 70
 10241
  9
$HANDSEED
  5
31CC
  9
$SURFTAB1
 70
     6
  9
$SURFTAB2
 70
     6
  9
$SURFTYPE
 70
     6
  9
$SURFU
 70
     6
  9
$SURFV
 70
     6
  9
$UCSNAME
  2

  9
$UCSORG
 10
0.0
 20
0.0
 30
0.0
  9
$UCSXDIR
 10
1.0
 20
0.0
 30
0.0
  9
$UCSYDIR
 10
0.0
 20
1.0
 30
0.0
  9
$PUCSNAME
  2

  9
$PUCSORG
 10
0.0
 20
0.0
 30
0.0
  9
$PUCSXDIR
 10
1.0
 20
0.0
 30
0.0
  9
$PUCSYDIR
 10
0.0
 20
1.0
 30
0.0
  9
$USERI1
 70
     0
  9
$USERI2
 70
     0
  9
$USERI3
 70
     0
  9
$USERI4
 70
     0
  9
$USERI5
 70
     0
  9
$USERR1
 40
0.0
  9
$USERR2
 40
0.0
  9
$USERR3
 40
0.0
  9
$USERR4
 40
0.0
  9
$USERR5
 40
0.0
  9
$WORLDVIEW
 70
     1
  9
$SHADEDGE
 70
     3
  9
$SHADEDIF
 70
    70
  9
$TILEMODE
 70
     1
  9
$MAXACTVP
 70
    16
  9
$PLIMCHECK
 70
     0
  9
$PEXTMIN
 10
1.0000000000000000E+020
 20
1.0000000000000000E+020
 30
1.0000000000000000E+020
  9
$PEXTMAX
 10
-1.0000000000000000E+020
 20
-1.0000000000000000E+020
 30
-1.0000000000000000E+020
  9
$PLIMMIN
 10
0.0
 20
0.0
  9
$PLIMMAX
 10
12.0
 20
9.0
  9
$UNITMODE
 70
     0
  9
$VISRETAIN
 70
     0
  9
$PLINEGEN
 70
     0
  9
$PSLTSCALE
 70
     0
  0
ENDSEC
  0
SECTION
  2
TABLES
  0
TABLE
  2
VPORT
 70
     2
  0
VPORT
  2
*ACTIVE
 70
     0
 10
0.0
 20
0.0
 11
1.0
 21
1.0
 12
32686.419601555051
 22
-2163.818247791216
 13
0.0
 23
0.0
 14
5.0
 24
5.0
 15
0.0
 25
0.0
 16
0.0
 26
0.0
 36
1.0
 17
0.0
 27
0.0
 37
0.0
 40
5433.4436310484471
 41
3.1666666666666661
 42
50.0
 43
0.0
 44
0.0
 50
0.0
 51
0.0
 71
     0
 72
   100
 73
     1
 74
     0
 75
     0
 76
     0
 77
     0
 78
     0
  0
ENDTAB
  0
TABLE
  2
LTYPE
 70
     4
  0
LTYPE
  2
CONTINUOUS
 70
     0
  3
Solid line
 72
    65
 73
     0
 40
0.0
  0
LTYPE
  2
CENTER
 70
     0
  3
____ _ ____ _ ____ _ ____ _ ____ _ ____ _ ____ 
 72
    65
 73
     4
 40
2.0
 49
1.25
 49
-0.25
 49
0.25
 49
-0.25
  0
LTYPE
  2
HIDDEN
 70
     0
  3
__ __ __ __ __ __ __ __ __ __ __ __ __ __ __ __
 72
    65
 73
     2
 40
0.375
 49
0.25
 49
-0.125
  0
LTYPE
  2
PHANTOM
 70
     0
  3
______  __  __  ______  __  __  ______  __  __ 
 72
    65
 73
     6
 40
2.5
 49
1.25
 49
-0.25
 49
0.25
 49
-0.25
 49
0.25
 49
-0.25
  0
ENDTAB
  0
TABLE
  2
LAYER
 70
     9
  0
LAYER
  2
0
 70
     0
 62
     7
  6
CONTINUOUS
  0
LAYER
  2
CT
 70
     0
 62
     3
  6
CENTER
  0
LAYER
  2
FUTO
 70
     0
 62
     4
  6
CONTINUOUS
  0
LAYER
  2
HOSO
 70
     0
 62
     7
  6
CONTINUOUS
  0
LAYER
  2
KL
 70
     0
 62
     7
  6
HIDDEN
  0
LAYER
  2
SL
 70
     0
 62
     1
  6
PHANTOM
  0
LAYER
  2
SP
 70
     0
 62
     2
  6
CONTINUOUS
  0
LAYER
  2
DEFPOINTS
 70
     0
 62
     7
  6
CONTINUOUS
  0
LAYER
  2
4
 70
     0
 62
     7
  6
CONTINUOUS
  0
ENDTAB
  0
TABLE
  2
STYLE
 70
     1
  0
STYLE
  2
STANDARD
 70
     0
 40
0.0
 41
1.0
 50
15.0
 71
     0
 42
120.0
  3
C:\Program Files\AutoCAD LT\simplex.shx
  4
C:\Program Files\AutoCAD LT\extfont.shx
  0
ENDTAB
  0
TABLE
  2
VIEW
 70
     0
  0
ENDTAB
  0
TABLE
  2
UCS
 70
     0
  0
ENDTAB
  0
TABLE
  2
APPID
 70
     2
  0
APPID
  2
ACAD
 70
     0
  0
APPID
  2
CONTENTBLOCKICON
 70
     0
  0
ENDTAB
  0
TABLE
  2
DIMSTYLE
 70
     2
  0
DIMSTYLE
  2
DIA1
 70
     0
  3

  4

  5

  6

  7

 40
1.0
 41
2.0
 42
1.0
 43
10.0
 44
1.0
 45
0.0
 46
0.0
 47
0.0
 48
0.0
140
2.5
141
0.0
142
0.0
143
25.399999999999999
144
1.0
145
0.0
146
1.0
147
0.09
 71
     0
 72
     0
 73
     0
 74
     0
 75
     0
 76
     0
 77
     1
 78
     8
170
     0
171
     2
172
     1
173
     0
174
     0
175
     0
176
     2
177
     2
178
     2
  0
DIMSTYLE
  2
STANDARD
 70
     0
  3

  4

  5

  6

  7

 40
1.0
 41
0.18
 42
0.0625
 43
0.38
 44
0.18
 45
0.0
 46
0.0
 47
0.0
 48
0.0
140
0.18
141
0.09
142
0.0
143
25.399999999999999
144
1.0
145
0.0
146
1.0
147
0.09
 71
     0
 72
     0
 73
     1
 74
     1
 75
     0
 76
     0
 77
     0
 78
     0
170
     0
171
     2
172
     0
173
     0
174
     0
175
     0
176
     0
177
     0
178
     0
  0
ENDTAB
  0
ENDSEC
  0
SECTION
  2
BLOCKS
  0
BLOCK
  8
0
  2
$MODEL_SPACE
 70
     0
 10
0.0
 20
0.0
 30
0.0
  3
$MODEL_SPACE
  1

  0
ENDBLK
  5
7
  8
0
  0
BLOCK
 67
     1
  8
0
  2
$PAPER_SPACE
 70
     0
 10
0.0
 20
0.0
 30
0.0
  3
$PAPER_SPACE
  1

  0
ENDBLK
  5
A
 67
     1
  8
0
  0
BLOCK
  8
0
  2
_OPEN
 70
     0
 10
0.0
 20
0.0
 30
0.0
  3
_OPEN
  1

  0
LINE
  5
25
  8
0
  6
BYBLOCK
 62
     0
 10
-1.0
 20
0.1666666666666666
 30
0.0
 11
0.0
 21
0.0
 31
0.0
  0
LINE
  5
26
  8
0
  6
BYBLOCK
 62
     0
 10
0.0
 20
0.0
 30
0.0
 11
-1.0
 21
-0.1666666666666666
 31
0.0
  0
LINE
  5
27
  8
0
  6
BYBLOCK
 62
     0
 10
0.0
 20
0.0
 30
0.0
 11
-1.0
 21
0.0
 31
0.0
  0
ENDBLK
  5
29
  8
0
  0
BLOCK
  8
0
  2
_DOT
 70
     0
 10
0.0
 20
0.0
 30
0.0
  3
_DOT
  1

  0
POLYLINE
  5
16D
  8
0
  6
BYBLOCK
 62
     0
 66
     1
 10
0.0
 20
0.0
 30
0.0
 70
     1
 40
0.25
 41
0.25
  0
VERTEX
  5
3152
  8
0
  6
BYBLOCK
 62
     0
 10
-0.125
 20
0.0
 30
0.0
 42
1.0
  0
VERTEX
  5
3153
  8
0
  6
BYBLOCK
 62
     0
 10
0.125
 20
0.0
 30
0.0
 42
1.0
  0
SEQEND
  5
3154
  8
0
  6
BYBLOCK
 62
     0
  0
LINE
  5
171
  8
0
  6
BYBLOCK
 62
     0
 10
-0.25
 20
0.0
 30
0.0
 11
-1.0
 21
0.0
 31
0.0
  0
ENDBLK
  5
173
  8
0
  0
BLOCK
  8
0
  2
L-75-6
 70
     0
 10
0.0
 20
0.0
 30
0.0
  3
L-75-6
  1

  0
LINE
  5
293
  8
0
 10
114.6064614035558
 20
81.429596884474719
 30
0.0
 11
189.60646140355581
 21
81.429596884474719
 31
0.0
  0
LINE
  5
294
  8
0
 10
114.6064614035558
 20
81.429596884474719
 30
0.0
 11
114.6064614035558
 21
156.42959688447471
 31
0.0
  0
LINE
  5
295
  8
0
 10
189.60646140355581
 20
81.429596884474719
 30
0.0
 11
189.60646140355581
 21
83.429596884474705
 31
0.0
  0
LINE
  5
296
  8
0
 10
114.6064614035558
 20
156.42959688447471
 30
0.0
 11
116.6064614035558
 21
156.42959688447471
 31
0.0
  0
LINE
  5
297
  8
0
 10
120.6064614035558
 20
95.929596884474705
 30
0.0
 11
120.6064614035558
 21
152.42959688447471
 31
0.0
  0
LINE
  5
298
  8
0
 10
129.10646140355581
 20
87.429596884474719
 30
0.0
 11
185.60646140355581
 21
87.429596884474719
 31
0.0
  0
ARC
  5
299
  8
0
 10
185.60646140355581
 20
83.429596884474705
 30
0.0
 40
4.0
 50
0.0
 51
90.0
  0
ARC
  5
29A
  8
0
 10
116.6064614035558
 20
152.42959688447471
 30
0.0
 40
4.0
 50
0.0
 51
90.0
  0
ARC
  5
29B
  8
0
 10
129.10646140355581
 20
95.929596884474705
 30
0.0
 40
8.5
 50
180.0
 51
270.0
  0
ENDBLK
  5
29D
  8
0
  0
BLOCK
  8
0
  2
22222F
 70
     0
 10
0.0
 20
0.0
 30
0.0
  3
22222F
  1

  0
ARC
  5
228
  8
FUTO
 10
-0.0000000000000568
 20
0.0
 30
0.0
 40
130.0
 50
124.6637959032814
 51
175.3362040967184
  0
ARC
  5
229
  8
FUTO
 10
-0.0000000000000568
 20
0.0
 30
0.0
 40
130.0
 50
4.6637959032815717
 51
55.336204096718511
  0
ARC
  5
22A
  8
FUTO
 10
-0.0000000000000568
 20
0.0
 30
0.0
 40
115.0
 50
8.9772148936872895
 51
51.022785106312661
  0
ARC
  5
22B
  8
FUTO
 10
-0.0000000000000568
 20
0.0
 30
0.0
 40
115.0
 50
128.9772148936872
 51
171.02278510631271
  0
ARC
  5
22C
  8
FUTO
 10
-57.499999999999829
 20
99.592921435210386
 30
0.0
 40
18.0
 50
25.51139255315622
 51
214.4886074468437
  0
ARC
  5
22D
  8
FUTO
 10
57.5
 20
99.592921435210243
 30
0.0
 40
18.0
 50
325.51139255315621
 51
154.4886074468437
  0
LINE
  5
22E
  8
FUTO
 10
-110.0
 20
-127.0
 30
0.0
 11
-0.0000000000000568
 21
-127.0
 31
0.0
  0
ARC
  5
22F
  8
FUTO
 10
-0.0000000000000568
 20
0.0
 30
0.0
 40
115.0
 50
248.9772148936872
 51
291.0227851063126
  0
CIRCLE
  5
230
  8
FUTO
 10
-0.0000000000000568
 20
0.0
 30
0.0
 40
54.0
  0
LINE
  5
231
  8
CT
 10
-190.0
 20
-140.0
 30
0.0
 11
-190.0
 21
-70.0
 31
0.0
  0
LINE
  5
232
  8
FUTO
 10
-225.0
 20
-130.0
 30
0.0
 11
-110.0
 21
-130.0
 31
0.0
  0
LINE
  5
233
  8
FUTO
 10
-125.0000000000001
 20
-80.0
 30
0.0
 11
-222.0
 21
-80.0
 31
0.0
  0
ARC
  5
234
  8
FUTO
 10
-222.0
 20
-83.0
 30
0.0
 40
3.0
 50
90.0
 51
180.0
  0
LINE
  5
235
  8
FUTO
 10
-225.0
 20
-83.0
 30
0.0
 11
-225.0
 21
-130.0
 31
0.0
  0
LINE
  5
236
  8
FUTO
 10
-129.99999999999929
 20
-9.9498743710669828
 30
0.0
 11
-130.0
 21
-60.0
 31
0.0
  0
ARC
  5
237
  8
FUTO
 10
-0.0000000000000568
 20
0.0
 30
0.0
 40
115.0
 50
188.9772148936872
 51
231.02278510631271
  0
LINE
  5
238
  8
FUTO
 10
-125.0000000000001
 20
-80.0
 30
0.0
 11
-110.0000000000001
 21
-95.0
 31
0.0
  0
ARC
  5
239
  8
FUTO
 10
-150.0
 20
-60.0
 30
0.0
 40
20.0
 50
270.0
 51
0.0
  0
LINE
  5
23A
  8
FUTO
 10
-110.0
 20
-130.0
 30
0.0
 11
-110.0000000000001
 21
-95.0
 31
0.0
  0
ARC
  5
23B
  8
FUTO
 10
-57.500000000000057
 20
-99.592921435210542
 30
0.0
 40
18.0
 50
145.51139255315621
 51
334.48860744684367
  0
ARC
  5
23C
  8
FUTO
 10
-115.0
 20
0.0
 30
0.0
 40
18.0
 50
85.511392553156256
 51
274.48860744684367
  0
LINE
  5
23D
  8
CT
 10
190.0
 20
-140.0
 30
0.0
 11
190.0
 21
-70.0
 31
0.0
  0
ARC
  5
23E
  8
FUTO
 10
150.0
 20
-60.0
 30
0.0
 40
20.0
 50
180.0
 51
270.0
  0
LINE
  5
23F
  8
FUTO
 10
222.0000000000004
 20
-80.0
 30
0.0
 11
124.9999999999997
 21
-80.0
 31
0.0
  0
LINE
  5
240
  8
FUTO
 10
110.0
 20
-130.0
 30
0.0
 11
225.0
 21
-130.0
 31
0.0
  0
LINE
  5
241
  8
FUTO
 10
130.0
 20
-60.0
 30
0.0
 11
130.0
 21
-9.9498743710661302
 31
0.0
  0
ARC
  5
242
  8
FUTO
 10
-0.0000000000000568
 20
0.0
 30
0.0
 40
115.0
 50
308.97721489368718
 51
351.02278510631271
  0
LINE
  5
243
  8
FUTO
 10
-0.0000000000000568
 20
-127.0
 30
0.0
 11
110.0
 21
-127.0
 31
0.0
  0
ARC
  5
244
  8
FUTO
 10
57.5
 20
-99.592921435210542
 30
0.0
 40
18.0
 50
205.51139255315621
 51
34.488607446843737
  0
LINE
  5
245
  8
FUTO
 10
109.9999999999997
 20
-95.0
 30
0.0
 11
124.9999999999997
 21
-80.0
 31
0.0
  0
LINE
  5
246
  8
FUTO
 10
109.9999999999997
 20
-95.0
 30
0.0
 11
110.0
 21
-130.0
 31
0.0
  0
ARC
  5
247
  8
FUTO
 10
115.0
 20
0.0
 30
0.0
 40
18.0
 50
265.51139255315621
 51
94.488607446843773
  0
ARC
  5
248
  8
FUTO
 10
222.0000000000004
 20
-83.0
 30
0.0
 40
3.0
 50
0.0
 51
90.0
  0
LINE
  5
249
  8
FUTO
 10
225.0
 20
-130.0
 30
0.0
 11
225.0000000000004
 21
-83.0
 31
0.0
  0
LINE
  5
24A
  8
FUTO
 10
19.227247756821669
 20
132.99999999999989
 30
0.0
 11
-19.227247756821779
 21
132.99999999999989
 31
0.0
  0
ARC
  5
24B
  8
FUTO
 10
-0.0000000000000568
 20
0.0
 30
0.0
 40
115.0
 50
68.977214893687218
 51
111.0227851063126
  0
ARC
  5
24C
  8
FUTO
 10
-0.0000000000000568
 20
0.0
 30
0.0
 40
130.0
 50
98.505358450480756
 51
115.3362040967184
  0
LINE
  5
24D
  8
FUTO
 10
-19.227247756821779
 20
113.3812724558063
 30
0.0
 11
-19.227247756821779
 21
132.99999999999989
 31
0.0
  0
ARC
  5
24E
  8
FUTO
 10
-0.0000000000000568
 20
0.0
 30
0.0
 40
130.0
 50
64.663795903281382
 51
81.494641549519287
  0
LINE
  5
24F
  8
FUTO
 10
19.227247756821669
 20
113.3812724558063
 30
0.0
 11
19.227247756821669
 21
132.99999999999989
 31
0.0
  0
ENDBLK
  5
251
  8
0
  0
BLOCK
  8
0
  2
まっすぐの矢印
 70
     0
 10
0.0
 20
0.0
 30
0.0
  3
まっすぐの矢印
  1

  0
LINE
  5
2CF
  8
SP
 10
0.6962157491662495
 20
-2.216890595009601
 30
0.0
 11
0.6962157491662495
 21
-5.0
 31
0.0
  0
LINE
  5
2D0
  8
SP
 10
0.6962157491662495
 20
-5.0
 30
0.0
 11
-0.6962157491662495
 21
-5.0
 31
0.0
  0
LINE
  5
2D1
  8
SP
 10
-0.6962157491662495
 20
-5.0
 30
0.0
 11
-0.6962157491662495
 21
-2.216890595009601
 31
0.0
  0
LINE
  5
2D2
  8
SP
 10
-0.6962157491662495
 20
-2.216890595009601
 30
0.0
 11
-1.7145256852758151
 21
-2.216890595009601
 31
0.0
  0
LINE
  5
2D3
  8
SP
 10
-1.7145256852758151
 20
-2.216890595009601
 30
0.0
 11
0.0
 21
0.0
 31
0.0
  0
LINE
  5
2D4
  8
SP
 10
0.0
 20
0.0
 30
0.0
 11
1.7145256852758151
 21
-2.216890595009601
 31
0.0
  0
LINE
  5
2D5
  8
SP
 10
1.7145256852758151
 20
-2.216890595009601
 30
0.0
 11
0.6962157491662495
 21
-2.216890595009601
 31
0.0
  0
ENDBLK
  5
2D7
  8
0
  0
BLOCK
  8
0
  2
右回転矢印
 70
     0
 10
0.0
 20
0.0
 30
0.0
  3
右回転矢印
  1

  0
LINE
  5
1E3
  8
SP
 10
-2.7705290305565882
 20
1.567794835092901
 30
0.0
 11
-2.4288000558398148
 21
2.8051227455822878
 31
0.0
  0
LINE
  5
1E4
  8
SP
 10
-2.4288000558398148
 20
2.8051227455822878
 30
0.0
 11
0.0
 21
0.0
 31
0.0
  0
LINE
  5
1E5
  8
SP
 10
0.0
 20
0.0
 30
0.0
 11
-3.3160037613098718
 21
-0.4072531086382499
 31
0.0
  0
LINE
  5
1E6
  8
SP
 10
-3.3160037613098718
 20
-0.4072531086382499
 30
0.0
 11
-3.0391574735299112
 21
0.5951483970269315
 31
0.0
  0
ARC
  5
1E7
  8
SP
 10
-5.9215210782018062
 20
-9.8412769578768184
 30
0.0
 40
10.82714154973578
 50
74.560750721316467
 51
112.11861101078711
  0
LINE
  5
1E8
  8
SP
 10
-9.9982127316752951
 20
0.1890560027239694
 30
0.0
 11
-10.37814929817227
 21
1.1238557349100611
 31
0.0
  0
ARC
  5
1E9
  8
SP
 10
-5.9215210782018062
 20
-9.8412769578768291
 30
0.0
 40
11.83620167374065
 50
74.560750721316396
 51
112.11861101078701
  0
ENDBLK
  5
1EB
  8
0
  0
BLOCK
  8
0
  2
*D6
 70
     1
 10
0.0
 20
0.0
 30
0.0
  3
*D6
  1

  0
LINE
  5
30BE
  8
SP
 62
     2
 10
23003.842790186751
 20
134.6696818744021
 30
0.0
 11
23003.842790186751
 21
-532.95104513948354
 31
0.0
  0
LINE
  5
30BF
  8
SP
 62
     2
 10
25253.842790186751
 20
134.6696818744021
 30
0.0
 11
25253.842790186751
 21
-532.95104513948354
 31
0.0
  0
LINE
  5
30C0
  8
SP
 62
     2
 10
23093.842790186751
 20
-487.95104513948348
 30
0.0
 11
25163.842790186751
 21
-487.95104513948348
 31
0.0
  0
INSERT
  5
30C1
  8
SP
 62
     2
  2
_OPEN
 10
23003.842790186751
 20
-487.95104513948348
 30
0.0
 41
90.0
 42
90.0
 43
90.0
 50
180.0
  0
INSERT
  5
30C2
  8
SP
 62
     2
  2
_OPEN
 10
25253.842790186751
 20
-487.95104513948348
 30
0.0
 41
90.0
 42
90.0
 43
90.0
  0
TEXT
  5
30C3
  8
SP
 62
     2
 10
23879.558423600331
 20
-465.45104513948348
 30
0.0
 40
135.0
  1
2250
 51
15.0
  0
POINT
  5
30C4
  8
DEFPOINTS
 62
     0
 10
23003.842790186751
 20
179.6696818744021
 30
0.0
  0
POINT
  5
30C5
  8
DEFPOINTS
 62
     0
 10
25253.842790186751
 20
179.6696818744021
 30
0.0
  0
POINT
  5
30C6
  8
DEFPOINTS
 62
     0
 10
25253.842790186751
 20
-487.95104513948348
 30
0.0
  0
ENDBLK
  5
A67
  8
0
  0
BLOCK
  8
0
  2
*D7
 70
     1
 10
0.0
 20
0.0
 30
0.0
  3
*D7
  1

  0
LINE
  5
30AC
  8
SP
 62
     2
 10
25253.842790186751
 20
134.6696818744021
 30
0.0
 11
25253.842790186751
 21
-532.95104513948354
 31
0.0
  0
LINE
  5
30AD
  8
SP
 62
     2
 10
26403.842790186751
 20
134.6696818744021
 30
0.0
 11
26403.842790186751
 21
-532.95104513948354
 31
0.0
  0
LINE
  5
30AE
  8
SP
 62
     2
 10
25343.842790186751
 20
-487.95104513948348
 30
0.0
 11
26313.842790186751
 21
-487.95104513948348
 31
0.0
  0
INSERT
  5
30AF
  8
SP
 62
     2
  2
_OPEN
 10
25253.842790186751
 20
-487.95104513948348
 30
0.0
 41
90.0
 42
90.0
 43
90.0
 50
180.0
  0
INSERT
  5
30B0
  8
SP
 62
     2
  2
_OPEN
 10
26403.842790186751
 20
-487.95104513948348
 30
0.0
 41
90.0
 42
90.0
 43
90.0
  0
TEXT
  5
30B1
  8
SP
 62
     2
 10
25590.631199871059
 20
-465.45104513948348
 30
0.0
 40
135.0
  1
1150
 51
15.0
  0
POINT
  5
30B2
  8
DEFPOINTS
 62
     0
 10
25253.842790186751
 20
179.6696818744021
 30
0.0
  0
POINT
  5
30B3
  8
DEFPOINTS
 62
     0
 10
26403.842790186751
 20
179.6696818744021
 30
0.0
  0
POINT
  5
30B4
  8
DEFPOINTS
 62
     0
 10
26403.842790186751
 20
-487.95104513948348
 30
0.0
  0
ENDBLK
  5
A74
  8
0
  0
BLOCK
  8
0
  2
*D8
 70
     1
 10
0.0
 20
0.0
 30
0.0
  3
*D8
  1

  0
LINE
  5
313E
  8
SP
 10
26403.842790186751
 20
134.6696818744021
 30
0.0
 11
26403.842790186751
 21
-828.28394203968662
 31
0.0
  0
LINE
  5
313F
  8
SP
 10
23003.842790186751
 20
134.6696818744021
 30
0.0
 11
23003.842790186751
 21
-828.28394203968662
 31
0.0
  0
LINE
  5
3140
  8
SP
 10
26313.842790186751
 20
-783.28394203968674
 30
0.0
 11
23093.842790186751
 21
-783.28394203968674
 31
0.0
  0
INSERT
  5
3141
  8
SP
  2
_OPEN
 10
26403.842790186751
 20
-783.28394203968674
 30
0.0
 41
90.0
 42
90.0
 43
90.0
  0
INSERT
  5
3142
  8
SP
  2
_OPEN
 10
23003.842790186751
 20
-783.28394203968674
 30
0.0
 41
90.0
 42
90.0
 43
90.0
 50
180.0
  0
TEXT
  8
0
  40
135
  5
31BE
  72
0
  71
0
 10
24433.8
 20
-932.234
 30
0.000000
  1
3400
  0
POINT
  5
3144
  8
DEFPOINTS
 62
     0
 10
26403.842790186751
 20
179.6696818744021
 30
0.0
  0
POINT
  5
3145
  8
DEFPOINTS
 62
     0
 10
23003.842790186751
 20
179.6696818744021
 30
0.0
  0
POINT
  5
3146
  8
DEFPOINTS
 62
     0
 10
23003.842790186751
 20
-783.28394203968674
 30
0.0
  0
ENDBLK
  5
14BE
  8
0
  0
BLOCK
  8
0
  2
*D9
 70
     1
 10
0.0
 20
0.0
 30
0.0
  3
*D9
  1

  0
LINE
  5
3147
  8
SP
 10
26414.8754596006
 20
359.6696818744021
 30
0.0
 11
27037.948640482169
 21
359.66968187440187
 31
0.0
  0
LINE
  5
3148
  8
SP
 10
26414.8754596006
 20
179.6696818744021
 30
0.0
 11
27037.948640482169
 21
179.6696818744019
 31
0.0
  0
LINE
  5
3149
  8
SP
 10
26992.948640482169
 20
449.66968187440199
 30
0.0
 11
26992.948640482169
 21
539.66968187440193
 31
0.0
  0
LINE
  5
314A
  8
SP
 10
26992.948640482169
 20
89.669681874401988
 30
0.0
 11
26992.948640482169
 21
-360.33031812559801
 31
0.0
  0
LINE
  5
314B
  8
SP
 10
26992.948640482169
 20
359.66968187440187
 30
0.0
 11
26992.948640482169
 21
179.6696818744019
 31
0.0
  0
INSERT
  5
314C
  8
SP
  2
_DOT
 10
26992.948640482169
 20
359.66968187440187
 30
0.0
 41
90.0
 42
90.0
 43
90.0
 50
270.0
  0
INSERT
  5
314D
  8
SP
  2
_OPEN
 10
26992.948640482169
 20
179.6696818744019
 30
0.0
 41
90.0
 42
90.0
 43
90.0
 50
90.0
  0
TEXT
  8
0
  40
135
  5
31BF
  72
0
  71
0
 10
26632.9
 20
-419.280
 30
0.000000
  1
180
  0
POINT
  5
314F
  8
DEFPOINTS
 62
     0
 10
26369.8754596006
 20
359.6696818744021
 30
0.0
  0
POINT
  5
3150
  8
DEFPOINTS
 62
     0
 10
26369.8754596006
 20
179.6696818744021
 30
0.0
  0
POINT
  5
3151
  8
DEFPOINTS
 62
     0
 10
26992.948640482169
 20
179.6696818744019
 30
0.0
  0
ENDBLK
  5
14D8
  8
0
  0
BLOCK
  8
0
  2
*D10
 70
     1
 10
0.0
 20
0.0
 30
0.0
  3
*D10
  1

  0
LINE
  5
3155
  8
SP
 10
31732.582399757619
 20
3849.6696818744022
 30
0.0
 11
32226.772118136651
 21
3849.6696818744022
 31
0.0
  0
LINE
  5
3156
  8
SP
 10
31732.582399757619
 20
1849.6696818744019
 30
0.0
 11
32226.772118136651
 21
1849.6696818744019
 31
0.0
  0
LINE
  5
3157
  8
SP
 10
32181.772118136661
 20
3759.6696818744008
 30
0.0
 11
32181.772118136661
 21
1939.6696818744019
 31
0.0
  0
INSERT
  5
3158
  8
SP
  2
_OPEN
 10
32181.772118136661
 20
3849.6696818744022
 30
0.0
 41
90.0
 42
90.0
 43
90.0
 50
90.0
  0
INSERT
  5
3159
  8
SP
  2
_OPEN
 10
32181.772118136661
 20
1849.6696818744019
 30
0.0
 41
90.0
 42
90.0
 43
90.0
 50
270.0
  0
TEXT
  8
0
  40
135
  5
31C0
  72
0
  71
0
 10
31821.8
 20
2610.72
 30
0.000000
  1
%%C2000
  0
POINT
  5
315B
  8
DEFPOINTS
 62
     0
 10
31687.58239975763
 20
3849.6696818744022
 30
0.0
  0
POINT
  5
315C
  8
DEFPOINTS
 62
     0
 10
31687.58239975763
 20
1849.6696818744019
 30
0.0
  0
POINT
  5
315D
  8
DEFPOINTS
 62
     0
 10
32181.772118136661
 20
1849.6696818744019
 30
0.0
  0
ENDBLK
  5
1561
  8
0
  0
BLOCK
  8
0
  2
*D11
 70
     1
 10
0.0
 20
0.0
 30
0.0
  3
*D11
  1

  0
LINE
  5
315E
  8
SP
 10
30782.58239975763
 20
4553.5404645261488
 30
0.0
 11
30782.58239975763
 21
4669.5001278481586
 31
0.0
  0
LINE
  5
315F
  8
SP
 10
31687.58239975763
 20
3969.6696818744022
 30
0.0
 11
31687.58239975763
 21
4669.5001278481586
 31
0.0
  0
LINE
  5
3160
  8
SP
 10
30872.58239975763
 20
4624.5001278481586
 30
0.0
 11
31597.58239975763
 21
4624.5001278481586
 31
0.0
  0
INSERT
  5
3161
  8
SP
  2
_OPEN
 10
30782.58239975763
 20
4624.5001278481586
 30
0.0
 41
90.0
 42
90.0
 43
90.0
 50
180.0
  0
INSERT
  5
3162
  8
SP
  2
_OPEN
 10
31687.58239975763
 20
4624.5001278481586
 30
0.0
 41
90.0
 42
90.0
 43
90.0
  0
TEXT
  8
0
  40
135
  5
31C1
  72
0
  71
0
 10
30965.1
 20
4475.55
 30
0.000000
  1
905
  0
POINT
  5
3164
  8
DEFPOINTS
 62
     0
 10
30782.58239975763
 20
4508.5404645261488
 30
0.0
  0
POINT
  5
3165
  8
DEFPOINTS
 62
     0
 10
31687.58239975763
 20
3924.6696818744022
 30
0.0
  0
POINT
  5
3166
  8
DEFPOINTS
 62
     0
 10
31687.58239975763
 20
4624.5001278481586
 30
0.0
  0
ENDBLK
  5
1576
  8
0
  0
BLOCK
  8
0
  2
*D12
 70
     1
 10
0.0
 20
0.0
 30
0.0
  3
*D12
  1

  0
LINE
  5
3167
  8
SP
 62
     2
 10
28411.58239975763
 20
134.66968187440199
 30
0.0
 11
28411.58239975763
 21
-538.40773839384383
 31
0.0
  0
LINE
  5
3168
  8
SP
 62
     2
 10
30782.58239975763
 20
134.6696818744019
 30
0.0
 11
30782.58239975763
 21
-538.40773839384383
 31
0.0
  0
LINE
  5
3169
  8
SP
 62
     2
 10
28501.58239975763
 20
-493.40773839384377
 30
0.0
 11
30692.58239975763
 21
-493.40773839384377
 31
0.0
  0
INSERT
  5
316A
  8
SP
 62
     2
  2
_OPEN
 10
28411.58239975763
 20
-493.40773839384377
 30
0.0
 41
90.0
 42
90.0
 43
90.0
 50
180.0
  0
INSERT
  5
316B
  8
SP
 62
     2
  2
_OPEN
 10
30782.58239975763
 20
-493.40773839384377
 30
0.0
 41
90.0
 42
90.0
 43
90.0
  0
TEXT
  8
0
  40
135
  5
31C2
  62
2
  72
0
  71
0
 10
29327.1
 20
-642.358
 30
0.000000
  1
2371
  0
POINT
  5
316D
  8
DEFPOINTS
 62
     0
 10
28411.58239975763
 20
179.66968187440199
 30
0.0
  0
POINT
  5
316E
  8
DEFPOINTS
 62
     0
 10
30782.58239975763
 20
179.6696818744019
 30
0.0
  0
POINT
  5
316F
  8
DEFPOINTS
 62
     0
 10
30782.58239975763
 20
-493.40773839384377
 30
0.0
  0
ENDBLK
  5
1B15
  8
0
  0
BLOCK
  8
0
  2
*D13
 70
     1
 10
0.0
 20
0.0
 30
0.0
  3
*D13
  1

  0
LINE
  5
3170
  8
SP
 62
     2
 10
31611.58239975763
 20
134.66968187440199
 30
0.0
 11
31611.58239975763
 21
-538.40773839384383
 31
0.0
  0
LINE
  5
3171
  8
SP
 62
     2
 10
30872.58239975763
 20
-493.40773839384377
 30
0.0
 11
31521.58239975763
 21
-493.40773839384377
 31
0.0
  0
INSERT
  5
3172
  8
SP
 62
     2
  2
_OPEN
 10
30782.58239975763
 20
-493.40773839384377
 30
0.0
 41
90.0
 42
90.0
 43
90.0
 50
180.0
  0
INSERT
  5
3173
  8
SP
 62
     2
  2
_OPEN
 10
31611.58239975763
 20
-493.40773839384377
 30
0.0
 41
90.0
 42
90.0
 43
90.0
  0
TEXT
  8
0
  40
135
  5
31C3
  62
2
  72
0
  71
0
 10
30927.1
 20
-642.358
 30
0.000000
  1
829
  0
POINT
  5
3175
  8
DEFPOINTS
 62
     0
 10
30782.58239975763
 20
179.6696818744019
 30
0.0
  0
POINT
  5
3176
  8
DEFPOINTS
 62
     0
 10
31611.58239975763
 20
179.66968187440199
 30
0.0
  0
POINT
  5
3177
  8
DEFPOINTS
 62
     0
 10
31611.58239975763
 20
-493.40773839384377
 30
0.0
  0
ENDBLK
  5
1B21
  8
0
  0
BLOCK
  8
0
  2
*D14
 70
     1
 10
0.0
 20
0.0
 30
0.0
  3
*D14
  1

  0
LINE
  5
3178
  8
SP
 62
     2
 10
31611.58239975763
 20
-538.40773839384383
 30
0.0
 11
31611.58239975763
 21
-830.53003864674065
 31
0.0
  0
LINE
  5
3179
  8
SP
 62
     2
 10
28411.58239975763
 20
-538.40773839384383
 30
0.0
 11
28411.58239975763
 21
-830.53003864674065
 31
0.0
  0
LINE
  5
317A
  8
SP
 62
     2
 10
31521.58239975763
 20
-785.53003864674065
 30
0.0
 11
28501.58239975763
 21
-785.53003864674065
 31
0.0
  0
INSERT
  5
317B
  8
SP
 62
     2
  2
_OPEN
 10
31611.58239975763
 20
-785.53003864674065
 30
0.0
 41
90.0
 42
90.0
 43
90.0
  0
INSERT
  5
317C
  8
SP
 62
     2
  2
_OPEN
 10
28411.58239975763
 20
-785.53003864674065
 30
0.0
 41
90.0
 42
90.0
 43
90.0
 50
180.0
  0
TEXT
  8
0
  40
135
  5
31C4
  62
2
  72
0
  71
0
 10
29741.6
 20
-934.480
 30
0.000000
  1
3200
  0
POINT
  5
317E
  8
DEFPOINTS
 62
     0
 10
31611.58239975763
 20
-493.40773839384377
 30
0.0
  0
POINT
  5
317F
  8
DEFPOINTS
 62
     0
 10
28411.58239975763
 20
-493.40773839384377
 30
0.0
  0
POINT
  5
3180
  8
DEFPOINTS
 62
     0
 10
28411.58239975763
 20
-785.53003864674065
 30
0.0
  0
ENDBLK
  5
1B2E
  8
0
  0
BLOCK
  8
0
  2
*D15
 70
     1
 10
0.0
 20
0.0
 30
0.0
  3
*D15
  1

  0
LINE
  5
3181
  8
SP
 62
     2
 10
28272.58239975763
 20
4624.5001278481586
 30
0.0
 11
30692.58239975763
 21
4624.5001278481586
 31
0.0
  0
INSERT
  5
3182
  8
SP
 62
     2
  2
_OPEN
 10
28182.58239975763
 20
4624.5001278481586
 30
0.0
 41
90.0
 42
90.0
 43
90.0
 50
180.0
  0
INSERT
  5
3183
  8
SP
 62
     2
  2
_OPEN
 10
30782.58239975763
 20
4624.5001278481586
 30
0.0
 41
90.0
 42
90.0
 43
90.0
  0
TEXT
  8
0
  40
135
  5
31C5
  62
2
  72
0
  71
0
 10
29212.6
 20
4475.55
 30
0.000000
  1
2600
  0
POINT
  5
3185
  8
DEFPOINTS
 62
     0
 10
28182.58239975763
 20
4624.5001278481586
 30
0.0
  0
POINT
  5
3186
  8
DEFPOINTS
 62
     0
 10
30782.58239975763
 20
4624.5001278481586
 30
0.0
  0
POINT
  5
3187
  8
DEFPOINTS
 62
     0
 10
30782.58239975763
 20
4624.5001278481586
 30
0.0
  0
ENDBLK
  5
1BFE
  8
0
  0
BLOCK
  8
0
  2
*D16
 70
     1
 10
0.0
 20
0.0
 30
0.0
  3
*D16
  1

  0
LINE
  5
30F4
  8
SP
 10
26414.8754596006
 20
499.6696818744021
 30
0.0
 11
27037.948640482169
 21
499.66968187440187
 31
0.0
  0
LINE
  5
30F5
  8
SP
 10
26414.8754596006
 20
359.6696818744021
 30
0.0
 11
27037.948640482169
 21
359.66968187440187
 31
0.0
  0
LINE
  5
30F6
  8
SP
 10
26992.948640482169
 20
589.66968187440193
 30
0.0
 11
26992.948640482169
 21
679.66968187440193
 31
0.0
  0
LINE
  5
30F7
  8
SP
 10
26992.948640482169
 20
269.66968187440187
 30
0.0
 11
26992.948640482169
 21
179.6696818744019
 31
0.0
  0
TEXT
  5
30F8
  8
SP
 10
27259.433033901569
 20
218.4915052057259
 30
0.0
 40
135.0
  1
(140)
 50
90.0
 51
15.0
  0
LINE
  5
30F9
  8
SP
 10
26992.948640482169
 20
499.66968187440199
 30
0.0
 11
26992.948640482169
 21
359.66968187440187
 31
0.0
  0
INSERT
  5
30FA
  8
SP
  2
_OPEN
 10
26992.948640482169
 20
499.66968187440199
 30
0.0
 41
90.0
 42
90.0
 43
90.0
 50
270.0
  0
INSERT
  5
30FB
  8
SP
  2
_DOT
 10
26992.948640482169
 20
359.66968187440187
 30
0.0
 41
90.0
 42
90.0
 43
90.0
 50
90.0
  0
POINT
  5
30FC
  8
DEFPOINTS
 62
     0
 10
26369.8754596006
 20
499.6696818744021
 30
0.0
  0
POINT
  5
30FD
  8
DEFPOINTS
 62
     0
 10
26369.8754596006
 20
359.6696818744021
 30
0.0
  0
POINT
  5
30FE
  8
DEFPOINTS
 62
     0
 10
26992.948640482169
 20
359.66968187440187
 30
0.0
  0
ENDBLK
  5
1C46
  8
0
  0
BLOCK
  8
0
  2
*D17
 70
     1
 10
0.0
 20
0.0
 30
0.0
  3
*D17
  1

  0
LINE
  5
3188
  8
SP
 62
     2
 10
25253.842790186751
 20
9095.4288735142345
 30
0.0
 11
25253.842790186751
 21
9378.7065811429893
 31
0.0
  0
LINE
  5
3189
  8
SP
 62
     2
 10
26528.84279018813
 20
8765.8104930801928
 30
0.0
 11
26528.84279018813
 21
9378.7065811429893
 31
0.0
  0
LINE
  5
318A
  8
SP
 62
     2
 10
25343.842790186751
 20
9333.7065811429893
 30
0.0
 11
26438.84279018813
 21
9333.7065811429893
 31
0.0
  0
INSERT
  5
318B
  8
SP
 62
     2
  2
_OPEN
 10
25253.842790186751
 20
9333.7065811429893
 30
0.0
 41
90.0
 42
90.0
 43
90.0
 50
180.0
  0
INSERT
  5
318C
  8
SP
 62
     2
  2
_OPEN
 10
26528.84279018813
 20
9333.7065811429893
 30
0.0
 41
90.0
 42
90.0
 43
90.0
  0
TEXT
  8
0
  40
135
  5
31C6
  62
2
  72
0
  71
0
 10
25621.3
 20
9184.76
 30
0.000000
  1
1275
  0
POINT
  5
318E
  8
DEFPOINTS
 62
     0
 10
25253.842790186751
 20
9050.4288735142345
 30
0.0
  0
POINT
  5
318F
  8
DEFPOINTS
 62
     0
 10
26528.84279018813
 20
8720.810493080191
 30
0.0
  0
POINT
  5
3190
  8
DEFPOINTS
 62
     0
 10
26528.84279018813
 20
9333.7065811429893
 30
0.0
  0
ENDBLK
  5
2546
  8
0
  0
BLOCK
  8
0
  2
*D18
 70
     1
 10
0.0
 20
0.0
 30
0.0
  3
*D18
  1

  0
LINE
  5
3191
  8
SP
 62
     2
 10
26373.842790186751
 20
8796.8104930801892
 30
0.0
 11
27139.846210840878
 21
8796.8104930801892
 31
0.0
  0
LINE
  5
3192
  8
SP
 62
     2
 10
26794.74950186893
 20
7891.8104930801892
 30
0.0
 11
27139.846210840878
 21
7891.8104930801892
 31
0.0
  0
LINE
  5
3193
  8
SP
 62
     2
 10
27094.846210840878
 20
8706.8104930801892
 30
0.0
 11
27094.846210840871
 21
7981.8104930801892
 31
0.0
  0
INSERT
  5
3194
  8
SP
 62
     2
  2
_OPEN
 10
27094.846210840878
 20
8796.8104930801892
 30
0.0
 41
90.0
 42
90.0
 43
90.0
 50
90.0
  0
INSERT
  5
3195
  8
SP
 62
     2
  2
_OPEN
 10
27094.846210840871
 20
7891.8104930801892
 30
0.0
 41
90.0
 42
90.0
 43
90.0
 50
270.0
  0
TEXT
  8
0
  40
135
  5
31C7
  62
2
  72
0
  71
0
 10
26734.8
 20
8105.36
 30
0.000000
  1
905
  0
POINT
  5
3197
  8
DEFPOINTS
 62
     0
 10
26328.842790186751
 20
8796.8104930801892
 30
0.0
  0
POINT
  5
3198
  8
DEFPOINTS
 62
     0
 10
26749.749501868919
 20
7891.8104930801892
 30
0.0
  0
POINT
  5
3199
  8
DEFPOINTS
 62
     0
 10
27094.846210840871
 20
7891.8104930801892
 30
0.0
  0
ENDBLK
  5
2561
  8
0
  0
BLOCK
  8
0
  2
*D19
 70
     1
 10
0.0
 20
0.0
 30
0.0
  3
*D19
  1

  0
LINE
  5
319A
  8
SP
 62
     2
 10
26794.74950186893
 20
7891.8104930801892
 30
0.0
 11
27139.846210840878
 21
7891.8104930801892
 31
0.0
  0
LINE
  5
319B
  8
SP
 62
     2
 10
25778.842790186751
 20
5291.8104930801928
 30
0.0
 11
27139.846210840878
 21
5291.810493080191
 31
0.0
  0
LINE
  5
319C
  8
SP
 62
     2
 10
27094.846210840871
 20
7801.8104930801892
 30
0.0
 11
27094.846210840871
 21
5381.8104930801919
 31
0.0
  0
INSERT
  5
319D
  8
SP
 62
     2
  2
_OPEN
 10
27094.846210840871
 20
7891.8104930801892
 30
0.0
 41
90.0
 42
90.0
 43
90.0
 50
90.0
  0
INSERT
  5
319E
  8
SP
 62
     2
  2
_OPEN
 10
27094.846210840871
 20
5291.810493080191
 30
0.0
 41
90.0
 42
90.0
 43
90.0
 50
270.0
  0
TEXT
  8
0
  40
135
  5
31C8
  62
2
  72
0
  71
0
 10
26734.8
 20
6352.86
 30
0.000000
  1
2600
  0
POINT
  5
31A0
  8
DEFPOINTS
 62
     0
 10
26749.749501868919
 20
7891.8104930801892
 30
0.0
  0
POINT
  5
31A1
  8
DEFPOINTS
 62
     0
 10
25733.842790186751
 20
5291.8104930801928
 30
0.0
  0
POINT
  5
31A2
  8
DEFPOINTS
 62
     0
 10
27094.846210840871
 20
5291.810493080191
 30
0.0
  0
ENDBLK
  5
256E
  8
0
  0
BLOCK
  8
0
  2
*D20
 70
     1
 10
0.0
 20
0.0
 30
0.0
  3
*D20
  1

  0
LINE
  5
31A3
  8
SP
 62
     2
 10
26448.842790186751
 20
499.6696818744021
 30
0.0
 11
27037.948640482169
 21
499.66968187440187
 31
0.0
  0
LINE
  5
31A4
  8
SP
 62
     2
 10
26670.126197211091
 20
2849.6696818744022
 30
0.0
 11
27037.948640482169
 21
2849.6696818744022
 31
0.0
  0
LINE
  5
31A5
  8
SP
 62
     2
 10
26992.948640482169
 20
589.66968187440193
 30
0.0
 11
26992.948640482169
 21
2759.6696818744022
 31
0.0
  0
INSERT
  5
31A6
  8
SP
 62
     2
  2
_OPEN
 10
26992.948640482169
 20
499.66968187440199
 30
0.0
 41
90.0
 42
90.0
 43
90.0
 50
270.0
  0
INSERT
  5
31A7
  8
SP
 62
     2
  2
_OPEN
 10
26992.948640482169
 20
2849.6696818744022
 30
0.0
 41
90.0
 42
90.0
 43
90.0
 50
90.0
  0
TEXT
  8
0
  40
135
  5
31C9
  62
2
  72
0
  71
0
 10
26632.9
 20
1435.72
 30
0.000000
  1
2350
  0
POINT
  5
31A9
  8
DEFPOINTS
 62
     0
 10
26403.842790186751
 20
499.6696818744021
 30
0.0
  0
POINT
  5
31AA
  8
DEFPOINTS
 62
     0
 10
26625.126197211091
 20
2849.6696818744022
 30
0.0
  0
POINT
  5
31AB
  8
DEFPOINTS
 62
     0
 10
26992.948640482169
 20
2849.6696818744022
 30
0.0
  0
ENDBLK
  5
2751
  8
0
  0
BLOCK
  8
0
  2
*D21
 70
     1
 10
0.0
 20
0.0
 30
0.0
  3
*D21
  1

  0
LINE
  5
31AC
  8
SP
 62
     2
 10
25298.842790186751
 20
4291.6696818743958
 30
0.0
 11
27037.948640482169
 21
4291.6696818743949
 31
0.0
  0
LINE
  5
31AD
  8
SP
 62
     2
 10
26670.126197211091
 20
2849.6696818744022
 30
0.0
 11
27037.948640482169
 21
2849.6696818744022
 31
0.0
  0
LINE
  5
31AE
  8
SP
 62
     2
 10
26992.948640482169
 20
4201.6696818743949
 30
0.0
 11
26992.948640482169
 21
2939.6696818744022
 31
0.0
  0
INSERT
  5
31AF
  8
SP
 62
     2
  2
_OPEN
 10
26992.948640482169
 20
4291.6696818743949
 30
0.0
 41
90.0
 42
90.0
 43
90.0
 50
90.0
  0
INSERT
  5
31B0
  8
SP
 62
     2
  2
_OPEN
 10
26992.948640482169
 20
2849.6696818744022
 30
0.0
 41
90.0
 42
90.0
 43
90.0
 50
270.0
  0
TEXT
  8
0
  40
135
  5
31CA
  62
2
  72
0
  71
0
 10
26632.9
 20
3331.72
 30
0.000000
  1
1442
  0
POINT
  5
31B2
  8
DEFPOINTS
 62
     0
 10
25253.842790186751
 20
4291.6696818743958
 30
0.0
  0
POINT
  5
31B3
  8
DEFPOINTS
 62
     0
 10
26625.126197211091
 20
2849.6696818744022
 30
0.0
  0
POINT
  5
31B4
  8
DEFPOINTS
 62
     0
 10
26992.948640482169
 20
2849.6696818744022
 30
0.0
  0
ENDBLK
  5
275F
  8
0
  0
BLOCK
  8
0
  2
*D22
 70
     1
 10
0.0
 20
0.0
 30
0.0
  3
*D22
  1

  0
LINE
  5
31B5
  8
SP
 62
     2
 10
25253.842790186751
 20
9140.4288735142345
 30
0.0
 11
25253.842790186751
 21
9378.7065811429893
 31
0.0
  0
LINE
  5
31B6
  8
SP
 62
     2
 10
23003.842790186751
 20
7182.8104930801874
 30
0.0
 11
23003.842790186751
 21
9378.7065811429893
 31
0.0
  0
LINE
  5
31B7
  8
SP
 62
     2
 10
25163.842790186751
 20
9333.7065811429893
 30
0.0
 11
23093.842790186751
 21
9333.7065811429893
 31
0.0
  0
INSERT
  5
31B8
  8
SP
 62
     2
  2
_OPEN
 10
25253.842790186751
 20
9333.7065811429893
 30
0.0
 41
90.0
 42
90.0
 43
90.0
  0
INSERT
  5
31B9
  8
SP
 62
     2
  2
_OPEN
 10
23003.842790186751
 20
9333.7065811429893
 30
0.0
 41
90.0
 42
90.0
 43
90.0
 50
180.0
  0
TEXT
  8
0
  40
135
  5
31CB
  62
2
  72
0
  71
0
 10
23858.8
 20
9184.76
 30
0.000000
  1
2250
  0
POINT
  5
31BB
  8
DEFPOINTS
 62
     0
 10
25253.842790186751
 20
9095.4288735142345
 30
0.0
  0
POINT
  5
31BC
  8
DEFPOINTS
 62
     0
 10
23003.842790186751
 20
7137.8104930801883
 30
0.0
  0
POINT
  5
31BD
  8
DEFPOINTS
 62
     0
 10
23003.842790186751
 20
9333.7065811429893
 30
0.0
  0
ENDBLK
  5
27A0
  8
0
  0
ENDSEC
  0
SECTION
  2
ENTITIES
  0
LINE
  5
46
  8
FUTO
 10
28666.582399757619
 20
2689.6696818744022
 30
0.0
 11
29916.582399757619
 21
2689.6696818744022
 31
0.0
  0
LINE
  5
49
  8
FUTO
 10
29724.58239975763
 20
2907.1696818744022
 30
0.0
 11
28662.58239975763
 21
2907.1696818744022
 31
0.0
  0
LINE
  5
4A
  8
FUTO
 10
29724.58239975763
 20
2792.1696818744022
 30
0.0
 11
28662.58239975763
 21
2792.1696818744022
 31
0.0
  0
LINE
  5
4B
  8
FUTO
 10
28411.58239975763
 20
679.66968187440204
 30
0.0
 11
29954.382399757629
 21
679.66968187440204
 31
0.0
  0
LINE
  5
4C
  8
CT
 10
31808.845611756598
 20
2849.6696818744022
 30
0.0
 11
28077.80497675922
 21
2849.6696818744022
 31
0.0
  0
LINE
  5
4F
  8
FUTO
 10
28411.58239975763
 20
359.6696818744021
 30
0.0
 11
31611.58239975763
 21
359.6696818744021
 31
0.0
  0
LINE
  5
50
  8
FUTO
 10
28486.58239975763
 20
499.6696818744021
 30
0.0
 11
31536.58239975763
 21
499.6696818744021
 31
0.0
  0
LINE
  5
51
  8
FUTO
 10
28486.58239975763
 20
191.6696818744021
 30
0.0
 11
29999.727478211771
 21
191.6696818744021
 31
0.0
  0
LINE
  5
52
  8
FUTO
 10
28486.58239975763
 20
347.6696818744021
 30
0.0
 11
29999.727478211771
 21
347.6696818744021
 31
0.0
  0
LINE
  5
53
  8
FUTO
 10
28486.58239975763
 20
511.66968187440222
 30
0.0
 11
29999.727478211771
 21
511.66968187440222
 31
0.0
  0
LINE
  5
54
  8
FUTO
 10
28501.58239975763
 20
667.66968187440204
 30
0.0
 11
29954.382399757629
 21
667.66968187440204
 31
0.0
  0
DIMENSION
  5
6B
  8
SP
  2
*D8
 10
23003.842790186751
 20
-783.28394203968674
 30
0.0
 11
24703.842790186751
 21
-693.28394203968674
 31
0.0
 70
     0
 13
26403.842790186751
 23
179.6696818744021
 33
0.0
 14
23003.842790186751
 24
179.6696818744021
 34
0.0
1001
ACAD
1000
DSTYLE
1002
{
1070
   287
1070
     0
1070
   287
1070
     0
1070
    40
1040
45.0
1070
   140
1040
3.0
1070
   143
1040
0.03937
1070
   147
1040
0.5
1070
   173
1070
     1
1070
   176
1070
   256
1070
   177
1070
   256
1070
   178
1070
   256
1070
   271
1070
     4
1070
   272
1070
     4
1070
   279
1070
     0
1070
   285
1070
     0
1070
   286
1070
     0
1070
   289
1070
     0
1070
     6
1000
OPEN
1070
     7
1000
OPEN
1002
}
  0
LINE
  5
78
  8
CT
 10
23458.609796948229
 20
2849.6696818744022
 30
0.0
 11
23160.8095900466
 21
2849.6696818744022
 31
0.0
  0
LINE
  5
80
  8
FUTO
 10
23728.609796948229
 20
499.6696818744021
 30
0.0
 11
23163.076099372069
 21
499.6696818744021
 31
0.0
  0
ARC
  5
86
  8
KL
 10
25106.842790186751
 20
2702.6696818744022
 30
0.0
 40
1589.0
 50
89.999999999999986
 51
180.0
  0
LINE
  5
89
  8
FUTO
 10
26403.842790186751
 20
499.6696818744021
 30
0.0
 11
23003.842790186751
 21
499.6696818744021
 31
0.0
  0
LINE
  5
8A
  8
FUTO
 10
26403.842790186751
 20
679.66968187440204
 30
0.0
 11
23003.842790186751
 21
679.66968187440204
 31
0.0
  0
LINE
  5
8C
  8
FUTO
 10
26403.842790186751
 20
359.6696818744021
 30
0.0
 11
23003.842790186751
 21
359.6696818744021
 31
0.0
  0
LINE
  5
8D
  8
FUTO
 10
26403.842790186751
 20
179.6696818744021
 30
0.0
 11
23003.842790186751
 21
179.6696818744021
 31
0.0
  0
LINE
  5
8E
  8
FUTO
 10
26403.842790186751
 20
663.66968187440204
 30
0.0
 11
23003.842790186751
 21
663.66968187440204
 31
0.0
  0
LINE
  5
8F
  8
FUTO
 10
26403.842790186751
 20
515.66968187440216
 30
0.0
 11
23003.842790186751
 21
515.66968187440216
 31
0.0
  0
LINE
  5
90
  8
FUTO
 10
26403.842790186751
 20
343.6696818744021
 30
0.0
 11
23003.842790186751
 21
343.6696818744021
 31
0.0
  0
LINE
  5
91
  8
FUTO
 10
26403.842790186751
 20
195.6696818744021
 30
0.0
 11
23003.842790186751
 21
195.6696818744021
 31
0.0
  0
ARC
  5
92
  8
KL
 10
25400.842790186751
 20
2702.6696818744022
 30
0.0
 40
1883.0
 50
180.0
 51
264.42838162163292
  0
ARC
  5
93
  8
FUTO
 10
25400.842790186751
 20
2702.6696818744022
 30
0.0
 40
1903.0
 50
228.35562174952449
 51
242.68374042314471
  0
LINE
  5
A6
  8
FUTO
 10
23003.842790186751
 20
499.6696818744021
 30
0.0
 11
23003.842790186751
 21
679.66968187440204
 31
0.0
  0
LINE
  5
A7
  8
FUTO
 10
23003.842790186751
 20
179.6696818744021
 30
0.0
 11
23003.842790186751
 21
359.6696818744021
 31
0.0
  0
LINE
  5
FF
  8
FUTO
 10
28666.582399757619
 20
2709.6696818744022
 30
0.0
 11
28666.582399757619
 21
2689.6696818744022
 31
0.0
  0
LINE
  5
100
  8
FUTO
 10
28486.58239975763
 20
2709.6696818744022
 30
0.0
 11
28486.58239975763
 21
679.66968187440204
 31
0.0
  0
LINE
  5
101
  8
SL
 10
28430.382399757629
 20
3224.6696818744022
 30
0.0
 11
28430.382399757629
 21
874.66968187440204
 31
0.0
  0
LINE
  5
102
  8
SL
 10
28300.382399757629
 20
3224.6696818744022
 30
0.0
 11
28300.382399757629
 21
874.66968187440204
 31
0.0
  0
LINE
  5
103
  8
FUTO
 10
28182.58239975763
 20
3329.6696818744022
 30
0.0
 11
28182.582399757619
 21
779.66968187440204
 31
0.0
  0
LINE
  5
104
  8
FUTO
 10
26394.842790186751
 20
679.66968187440204
 30
0.0
 11
26394.842790186751
 21
2762.3322389693931
 31
0.0
  0
LINE
  5
105
  8
FUTO
 10
26403.842790186751
 20
499.6696818744021
 30
0.0
 11
26403.842790186751
 21
2761.7303123848769
 31
0.0
  0
ARC
  5
10A
  8
KL
 10
25131.342790186751
 20
2972.1696818744022
 30
0.0
 40
1319.5
 50
0.000000000000007
 51
91.063908502627825
  0
ARC
  5
10B
  8
FUTO
 10
25131.342790186751
 20
2972.1696818744022
 30
0.0
 40
1339.5
 50
0.000000000000007
 51
84.75285293416124
  0
LINE
  5
10C
  8
CT
 10
25253.842790186751
 20
1169.6696818744019
 30
0.0
 11
25253.842790186751
 21
4446.7728120813936
 31
0.0
  0
LINE
  5
10D
  8
CT
 10
25253.842790186751
 20
189.66653809217129
 30
0.0
 11
25253.842790186751
 21
4184.7455425880853
 31
0.0
  0
LINE
  5
10E
  8
KL
 10
24094.842790186751
 20
1352.593874908878
 30
0.0
 11
24094.842790186751
 21
1872.8500661614401
 31
0.0
  0
ARC
  5
10F
  8
FUTO
 10
25106.842790186751
 20
2702.6696818744022
 30
0.0
 40
1609.0
 50
84.758085345326023
 51
174.43616870097301
  0
LINE
  5
110
  8
CT
 10
23403.842790186751
 20
1662.884770606249
 30
0.0
 11
23403.842790186751
 21
179.6696818744021
 31
0.0
  0
LINE
  5
111
  8
FUTO
 10
24112.842790186751
 20
679.66968187440204
 30
0.0
 11
24112.842790186751
 21
1260.8369166323121
 31
0.0
  0
LINE
  5
112
  8
FUTO
 10
24103.842790186751
 20
499.6696818744021
 30
0.0
 11
24103.842790186751
 21
1253.255072099779
 31
0.0
  0
LINE
  5
127
  8
KL
 10
24103.842790186751
 20
1328.193191774395
 30
0.0
 11
24068.487451127421
 21
1292.837852715068
 31
0.0
  0
LINE
  5
128
  8
KL
 10
24103.842790186751
 20
1361.593874908878
 30
0.0
 11
24050.487451127421
 21
1308.238535849551
 31
0.0
  0
LINE
  5
129
  8
KL
 10
24103.842790186751
 20
1344.835434200427
 30
0.0
 11
24059.487451127421
 21
1300.4800951411009
 31
0.0
  0
LINE
  5
156
  8
KL
 10
24050.487451127421
 20
1308.238535849551
 30
0.0
 11
24068.487451127421
 21
1292.837852715068
 31
0.0
  0
LINE
  5
157
  8
FUTO
 10
24453.842790186751
 20
499.66968187440301
 30
0.0
 11
24453.842790186751
 21
693.88172835211299
 31
0.0
  0
LINE
  5
15F
  8
CT
 10
26270.31546941357
 20
587.27807001860674
 30
0.0
 11
26270.31546941357
 21
275.96967652874991
 31
0.0
  0
LINE
  5
160
  8
FUTO
 10
26053.842790186751
 20
499.6696818744021
 30
0.0
 11
26053.842790186751
 21
693.88172835211196
 31
0.0
  0
LINE
  5
162
  8
SP
 10
26310.31546941357
 20
499.6696818744021
 30
0.0
 11
26310.31546941357
 21
359.6696818744021
 31
0.0
  0
LINE
  5
163
  8
SP
 10
26230.31546941357
 20
499.6696818744021
 30
0.0
 11
26230.31546941357
 21
359.6696818744021
 31
0.0
  0
DIMENSION
  5
164
  8
SP
  2
*D9
 10
26992.948640482169
 20
179.6696818744019
 30
0.0
 11
26902.948640482169
 21
-180.33031812559361
 31
0.0
 70
     0
 13
26369.8754596006
 23
359.6696818744021
 33
0.0
 14
26369.8754596006
 24
179.6696818744021
 34
0.0
 50
90.0
1001
ACAD
1000
DSTYLE
1002
{
1070
   287
1070
     0
1070
   287
1070
     0
1070
    40
1040
45.0
1070
   140
1040
3.0
1070
   143
1040
0.03937
1070
   147
1040
0.5
1070
   173
1070
     1
1070
   176
1070
   256
1070
   177
1070
   256
1070
   178
1070
   256
1070
   271
1070
     4
1070
   272
1070
     4
1070
   279
1070
     0
1070
   285
1070
     0
1070
   286
1070
     0
1070
   289
1070
     0
1070
     6
1000
DOT
1070
     7
1000
OPEN
1002
}
  0
DIMENSION
  5
17B
  8
SP
  2
*D16
 10
26992.948640482169
 20
359.66968187440187
 30
0.0
 11
27214.433033901561
 21
475.46542308096929
 31
0.0
 70
   128
  1
(<>)
 13
26369.8754596006
 23
499.6696818744021
 33
0.0
 14
26369.8754596006
 24
359.6696818744021
 34
0.0
 50
90.0
1001
ACAD
1000
DSTYLE
1002
{
1070
   140
1040
3.0
1070
   272
1070
     4
1070
    40
1040
45.0
1070
   173
1070
     1
1070
   147
1040
0.5
1070
   271
1070
     4
1070
   178
1070
   256
1070
   177
1070
   256
1070
   176
1070
   256
1070
     7
1000
_DOT
1070
     6
1000
_OPEN
1070
     5
1000

1070
   285
1070
     0
1070
   286
1070
     0
1070
   143
1040
0.03937
1002
}
  0
LINE
  5
18A
  8
FUTO
 10
26403.842790186751
 20
179.6696818744021
 30
0.0
 11
26403.842790186751
 21
359.6696818744021
 31
0.0
  0
ARC
  5
19A
  8
FUTO
 10
28469.58239975763
 20
522.74505149208744
 30
0.0
 40
10.0
 50
275.0
 51
0.0
  0
LINE
  5
19B
  8
FUTO
 10
28486.58239975763
 20
679.66968187440204
 30
0.0
 11
28486.58239975763
 21
499.6696818744021
 31
0.0
  0
ARC
  5
1A0
  8
FUTO
 10
28469.58239975763
 20
336.59431225671682
 30
0.0
 40
10.0
 50
0.0
 51
85.000000000000014
  0
LINE
  5
1A1
  8
FUTO
 10
28411.58239975763
 20
502.59268917505409
 30
0.0
 11
28411.58239975763
 21
499.6696818744021
 31
0.0
  0
ARC
  5
1A2
  8
FUTO
 10
28417.082399757619
 20
502.592689175055
 30
0.0
 40
5.5
 50
95.000000000000057
 51
180.00000000000051
  0
LINE
  5
1A3
  8
FUTO
 10
28411.58239975763
 20
356.7466745737492
 30
0.0
 11
28411.58239975763
 21
359.6696818744021
 31
0.0
  0
ARC
  5
1A4
  8
FUTO
 10
28417.082399757619
 20
356.7466745737492
 30
0.0
 40
5.5
 50
180.0
 51
265.0
  0
LINE
  5
1A5
  8
FUTO
 10
28486.58239975763
 20
499.6696818744021
 30
0.0
 11
28411.58239975763
 21
499.6696818744021
 31
0.0
  0
LINE
  5
1A6
  8
FUTO
 10
28470.453957185098
 20
512.78310451116965
 30
0.0
 11
28416.603043172508
 21
508.071760014559
 31
0.0
  0
LINE
  5
1A7
  8
FUTO
 10
28470.453957185098
 20
346.55625923763449
 30
0.0
 11
28416.603043172508
 21
351.26760373424531
 31
0.0
  0
LINE
  5
1A8
  8
FUTO
 10
28486.58239975763
 20
359.6696818744021
 30
0.0
 11
28411.58239975763
 21
359.6696818744021
 31
0.0
  0
ARC
  5
1A9
  8
FUTO
 10
28469.58239975763
 20
202.74505149208741
 30
0.0
 40
10.0
 50
275.0
 51
0.0
  0
LINE
  5
1AA
  8
FUTO
 10
28411.58239975763
 20
182.59268917505409
 30
0.0
 11
28411.58239975763
 21
179.6696818744021
 31
0.0
  0
ARC
  5
1AB
  8
FUTO
 10
28417.082399757619
 20
182.592689175055
 30
0.0
 40
5.5
 50
95.000000000000057
 51
180.00000000000051
  0
LINE
  5
1AC
  8
FUTO
 10
28486.58239975763
 20
179.6696818744021
 30
0.0
 11
28411.58239975763
 21
179.6696818744021
 31
0.0
  0
LINE
  5
1AD
  8
FUTO
 10
28470.453957185098
 20
192.78310451116971
 30
0.0
 11
28416.603043172508
 21
188.071760014559
 31
0.0
  0
LINE
  5
1AE
  8
FUTO
 10
28486.58239975763
 20
359.6696818744021
 30
0.0
 11
28486.58239975763
 21
179.6696818744021
 31
0.0
  0
LINE
  5
1AF
  8
FUTO
 10
28479.58239975763
 20
336.59431225671682
 30
0.0
 11
28479.58239975763
 21
202.74505149208741
 31
0.0
  0
LINE
  5
1B0
  8
CT
 10
28558.97870776421
 20
1029.6696818743919
 30
0.0
 11
28084.774350842948
 21
1029.6696818743919
 31
0.0
  0
LINE
  5
1B1
  8
SL
 10
28430.382399757629
 20
874.66968187440204
 30
0.0
 11
28300.382399757629
 21
874.66968187440204
 31
0.0
  0
LINE
  5
1B2
  8
FUTO
 10
28463.331433920132
 20
779.66968187440204
 30
0.0
 11
28182.582399757619
 21
779.66968187440204
 31
0.0
  0
ARC
  5
1B3
  8
FUTO
 10
28469.58239975763
 20
656.59431225671676
 30
0.0
 40
10.0
 50
0.0
 51
85.000000000000014
  0
LINE
  5
1B4
  8
FUTO
 10
28411.58239975763
 20
676.74667457374915
 30
0.0
 11
28411.58239975763
 21
679.66968187440204
 31
0.0
  0
ARC
  5
1B5
  8
FUTO
 10
28417.082399757619
 20
676.74667457374915
 30
0.0
 40
5.5
 50
180.0
 51
265.0
  0
LINE
  5
1B6
  8
FUTO
 10
28470.453957185098
 20
666.55625923763455
 30
0.0
 11
28416.603043172508
 21
671.26760373424531
 31
0.0
  0
LINE
  5
1B7
  8
FUTO
 10
28486.58239975763
 20
679.66968187440204
 30
0.0
 11
28411.58239975763
 21
679.66968187440204
 31
0.0
  0
LINE
  5
1B8
  8
FUTO
 10
28479.58239975763
 20
656.59431225671676
 30
0.0
 11
28479.58239975763
 21
522.74505149208744
 31
0.0
  0
LINE
  5
1B9
  8
FUTO
 10
28463.331433920132
 20
901.19139783450191
 30
0.0
 11
28463.331433920132
 21
779.66968187440204
 31
0.0
  0
LINE
  5
1C7
  8
KL
 10
26528.842790186751
 20
701.66968187440398
 30
0.0
 11
25218.022510024959
 21
828.56569725627014
 31
0.0
  0
LINE
  5
1C8
  8
FUTO
 10
26453.842790186751
 20
688.83667805435277
 30
0.0
 11
26042.983874163529
 21
728.61052052269133
 31
0.0
  0
LINE
  5
1CD
  8
CT
 10
26598.426682607311
 20
2849.6696818744022
 30
0.0
 11
25053.842790186751
 21
2849.6696818744022
 31
0.0
  0
LINE
  5
1CE
  8
FUTO
 10
26514.865565860771
 20
2924.9877015055972
 30
0.0
 11
25733.289241055401
 21
2872.7153050913271
 31
0.0
  0
LINE
  5
1CF
  8
FUTO
 10
26513.664396129789
 20
2942.9475787679112
 30
0.0
 11
25748.931110752081
 21
2891.801657153148
 31
0.0
  0
LINE
  5
1D0
  8
FUTO
 10
26514.264980995282
 20
2933.9676401367542
 30
0.0
 11
25732.772850515121
 21
2881.700874700552
 31
0.0
  0
ARC
  5
1D3
  8
KL
 10
25376.342790186751
 20
2972.1696818744022
 30
0.0
 40
1074.5
 50
326.84808505590962
 51
0.000000000000007
  0
INSERT
  5
1E1
  8
FUTO
  2
右回転矢印
 10
25042.698637257679
 20
3757.4449722037102
 30
0.0
 41
-40.0
 42
40.0
 43
40.0
 50
359.00304546478287
  0
LINE
  5
1F0
  8
FUTO
 10
24103.842790186751
 20
2858.6696818744022
 30
0.0
 11
24103.842790186751
 21
3960.7920924529599
 31
0.0
  0
LINE
  5
1F1
  8
FUTO
 10
24112.842790186751
 20
2858.6696818744022
 30
0.0
 11
24112.842790186751
 21
3967.9147174307559
 31
0.0
  0
LINE
  5
1F3
  8
KL
 10
25053.842790186751
 20
2849.6696818744022
 30
0.0
 11
24617.36902731697
 21
2849.6696818744022
 31
0.0
  0
LINE
  5
1F4
  8
KL
 10
25053.842790186751
 20
2858.6696818744022
 30
0.0
 11
24625.205963245131
 21
2858.6696818744022
 31
0.0
  0
LINE
  5
1F5
  8
KL
 10
25053.842790186751
 20
2840.6696818744022
 30
0.0
 11
24609.532091388821
 21
2840.6696818744022
 31
0.0
  0
LINE
  5
21D
  8
FUTO
 10
23458.609796948229
 20
2858.6696818744022
 30
0.0
 11
23458.609796948229
 21
2840.6696818744022
 31
0.0
  0
INSERT
  5
226
  8
FUTO
  2
22222F
 10
25253.842790186751
 20
2849.6696818744022
 30
0.0
  0
LINE
  5
259
  8
KL
 10
25253.842790186751
 20
2709.6696818744022
 30
0.0
 11
24904.2559857093
 21
2709.6696818744022
 31
0.0
  0
LINE
  5
25C
  8
KL
 10
25053.842790186751
 20
2840.6696818744022
 30
0.0
 11
25053.842790186751
 21
2858.6696818744022
 31
0.0
  0
LINE
  5
25E
  8
KL
 10
25253.842790186751
 20
2709.6696818744022
 30
0.0
 11
25603.429594664191
 21
2709.6696818744022
 31
0.0
  0
LINE
  5
25F
  8
FUTO
 10
25452.796397124748
 20
2871.9959508497882
 30
0.0
 11
25453.997566855731
 21
2854.0360735874742
 31
0.0
  0
CIRCLE
  5
265
  8
KL
 10
26296.451479418629
 20
2371.1696818744022
 30
0.0
 40
24.5
  0
LINE
  5
26B
  8
FUTO
 10
25244.842790186751
 20
805.87582134388322
 30
0.0
 11
25216.095387590161
 21
808.65875878945906
 31
0.0
  0
LINE
  5
26C
  8
SP
 10
28182.58239975763
 20
3369.6696818744022
 30
0.0
 11
28182.58239975763
 21
4664.5001278481586
 31
0.0
  0
LINE
  5
289
  8
FUTO
 10
26453.842790186751
 20
2765.6696818744022
 30
0.0
 11
26453.842790186751
 21
688.83667805435277
 31
0.0
  0
LINE
  5
28A
  8
FUTO
 10
26522.842790186751
 20
2765.6696818744022
 30
0.0
 11
26522.842790186751
 21
697.66968187440398
 31
0.0
  0
LINE
  5
28B
  8
FUTO
 10
26528.842790186751
 20
2840.6696818744022
 30
0.0
 11
26528.842790186751
 21
622.66968187440034
 31
0.0
  0
LINE
  5
28C
  8
FUTO
 10
26403.842790186751
 20
3390.5044760285568
 30
0.0
 11
26403.842790186751
 21
693.67700656095076
 31
0.0
  0
LINE
  5
28D
  8
FUTO
 10
26394.842790186751
 20
3416.9482784817478
 30
0.0
 11
26394.842790186751
 21
694.54826569213935
 31
0.0
  0
LINE
  5
28E
  8
FUTO
 10
26528.842790187209
 20
2840.6696818744999
 30
0.0
 11
26528.84279018821
 21
622.66968187450027
 31
0.0
  0
LINE
  5
28F
  8
FUTO
 10
26528.8427901867
 20
2840.6696818745031
 30
0.0
 11
26528.84279018821
 21
622.66968187450402
 31
0.0
  0
INSERT
  5
291
  8
FUTO
  2
L-75-6
 10
26610.272387071229
 20
2651.0632204708459
 30
0.0
 50
90.0
  0
ARC
  5
29E
  8
FUTO
 10
25376.342790186751
 20
2972.1696818744022
 30
0.0
 40
1094.5
 50
349.97650033240342
 51
357.37099416003571
  0
LINE
  5
2A1
  8
CT
 10
26625.126197211091
 20
2849.6696818744022
 30
0.0
 11
26493.127460568641
 21
2849.6696818744022
 31
0.0
  0
LINE
  5
2A2
  8
FUTO
 10
26489.507238298829
 20
2805.4377425309649
 30
0.0
 11
26584.20354952745
 21
2805.4377425309249
 31
0.0
  0
ARC
  5
2A3
  8
FUTO
 10
25376.342790186751
 20
2972.1696818744022
 30
0.0
 40
1094.5
 50
358.31844199692659
 51
0.000000000000007
  0
LINE
  5
2A4
  8
FUTO
 10
26514.865565860771
 20
2924.9877015055972
 30
0.0
 11
26513.664396129789
 21
2942.9475787679112
 31
0.0
  0
LINE
  5
2A5
  8
KL
 10
26430.022058275481
 20
2761.6696818744022
 30
0.0
 11
26528.842790186751
 21
2761.6696818744022
 31
0.0
  0
LINE
  5
2A6
  8
FUTO
 10
26453.842790186751
 20
2765.6696818744022
 30
0.0
 11
26528.842790186751
 21
2765.6696818744022
 31
0.0
  0
LINE
  5
2A7
  8
FUTO
 10
26454.136833592071
 20
2781.6696818744022
 30
0.0
 11
26454.136833592071
 21
2768.746899904369
 31
0.0
  0
LINE
  5
2A8
  8
FUTO
 10
28512.58239975763
 20
2964.6696818744022
 30
0.0
 11
28512.58239975763
 21
2769.6696818744022
 31
0.0
  0
LINE
  5
2A9
  8
FUTO
 10
28640.58239975763
 20
2964.6696818744022
 30
0.0
 11
28640.58239975763
 21
2769.6696818744022
 31
0.0
  0
LINE
  5
2AA
  8
CT
 10
28576.582399757619
 20
3013.1613003842322
 30
0.0
 11
28576.582399757619
 21
2698.5125281123628
 31
0.0
  0
LINE
  5
2AB
  8
FUTO
 10
28498.58239975763
 20
2964.6696818744022
 30
0.0
 11
28498.58239975763
 21
2734.6696818744022
 31
0.0
  0
LINE
  5
2AC
  8
FUTO
 10
28654.58239975763
 20
2964.6696818744022
 30
0.0
 11
28654.58239975763
 21
2734.6696818744022
 31
0.0
  0
LINE
  5
2AD
  8
FUTO
 10
28640.58239975763
 20
2964.6696818744022
 30
0.0
 11
28640.58239975763
 21
2769.6696818744022
 31
0.0
  0
LINE
  5
2AE
  8
FUTO
 10
28490.58239975763
 20
2929.6696818744022
 30
0.0
 11
28490.58239975763
 21
2769.6696818744022
 31
0.0
  0
LINE
  5
2AF
  8
FUTO
 10
28662.58239975763
 20
2929.6696818744022
 30
0.0
 11
28662.58239975763
 21
2769.6696818744022
 31
0.0
  0
LINE
  5
2B1
  8
SL
 10
28430.382399757629
 20
1154.6696818743919
 30
0.0
 11
28300.382399757629
 21
1154.6696818743919
 31
0.0
  0
LINE
  5
2B2
  8
SL
 10
28430.382399757629
 20
2474.6696818744022
 30
0.0
 11
28300.382399757629
 21
2474.6696818744022
 31
0.0
  0
LINE
  5
2B3
  8
FUTO
 10
28506.582399757619
 20
2719.6696818744022
 30
0.0
 11
28646.58239975763
 21
2719.6696818744022
 31
0.0
  0
LINE
  5
2B4
  8
FUTO
 10
28506.582399757619
 20
2769.6696818744022
 30
0.0
 11
28646.58239975763
 21
2769.6696818744022
 31
0.0
  0
LINE
  5
2B5
  8
FUTO
 10
28486.58239975763
 20
2709.6696818744022
 30
0.0
 11
28666.582399757619
 21
2709.6696818744022
 31
0.0
  0
LINE
  5
2B6
  8
CT
 10
28531.58239975763
 20
2796.4163393517551
 30
0.0
 11
28531.58239975763
 21
2698.5125281123628
 31
0.0
  0
LINE
  5
2B7
  8
FUTO
 10
28506.582399757619
 20
2769.6696818744022
 30
0.0
 11
28506.582399757619
 21
2709.6696818744022
 31
0.0
  0
LINE
  5
2B8
  8
FUTO
 10
28490.58239975763
 20
2769.6696818744022
 30
0.0
 11
28498.58239975763
 21
2749.6696818744022
 31
0.0
  0
LINE
  5
2B9
  8
FUTO
 10
28498.58239975763
 20
2734.6696818744022
 30
0.0
 11
28506.582399757619
 21
2734.6696818744022
 31
0.0
  0
LINE
  5
2BA
  8
FUTO
 10
28490.58239975763
 20
2902.1696818744022
 30
0.0
 11
28430.382399757629
 21
2902.1696818744022
 31
0.0
  0
LINE
  5
2BB
  8
FUTO
 10
28490.58239975763
 20
2797.1696818744022
 30
0.0
 11
28430.382399757629
 21
2797.1696818744022
 31
0.0
  0
LINE
  5
2BC
  8
CT
 10
28621.58239975763
 20
2796.4163393517551
 30
0.0
 11
28621.58239975763
 21
2698.5125281123628
 31
0.0
  0
LINE
  5
2BD
  8
FUTO
 10
28646.58239975763
 20
2769.6696818744022
 30
0.0
 11
28646.58239975763
 21
2709.6696818744022
 31
0.0
  0
LINE
  5
2BE
  8
FUTO
 10
28654.58239975763
 20
2734.6696818744022
 30
0.0
 11
28646.58239975763
 21
2734.6696818744022
 31
0.0
  0
LINE
  5
2BF
  8
FUTO
 10
28662.58239975763
 20
2769.6696818744022
 30
0.0
 11
28654.58239975763
 21
2749.6696818744022
 31
0.0
  0
LINE
  5
2C0
  8
SL
 10
28430.382399757629
 20
3224.6696818744022
 30
0.0
 11
28300.382399757629
 21
3224.6696818744022
 31
0.0
  0
LINE
  5
2C1
  8
FUTO
 10
28463.331433920132
 20
3329.6696818744022
 30
0.0
 11
28182.58239975763
 21
3329.6696818744022
 31
0.0
  0
POINT
  5
2C2
  8
DEFPOINTS
 10
28182.58239975763
 20
3329.6696818744022
 30
0.0
  0
LINE
  5
2C3
  8
FUTO
 10
28463.331433920132
 20
3329.6696818744022
 30
0.0
 11
28463.331433920132
 21
3062.391928378684
 31
0.0
  0
LINE
  5
2C4
  8
FUTO
 10
28522.58239975763
 20
2982.6696818744022
 30
0.0
 11
28630.582399757619
 21
2982.6696818744022
 31
0.0
  0
LINE
  5
2C5
  8
FUTO
 10
28490.58239975763
 20
2929.6696818744022
 30
0.0
 11
28498.58239975763
 21
2949.6696818744022
 31
0.0
  0
LINE
  5
2C6
  8
FUTO
 10
28498.58239975763
 20
2964.6696818744022
 30
0.0
 11
28512.58239975763
 21
2964.6696818744022
 31
0.0
  0
LINE
  5
2C7
  8
FUTO
 10
28522.58239975763
 20
2982.6696818744022
 30
0.0
 11
28522.58239975763
 21
2964.6696818744022
 31
0.0
  0
LINE
  5
2C8
  8
FUTO
 10
28512.58239975763
 20
2964.6696818744022
 30
0.0
 11
28522.58239975763
 21
2964.6696818744022
 31
0.0
  0
LINE
  5
2C9
  8
FUTO
 10
28630.582399757619
 20
2982.6696818744022
 30
0.0
 11
28630.582399757619
 21
2964.6696818744022
 31
0.0
  0
LINE
  5
2CA
  8
FUTO
 10
28630.582399757619
 20
2964.6696818744022
 30
0.0
 11
28640.58239975763
 21
2964.6696818744022
 31
0.0
  0
LINE
  5
2CB
  8
FUTO
 10
28654.58239975763
 20
2964.6696818744022
 30
0.0
 11
28640.58239975763
 21
2964.6696818744022
 31
0.0
  0
LINE
  5
2CC
  8
FUTO
 10
28662.58239975763
 20
2929.6696818744022
 30
0.0
 11
28654.58239975763
 21
2949.6696818744022
 31
0.0
  0
INSERT
  5
2CD
  8
FUTO
  2
まっすぐの矢印
 10
26901.96745936586
 20
1308.101099652727
 30
0.0
 41
-40.0
 42
40.0
 43
40.0
 50
270.0
  0
LINE
  5
2D8
  8
FUTO
 10
26489.507238298829
 20
657.66968187441307
 30
0.0
 11
26584.20354952745
 21
657.66968187445298
 31
0.0
  0
INSERT
  5
2D9
  8
FUTO
  2
L-75-6
 10
26610.272387071229
 20
812.27614327795698
 30
0.0
 41
-1.0
 50
90.0
  0
LINE
  5
2DA
  8
FUTO
 10
26528.84279018817
 20
697.66968187450027
 30
0.0
 11
26528.84279018821
 21
622.66968187450027
 31
0.0
  0
LINE
  5
2DB
  8
FUTO
 10
26528.842790188159
 20
697.66968187450402
 30
0.0
 11
26528.84279018821
 21
622.66968187450402
 31
0.0
  0
LINE
  5
33E
  8
FUTO
 10
26528.842790187002
 20
7137.8104930801883
 30
0.0
 11
23517.842790186751
 21
7137.8104930801883
 31
0.0
  0
LINE
  5
33F
  8
FUTO
 10
26528.842790186951
 20
7062.8104930801883
 30
0.0
 11
23003.842790186751
 21
7062.8104930801883
 31
0.0
  0
LINE
  5
340
  8
FUTO
 10
26053.842790186751
 20
5520.8104930801874
 30
0.0
 11
23003.842790186751
 21
5520.8104930801874
 31
0.0
  0
LINE
  5
341
  8
FUTO
 10
26053.842790186751
 20
5595.8104930801901
 30
0.0
 11
23003.842790186751
 21
5595.8104930801874
 31
0.0
  0
LINE
  5
35D
  8
FUTO
 10
23003.842790186751
 20
5520.8104930801874
 30
0.0
 11
23003.842790186751
 21
5595.8104930801874
 31
0.0
  0
LINE
  5
35E
  8
SL
 10
23178.842790186751
 20
5595.8104930801874
 30
0.0
 11
23178.842790186751
 21
6499.6104930801193
 31
0.0
  0
POINT
  5
388
  8
DEFPOINTS
 10
23003.842790186751
 20
7137.8104930801883
 30
0.0
  0
LINE
  5
3AB
  8
CT
 10
25253.842790186751
 20
5071.0359318493993
 30
0.0
 11
25253.842790186751
 21
9050.4288735142345
 31
0.0
  0
LINE
  5
3AE
  8
FUTO
 10
24103.842790186751
 20
7087.8104930801883
 30
0.0
 11
24103.842790186751
 21
7062.8104930801883
 31
0.0
  0
LINE
  5
44F
  8
FUTO
 10
26053.842790186751
 20
5520.8104930801874
 30
0.0
 11
26053.842790186751
 21
7062.8104930801883
 31
0.0
  0
LINE
  5
450
  8
FUTO
 10
25978.842790186751
 20
5595.8104930801874
 30
0.0
 11
25978.842790186751
 21
7062.8104930801883
 31
0.0
  0
LINE
  5
452
  8
FUTO
 10
24528.842790186751
 20
5595.8104930801874
 30
0.0
 11
24528.842790186751
 21
7062.8104930801883
 31
0.0
  0
LINE
  5
454
  8
FUTO
 10
24453.842790186751
 20
5520.8104930801874
 30
0.0
 11
24453.842790186751
 21
7062.8104930801883
 31
0.0
  0
LINE
  5
546
  8
CT
 10
26749.749501868919
 20
7891.8104930801892
 30
0.0
 11
23314.777799541011
 21
7891.8104930801892
 31
0.0
  0
LINE
  5
547
  8
FUTO
 10
26528.842790186751
 20
8645.8104930801928
 30
0.0
 11
23517.842790186751
 21
8645.8104930801928
 31
0.0
  0
LINE
  5
548
  8
FUTO
 10
26528.842790186751
 20
8720.810493080191
 30
0.0
 11
24103.842790186751
 21
8720.810493080191
 31
0.0
  0
LINE
  5
568
  8
FUTO
 10
24103.842790186751
 20
8695.8104930801928
 30
0.0
 11
24103.842790186751
 21
8720.810493080191
 31
0.0
  0
DIMENSION
  5
5CF
  8
SP
  2
*D10
 10
32181.772118136661
 20
1849.6696818744019
 30
0.0
 11
32181.772118136661
 21
2849.6696818744022
 31
0.0
 70
   128
  1
%%C<>
 13
31687.58239975763
 23
3849.6696818744022
 33
0.0
 14
31687.58239975763
 24
1849.6696818744019
 34
0.0
 50
90.0
1001
ACAD
1000
DSTYLE
1002
{
1070
   287
1070
     0
1070
   287
1070
     0
1070
    40
1040
45.0
1070
   140
1040
3.0
1070
   143
1040
0.03937
1070
   147
1040
0.5
1070
   173
1070
     1
1070
   176
1070
   256
1070
   177
1070
   256
1070
   178
1070
   256
1070
   271
1070
     4
1070
   272
1070
     4
1070
   279
1070
     0
1070
   285
1070
     0
1070
   286
1070
     0
1070
   289
1070
     0
1070
     6
1000
OPEN
1070
     7
1000
OPEN
1002
}
  0
LINE
  5
5DE
  8
FUTO
 10
31535.782399757631
 20
695.66968187440386
 30
0.0
 11
31535.78239975762
 21
2849.6696818744022
 31
0.0
  0
LINE
  5
5DF
  8
FUTO
 10
31532.582399757619
 20
695.66968187440386
 30
0.0
 11
31532.582399757619
 21
2849.6696818744022
 31
0.0
  0
LINE
  5
5E0
  8
FUTO
 10
31625.782399757631
 20
679.66968187440204
 30
0.0
 11
31625.78239975762
 21
2924.9676401367542
 31
0.0
  0
LINE
  5
5E5
  8
KL
 10
31544.782399758518
 20
1774.6696818744019
 30
0.0
 11
31544.782399759009
 21
3924.6696818744022
 31
0.0
  0
LINE
  5
5E6
  8
FUTO
 10
31687.58239975763
 20
1774.6696818744019
 30
0.0
 11
31687.58239975763
 21
3924.6696818744022
 31
0.0
  0
LINE
  5
5E7
  8
FUTO
 10
31681.58239975763
 20
1774.6696818744019
 30
0.0
 11
31681.58239975763
 21
3924.6696818744022
 31
0.0
  0
LINE
  5
5EB
  8
FUTO
 10
30029.382399757629
 20
695.66968187440386
 30
0.0
 11
30029.382399757629
 21
2849.6696818744022
 31
0.0
  0
LINE
  5
5EC
  8
FUTO
 10
30032.58239975763
 20
695.66968187440386
 30
0.0
 11
30032.58239975763
 21
2849.6696818744022
 31
0.0
  0
LINE
  5
5ED
  8
FUTO
 10
29939.382399757629
 20
679.66968187440204
 30
0.0
 11
29939.382399757629
 21
2924.9676401367542
 31
0.0
  0
LINE
  5
5EE
  8
FUTO
 10
29916.582399757619
 20
679.66968187440204
 30
0.0
 11
29916.582399757619
 21
2689.6696818744022
 31
0.0
  0
LINE
  5
5F0
  8
CT
 10
30782.58239975763
 20
152.19332585031401
 30
0.0
 11
30782.58239975763
 21
4557.0598995052769
 31
0.0
  0
ARC
  5
614
  8
FUTO
 10
31553.582399757619
 20
522.74505149208744
 30
0.0
 40
10.0
 50
180.0
 51
265.0
  0
LINE
  5
617
  8
FUTO
 10
31536.58239975763
 20
499.6696818744021
 30
0.0
 11
31536.58239975763
 21
626.66968187440398
 31
0.0
  0
LINE
  5
618
  8
FUTO
 10
31536.58239975763
 20
499.6696818744021
 30
0.0
 11
31536.58239975763
 21
626.66968187440398
 31
0.0
  0
LINE
  5
61B
  8
FUTO
 10
31552.710842330151
 20
512.78310451116965
 30
0.0
 11
31606.56175634274
 21
508.071760014559
 31
0.0
  0
LINE
  5
61C
  8
FUTO
 10
31536.58239975763
 20
499.6696818744021
 30
0.0
 11
31611.58239975763
 21
499.6696818744021
 31
0.0
  0
LINE
  5
61D
  8
FUTO
 10
31536.58239975763
 20
359.6696818744021
 30
0.0
 11
31611.58239975763
 21
359.6696818744021
 31
0.0
  0
LINE
  5
61E
  8
FUTO
 10
31536.58239975763
 20
359.6696818744021
 30
0.0
 11
31611.58239975763
 21
359.6696818744021
 31
0.0
  0
LINE
  5
61F
  8
FUTO
 10
31552.710842330151
 20
346.55625923763449
 30
0.0
 11
31606.56175634274
 21
351.26760373424531
 31
0.0
  0
LINE
  5
620
  8
FUTO
 10
31552.710842330151
 20
192.78310451116971
 30
0.0
 11
31606.56175634274
 21
188.071760014559
 31
0.0
  0
LINE
  5
621
  8
FUTO
 10
31536.58239975763
 20
179.6696818744021
 30
0.0
 11
31611.58239975763
 21
179.6696818744021
 31
0.0
  0
ARC
  5
623
  8
FUTO
 10
31553.582399757619
 20
336.59431225671682
 30
0.0
 40
10.0
 50
95.0
 51
180.0
  0
ARC
  5
624
  8
FUTO
 10
31553.582399757619
 20
202.74505149208741
 30
0.0
 40
10.0
 50
180.0
 51
265.0
  0
LINE
  5
625
  8
FUTO
 10
31536.58239975763
 20
179.6696818744021
 30
0.0
 11
31536.58239975763
 21
359.6696818744021
 31
0.0
  0
LINE
  5
626
  8
FUTO
 10
31543.58239975763
 20
202.74505149208741
 30
0.0
 11
31543.58239975763
 21
336.59431225671682
 31
0.0
  0
LINE
  5
629
  8
FUTO
 10
31611.58239975763
 20
502.592689175055
 30
0.0
 11
31611.58239975763
 21
499.6696818744021
 31
0.0
  0
ARC
  5
62A
  8
FUTO
 10
31606.08239975763
 20
502.592689175055
 30
0.0
 40
5.5
 50
0.0
 51
84.999999999999986
  0
LINE
  5
62B
  8
FUTO
 10
31611.58239975763
 20
356.74667457375011
 30
0.0
 11
31611.58239975763
 21
359.6696818744021
 31
0.0
  0
ARC
  5
62C
  8
FUTO
 10
31606.08239975763
 20
356.7466745737492
 30
0.0
 40
5.5
 50
275.0
 51
0.0000000000005598
  0
LINE
  5
62D
  8
FUTO
 10
31611.58239975763
 20
182.592689175055
 30
0.0
 11
31611.58239975763
 21
179.6696818744021
 31
0.0
  0
ARC
  5
62E
  8
FUTO
 10
31606.08239975763
 20
182.592689175055
 30
0.0
 40
5.5
 50
0.0
 51
84.999999999999986
  0
LINE
  5
632
  8
FUTO
 10
31543.58239975763
 20
522.74505149208744
 30
0.0
 11
31543.58239975763
 21
626.66968187440398
 31
0.0
  0
LINE
  5
635
  8
KL
 10
31535.782399757631
 20
1849.6696818744019
 30
0.0
 11
31687.58239975763
 21
1849.6696818744019
 31
0.0
  0
LINE
  5
636
  8
FUTO
 10
31535.782399757631
 20
1843.6696818744019
 30
0.0
 11
31625.782399757631
 21
1843.6696818744019
 31
0.0
  0
LINE
  5
637
  8
HOSO
 10
31544.782399758529
 20
1849.6696818744131
 30
0.0
 11
31535.78239975854
 21
1849.669681874414
 31
0.0
  0
LINE
  5
638
  8
HOSO
 10
31509.662656150431
 20
1809.6696818744019
 30
0.0
 11
31567.861812255651
 21
1809.6696818744019
 31
0.0
  0
LINE
  5
639
  8
KL
 10
31535.782399757631
 20
1774.6696818744019
 30
0.0
 11
31544.782399758518
 21
1774.6696818744019
 31
0.0
  0
LINE
  5
63A
  8
FUTO
 10
31625.782399757631
 20
1843.6696818744019
 30
0.0
 11
31681.58239975763
 21
1843.6696818744019
 31
0.0
  0
LINE
  5
63B
  8
HOSO
 10
31659.544210317639
 20
1809.6696818744019
 30
0.0
 11
31717.74336642287
 21
1809.6696818744019
 31
0.0
  0
LINE
  5
63C
  8
FUTO
 10
31681.58239975763
 20
1774.6696818744019
 30
0.0
 11
31687.58239975763
 21
1774.6696818744019
 31
0.0
  0
LINE
  5
68C
  8
FUTO
 10
31535.782399757631
 20
2849.6696818744022
 30
0.0
 11
31535.782399757631
 21
4291.6696818744022
 31
0.0
  0
LINE
  5
68D
  8
FUTO
 10
31532.582399757619
 20
2849.6696818744022
 30
0.0
 11
31532.582399757619
 21
4291.6696818744022
 31
0.0
  0
LINE
  5
68E
  8
FUTO
 10
31610.78239975762
 20
2924.9676401367542
 30
0.0
 11
31610.78239975762
 21
4291.6696818743912
 31
0.0
  0
LINE
  5
68F
  8
FUTO
 10
30032.58239975763
 20
2849.6696818744022
 30
0.0
 11
30032.58239975763
 21
4291.6696818744022
 31
0.0
  0
LINE
  5
690
  8
FUTO
 10
30029.382399757629
 20
2849.6696818744022
 30
0.0
 11
30029.382399757629
 21
4291.6696818744022
 31
0.0
  0
LINE
  5
691
  8
FUTO
 10
29954.382399757629
 20
2924.9676401367542
 30
0.0
 11
29954.382399757618
 21
4291.6696818744022
 31
0.0
  0
LINE
  5
69A
  8
FUTO
 10
29954.382399757629
 20
2942.9676401367542
 30
0.0
 11
31610.78239975762
 21
2942.9676401367542
 31
0.0
  0
LINE
  5
69B
  8
FUTO
 10
29939.382399757629
 20
2924.9676401367542
 30
0.0
 11
31625.78239975762
 21
2924.9676401367542
 31
0.0
  0
LINE
  5
6A4
  8
FUTO
 10
29761.58239975763
 20
2754.6696818744022
 30
0.0
 11
29761.58239975763
 21
2984.6696818744022
 31
0.0
  0
LINE
  5
6A5
  8
FUTO
 10
29748.58239975763
 20
2754.6696818744022
 30
0.0
 11
29748.58239975763
 21
2984.6696818744022
 31
0.0
  0
LINE
  5
6A6
  8
FUTO
 10
29724.58239975763
 20
2760.6696818744008
 30
0.0
 11
29724.58239975763
 21
2938.669681874404
 31
0.0
  0
LINE
  5
6A7
  8
CT
 10
29826.582399757619
 20
2619.3779727999022
 30
0.0
 11
29826.582399757619
 21
3079.0033836361981
 31
0.0
  0
LINE
  5
6A8
  8
FUTO
 10
29891.58239975763
 20
2754.6696818744022
 30
0.0
 11
29891.58239975763
 21
2984.6696818744022
 31
0.0
  0
LINE
  5
6A9
  8
FUTO
 10
29928.58239975763
 20
2760.6696818744008
 30
0.0
 11
29928.58239975763
 21
2938.669681874404
 31
0.0
  0
LINE
  5
6AA
  8
FUTO
 10
29904.58239975763
 20
2754.6696818744022
 30
0.0
 11
29904.58239975763
 21
2984.6696818744022
 31
0.0
  0
LINE
  5
6AB
  8
FUTO
 10
29891.58239975763
 20
2754.6696818744022
 30
0.0
 11
29891.58239975763
 21
2984.6696818744022
 31
0.0
  0
LINE
  5
6AF
  8
FUTO
 10
29746.58239975763
 20
2699.6696818744022
 30
0.0
 11
29906.58239975763
 21
2699.6696818744022
 31
0.0
  0
LINE
  5
6B0
  8
FUTO
 10
29746.58239975763
 20
2754.6696818744022
 30
0.0
 11
29906.58239975763
 21
2754.6696818744022
 31
0.0
  0
LINE
  5
6B1
  8
CT
 10
29776.58239975763
 20
2661.3049469413008
 30
0.0
 11
29776.58239975763
 21
2783.363263205048
 31
0.0
  0
LINE
  5
6B2
  8
FUTO
 10
29746.58239975763
 20
2689.6696818744022
 30
0.0
 11
29746.58239975763
 21
2754.6696818744022
 31
0.0
  0
LINE
  5
6B3
  8
FUTO
 10
29724.58239975763
 20
2760.6696818744022
 30
0.0
 11
29746.58239975763
 21
2736.8363485410682
 31
0.0
  0
LINE
  5
6B6
  8
KL
 10
29928.58239975763
 20
2794.6696818744022
 30
0.0
 11
30022.22644008229
 21
2794.6696818744022
 31
0.0
  0
LINE
  5
6BA
  8
CT
 10
29876.58239975763
 20
2659.37626022833
 30
0.0
 11
29876.58239975763
 21
2783.363263205048
 31
0.0
  0
LINE
  5
6BB
  8
FUTO
 10
29906.58239975763
 20
2689.6696818744022
 30
0.0
 11
29906.58239975763
 21
2754.6696818744022
 31
0.0
  0
LINE
  5
6BC
  8
FUTO
 10
29928.58239975763
 20
2760.6696818744022
 30
0.0
 11
29906.58239975763
 21
2736.8363485410682
 31
0.0
  0
LINE
  5
6C2
  8
FUTO
 10
29766.58239975763
 20
3000.6696818744022
 30
0.0
 11
29886.58239975763
 21
3000.6696818744022
 31
0.0
  0
LINE
  5
6C3
  8
FUTO
 10
29766.58239975763
 20
2984.6696818744022
 30
0.0
 11
29766.58239975763
 21
3000.6696818744022
 31
0.0
  0
LINE
  5
6C4
  8
FUTO
 10
29724.58239975763
 20
2938.6696818744022
 30
0.0
 11
29748.58239975763
 21
2964.6696818744022
 31
0.0
  0
LINE
  5
6C5
  8
FUTO
 10
29748.58239975763
 20
2984.6696818744022
 30
0.0
 11
29766.58239975763
 21
2984.6696818744022
 31
0.0
  0
LINE
  5
6C6
  8
KL
 10
29928.58239975763
 20
2904.6696818744022
 30
0.0
 11
30024.669476949472
 21
2904.6696818744022
 31
0.0
  0
LINE
  5
6C7
  8
FUTO
 10
29904.58239975763
 20
2984.6696818744022
 30
0.0
 11
29886.58239975763
 21
2984.6696818744022
 31
0.0
  0
LINE
  5
6C8
  8
FUTO
 10
29886.58239975763
 20
2984.6696818744022
 30
0.0
 11
29886.58239975763
 21
3000.6696818744022
 31
0.0
  0
LINE
  5
6C9
  8
FUTO
 10
29928.58239975763
 20
2938.6696818744022
 30
0.0
 11
29904.58239975763
 21
2964.6696818744022
 31
0.0
  0
LINE
  5
6E2
  8
KL
 10
31535.782399757631
 20
3849.6696818744022
 30
0.0
 11
31687.58239975763
 21
3849.6696818744022
 31
0.0
  0
LINE
  5
6E3
  8
KL
 10
31535.782399757631
 20
3855.6696818744022
 30
0.0
 11
31610.782399757631
 21
3855.6696818744022
 31
0.0
  0
LINE
  5
6E4
  8
HOSO
 10
31544.782399758991
 20
3849.6696818744108
 30
0.0
 11
31535.782399758999
 21
3849.6696818744149
 31
0.0
  0
LINE
  5
6E5
  8
HOSO
 10
31501.976025913209
 20
3889.6696818744022
 30
0.0
 11
31572.60315305103
 21
3889.6696818744022
 31
0.0
  0
LINE
  5
6E6
  8
FUTO
 10
31610.782399757631
 20
3855.6696818744022
 30
0.0
 11
31681.58239975763
 21
3855.6696818744022
 31
0.0
  0
LINE
  5
6E7
  8
HOSO
 10
31651.536472315282
 20
3889.6696818744022
 30
0.0
 11
31722.16359945311
 21
3889.6696818744022
 31
0.0
  0
DIMENSION
  5
6F9
  8
SP
  2
*D11
 10
31687.58239975763
 20
4624.5001278481586
 30
0.0
 11
31235.082399757619
 21
4714.5001278481586
 31
0.0
 70
     0
  1
905
 13
30782.58239975763
 23
4508.5404645261488
 33
0.0
 14
31687.58239975763
 24
3924.6696818744022
 34
0.0
1001
ACAD
1000
DSTYLE
1002
{
1070
   287
1070
     0
1070
   287
1070
     0
1070
    40
1040
45.0
1070
   140
1040
3.0
1070
   143
1040
0.03937
1070
   147
1040
0.5
1070
   173
1070
     1
1070
   176
1070
   256
1070
   177
1070
   256
1070
   178
1070
   256
1070
   271
1070
     4
1070
   272
1070
     4
1070
   279
1070
     0
1070
   285
1070
     0
1070
   286
1070
     0
1070
   289
1070
     0
1070
     6
1000
OPEN
1070
     7
1000
OPEN
1002
}
  0
LINE
  5
706
  8
KL
 10
31535.782399757631
 20
3924.6696818744022
 30
0.0
 11
31544.782399759009
 21
3924.6696818744022
 31
0.0
  0
LINE
  5
707
  8
KL
 10
31535.782399757609
 20
3922.6696818744022
 30
0.0
 11
31535.782399757642
 21
4012.6696818744022
 31
0.0
  0
LINE
  5
708
  8
FUTO
 10
31681.58239975763
 20
3924.6696818744022
 30
0.0
 11
31687.58239975763
 21
3924.6696818744022
 31
0.0
  0
INSERT
  5
71C
  8
FUTO
  2
まっすぐの矢印
 10
31854.078687513658
 20
3400.5939330145939
 30
0.0
 41
40.0
 42
40.0
 43
40.0
 50
90.0
  0
DIMENSION
  5
A68
  8
SP
  2
*D6
 10
25253.842790186751
 20
-487.95104513948348
 30
0.0
 11
24128.842790186751
 21
-397.95104513948348
 31
0.0
 70
     0
 13
23003.842790186751
 23
179.6696818744021
 33
0.0
 14
25253.842790186751
 24
179.6696818744021
 34
0.0
1001
ACAD
1000
DSTYLE
1002
{
1070
   140
1040
3.0
1070
    40
1040
45.0
1070
   173
1070
     1
1070
   147
1040
0.5
1070
     7
1000
_OPEN
1070
     6
1000
_OPEN
1002
}
  0
DIMENSION
  5
A75
  8
SP
  2
*D7
 10
26403.842790186751
 20
-487.95104513948348
 30
0.0
 11
25828.842790186751
 21
-397.95104513948348
 31
0.0
 70
     0
 13
25253.842790186751
 23
179.6696818744021
 33
0.0
 14
26403.842790186751
 24
179.6696818744021
 34
0.0
1001
ACAD
1000
DSTYLE
1002
{
1070
   140
1040
3.0
1070
    40
1040
45.0
1070
   173
1070
     1
1070
   147
1040
0.5
1070
     7
1000
_OPEN
1070
     6
1000
_OPEN
1002
}
  0
LINE
  5
AB0
  8
SL
 10
29666.150665531532
 20
2996.872789368731
 30
0.0
 11
28735.97189265331
 21
2996.872789368731
 31
0.0
  0
LINE
  5
AB2
  8
CT
 10
23170.31546941357
 20
587.27807001860674
 30
0.0
 11
23170.31546941357
 21
275.96967652874991
 31
0.0
  0
LINE
  5
AB3
  8
SP
 10
23130.31546941357
 20
499.6696818744021
 30
0.0
 11
23130.31546941357
 21
359.6696818744021
 31
0.0
  0
LINE
  5
AB4
  8
SP
 10
23210.31546941357
 20
499.6696818744021
 30
0.0
 11
23210.31546941357
 21
359.6696818744021
 31
0.0
  0
POINT
  5
CAC
  8
DEFPOINTS
  6
BYBLOCK
 62
     0
 10
26053.842790186751
 20
5520.8104930801874
 30
0.0
  0
POINT
  5
CB7
  8
DEFPOINTS
  6
BYBLOCK
 62
     0
 10
26053.842790186751
 20
5520.8104930801874
 30
0.0
  0
LINE
  5
178C
  8
FUTO
 10
23288.842790186751
 20
679.66968187439215
 30
0.0
 11
23053.842790186751
 21
679.66968187439215
 31
0.0
  0
LINE
  5
178D
  8
FUTO
 10
23063.842790186751
 20
749.66968187439215
 30
0.0
 11
23288.842790186762
 21
749.66968187439215
 31
0.0
  0
LINE
  5
178F
  8
FUTO
 10
23753.842790186751
 20
679.66968187439215
 30
0.0
 11
23518.842790186751
 21
679.66968187439215
 31
0.0
  0
LINE
  5
1790
  8
FUTO
 10
23518.842790186751
 20
749.66968187439215
 30
0.0
 11
23743.842790186751
 21
749.66968187439215
 31
0.0
  0
LINE
  5
1791
  8
FUTO
 10
23743.842790186751
 20
749.66968187439215
 30
0.0
 11
23753.842790186751
 21
679.66968187439215
 31
0.0
  0
LINE
  5
1792
  8
FUTO
 10
23288.842790186751
 20
689.66968187439215
 30
0.0
 11
23518.842790186751
 21
689.66968187439215
 31
0.0
  0
LINE
  5
1793
  8
FUTO
 10
23288.842790186762
 20
739.66968187439215
 30
0.0
 11
23518.842790186751
 21
739.66968187439215
 31
0.0
  0
LINE
  5
1794
  8
FUTO
 10
23518.842790186751
 20
749.66968187439215
 30
0.0
 11
23518.842790186751
 21
739.66968187439215
 31
0.0
  0
LINE
  5
1795
  8
FUTO
 10
23518.842790186751
 20
689.66968187439215
 30
0.0
 11
23518.842790186751
 21
679.66968187439215
 31
0.0
  0
LINE
  5
1796
  8
FUTO
 10
23288.842790186762
 20
749.66968187439215
 30
0.0
 11
23288.842790186762
 21
739.66968187439215
 31
0.0
  0
LINE
  5
1797
  8
FUTO
 10
23288.842790186751
 20
689.66968187439215
 30
0.0
 11
23288.842790186751
 21
679.66968187439215
 31
0.0
  0
LINE
  5
1798
  8
FUTO
 10
23160.842790186751
 20
749.66968187439215
 30
0.0
 11
23260.842790186751
 21
749.66968187439215
 31
0.0
  0
LINE
  5
1799
  8
FUTO
 10
23063.842790186751
 20
749.66968187439215
 30
0.0
 11
23053.842790186751
 21
679.66968187439215
 31
0.0
  0
LINE
  5
179B
  8
CT
 10
23302.136375562481
 20
1479.669681874391
 30
0.0
 11
23147.8394380428
 21
1479.669681874391
 31
0.0
  0
LINE
  5
179C
  8
FUTO
 10
23613.842790186751
 20
1619.6696818743919
 30
0.0
 11
23223.842790186751
 21
1619.6696818743919
 31
0.0
  0
LINE
  5
179D
  8
FUTO
 10
23613.842790186751
 20
1354.669681874391
 30
0.0
 11
23223.842790186751
 21
1354.6696818743901
 31
0.0
  0
LINE
  5
179E
  8
FUTO
 10
23559.321922462361
 20
761.47900450691839
 30
0.0
 11
23248.363657911152
 21
761.4790045069193
 31
0.0
  0
LINE
  5
17A0
  8
CT
 10
23741.301754376509
 20
1029.6696818743919
 30
0.0
 11
23060.565567993719
 21
1029.6696818743919
 31
0.0
  0
ARC
  5
17A1
  8
FUTO
 10
23403.842790186751
 20
1029.6696818743919
 30
0.0
 40
310.0
 50
300.10230806831191
 51
239.897691931688
  0
LINE
  5
17A3
  8
FUTO
 10
23573.842790186751
 20
770.44005393807765
 30
0.0
 11
23573.842790186751
 21
749.66968187439124
 31
0.0
  0
LINE
  5
17A4
  8
CT
 10
23632.342790186751
 20
794.83913036403635
 30
0.0
 11
23632.342790186751
 21
703.21356729178206
 31
0.0
  0
LINE
  5
17A5
  8
FUTO
 10
23683.842790186762
 20
896.62833491786125
 30
0.0
 11
23683.842790186751
 21
749.66968187439215
 31
0.0
  0
LINE
  5
17A6
  8
FUTO
 10
23683.842790186751
 20
749.66968187439215
 30
0.0
 11
23573.842790186751
 21
749.66968187439215
 31
0.0
  0
LINE
  5
17A7
  8
FUTO
 10
23683.842790186751
 20
779.66968187439124
 30
0.0
 11
23587.14581798498
 21
779.66968187439124
 31
0.0
  0
LINE
  5
17A8
  8
FUTO
 10
23633.842790186751
 20
1599.6696818743919
 30
0.0
 11
23633.842790186751
 21
1374.669681874391
 31
0.0
  0
ARC
  5
17A9
  8
FUTO
 10
23613.842790186751
 20
1374.669681874391
 30
0.0
 40
20.0
 50
270.0
 51
0.000000000000007
  0
ARC
  5
17AA
  8
FUTO
 10
23613.842790186751
 20
1599.6696818743919
 30
0.0
 40
20.0
 50
0.000000000000007
 51
90.0
  0
LINE
  5
17AB
  8
FUTO
 10
23123.842790186751
 20
896.62833491784568
 30
0.0
 11
23123.842790186751
 21
749.66968187439124
 31
0.0
  0
LINE
  5
17AC
  8
FUTO
 10
23233.842790186751
 20
770.44005393807765
 30
0.0
 11
23233.842790186751
 21
749.66968187439124
 31
0.0
  0
LINE
  5
17AD
  8
CT
 10
23175.342790186751
 20
794.83913036403635
 30
0.0
 11
23175.342790186751
 21
707.37836561324821
 31
0.0
  0
LINE
  5
17AE
  8
FUTO
 10
23233.842790186751
 20
749.66968187439124
 30
0.0
 11
23123.842790186751
 21
749.66968187439124
 31
0.0
  0
LINE
  5
17AF
  8
FUTO
 10
23220.539762388518
 20
779.66968187439124
 30
0.0
 11
23123.842790186751
 21
779.66968187439124
 31
0.0
  0
LINE
  5
17B0
  8
FUTO
 10
23203.842790186751
 20
1599.6696818743919
 30
0.0
 11
23203.842790186751
 21
1374.6696818743901
 31
0.0
  0
ARC
  5
17B1
  8
FUTO
 10
23223.842790186751
 20
1374.6696818743901
 30
0.0
 40
20.0
 50
180.0
 51
270.0
  0
ARC
  5
17B2
  8
FUTO
 10
23223.842790186751
 20
1599.6696818743919
 30
0.0
 40
20.0
 50
90.0
 51
180.0
  0
CIRCLE
  5
17B5
  8
SL
 10
23403.842790186751
 20
1029.6696818743919
 30
0.0
 40
177.5
  0
CIRCLE
  5
17B6
  8
SL
 10
25253.842790186751
 20
2849.6696818744022
 30
0.0
 40
315.0
  0
ARC
  5
17B9
  8
FUTO
 10
25253.842790186751
 20
2849.6696818744022
 30
0.0
 40
480.0
 50
310.11169717184271
 51
138.95160794993251
  0
ARC
  5
17BA
  8
FUTO
 10
23403.842790186751
 20
1029.6696818743919
 30
0.0
 40
280.0
 50
138.95160794993259
 51
310.11169717184271
  0
DIMENSION
  5
1B16
  8
SP
  2
*D12
 10
30782.58239975763
 20
-493.40773839384377
 30
0.0
 11
29597.08239975763
 21
-403.40773839384377
 31
0.0
 70
     0
 13
28411.58239975763
 23
179.66968187440199
 33
0.0
 14
30782.58239975763
 24
179.6696818744019
 34
0.0
1001
ACAD
1000
DSTYLE
1002
{
1070
   287
1070
     3
1070
    40
1040
45.0
1070
   140
1040
3.0
1070
   147
1040
0.5
1070
   173
1070
     1
1070
   279
1070
     0
1070
     6
1000
OPEN
1070
     7
1000
OPEN
1002
}
  0
DIMENSION
  5
1B22
  8
SP
  2
*D13
 10
31611.58239975763
 20
-493.40773839384377
 30
0.0
 11
31197.082399757619
 21
-403.40773839384377
 31
0.0
 70
     0
 13
30782.58239975763
 23
179.6696818744019
 33
0.0
 14
31611.58239975763
 24
179.66968187440199
 34
0.0
1001
ACAD
1000
DSTYLE
1002
{
1070
   287
1070
     4
1070
    40
1040
45.0
1070
    75
1070
     1
1070
   140
1040
3.0
1070
   147
1040
0.5
1070
   173
1070
     1
1070
   279
1070
     1
1070
     6
1000
OPEN
1070
     7
1000
OPEN
1002
}
  0
DIMENSION
  5
1B2F
  8
SP
  2
*D14
 10
28411.58239975763
 20
-785.53003864674065
 30
0.0
 11
30011.58239975763
 21
-695.53003864674065
 31
0.0
 70
     0
 13
31611.58239975763
 23
-493.40773839384377
 33
0.0
 14
28411.58239975763
 24
-493.40773839384377
 34
0.0
1001
ACAD
1000
DSTYLE
1002
{
1070
   287
1070
     3
1070
    40
1040
45.0
1070
   140
1040
3.0
1070
   147
1040
0.5
1070
   173
1070
     1
1070
   279
1070
     0
1070
     6
1000
OPEN
1070
     7
1000
OPEN
1002
}
  0
LINE
  5
1BAD
  8
FUTO
 10
30021.582399757619
 20
202.74505149208741
 30
0.0
 11
30021.582399757619
 21
336.59431225671682
 31
0.0
  0
LINE
  5
1BAE
  8
FUTO
 10
30028.58239975763
 20
179.6696818744021
 30
0.0
 11
30028.58239975763
 21
359.6696818744021
 31
0.0
  0
ARC
  5
1BAF
  8
FUTO
 10
29959.08239975763
 20
182.592689175055
 30
0.0
 40
5.5
 50
95.000000000000014
 51
180.0
  0
LINE
  5
1BB0
  8
FUTO
 10
29953.58239975763
 20
182.592689175055
 30
0.0
 11
29953.58239975763
 21
179.6696818744021
 31
0.0
  0
ARC
  5
1BB1
  8
FUTO
 10
30011.58239975763
 20
202.74505149208741
 30
0.0
 40
10.0
 50
275.0
 51
0.0
  0
LINE
  5
1BB2
  8
FUTO
 10
30028.58239975763
 20
179.6696818744021
 30
0.0
 11
29953.58239975763
 21
179.6696818744021
 31
0.0
  0
LINE
  5
1BB3
  8
FUTO
 10
30012.453957185098
 20
192.78310451116971
 30
0.0
 11
29958.603043172508
 21
188.071760014559
 31
0.0
  0
ARC
  5
1BB4
  8
FUTO
 10
29959.08239975763
 20
356.7466745737492
 30
0.0
 40
5.5
 50
179.9999999999994
 51
264.99999999999989
  0
LINE
  5
1BB5
  8
FUTO
 10
29953.58239975763
 20
356.74667457375011
 30
0.0
 11
29953.58239975763
 21
359.6696818744021
 31
0.0
  0
ARC
  5
1BB6
  8
FUTO
 10
29959.08239975763
 20
502.592689175055
 30
0.0
 40
5.5
 50
95.000000000000014
 51
180.0
  0
LINE
  5
1BB7
  8
FUTO
 10
29953.58239975763
 20
502.592689175055
 30
0.0
 11
29953.58239975763
 21
499.6696818744021
 31
0.0
  0
ARC
  5
1BB8
  8
FUTO
 10
30011.58239975763
 20
336.59431225671682
 30
0.0
 40
10.0
 50
0.0
 51
85.0
  0
LINE
  5
1BBA
  8
FUTO
 10
30012.453957185098
 20
346.55625923763449
 30
0.0
 11
29958.603043172508
 21
351.26760373424531
 31
0.0
  0
LINE
  5
1BBB
  8
FUTO
 10
30028.58239975763
 20
359.6696818744021
 30
0.0
 11
29953.58239975763
 21
359.6696818744021
 31
0.0
  0
LINE
  5
1BBC
  8
FUTO
 10
30028.58239975763
 20
359.6696818744021
 30
0.0
 11
29953.58239975763
 21
359.6696818744021
 31
0.0
  0
LINE
  5
1BBD
  8
FUTO
 10
30028.58239975763
 20
499.6696818744021
 30
0.0
 11
29953.58239975763
 21
499.6696818744021
 31
0.0
  0
LINE
  5
1BBE
  8
FUTO
 10
30012.453957185098
 20
512.78310451116965
 30
0.0
 11
29958.603043172508
 21
508.071760014559
 31
0.0
  0
ARC
  5
1BBF
  8
FUTO
 10
30011.58239975763
 20
522.74505149208744
 30
0.0
 40
10.0
 50
275.0
 51
0.0
  0
LINE
  5
1BC1
  8
FUTO
 10
30028.58239975763
 20
499.6696818744021
 30
0.0
 11
30028.58239975763
 21
626.66968187440398
 31
0.0
  0
LINE
  5
1BC2
  8
FUTO
 10
30028.58239975763
 20
499.6696818744021
 30
0.0
 11
30028.58239975763
 21
626.66968187440398
 31
0.0
  0
LINE
  5
1BC6
  8
FUTO
 10
30021.582399757619
 20
522.74505149208744
 30
0.0
 11
30021.582399757619
 21
626.66968187440398
 31
0.0
  0
LINE
  5
1BCA
  8
FUTO
 10
30028.58239975763
 20
511.66968187440222
 30
0.0
 11
31536.58239975763
 21
511.66968187440222
 31
0.0
  0
LINE
  5
1BCC
  8
FUTO
 10
30028.58239975763
 20
347.6696818744021
 30
0.0
 11
31536.58239975763
 21
347.6696818744021
 31
0.0
  0
LINE
  5
1BCD
  8
FUTO
 10
30028.58239975763
 20
191.6696818744021
 30
0.0
 11
31536.58239975763
 21
191.6696818744021
 31
0.0
  0
LINE
  5
1BCE
  8
FUTO
 10
30028.58239975763
 20
179.6696818744021
 30
0.0
 11
31536.58239975763
 21
179.6696818744021
 31
0.0
  0
LINE
  5
1BCF
  8
FUTO
 10
28486.58239975763
 20
179.6696818744021
 30
0.0
 11
29999.727478211771
 21
179.6696818744021
 31
0.0
  0
DIMENSION
  5
1BF2
  8
SP
  2
*D15
 10
30782.58239975763
 20
4624.5001278481586
 30
0.0
 11
29482.58239975763
 21
4714.5001278481586
 31
0.0
 70
     0
 13
28182.58239975763
 23
4624.5001278481586
 33
0.0
 14
30782.58239975763
 24
4624.5001278481586
 34
0.0
1001
ACAD
1000
DSTYLE
1002
{
1070
   287
1070
     3
1070
    40
1040
45.0
1070
   140
1040
3.0
1070
   147
1040
0.5
1070
   173
1070
     1
1070
   279
1070
     0
1070
   341
1005
24
1070
     6
1000
OPEN
1070
     7
1000
OPEN
1002
}
  0
LINE
  5
1C10
  8
FUTO
 10
24103.842790186751
 20
359.6696818744021
 30
0.0
 11
24103.842790186751
 21
179.6696818744021
 31
0.0
  0
LINE
  5
1C11
  8
FUTO
 10
24453.842790186751
 20
359.6696818744021
 30
0.0
 11
24453.842790186751
 21
179.6696818744021
 31
0.0
  0
LINE
  5
1C21
  8
SL
 10
28735.97189265331
 20
2996.872789368731
 30
0.0
 11
28735.97189265331
 21
2689.6696818744022
 31
0.0
  0
LINE
  5
1C22
  8
SL
 10
29666.150665531532
 20
2996.872789368731
 30
0.0
 11
29666.150665531532
 21
2689.6696818744022
 31
0.0
  0
LINE
  5
1C5C
  8
FUTO
 10
25342.842790186751
 20
6833.8104930801892
 30
0.0
 11
25368.842790186751
 21
6857.8104930801901
 31
0.0
  0
LINE
  5
1C5D
  8
FUTO
 10
25164.842790186751
 20
6833.8104930801892
 30
0.0
 11
25141.009456853419
 21
6855.810493080191
 31
0.0
  0
LINE
  5
1C61
  8
FUTO
 10
25733.842790186751
 20
5291.8104930801928
 30
0.0
 11
23123.842790186751
 21
5291.8104930801892
 31
0.0
  0
LINE
  5
1C62
  8
SL
 10
25628.842790186751
 20
5409.6104930801921
 30
0.0
 11
23226.342790186751
 21
5409.6104930801876
 31
0.0
  0
LINE
  5
1C63
  8
SL
 10
25628.842790186751
 20
5539.6104930801903
 30
0.0
 11
23226.342790186751
 21
5539.6104930801912
 31
0.0
  0
LINE
  5
1C6B
  8
FUTO
 10
25196.342790186751
 20
6833.8104930801892
 30
0.0
 11
25196.342790186751
 21
5771.8104930801892
 31
0.0
  0
LINE
  5
1C6C
  8
FUTO
 10
25311.342790186751
 20
6833.8104930801892
 30
0.0
 11
25311.342790186751
 21
5771.8104930801892
 31
0.0
  0
LINE
  5
1C6D
  8
FUTO
 10
25733.842790186751
 20
5572.5595272426981
 30
0.0
 11
23123.842790186751
 21
5572.5595272426972
 31
0.0
  0
LINE
  5
1C6E
  8
FUTO
 10
25333.842790186751
 20
5771.8104930801892
 30
0.0
 11
25173.842790186751
 21
5771.8104930801892
 31
0.0
  0
LINE
  5
1C6F
  8
FUTO
 10
25333.842790186751
 20
5599.8104930801892
 30
0.0
 11
25173.842790186751
 21
5599.8104930801892
 31
0.0
  0
LINE
  5
1C70
  8
FUTO
 10
25368.842790186751
 20
5749.8104930801901
 30
0.0
 11
25173.842790186751
 21
5749.8104930801901
 31
0.0
  0
LINE
  5
1C71
  8
FUTO
 10
25368.842790186751
 20
5763.8104930801892
 30
0.0
 11
25138.842790186751
 21
5763.8104930801892
 31
0.0
  0
LINE
  5
1C72
  8
FUTO
 10
25368.842790186751
 20
5607.8104930801892
 30
0.0
 11
25138.842790186751
 21
5607.8104930801892
 31
0.0
  0
LINE
  5
1C73
  8
CT
 10
25417.334408696581
 20
5685.8104930801901
 30
0.0
 11
25102.685636424711
 21
5685.8104930801901
 31
0.0
  0
LINE
  5
1C74
  8
FUTO
 10
25368.842790186751
 20
5749.8104930801901
 30
0.0
 11
25138.842790186751
 21
5749.8104930801901
 31
0.0
  0
LINE
  5
1C75
  8
FUTO
 10
25368.842790186751
 20
5621.8104930801892
 30
0.0
 11
25138.842790186751
 21
5621.8104930801892
 31
0.0
  0
LINE
  5
1C76
  8
SL
 10
24878.842790186751
 20
5539.6104930801903
 30
0.0
 11
24878.842790186751
 21
5409.6104930801903
 31
0.0
  0
LINE
  5
1C7A
  8
FUTO
 10
25201.342790186751
 20
5599.8104930801892
 30
0.0
 11
25201.342790186751
 21
5539.6104930801876
 31
0.0
  0
LINE
  5
1C7B
  8
FUTO
 10
25138.842790186751
 20
5607.8104930801892
 30
0.0
 11
25138.842790186751
 21
5615.8104930801892
 31
0.0
  0
LINE
  5
1C7C
  8
FUTO
 10
25173.842790186751
 20
5599.8104930801892
 30
0.0
 11
25153.842790186751
 21
5607.8104930801892
 31
0.0
  0
LINE
  5
1C7F
  8
FUTO
 10
25173.842790186751
 20
5771.8104930801892
 30
0.0
 11
25153.842790186751
 21
5763.8104930801892
 31
0.0
  0
LINE
  5
1C80
  8
FUTO
 10
25138.842790186751
 20
5763.8104930801892
 30
0.0
 11
25138.842790186751
 21
5755.8104930801901
 31
0.0
  0
LINE
  5
1C83
  8
SL
 10
25628.842790186751
 20
5539.6104930801876
 30
0.0
 11
25628.842790186751
 21
5409.6104930801921
 31
0.0
  0
LINE
  5
1C84
  8
FUTO
 10
25386.842790186751
 20
5631.8104930801892
 30
0.0
 11
25386.842790186751
 21
5739.8104930801892
 31
0.0
  0
LINE
  5
1C85
  8
FUTO
 10
25368.842790186751
 20
5621.8104930801892
 30
0.0
 11
25368.842790186751
 21
5631.8104930801892
 31
0.0
  0
LINE
  5
1C86
  8
FUTO
 10
25386.842790186751
 20
5631.8104930801892
 30
0.0
 11
25368.842790186751
 21
5631.8104930801892
 31
0.0
  0
LINE
  5
1C87
  8
FUTO
 10
25368.842790186751
 20
5607.8104930801892
 30
0.0
 11
25368.842790186751
 21
5621.8104930801892
 31
0.0
  0
LINE
  5
1C88
  8
FUTO
 10
25333.842790186751
 20
5599.8104930801892
 30
0.0
 11
25353.842790186751
 21
5607.8104930801892
 31
0.0
  0
LINE
  5
1C89
  8
FUTO
 10
25306.342790186751
 20
5599.8104930801892
 30
0.0
 11
25306.342790186751
 21
5539.6104930801876
 31
0.0
  0
LINE
  5
1C8A
  8
FUTO
 10
25333.842790186751
 20
5771.8104930801892
 30
0.0
 11
25353.842790186751
 21
5763.8104930801892
 31
0.0
  0
LINE
  5
1C8B
  8
FUTO
 10
25368.842790186751
 20
5763.8104930801892
 30
0.0
 11
25368.842790186751
 21
5749.8104930801901
 31
0.0
  0
LINE
  5
1C8C
  8
FUTO
 10
25368.842790186751
 20
5739.8104930801892
 30
0.0
 11
25368.842790186751
 21
5749.8104930801901
 31
0.0
  0
LINE
  5
1C8D
  8
FUTO
 10
25386.842790186751
 20
5739.8104930801892
 30
0.0
 11
25368.842790186751
 21
5739.8104930801892
 31
0.0
  0
LINE
  5
1C8E
  8
FUTO
 10
25733.842790186751
 20
5572.5595272426981
 30
0.0
 11
25733.842790186751
 21
5291.8104930801928
 31
0.0
  0
POINT
  5
1C8F
  8
DEFPOINTS
 10
25733.842790186751
 20
5291.8104930801928
 30
0.0
  0
LINE
  5
1C93
  8
FUTO
 10
25164.842790186751
 20
6833.8104930801892
 30
0.0
 11
25342.842790186751
 21
6833.8104930801919
 31
0.0
  0
LINE
  5
1C9A
  8
FUTO
 10
26328.842790186751
 20
8790.8104930801892
 30
0.0
 11
24178.842790186751
 21
8790.8104930801892
 31
0.0
  0
LINE
  5
1C9B
  8
FUTO
 10
26328.842790186751
 20
8796.8104930801892
 30
0.0
 11
24178.842790186751
 21
8796.8104930801928
 31
0.0
  0
LINE
  5
1C9C
  8
KL
 10
26328.842790186751
 20
8654.0104930810812
 30
0.0
 11
24178.842790186751
 21
8654.0104930815723
 31
0.0
  0
LINE
  5
1CA1
  8
HOSO
 10
26293.842790186751
 20
8618.8907494729901
 30
0.0
 11
26293.842790186751
 21
8677.0899055782193
 31
0.0
  0
LINE
  5
1CA2
  8
FUTO
 10
26259.842790186751
 20
8645.0104930801899
 30
0.0
 11
26259.842790186751
 21
8735.0104930801899
 31
0.0
  0
LINE
  5
1CA3
  8
KL
 10
26253.842790186751
 20
8645.0104930801899
 30
0.0
 11
26253.842790186751
 21
8796.8104930801892
 31
0.0
  0
LINE
  5
1CA4
  8
KL
 10
26328.842790186751
 20
8645.0104930801899
 30
0.0
 11
26328.842790186751
 21
8654.0104930810794
 31
0.0
  0
LINE
  5
1CA5
  8
HOSO
 10
26253.84279018674
 20
8654.0104930810994
 30
0.0
 11
26253.84279018674
 21
8645.0104930810994
 31
0.0
  0
LINE
  5
1CA6
  8
FUTO
 10
26328.842790186751
 20
8790.8104930801928
 30
0.0
 11
26328.842790186751
 21
8796.8104930801892
 31
0.0
  0
LINE
  5
1CA7
  8
HOSO
 10
26293.842790186751
 20
8768.7723036402058
 30
0.0
 11
26293.842790186751
 21
8826.9714597454331
 31
0.0
  0
LINE
  5
1CA8
  8
FUTO
 10
26259.842790186751
 20
8735.0104930801899
 30
0.0
 11
26259.842790186751
 21
8790.8104930801892
 31
0.0
  0
LINE
  5
1CBE
  8
FUTO
 10
25158.842790186751
 20
7000.8104930801892
 30
0.0
 11
25388.842790186751
 21
7000.8104930801892
 31
0.0
  0
LINE
  5
1CBF
  8
FUTO
 10
25118.842790186751
 20
7013.8104930801892
 30
0.0
 11
25388.842790186751
 21
7013.8104930801892
 31
0.0
  0
LINE
  5
1CC0
  8
FUTO
 10
25164.842790186751
 20
7037.8104930801901
 30
0.0
 11
25342.842790186751
 21
7037.8104930801901
 31
0.0
  0
LINE
  5
1CC1
  8
FUTO
 10
25118.842790186751
 20
7000.810493080191
 30
0.0
 11
25388.842790186751
 21
7000.8104930801892
 31
0.0
  0
LINE
  5
1CC2
  8
CT
 10
25023.551081112251
 20
6935.8104930801901
 30
0.0
 11
25483.17649194855
 21
6935.8104930801901
 31
0.0
  0
LINE
  5
1CC3
  8
FUTO
 10
25118.842790186751
 20
6857.810493080191
 30
0.0
 11
25388.842790186751
 21
6857.8104930801901
 31
0.0
  0
LINE
  5
1CC4
  8
FUTO
 10
25118.842790186751
 20
6870.810493080191
 30
0.0
 11
25388.842790186751
 21
6870.8104930801892
 31
0.0
  0
LINE
  5
1CC5
  8
KL
 10
25198.842790186751
 20
7037.8104930801901
 30
0.0
 11
25198.842790186751
 21
7131.454533404848
 31
0.0
  0
LINE
  5
1CCB
  8
FUTO
 10
25164.842790186751
 20
7037.810493080191
 30
0.0
 11
25141.009456853419
 21
7015.8104930801901
 31
0.0
  0
LINE
  5
1CCE
  8
KL
 10
25308.842790186751
 20
7037.8104930801901
 30
0.0
 11
25308.842790186751
 21
7133.897570272039
 31
0.0
  0
LINE
  5
1CCF
  8
FUTO
 10
25404.842790186751
 20
6875.8104930801892
 30
0.0
 11
25404.842790186751
 21
6995.8104930801892
 31
0.0
  0
LINE
  5
1CD0
  8
FUTO
 10
25388.842790186751
 20
6857.810493080191
 30
0.0
 11
25388.842790186751
 21
6875.8104930801892
 31
0.0
  0
LINE
  5
1CD1
  8
FUTO
 10
25388.842790186751
 20
6875.8104930801892
 30
0.0
 11
25404.842790186751
 21
6875.8104930801892
 31
0.0
  0
LINE
  5
1CD2
  8
FUTO
 10
25342.842790186751
 20
7037.810493080191
 30
0.0
 11
25368.842790186751
 21
7013.8104930801892
 31
0.0
  0
LINE
  5
1CD3
  8
FUTO
 10
25388.842790186751
 20
6995.8104930801892
 30
0.0
 11
25404.842790186751
 21
6995.8104930801892
 31
0.0
  0
LINE
  5
1CD4
  8
FUTO
 10
25388.842790186751
 20
7013.8104930801892
 30
0.0
 11
25388.842790186751
 21
6995.8104930801892
 31
0.0
  0
LINE
  5
1CE0
  8
HOSO
 10
24213.842790186751
 20
8611.2041192357683
 30
0.0
 11
24213.842790186751
 21
8681.8312463735874
 31
0.0
  0
LINE
  5
1CE1
  8
KL
 10
24247.842790186751
 20
8645.0104930801899
 30
0.0
 11
24247.842790186751
 21
8720.0104930801899
 31
0.0
  0
LINE
  5
1CE2
  8
KL
 10
24253.842790186751
 20
8645.0104930801899
 30
0.0
 11
24253.842790186751
 21
8796.8104930801892
 31
0.0
  0
LINE
  5
1CE4
  8
KL
 10
24178.842790186751
 20
8645.0104930801899
 30
0.0
 11
24178.842790186751
 21
8654.0104930815723
 31
0.0
  0
LINE
  5
1CE5
  8
HOSO
 10
24253.84279018674
 20
8654.0104930815542
 30
0.0
 11
24253.84279018674
 21
8645.0104930815578
 31
0.0
  0
LINE
  5
1CE6
  8
FUTO
 10
24178.842790186751
 20
8790.8104930801892
 30
0.0
 11
24178.842790186751
 21
8796.8104930801928
 31
0.0
  0
LINE
  5
1CE7
  8
HOSO
 10
24213.842790186751
 20
8760.7645656378463
 30
0.0
 11
24213.842790186751
 21
8831.3916927756691
 31
0.0
  0
LINE
  5
1CE8
  8
FUTO
 10
24247.842790186751
 20
8720.0104930801899
 30
0.0
 11
24247.842790186751
 21
8790.8104930801892
 31
0.0
  0
INSERT
  5
1CE9
  8
FUTO
  2
まっすぐの矢印
 10
24702.918539046561
 20
8963.3067808362193
 30
0.0
 41
40.0
 42
40.0
 43
40.0
 50
180.0
  0
LINE
  5
1D14
  8
FUTO
 10
25120.842790186751
 20
5631.8104930801892
 30
0.0
 11
25120.842790186751
 21
5739.8104930801892
 31
0.0
  0
LINE
  5
1D15
  8
FUTO
 10
25138.842790186751
 20
5607.8104930801892
 30
0.0
 11
25138.842790186751
 21
5621.8104930801892
 31
0.0
  0
LINE
  5
1D16
  8
FUTO
 10
25120.842790186751
 20
5631.8104930801892
 30
0.0
 11
25138.842790186751
 21
5631.8104930801892
 31
0.0
  0
LINE
  5
1D17
  8
FUTO
 10
25138.842790186751
 20
5621.8104930801892
 30
0.0
 11
25138.842790186751
 21
5631.8104930801892
 31
0.0
  0
LINE
  5
1D18
  8
FUTO
 10
25120.842790186751
 20
5739.8104930801892
 30
0.0
 11
25138.842790186751
 21
5739.8104930801892
 31
0.0
  0
LINE
  5
1D19
  8
FUTO
 10
25138.842790186751
 20
5739.8104930801892
 30
0.0
 11
25138.842790186751
 21
5749.8104930801901
 31
0.0
  0
LINE
  5
1D1A
  8
FUTO
 10
25138.842790186751
 20
5763.8104930801892
 30
0.0
 11
25138.842790186751
 21
5749.8104930801901
 31
0.0
  0
LINE
  5
1D1B
  8
FUTO
 10
25102.842790186751
 20
6875.8104930801892
 30
0.0
 11
25102.842790186751
 21
6995.8104930801892
 31
0.0
  0
LINE
  5
1D1C
  8
FUTO
 10
25118.842790186751
 20
6875.8104930801892
 30
0.0
 11
25102.842790186751
 21
6875.8104930801892
 31
0.0
  0
LINE
  5
1D1D
  8
FUTO
 10
25118.842790186751
 20
6857.810493080191
 30
0.0
 11
25118.842790186751
 21
6875.8104930801892
 31
0.0
  0
LINE
  5
1D1E
  8
FUTO
 10
25118.842790186751
 20
7013.8104930801892
 30
0.0
 11
25118.842790186751
 21
6995.8104930801892
 31
0.0
  0
LINE
  5
1D1F
  8
FUTO
 10
25118.842790186751
 20
6995.8104930801892
 30
0.0
 11
25102.842790186751
 21
6995.8104930801892
 31
0.0
  0
LINE
  5
1D20
  8
FUTO
 10
24904.255985709311
 20
5589.8104930801856
 30
0.0
 11
24904.2559857093
 21
7062.8104930801883
 31
0.0
  0
LINE
  5
1D21
  8
FUTO
 10
25603.429594664191
 20
5589.8104930801856
 30
0.0
 11
25603.429594664191
 21
7062.8104930801883
 31
0.0
  0
LINE
  5
1D22
  8
FUTO
 10
26528.842790186951
 20
7062.8104930801883
 30
0.0
 11
26528.84279018809
 21
8720.8104930801946
 31
0.0
  0
LINE
  5
1D23
  8
FUTO
 10
26528.84279018738
 20
7062.8104930801883
 30
0.0
 11
26528.84279018813
 21
8720.8104930801946
 31
0.0
  0
LINE
  5
1D24
  8
FUTO
 10
26528.842790186751
 20
7062.8104930801883
 30
0.0
 11
26528.842790186751
 21
8720.8104930801946
 31
0.0
  0
LINE
  5
1D25
  8
FUTO
 10
26522.842790186751
 20
7062.8104930801883
 30
0.0
 11
26522.842790186751
 21
8720.8104930801946
 31
0.0
  0
LINE
  5
1D26
  8
FUTO
 10
26453.842790186751
 20
7062.8104930801883
 30
0.0
 11
26453.842790186751
 21
8720.810493080191
 31
0.0
  0
LINE
  5
1D35
  8
CT
 10
23403.842790186751
 20
6659.5243054407456
 30
0.0
 11
23403.842790186751
 21
5296.309216708898
 31
0.0
  0
LINE
  5
1D3A
  8
SL
 10
23226.342790186751
 20
5539.610493080193
 30
0.0
 11
23226.342790186751
 21
5409.6104930801876
 31
0.0
  0
LINE
  5
1D3B
  8
FUTO
 10
23123.842790186751
 20
5572.5595272426972
 30
0.0
 11
23123.842790186751
 21
5291.8104930801883
 31
0.0
  0
LINE
  5
2121
  8
CT
 10
28503.882399757618
 20
1029.6696818743919
 30
0.0
 11
28136.062399757619
 21
1029.6696818743919
 31
0.0
  0
LINE
  5
2132
  8
FUTO
 10
28764.10039975763
 20
754.66968187439033
 30
0.0
 11
28692.52939975763
 21
754.66968187439033
 31
0.0
  0
LINE
  5
2306
  8
FUTO
 10
23116.3427901865
 20
6244.6104930800993
 30
0.0
 11
23116.342790186442
 21
6439.6104930800993
 31
0.0
  0
LINE
  5
2307
  8
FUTO
 10
23673.842790186431
 20
6457.8713630802713
 30
0.0
 11
23673.842790186489
 21
6244.610493080273
 31
0.0
  0
LINE
  5
2308
  8
FUTO
 10
23116.342790186442
 20
6439.6104930800993
 30
0.0
 11
23673.842790186442
 21
6439.6104930802721
 31
0.0
  0
LINE
  5
2309
  8
FUTO
 10
23633.84279018642
 20
6499.6104930802603
 30
0.0
 11
23173.84279018642
 21
6499.6104930801184
 31
0.0
  0
LINE
  5
230A
  8
FUTO
 10
23673.842790186431
 20
6457.8713630802713
 30
0.0
 11
23633.84279018642
 21
6499.6104930802603
 31
0.0
  0
LINE
  5
230B
  8
FUTO
 10
23116.342790186442
 20
6439.6104930800993
 30
0.0
 11
23173.84279018642
 21
6499.6104930801184
 31
0.0
  0
LINE
  5
230C
  8
CT
 10
23714.15764983969
 20
5979.1104930802867
 30
0.0
 11
23071.08231609072
 21
5979.1104930800866
 31
0.0
  0
LINE
  5
230D
  8
FUTO
 10
23116.3427901865
 20
6244.6104930800993
 30
0.0
 11
23673.842790186489
 21
6244.610493080273
 31
0.0
  0
LINE
  5
230E
  8
FUTO
 10
23116.342790186671
 20
5696.1104930800993
 30
0.0
 11
23168.408812047441
 21
5696.1104930801157
 31
0.0
  0
LINE
  5
230F
  8
FUTO
 10
23116.3427901867
 20
5596.1104930800993
 30
0.0
 11
23400.8427901867
 21
5596.1104930801857
 31
0.0
  0
LINE
  5
2310
  8
CT
 10
23707.972855153701
 20
6188.6104930802821
 30
0.0
 11
23744.658395153689
 21
6188.610493080294
 31
0.0
  0
LINE
  5
2311
  8
CT
 10
23707.972855153821
 20
5769.610493080283
 30
0.0
 11
23744.65839515382
 21
5769.610493080294
 31
0.0
  0
LINE
  5
2312
  8
FUTO
 10
23446.342790186762
 20
5409.610493080203
 30
0.0
 11
23446.3427901867
 21
5579.610493080203
 31
0.0
  0
LINE
  5
2313
  8
FUTO
 10
23361.3427901867
 20
5579.6104930801757
 30
0.0
 11
23361.342790186762
 21
5409.6104930801757
 31
0.0
  0
LINE
  5
2314
  8
FUTO
 10
23356.342790186762
 20
5409.6104930801739
 30
0.0
 11
23356.342790186711
 21
5549.6104930801739
 31
0.0
  0
LINE
  5
2315
  8
FUTO
 10
23453.8427901867
 20
5579.610493080203
 30
0.0
 11
23353.8427901867
 21
5579.6104930801739
 31
0.0
  0
LINE
  5
2316
  8
FUTO
 10
23489.3427901867
 20
5589.6104930802139
 30
0.0
 11
23318.3427901867
 21
5589.610493080163
 31
0.0
  0
LINE
  5
2317
  8
FUTO
 10
23491.3427901867
 20
5596.4588680802153
 30
0.0
 11
23491.3427901867
 21
5591.6104930802139
 31
0.0
  0
ARC
  5
2318
  8
FUTO
 10
23489.3427901867
 20
5591.6104930802139
 30
0.0
 40
2.0
 50
270.0
 51
0.000000000000007
  0
LINE
  5
2319
  8
FUTO
 10
23453.8427901867
 20
5579.610493080203
 30
0.0
 11
23453.8427901867
 21
5589.610493080203
 31
0.0
  0
LINE
  5
231A
  8
FUTO
 10
23353.8427901867
 20
5579.6104930801739
 30
0.0
 11
23353.8427901867
 21
5589.6104930801739
 31
0.0
  0
LINE
  5
231B
  8
FUTO
 10
23361.342790186722
 20
5549.6104930801757
 30
0.0
 11
23356.342790186711
 21
5549.6104930801739
 31
0.0
  0
LINE
  5
231C
  8
FUTO
 10
23316.3427901867
 20
5596.110493080163
 30
0.0
 11
23316.3427901867
 21
5591.610493080163
 31
0.0
  0
ARC
  5
231D
  8
FUTO
 10
23318.3427901867
 20
5591.610493080163
 30
0.0
 40
2.0
 50
180.0
 51
270.0
  0
LINE
  5
231E
  8
FUTO
 10
23446.342790186762
 20
5409.610493080203
 30
0.0
 11
23356.342790186762
 21
5409.6104930801739
 31
0.0
  0
LINE
  5
231F
  8
FUTO
 10
23118.028713186581
 20
5979.1104930801012
 30
0.0
 11
23118.028713186661
 21
5723.6104930801012
 31
0.0
  0
LINE
  5
2320
  8
FUTO
 10
23168.408812047361
 20
5938.6104930801166
 30
0.0
 11
23566.325830246111
 21
5938.6104930802403
 31
0.0
  0
LINE
  5
2321
  8
FUTO
 10
23168.408812047372
 20
5920.2104990801126
 30
0.0
 11
23566.325830246122
 21
5920.2104990802363
 31
0.0
  0
LINE
  5
2322
  8
CT
 10
23351.30692069752
 20
5793.6104930801721
 30
0.0
 11
23494.451726697531
 21
5793.6104930802167
 31
0.0
  0
LINE
  5
2323
  8
FUTO
 10
23113.8427901865
 20
6234.6104930801002
 30
0.0
 11
23113.842790186602
 21
5923.6104930800993
 31
0.0
  0
LINE
  5
2324
  8
FUTO
 10
23118.028713186581
 20
5979.1104930801012
 30
0.0
 11
23118.028713186501
 21
6234.6104930801012
 31
0.0
  0
LINE
  5
2325
  8
FUTO
 10
23118.028713186501
 20
6234.6104930801012
 30
0.0
 11
23124.480575186499
 21
6244.610493080103
 31
0.0
  0
LINE
  5
2326
  8
FUTO
 10
23113.8427901865
 20
6234.6104930801002
 30
0.0
 11
23120.509456186501
 21
6244.6104930801012
 31
0.0
  0
LINE
  5
2327
  8
FUTO
 10
23113.842790186602
 20
5923.6104930800993
 30
0.0
 11
23118.028713186599
 21
5919.4245700801002
 31
0.0
  0
LINE
  5
2328
  8
FUTO
 10
23566.325830246209
 20
5648.6104930802403
 30
0.0
 11
23168.408812047452
 21
5648.6104930801166
 31
0.0
  0
LINE
  5
2329
  8
FUTO
 10
23566.325830246202
 20
5667.0105170802344
 30
0.0
 11
23168.408812047452
 21
5667.0105170801125
 31
0.0
  0
LINE
  5
232A
  8
FUTO
 10
23116.3427901867
 20
5596.1104930800993
 30
0.0
 11
23116.342790186671
 21
5696.1104930800993
 31
0.0
  0
LINE
  5
232B
  8
FUTO
 10
23121.327742186659
 20
5712.383065080101
 30
0.0
 11
23132.176123186669
 21
5696.1104930801048
 31
0.0
  0
LINE
  5
232C
  8
FUTO
 10
23118.028713186661
 20
5723.6104930801012
 30
0.0
 11
23135.771333186669
 21
5696.1104930801048
 31
0.0
  0
LINE
  5
232D
  8
FUTO
 10
23127.61418518666
 20
5708.7535850801032
 30
0.0
 11
23119.201774186658
 21
5713.6104930801012
 31
0.0
  0
LINE
  5
232E
  8
FUTO
 10
23566.325830246209
 20
5648.6104930802348
 30
0.0
 11
23566.325830246111
 21
5938.6104930802403
 31
0.0
  0
LINE
  5
232F
  8
FUTO
 10
23168.408812047452
 20
5648.6104930801157
 30
0.0
 11
23168.408812047361
 21
5938.6104930801166
 31
0.0
  0
LINE
  5
2330
  8
FUTO
 10
23691.342790186671
 20
5696.1104930802767
 30
0.0
 11
23566.325830246191
 21
5696.1104930802358
 31
0.0
  0
LINE
  5
2331
  8
FUTO
 10
23691.3427901867
 20
5596.1104930802776
 30
0.0
 11
23406.8427901867
 21
5596.1104930801894
 31
0.0
  0
LINE
  5
2332
  8
FUTO
 10
23691.3427901867
 20
5596.1104930802776
 30
0.0
 11
23691.342790186671
 21
5696.1104930802767
 31
0.0
  0
LINE
  5
2333
  8
FUTO
 10
23689.656867186579
 20
5979.1104930802758
 30
0.0
 11
23689.656867186499
 21
6234.6104930802758
 31
0.0
  0
LINE
  5
2334
  8
FUTO
 10
23693.8427901865
 20
6234.6104930802767
 30
0.0
 11
23693.842790186602
 21
5923.6104930802767
 31
0.0
  0
LINE
  5
2335
  8
FUTO
 10
23689.656867186579
 20
5979.1104930802758
 30
0.0
 11
23689.656867186659
 21
5723.6104930802758
 31
0.0
  0
LINE
  5
2336
  8
FUTO
 10
23689.656867186659
 20
5723.6104930802758
 30
0.0
 11
23671.914247186669
 21
5696.1104930802721
 31
0.0
  0
LINE
  5
2337
  8
FUTO
 10
23680.071395186671
 20
5708.7535850802742
 30
0.0
 11
23688.483806186669
 21
5713.6104930802758
 31
0.0
  0
LINE
  5
2338
  8
FUTO
 10
23686.357838186661
 20
5712.3830650802784
 30
0.0
 11
23675.509457186668
 21
5696.1104930802721
 31
0.0
  0
LINE
  5
2339
  8
FUTO
 10
23693.8427901865
 20
6234.6104930802767
 30
0.0
 11
23687.176124186492
 21
6244.6104930802758
 31
0.0
  0
LINE
  5
233A
  8
FUTO
 10
23689.656867186499
 20
6234.6104930802758
 30
0.0
 11
23683.205005186501
 21
6244.6104930802758
 31
0.0
  0
LINE
  5
233B
  8
FUTO
 10
23753.842790186642
 20
5675.0315595417251
 30
0.0
 11
23753.842790186449
 21
6283.1894266188674
 31
0.0
  0
LINE
  5
233C
  8
FUTO
 10
23753.842790186642
 20
5675.0315595417251
 30
0.0
 11
23691.342790186671
 21
5675.0315595417078
 31
0.0
  0
LINE
  5
233D
  8
FUTO
 10
23753.842790186449
 20
6283.1894266188674
 30
0.0
 11
23673.842790186482
 21
6283.1894266188392
 31
0.0
  0
LINE
  5
233E
  8
FUTO
 10
23053.842790186711
 20
5675.0315595415104
 30
0.0
 11
23053.842790186522
 21
6283.1894266186509
 31
0.0
  0
LINE
  5
233F
  8
FUTO
 10
23053.842790186529
 20
6283.1894266186509
 30
0.0
 11
23133.842790186482
 21
6283.1894266186719
 31
0.0
  0
LINE
  5
2340
  8
FUTO
 10
23053.842790186711
 20
5675.0315595415104
 30
0.0
 11
23116.342790186671
 21
5675.0315595415314
 31
0.0
  0
LINE
  5
2370
  8
FUTO
 10
28480.3823997576
 20
927.13919887435338
 30
0.0
 11
28480.382399757589
 21
842.28638487435364
 31
0.0
  0
LINE
  5
2371
  8
FUTO
 10
28564.382399757618
 20
1029.6696818743351
 30
0.0
 11
28564.382399757571
 21
771.66968187433577
 31
0.0
  0
LINE
  5
2372
  8
FUTO
 10
28564.382399757618
 20
1032.6696818743351
 30
0.0
 11
28564.382399757571
 21
799.66968187433565
 31
0.0
  0
LINE
  5
2373
  8
FUTO
 10
28729.382399757589
 20
875.67578687430148
 30
0.0
 11
28729.382399757571
 21
799.6696818743012
 31
0.0
  0
LINE
  5
2374
  8
FUTO
 10
29010.382399757589
 20
879.1417188742389
 30
0.0
 11
29010.382399757571
 21
799.66968187423925
 31
0.0
  0
LINE
  5
2375
  8
FUTO
 10
29135.382399757691
 20
1317.1696818742139
 30
0.0
 11
29135.382399757571
 21
759.66968187421378
 31
0.0
  0
LINE
  5
2376
  8
CT
 10
28869.88239975756
 20
730.7195658742703
 30
0.0
 11
28869.882399757698
 21
1362.430155970128
 31
0.0
  0
LINE
  5
2377
  8
FUTO
 10
29390.382399757571
 20
799.6696818741575
 30
0.0
 11
29390.382399757669
 21
1259.669681874157
 31
0.0
  0
LINE
  5
2378
  8
FUTO
 10
29330.382399757691
 20
1317.16968187417
 30
0.0
 11
29330.38239975756
 21
759.66968187417024
 31
0.0
  0
LINE
  5
2379
  8
FUTO
 10
29125.38239975756
 20
759.62074187421513
 30
0.0
 11
29114.88239975756
 21
759.62074187421695
 31
0.0
  0
LINE
  5
237C
  8
FUTO
 10
28744.88239975756
 20
749.66968187429745
 30
0.0
 11
29173.882399757571
 21
749.6696818742048
 31
0.0
  0
ARC
  5
237D
  8
KL
 10
28512.717100757571
 20
802.47711687434537
 30
0.0
 40
10.0
 50
183.0000000000033
 51
225.0000000001105
  0
LINE
  5
237E
  8
FUTO
 10
28502.730804757572
 20
801.95375787434841
 30
0.0
 11
28500.617061757581
 21
842.28638487434819
 31
0.0
  0
LINE
  5
237F
  8
FUTO
 10
28480.382399757589
 20
842.28638487435364
 30
0.0
 11
28534.382399757578
 21
842.28638487434091
 31
0.0
  0
LINE
  5
2380
  8
FUTO
 10
28709.382399757571
 20
779.66968187430484
 30
0.0
 11
28629.382399757571
 21
779.66968187432121
 31
0.0
  0
LINE
  5
2381
  8
FUTO
 10
28624.882399757571
 20
749.66968187432303
 30
0.0
 11
28744.88239975756
 21
749.66968187429745
 31
0.0
  0
LINE
  5
2383
  8
FUTO
 10
28564.382399757589
 20
843.09094087433459
 30
0.0
 11
28729.382399757589
 21
843.09094087430003
 31
0.0
  0
LINE
  5
2384
  8
FUTO
 10
28744.88239975756
 20
749.66968187429745
 30
0.0
 11
28565.88239975756
 21
749.66968187433565
 31
0.0
  0
ARC
  5
238A
  8
FUTO
 10
28532.58256975756
 20
782.61164787434336
 30
0.0
 40
10.0
 50
225.0000000001105
 51
267.99999999999602
  0
LINE
  5
238B
  8
FUTO
 10
28574.382399757571
 20
799.66968187433395
 30
0.0
 11
28574.382399757571
 21
797.80524987433364
 31
0.0
  0
LINE
  5
238C
  8
FUTO
 10
28574.382399757571
 20
799.66968187433395
 30
0.0
 11
28564.382399757571
 21
799.66968187433565
 31
0.0
  0
ARC
  5
238D
  8
FUTO
 10
28629.882399757571
 20
774.6696818743211
 30
0.0
 40
5.0
 50
90.0
 51
180.0
  0
LINE
  5
238E
  8
FUTO
 10
28614.38239975756
 20
759.62074187432415
 30
0.0
 11
28624.882399757571
 21
759.62074187432245
 31
0.0
  0
LINE
  5
238F
  8
FUTO
 10
28584.382399757571
 20
763.44085087432995
 30
0.0
 11
28614.38239975756
 21
759.62074187432415
 31
0.0
  0
LINE
  5
2390
  8
FUTO
 10
28574.382399757571
 20
797.80524987433364
 30
0.0
 11
28584.382399757571
 21
763.44085087432995
 31
0.0
  0
LINE
  5
2391
  8
FUTO
 10
28532.23357475756
 20
772.61773987434299
 30
0.0
 11
28564.382399757571
 21
771.66968187433577
 31
0.0
  0
LINE
  5
2393
  8
FUTO
 10
28624.882399757571
 20
774.66968187432303
 30
0.0
 11
28624.882399757571
 21
749.66968187432303
 31
0.0
  0
LINE
  5
2394
  8
FUTO
 10
28565.88239975756
 20
749.66968187433565
 30
0.0
 11
28565.882399757538
 21
686.42991274237545
 31
0.0
  0
ARC
  5
2398
  8
FUTO
 10
28709.382399757571
 20
799.66968187430484
 30
0.0
 40
20.0
 50
270.0
 51
0.0
  0
LINE
  5
2399
  8
FUTO
 10
28749.88239975756
 20
759.66968187429575
 30
0.0
 11
28869.88239975756
 21
759.66968187427017
 31
0.0
  0
ARC
  5
239B
  8
FUTO
 10
28749.88239975756
 20
754.66968187429575
 30
0.0
 40
5.0
 50
90.0
 51
180.0
  0
LINE
  5
239C
  8
KL
 10
28660.382399757571
 20
783.43005387431276
 30
0.0
 11
28660.38239975756
 21
746.74451387431407
 31
0.0
  0
ARC
  5
239D
  8
FUTO
 10
29030.382399757571
 20
799.66968187423572
 30
0.0
 40
20.0
 50
180.0
 51
270.0
  0
ARC
  5
239E
  8
FUTO
 10
29109.882399757571
 20
774.66968187421753
 30
0.0
 40
5.0
 50
0.0
 51
90.0
  0
LINE
  5
239F
  8
FUTO
 10
29030.382399757571
 20
779.66968187423572
 30
0.0
 11
29110.382399757571
 21
779.66968187421753
 31
0.0
  0
LINE
  5
23A0
  8
FUTO
 10
28994.88239975756
 20
754.669681874243
 30
0.0
 11
28994.88239975756
 21
749.669681874243
 31
0.0
  0
LINE
  5
23A1
  8
FUTO
 10
29115.38239975756
 20
749.66968187421753
 30
0.0
 11
28994.88239975756
 21
749.669681874243
 31
0.0
  0
LINE
  5
23A2
  8
FUTO
 10
29114.882399757571
 20
774.66968187421753
 30
0.0
 11
29114.88239975756
 21
749.66968187421753
 31
0.0
  0
LINE
  5
23A3
  8
FUTO
 10
29079.382399757571
 20
783.43005387422363
 30
0.0
 11
29079.38239975756
 21
746.74451387422505
 31
0.0
  0
ARC
  5
23A4
  8
FUTO
 10
28989.88239975756
 20
754.6696818742447
 30
0.0
 40
5.0
 50
0.0
 51
90.0
  0
LINE
  5
23A5
  8
FUTO
 10
28989.88239975756
 20
759.66968187424482
 30
0.0
 11
28869.88239975756
 21
759.66968187427017
 31
0.0
  0
LINE
  5
23A6
  8
FUTO
 10
28525.511501757559
 20
775.5405808743426
 30
0.0
 11
28505.64603275757
 21
795.40604887434802
 31
0.0
  0
LINE
  5
23A7
  8
FUTO
 10
29348.643269757558
 20
759.6696818741666
 30
0.0
 11
29135.382399757571
 21
759.66968187421378
 31
0.0
  0
LINE
  5
23A8
  8
FUTO
 10
29173.882399757571
 20
749.6696818742048
 30
0.0
 11
29173.882399757538
 21
686.48598252733336
 31
0.0
  0
LINE
  5
23A9
  8
FUTO
 10
29348.643269757558
 20
759.6696818741666
 30
0.0
 11
29390.382399757571
 21
799.6696818741575
 31
0.0
  0
LINE
  5
23AA
  8
FUTO
 10
29135.382399757571
 20
760.89411187421229
 30
0.0
 11
29125.38239975756
 21
759.62074187421513
 31
0.0
  0
LINE
  5
23AB
  8
FUTO
 10
28869.882399757691
 20
1315.4837588742689
 30
0.0
 11
29125.382399757691
 21
1315.4837588742139
 31
0.0
  0
LINE
  5
23AC
  8
FUTO
 10
29125.382399757691
 20
1319.669681874215
 30
0.0
 11
28814.382399757691
 21
1319.669681874283
 31
0.0
  0
CIRCLE
  5
23AE
  8
FUTO
 10
28684.382399757709
 20
1454.6696818743101
 30
0.0
 40
59.0
  0
LINE
  5
23AF
  8
FUTO
 10
28557.78242375769
 20
1346.2696308743371
 30
0.0
 11
28557.78242375773
 21
1541.1410408743361
 31
0.0
  0
LINE
  5
23B0
  8
FUTO
 10
28539.382399757698
 20
1365.6116148743411
 30
0.0
 11
28539.382399757738
 21
1550.33493487434
 31
0.0
  0
LINE
  5
23B1
  8
CT
 10
28684.382399757738
 20
1524.2513318743099
 30
0.0
 11
28684.382399757698
 21
1381.1065258743099
 31
0.0
  0
LINE
  5
23B2
  8
FUTO
 10
28810.982405757732
 20
1541.141040874282
 30
0.0
 11
28810.982405757692
 21
1346.2696728742819
 31
0.0
  0
LINE
  5
23B3
  8
FUTO
 10
28829.382399757738
 20
1550.3349348742779
 30
0.0
 11
28829.382399757698
 21
1365.611614874279
 31
0.0
  0
LINE
  5
23B4
  8
FUTO
 10
28486.882399757691
 20
1317.1696818743519
 30
0.0
 11
28486.882399757618
 21
1032.6696818743519
 31
0.0
  0
LINE
  5
23B5
  8
FUTO
 10
28586.882399757691
 20
1317.1696818743301
 30
0.0
 11
28586.882399757618
 21
1032.6696818743301
 31
0.0
  0
LINE
  5
23B6
  8
CT
 10
28087.677387551121
 20
1029.669681874457
 30
0.0
 11
29449.053756697642
 21
1029.669681874042
 31
0.0
  0
LINE
  5
23B7
  8
KL
 10
28486.882399757618
 20
1032.6696818743519
 30
0.0
 11
28586.882399757618
 21
1032.6696818743301
 31
0.0
  0
LINE
  5
23B8
  8
FUTO
 10
28564.3823997576
 20
920.06813087433602
 30
0.0
 11
28480.3823997576
 21
920.06813087435421
 31
0.0
  0
LINE
  5
23B9
  8
FUTO
 10
28300.382399757611
 20
987.16968187439215
 30
0.0
 11
28300.38239975764
 21
1077.1696818743919
 31
0.0
  0
ARC
  5
23BA
  8
FUTO
 10
28482.38239975764
 20
1115.169681874353
 30
0.0
 40
2.0
 50
90.0
 51
180.0
  0
LINE
  5
23BB
  8
FUTO
 10
28486.88239975764
 20
1117.1696818743519
 30
0.0
 11
28482.38239975764
 21
1117.169681874353
 31
0.0
  0
LINE
  5
23BC
  8
FUTO
 10
28440.382399757629
 20
1072.1696818743631
 30
0.0
 11
28440.382399757629
 21
1077.1696818743631
 31
0.0
  0
LINE
  5
23BD
  8
FUTO
 10
28470.38239975764
 20
1079.6696818743551
 30
0.0
 11
28480.38239975764
 21
1079.669681874354
 31
0.0
  0
LINE
  5
23BE
  8
FUTO
 10
28470.382399757611
 20
979.66968187435566
 30
0.0
 11
28480.382399757611
 21
979.66968187435396
 31
0.0
  0
ARC
  5
23BF
  8
FUTO
 10
28482.3823997576
 20
944.16968187435396
 30
0.0
 40
2.0
 50
180.0
 51
270.0
  0
LINE
  5
23C0
  8
FUTO
 10
28487.230774757601
 20
942.16968187435214
 30
0.0
 11
28482.3823997576
 21
942.16968187435396
 31
0.0
  0
LINE
  5
23C1
  8
KL
 10
28485.382399757611
 20
927.13919887435156
 30
0.0
 11
28480.3823997576
 21
927.13919887435338
 31
0.0
  0
LINE
  5
23C3
  8
FUTO
 10
28480.3823997576
 20
944.16968187435396
 30
0.0
 11
28480.38239975764
 21
1115.169681874353
 31
0.0
  0
LINE
  5
23C4
  8
FUTO
 10
28470.382399757611
 20
979.66968187435566
 30
0.0
 11
28470.38239975764
 21
1079.6696818743551
 31
0.0
  0
LINE
  5
23C6
  8
FUTO
 10
28300.38239975764
 20
1077.1696818743919
 30
0.0
 11
28440.382399757629
 21
1077.1696818743631
 31
0.0
  0
LINE
  5
23C7
  8
FUTO
 10
28470.38239975764
 20
1072.1696818743551
 30
0.0
 11
28300.38239975764
 21
1072.1696818743919
 31
0.0
  0
LINE
  5
23C8
  8
FUTO
 10
28300.382399757611
 20
987.16968187439215
 30
0.0
 11
28470.382399757611
 21
987.16968187435577
 31
0.0
  0
ARC
  5
23CD
  8
FUTO
 10
29015.382399757589
 20
879.1417188742389
 30
0.0
 40
5.0
 50
90.0
 51
180.0
  0
LINE
  5
23CE
  8
FUTO
 10
28486.882399757691
 20
1317.1696818743519
 30
0.0
 11
28586.882399757691
 21
1317.1696818743301
 31
0.0
  0
LINE
  5
23CF
  8
FUTO
 10
28799.382399757698
 20
1364.6696818742839
 30
0.0
 11
28569.382399757698
 21
1364.6696818743339
 31
0.0
  0
LINE
  5
23D0
  8
CT
 10
28590.90135875771
 20
1454.6696818743301
 30
0.0
 11
28770.82472675771
 21
1454.6696818742921
 31
0.0
  0
LINE
  5
23D1
  8
FUTO
 10
28799.382399757691
 20
1334.6696818742839
 30
0.0
 11
28569.382399757691
 21
1334.669681874333
 31
0.0
  0
LINE
  5
23D2
  8
FUTO
 10
28869.882399757691
 20
1315.4837588742689
 30
0.0
 11
28614.382399757691
 21
1315.4837588743239
 31
0.0
  0
LINE
  5
23D3
  8
FUTO
 10
28604.382399757691
 20
1324.669681874326
 30
0.0
 11
28764.382399757691
 21
1324.6696818742921
 31
0.0
  0
LINE
  5
23D4
  8
FUTO
 10
28557.782423757701
 20
1365.611614874337
 30
0.0
 11
28539.382399757698
 21
1365.6116148743411
 31
0.0
  0
ARC
  5
23D5
  8
FUTO
 10
28569.38227775769
 20
1376.269569874333
 30
0.0
 40
11.599888
 50
179.99945399997631
 51
270.0006100000092
  0
LINE
  5
23D6
  8
FUTO
 10
28599.525491757689
 20
1305.8982868743281
 30
0.0
 11
28604.382399757691
 21
1314.310697874326
 31
0.0
  0
LINE
  5
23D7
  8
FUTO
 10
28614.382399757691
 20
1315.4837588743239
 30
0.0
 11
28586.88239975768
 21
1297.7411388743301
 31
0.0
  0
LINE
  5
23D8
  8
FUTO
 10
28603.154971757682
 20
1312.1847298743271
 30
0.0
 11
28586.882399757691
 21
1301.3363488743289
 31
0.0
  0
LINE
  5
23D9
  8
FUTO
 10
28604.382399757691
 20
1314.310697874326
 30
0.0
 11
28604.382399757691
 21
1334.669681874326
 31
0.0
  0
ARC
  5
23DA
  8
FUTO
 10
28569.382399757691
 20
1346.269630874333
 30
0.0
 40
11.599949000000001
 50
179.9997550000013
 51
270.0
  0
LINE
  5
23DB
  8
FUTO
 10
28764.382399757691
 20
1334.6696818742921
 30
0.0
 11
28764.382399757691
 21
1315.483758874291
 31
0.0
  0
ARC
  5
23DC
  8
FUTO
 10
28799.382430757691
 20
1376.2696578742839
 30
0.0
 40
11.599976
 50
269.99984700005228
 51
0.0001069999742915
  0
LINE
  5
23DD
  8
FUTO
 10
28810.982405757692
 20
1365.6116148742831
 30
0.0
 11
28829.382399757698
 21
1365.611614874279
 31
0.0
  0
ARC
  5
23DE
  8
FUTO
 10
28799.382399757698
 20
1346.269678874284
 30
0.0
 40
11.600006
 50
270.0
 51
0.0000150000275647
  0
LINE
  5
23DF
  8
KL
 10
28814.382399757691
 20
1319.669681874283
 30
0.0
 11
28810.196476757679
 21
1315.4837588742821
 31
0.0
  0
LINE
  5
23E0
  8
FUTO
 10
28539.382399757738
 20
1550.33493487434
 30
0.0
 11
28829.382399757738
 21
1550.3349348742779
 31
0.0
  0
LINE
  5
23E1
  8
FUTO
 10
28557.78242375773
 20
1541.1410408743361
 30
0.0
 11
28810.982405757732
 21
1541.141040874282
 31
0.0
  0
LINE
  5
23E2
  8
FUTO
 10
28799.382399757749
 20
1582.7278328742841
 30
0.0
 11
28569.382399757749
 21
1582.727832874333
 31
0.0
  0
ARC
  5
23E3
  8
FUTO
 10
28569.382399757738
 20
1571.1278878743331
 30
0.0
 40
11.599976
 50
90.0
 51
180.0003050000046
  0
LINE
  5
23E4
  8
FUTO
 10
28557.78242375773
 20
1550.3349348743361
 30
0.0
 11
28557.78242375773
 21
1571.1278268743361
 31
0.0
  0
ARC
  5
23E5
  8
FUTO
 10
28799.382399757749
 20
1571.127842874283
 30
0.0
 40
11.599990999999999
 50
359.99992399997137
 51
90.0
  0
LINE
  5
23E6
  8
FUTO
 10
28810.982405757739
 20
1571.127826874281
 30
0.0
 11
28810.982405757732
 21
1550.334934874282
 31
0.0
  0
LINE
  5
23E8
  8
FUTO
 10
29135.382399757691
 20
1317.1696818742139
 30
0.0
 11
29330.382399757691
 21
1317.16968187417
 31
0.0
  0
LINE
  5
23E9
  8
FUTO
 10
29330.382399757691
 20
1317.16968187417
 30
0.0
 11
29390.382399757669
 21
1259.669681874157
 31
0.0
  0
LINE
  5
23EA
  8
FUTO
 10
29125.382399757691
 20
1319.669681874215
 30
0.0
 11
29135.382399757691
 21
1313.0030158742129
 31
0.0
  0
LINE
  5
23EB
  8
FUTO
 10
29125.382399757691
 20
1315.4837588742139
 30
0.0
 11
29135.382399757691
 21
1309.031896874211
 31
0.0
  0
LINE
  5
2519
  8
SL
 10
23103.842790186751
 20
5595.8104930801874
 30
0.0
 11
23103.842790186751
 21
6283.1894266186637
 31
0.0
  0
LINE
  5
251A
  8
FUTO
 10
23003.842790186751
 20
7062.8104930801883
 30
0.0
 11
23003.842790186751
 21
7137.8104930801883
 31
0.0
  0
LINE
  5
251B
  8
FUTO
 10
23178.842790186751
 20
6499.6104930801193
 30
0.0
 11
23178.842790186751
 21
7062.8104930801883
 31
0.0
  0
LINE
  5
251C
  8
FUTO
 10
23103.842790186751
 20
6283.1894266186637
 30
0.0
 11
23103.842790186751
 21
7062.8104930801883
 31
0.0
  0
LINE
  5
251D
  8
SL
 10
23628.842790186751
 20
5595.8104930801856
 30
0.0
 11
23628.842790186751
 21
6499.6104930801184
 31
0.0
  0
LINE
  5
251E
  8
SL
 10
23703.842790186751
 20
5595.8104930801856
 30
0.0
 11
23703.842790186751
 21
6283.1894266186628
 31
0.0
  0
LINE
  5
251F
  8
FUTO
 10
23703.842790186751
 20
6283.1894266186628
 30
0.0
 11
23703.842790186762
 21
7062.8104930801883
 31
0.0
  0
LINE
  5
2520
  8
FUTO
 10
23628.842790186751
 20
6499.6104930801184
 30
0.0
 11
23628.842790186762
 21
7062.8104930801883
 31
0.0
  0
LINE
  5
2521
  8
FUTO
 10
23517.842790186751
 20
7137.8104930801883
 30
0.0
 11
23517.842790186751
 21
8645.8104930801928
 31
0.0
  0
LINE
  5
2522
  8
FUTO
 10
23467.842790186751
 20
7087.8104930801883
 30
0.0
 11
23467.842790186751
 21
8695.8104930801946
 31
0.0
  0
LINE
  5
2523
  8
FUTO
 10
26453.842790186751
 20
8695.8104930801928
 30
0.0
 11
23467.842790186751
 21
8695.8104930801928
 31
0.0
  0
LINE
  5
2524
  8
FUTO
 10
26453.842790186751
 20
7087.8104930801901
 30
0.0
 11
23467.842790186751
 21
7087.8104930801883
 31
0.0
  0
LINE
  5
2525
  8
FUTO
 10
23467.842790186751
 20
7137.8104930801883
 30
0.0
 11
23003.842790186751
 21
7137.8104930801883
 31
0.0
  0
DIMENSION
  5
253A
  8
SP
  2
*D17
 10
26528.84279018813
 20
9333.7065811429893
 30
0.0
 11
25891.342790187438
 21
9423.7065811429911
 31
0.0
 70
     0
 13
25253.842790186751
 23
9050.4288735142345
 33
0.0
 14
26528.84279018813
 24
8720.810493080191
 34
0.0
1001
ACAD
1000
DSTYLE
1002
{
1070
   287
1070
     3
1070
    40
1040
45.0
1070
   140
1040
3.0
1070
   147
1040
0.5
1070
   173
1070
     1
1070
   279
1070
     0
1070
   341
1005
24
1070
     6
1000
OPEN
1070
     7
1000
OPEN
1002
}
  0
DIMENSION
  5
2555
  8
SP
  2
*D18
 10
27094.846210840871
 20
7891.8104930801892
 30
0.0
 11
27004.846210840878
 21
8344.3104930801928
 31
0.0
 70
     0
 13
26328.842790186751
 23
8796.8104930801892
 33
0.0
 14
26749.749501868919
 24
7891.8104930801892
 34
0.0
 50
90.0
1001
ACAD
1000
DSTYLE
1002
{
1070
   287
1070
     3
1070
    40
1040
45.0
1070
   140
1040
3.0
1070
   147
1040
0.5
1070
   173
1070
     1
1070
   279
1070
     0
1070
   341
1005
24
1070
     6
1000
OPEN
1070
     7
1000
OPEN
1002
}
  0
DIMENSION
  5
2562
  8
SP
  2
*D19
 10
27094.846210840871
 20
5291.810493080191
 30
0.0
 11
27004.846210840878
 21
6591.8104930801946
 31
0.0
 70
     0
 13
26749.749501868919
 23
7891.8104930801892
 33
0.0
 14
25733.842790186751
 24
5291.8104930801928
 34
0.0
 50
90.0
1001
ACAD
1000
DSTYLE
1002
{
1070
   287
1070
     3
1070
    40
1040
45.0
1070
   140
1040
3.0
1070
   147
1040
0.5
1070
   173
1070
     1
1070
   279
1070
     0
1070
   341
1005
24
1070
     6
1000
OPEN
1070
     7
1000
OPEN
1002
}
  0
LINE
  5
259B
  8
KL
 10
24112.842790186751
 20
1879.9994861300979
 30
0.0
 11
24112.842790186751
 21
2270.2677094963751
 31
0.0
  0
LINE
  5
259C
  8
KL
 10
24103.842790186751
 20
1940.416612007049
 30
0.0
 11
24103.842790186751
 21
2259.932037399195
 31
0.0
  0
LINE
  5
259D
  8
KL
 10
24094.842790186751
 20
1872.8500661614401
 30
0.0
 11
24094.842790186751
 21
2249.596365302014
 31
0.0
  0
LINE
  5
259E
  8
FUTO
 10
24094.842790186751
 20
2249.5963653020121
 30
0.0
 11
24094.842790186751
 21
2840.6696818744022
 31
0.0
  0
LINE
  5
259F
  8
FUTO
 10
24103.842790186751
 20
2259.932037399195
 30
0.0
 11
24103.842790186751
 21
2840.6696818744022
 31
0.0
  0
LINE
  5
25A0
  8
FUTO
 10
24112.842790186751
 20
2270.267709496371
 30
0.0
 11
24112.842790186751
 21
2840.6696818744022
 31
0.0
  0
LINE
  5
25A1
  8
FUTO
 10
24625.20596324512
 20
2858.6696818744022
 30
0.0
 11
23458.609796948229
 21
2858.6696818744022
 31
0.0
  0
LINE
  5
25A2
  8
FUTO
 10
24617.36902731697
 20
2849.6696818744022
 30
0.0
 11
23458.609796948229
 21
2849.6696818744022
 31
0.0
  0
LINE
  5
25A3
  8
FUTO
 10
24609.532091388821
 20
2840.6696818744022
 30
0.0
 11
23458.609796948229
 21
2840.6696818744022
 31
0.0
  0
LINE
  5
25A5
  8
KL
 10
25733.289241055401
 20
2872.7153050913271
 30
0.0
 11
25453.997566855731
 21
2854.0360735874742
 31
0.0
  0
LINE
  5
25A6
  8
KL
 10
25732.772850515121
 20
2881.700874700552
 30
0.0
 11
25453.396981990241
 21
2863.0160122186312
 31
0.0
  0
LINE
  5
25A7
  8
KL
 10
25732.088071324419
 20
2890.675182353641
 30
0.0
 11
25452.796397124748
 21
2871.9959508497882
 31
0.0
  0
INSERT
  5
2632
  8
FUTO
  2
まっすぐの矢印
 10
26901.96745936586
 20
7566.351476126626
 30
0.0
 41
40.0
 42
40.0
 43
40.0
 50
270.0
  0
LINE
  5
2731
  8
FUTO
 10
30029.382399757629
 20
695.66968187440386
 30
0.0
 11
31535.782399757631
 21
695.66968187440386
 31
0.0
  0
LINE
  5
2732
  8
FUTO
 10
29954.382399757629
 20
626.66968187440398
 30
0.0
 11
31610.782399757631
 21
626.66968187440398
 31
0.0
  0
LINE
  5
2733
  8
FUTO
 10
30032.58239975763
 20
701.66968187440398
 30
0.0
 11
31532.582399757619
 21
701.66968187440398
 31
0.0
  0
LINE
  5
2734
  8
FUTO
 10
26053.842790186751
 20
679.66968187440204
 30
0.0
 11
25636.625998684271
 21
2560.0543934444818
 31
0.0
  0
LINE
  5
2735
  8
FUTO
 10
24453.842790186751
 20
679.66968187440204
 30
0.0
 11
24690.82576123238
 21
1747.745475401046
 31
0.0
  0
LINE
  5
2736
  8
FUTO
 10
24891.848292627012
 20
3164.8838689543509
 30
0.0
 11
23192.679333276908
 21
1213.544624337696
 31
0.0
  0
LINE
  5
2737
  8
SL
 10
25021.345126635631
 20
3062.2016475719661
 30
0.0
 11
23272.83220199525
 21
1149.4297577833361
 31
0.0
  0
LINE
  5
2738
  8
SL
 10
25462.54555700592
 20
2613.7286826351369
 30
0.0
 11
23521.44514291819
 21
896.71880135067875
 31
0.0
  0
LINE
  5
2739
  8
FUTO
 10
25563.097083734549
 20
2482.5705373340579
 30
0.0
 11
23584.24112808963
 21
815.52851422585854
 31
0.0
  0
ARC
  5
273A
  8
FUTO
 10
25400.842790186751
 20
2702.6696818744022
 30
0.0
 40
1903.0
 50
175.8414272259831
 51
207.7766785189892
  0
LINE
  5
273B
  8
KL
 10
24103.842790186751
 20
1253.255072099779
 30
0.0
 11
24103.842790186751
 21
1876.4247761457691
 31
0.0
  0
LINE
  5
273C
  8
KL
 10
24112.842790186751
 20
1260.8369166323121
 30
0.0
 11
24112.842790186751
 21
1879.9994861300979
 31
0.0
  0
LINE
  5
273D
  8
KL
 10
25636.625998684271
 20
2560.0543934444818
 30
0.0
 11
25603.429594664191
 21
2709.6696818744022
 31
0.0
  0
LINE
  5
273E
  8
KL
 10
24690.82576123238
 20
1747.745475401046
 30
0.0
 11
24904.2559857093
 21
2709.6696818744022
 31
0.0
  0
LINE
  5
273F
  8
FUTO
 10
29954.382399757629
 20
626.66968187440398
 30
0.0
 11
29954.382399757629
 21
2840.6696818744022
 31
0.0
  0
LINE
  5
2740
  8
FUTO
 10
31610.782399757631
 20
626.66968187440398
 30
0.0
 11
31610.782399757631
 21
2840.6696818744022
 31
0.0
  0
LINE
  5
2742
  8
FUTO
 10
31610.78239975762
 20
4291.6696818743912
 30
0.0
 11
29954.382399757618
 21
4291.6696818744022
 31
0.0
  0
LINE
  5
2743
  8
FUTO
 10
29954.382399757618
 20
3942.3813418986192
 30
0.0
 11
30032.58239975763
 21
3942.3813418986192
 31
0.0
  0
LINE
  5
2744
  8
FUTO
 10
31535.782399757631
 20
3942.3813418986192
 30
0.0
 11
31610.78239975762
 21
3942.3813418986192
 31
0.0
  0
DIMENSION
  5
2745
  8
SP
  2
*D20
 10
26992.948640482169
 20
2849.6696818744022
 30
0.0
 11
26902.948640482169
 21
1674.669681874406
 31
0.0
 70
     0
 13
26403.842790186751
 23
499.6696818744021
 33
0.0
 14
26625.126197211091
 24
2849.6696818744022
 34
0.0
 50
90.0
1001
ACAD
1000
DSTYLE
1002
{
1070
   287
1070
     3
1070
    40
1040
45.0
1070
   140
1040
3.0
1070
   147
1040
0.5
1070
   173
1070
     1
1070
   279
1070
     0
1070
   341
1005
24
1070
     6
1000
OPEN
1070
     7
1000
OPEN
1002
}
  0
LINE
  5
2752
  8
FUTO
 10
25106.84279018674
 20
4291.6696818743958
 30
0.0
 11
25253.842790186751
 21
4291.6696818743958
 31
0.0
  0
DIMENSION
  5
2753
  8
SP
  2
*D21
 10
26992.948640482169
 20
2849.6696818744022
 30
0.0
 11
26902.948640482169
 21
3570.6696818744022
 31
0.0
 70
     0
 13
25253.842790186751
 23
4291.6696818743958
 33
0.0
 14
26625.126197211091
 24
2849.6696818744022
 34
0.0
 50
90.0
1001
ACAD
1000
DSTYLE
1002
{
1070
   287
1070
     3
1070
    40
1040
45.0
1070
   140
1040
3.0
1070
   147
1040
0.5
1070
   173
1070
     1
1070
   279
1070
     0
1070
   341
1005
24
1070
     6
1000
OPEN
1070
     7
1000
OPEN
1002
}
  0
DIMENSION
  5
2794
  8
SP
  2
*D22
 10
23003.842790186751
 20
9333.7065811429893
 30
0.0
 11
24128.842790186751
 21
9423.7065811429911
 31
0.0
 70
     0
 13
25253.842790186751
 23
9095.4288735142345
 33
0.0
 14
23003.842790186751
 24
7137.8104930801883
 34
0.0
 50
180.0
1001
ACAD
1000
DSTYLE
1002
{
1070
   287
1070
     3
1070
    40
1040
45.0
1070
   140
1040
3.0
1070
   147
1040
0.5
1070
   173
1070
     1
1070
   279
1070
     0
1070
   341
1005
24
1070
     6
1000
OPEN
1070
     7
1000
OPEN
1002
}
  0
LINE
  5
2811
  8
FUTO
 10
29954.382399757629
 20
2933.9676401367542
 30
0.0
 11
31610.78239975762
 21
2933.9676401367542
 31
0.0
  0
LINE
  5
2812
  8
FUTO
 10
30032.58239975763
 20
2765.6696818744022
 30
0.0
 11
31532.582399757619
 21
2765.6696818744022
 31
0.0
  0
LINE
  5
2813
  8
FUTO
 10
29954.382399757629
 20
2840.6696818744022
 30
0.0
 11
31610.78239975762
 21
2840.6696818744022
 31
0.0
  0
LINE
  5
2815
  8
FUTO
 10
31610.782399757631
 20
679.66968187440204
 30
0.0
 11
31625.782399757631
 21
679.66968187440204
 31
0.0
  0
LINE
  5
2EF6
  8
4
 10
31824.48133953083
 20
-1160.9279063547519
 30
0.0
 11
31824.48133953083
 21
-2360.9279063547519
 31
0.0
  0
LINE
  5
2EF7
  8
4
 10
27624.48133953083
 20
-1160.9279063547519
 30
0.0
 11
27624.481339530819
 21
-2360.9279063547519
 31
0.0
  0
LINE
  5
2EF8
  8
4
 10
24624.48133953083
 20
-1160.9279063547519
 30
0.0
 11
24624.48133953083
 21
-2360.9279063547519
 31
0.0
  0
LINE
  5
2EFB
  8
4
 10
24624.48133953083
 20
-2360.9279063547519
 30
0.0
 11
31824.48133953083
 21
-2360.9279063547519
 31
0.0
  0
LINE
  5
2EFC
  8
4
 10
24624.48133953083
 20
-1760.9279063547519
 30
0.0
 11
31824.48133953083
 21
-1760.9279063547519
 31
0.0
  0
TEXT
  5
2EFD
  8
4
 10
24855.49382461224
 20
-1571.6697511550749
 30
0.0
 40
300.0
  1
機器名称
  0
TEXT
  5
2EFE
  8
4
 10
24842.029975679608
 20
-2231.0569659626872
 30
0.0
 40
300.0
  1
機器型番
  0
TEXT
  5
2EFF
  8
4
 10
27653.239709737081
 20
-1627.8040922130731
 30
0.0
 40
270.0
  1
ミツヤリミットロードファン
  0
TEXT
  5
2F00
  8
4
 10
27844.408313043721
 20
-2257.9704006750922
 30
0.0
 40
300.0
  1
LL#12-1
  0
TEXT
  5
2F02
  8
4
 10
22621.486899507508
 20
11042.357950841029
 30
0.0
 40
432.0
  1
遠心式片吸込片持リミットロードファン
  0
LINE
  5
2F03
  8
4
 10
22224.48133953083
 20
10655.524619234069
 30
0.0
 11
31824.48133953083
 21
10655.524619234069
 31
0.0
  0
LINE
  5
2F04
  8
4
 10
22224.48133953083
 20
11855.524619234069
 30
0.0
 11
31824.48133953083
 21
11855.524619234069
 31
0.0
  0
LINE
  5
2F05
  8
4
 10
24624.48133953083
 20
-1160.9279063547519
 30
0.0
 11
31824.48133953083
 21
-1160.9279063547519
 31
0.0
  0
LINE
  5
2F06
  8
4
 10
22224.48133953083
 20
11855.524619234069
 30
0.0
 11
22224.48133953083
 21
10655.524619234069
 31
0.0
  0
TEXT
  5
2F07
  8
4
 10
29538.298695026569
 20
12075.4385826171
 30
0.0
 40
336.00000000000011
  1
No.
  0
TEXT
  5
2F08
  8
4
 10
29623.552310412499
 20
9491.873197287654
 30
0.0
 40
323.99999999999989
  1
縮尺：1/60
  0
LINE
  5
2F09
  8
4
 10
31824.48133953083
 20
11855.524619234069
 30
0.0
 11
31824.48133953083
 21
10655.524619234069
 31
0.0
  0
LINE
  5
2F0A
  8
4
 10
33324.481339530837
 20
13539.07209364524
 30
0.0
 11
33324.481339530837
 21
13539.07209364524
 31
0.0
  0
LINE
  5
2F0B
  8
4
 10
29368.185873690021
 20
11926.65359239765
 30
0.0
 11
29368.185873690021
 21
12558.98566294376
 31
0.0
  0
LINE
  5
2F0C
  8
4
 10
29368.185873690021
 20
12558.98566294376
 30
0.0
 11
31824.48133953083
 21
12558.98566294376
 31
0.0
  0
LINE
  5
2F0D
  8
4
 10
31824.48133953083
 20
12558.98566294376
 30
0.0
 11
31824.48133953083
 21
11926.65359239765
 31
0.0
  0
LINE
  5
2F0E
  8
4
 10
31824.48133953083
 20
11926.65359239765
 30
0.0
 11
29368.185873690021
 21
11926.65359239765
 31
0.0
  0
LINE
  5
2F0F
  8
4
 10
20724.481339530819
 20
-4160.9279063547528
 30
0.0
 11
20724.481339530819
 21
13539.07209364524
 31
0.0
  0
LINE
  5
2F10
  8
4
 10
20724.481339530819
 20
13539.07209364524
 30
0.0
 11
33324.481339530837
 21
13539.07209364524
 31
0.0
  0
LINE
  5
2F11
  8
4
 10
33324.481339530837
 20
13539.07209364524
 30
0.0
 11
33324.481339530837
 21
-4160.9279063547528
 31
0.0
  0
LINE
  5
2F12
  8
4
 10
33324.481339530837
 20
-4160.9279063547528
 30
0.0
 11
20724.481339530819
 21
-4160.9279063547528
 31
0.0
  0
TEXT
  5
2F13
  8
4
 10
25673.298415577628
 20
10099.634620902571
 30
0.0
 40
323.99999999999989
  1
床置防振ベット
  0
TEXT
  5
2F14
  8
4
 10
22505.19196478344
 20
10118.14375825254
 30
0.0
 40
323.99999999999989
  1
左回転右横向
  0
ENDSEC
  0
EOF
