  0
SECTION
  2
HEADER
  9
$ACADVER
  1
AC1009
  9
$INSBASE
 10
0.0
 20
0.0
 30
0.0
  9
$EXTMIN
 10
27538.445703569261
 20
-3501.3624403061272
 30
0.0
  9
$EXTMAX
 10
40138.445703569269
 20
14198.637559693871
 30
0.0
  9
$LIMMIN
 10
0.0
 20
0.0
  9
$LIMMAX
 10
297.0
 20
210.0
  9
$ORTHOMODE
 70
     0
  9
$REGENMODE
 70
     1
  9
$FILLMODE
 70
     1
  9
$QTEXTMODE
 70
     0
  9
$MIRRTEXT
 70
     0
  9
$DRAGMODE
 70
     2
  9
$LTSCALE
 40
225.0
  9
$OSMODE
 70
    37
  9
$ATTMODE
 70
     1
  9
$TEXTSIZE
 40
120.0
  9
$TRACEWID
 40
0.05
  9
$TEXTSTYLE
  7
STANDARD
  9
$CLAYER
  8
FUTO
  9
$CELTYPE
  6
BYLAYER
  9
$CECOLOR
 62
   256
  9
$DIMSCALE
 40
45.0
  9
$DIMASZ
 40
2.0
  9
$DIMEXO
 40
1.0
  9
$DIMDLI
 40
10.0
  9
$DIMRND
 40
0.0
  9
$DIMDLE
 40
0.0
  9
$DIMEXE
 40
1.0
  9
$DIMTP
 40
0.0
  9
$DIMTM
 40
0.0
  9
$DIMTXT
 40
3.0
  9
$DIMCEN
 40
0.0
  9
$DIMTSZ
 40
0.0
  9
$DIMTOL
 70
     0
  9
$DIMLIM
 70
     0
  9
$DIMTIH
 70
     0
  9
$DIMTOH
 70
     0
  9
$DIMSE1
 70
     0
  9
$DIMSE2
 70
     0
  9
$DIMTAD
 70
     1
  9
$DIMZIN
 70
     8
  9
$DIMBLK
  1

  9
$DIMASO
 70
     1
  9
$DIMSHO
 70
     1
  9
$DIMPOST
  1

  9
$DIMAPOST
  1

  9
$DIMALT
 70
     0
  9
$DIMALTD
 70
     2
  9
$DIMALTF
 40
25.399999999999999
  9
$DIMLFAC
 40
1.0
  9
$DIMTOFL
 70
     1
  9
$DIMTVP
 40
0.0
  9
$DIMTIX
 70
     0
  9
$DIMSOXD
 70
     0
  9
$DIMSAH
 70
     1
  9
$DIMBLK1
  1
OPEN
  9
$DIMBLK2
  1
OPEN
  9
$DIMSTYLE
  2
DIA1
  9
$DIMCLRD
 70
     2
  9
$DIMCLRE
 70
     2
  9
$DIMCLRT
 70
     2
  9
$DIMTFAC
 40
1.0
  9
$DIMGAP
 40
0.5
  9
$LUNITS
 70
     2
  9
$LUPREC
 70
     3
  9
$SKETCHINC
 40
0.1
  9
$FILLETRAD
 40
10.0
  9
$AUNITS
 70
     0
  9
$AUPREC
 70
     2
  9
$MENU
  1
acad
  9
$ELEVATION
 40
0.0
  9
$PELEVATION
 40
0.0
  9
$THICKNESS
 40
0.0
  9
$LIMCHECK
 70
     0
  9
$BLIPMODE
 70
     0
  9
$CHAMFERA
 40
10.0
  9
$CHAMFERB
 40
10.0
  9
$SKPOLY
 70
     0
  9
$TDCREATE
 40
2451270.426261805
  9
$TDUPDATE
 40
2454953.6374200569
  9
$TDINDWG
 40
0.8506947106
  9
$TDUSRTIMER
 40
0.8506947106
  9
$USRTIMER
 70
     1
  9
$ANGBASE
 50
0.0
  9
$ANGDIR
 70
     0
  9
$PDMODE
 70
     0
  9
$PDSIZE
 40
1.0
  9
$PLINEWID
 40
0.0
  9
$COORDS
 70
     1
  9
$SPLFRAME
 70
     0
  9
$SPLINETYPE
 70
     6
  9
$SPLINESEGS
 70
     8
  9
$ATTDIA
 70
     0
  9
$ATTREQ
 70
     1
  9
$HANDLING
 70
 10241
  9
$HANDSEED
  5
32B5
  9
$SURFTAB1
 70
     6
  9
$SURFTAB2
 70
     6
  9
$SURFTYPE
 70
     6
  9
$SURFU
 70
     6
  9
$SURFV
 70
     6
  9
$UCSNAME
  2

  9
$UCSORG
 10
0.0
 20
0.0
 30
0.0
  9
$UCSXDIR
 10
1.0
 20
0.0
 30
0.0
  9
$UCSYDIR
 10
0.0
 20
1.0
 30
0.0
  9
$PUCSNAME
  2

  9
$PUCSORG
 10
0.0
 20
0.0
 30
0.0
  9
$PUCSXDIR
 10
1.0
 20
0.0
 30
0.0
  9
$PUCSYDIR
 10
0.0
 20
1.0
 30
0.0
  9
$USERI1
 70
     0
  9
$USERI2
 70
     0
  9
$USERI3
 70
     0
  9
$USERI4
 70
     0
  9
$USERI5
 70
     0
  9
$USERR1
 40
0.0
  9
$USERR2
 40
0.0
  9
$USERR3
 40
0.0
  9
$USERR4
 40
0.0
  9
$USERR5
 40
0.0
  9
$WORLDVIEW
 70
     1
  9
$SHADEDGE
 70
     3
  9
$SHADEDIF
 70
    70
  9
$TILEMODE
 70
     1
  9
$MAXACTVP
 70
    16
  9
$PLIMCHECK
 70
     0
  9
$PEXTMIN
 10
1.0000000000000000E+020
 20
1.0000000000000000E+020
 30
1.0000000000000000E+020
  9
$PEXTMAX
 10
-1.0000000000000000E+020
 20
-1.0000000000000000E+020
 30
-1.0000000000000000E+020
  9
$PLIMMIN
 10
0.0
 20
0.0
  9
$PLIMMAX
 10
12.0
 20
9.0
  9
$UNITMODE
 70
     0
  9
$VISRETAIN
 70
     0
  9
$PLINEGEN
 70
     0
  9
$PSLTSCALE
 70
     0
  0
ENDSEC
  0
SECTION
  2
TABLES
  0
TABLE
  2
VPORT
 70
     2
  0
VPORT
  2
*ACTIVE
 70
     0
 10
0.0
 20
0.0
 11
1.0
 21
1.0
 12
39474.950917143658
 22
-1371.0834725324851
 13
0.0
 23
0.0
 14
5.0
 24
5.0
 15
0.0
 25
0.0
 16
0.0
 26
0.0
 36
1.0
 17
0.0
 27
0.0
 37
0.0
 40
5450.9406400137786
 41
3.1666666666666661
 42
50.0
 43
0.0
 44
0.0
 50
0.0
 51
0.0
 71
     0
 72
   100
 73
     1
 74
     0
 75
     0
 76
     0
 77
     0
 78
     0
  0
ENDTAB
  0
TABLE
  2
LTYPE
 70
     4
  0
LTYPE
  2
CONTINUOUS
 70
     0
  3
Solid line
 72
    65
 73
     0
 40
0.0
  0
LTYPE
  2
CENTER
 70
     0
  3
____ _ ____ _ ____ _ ____ _ ____ _ ____ _ ____ 
 72
    65
 73
     4
 40
2.0
 49
1.25
 49
-0.25
 49
0.25
 49
-0.25
  0
LTYPE
  2
HIDDEN
 70
     0
  3
__ __ __ __ __ __ __ __ __ __ __ __ __ __ __ __
 72
    65
 73
     2
 40
0.375
 49
0.25
 49
-0.125
  0
LTYPE
  2
PHANTOM
 70
     0
  3
______  __  __  ______  __  __  ______  __  __ 
 72
    65
 73
     6
 40
2.5
 49
1.25
 49
-0.25
 49
0.25
 49
-0.25
 49
0.25
 49
-0.25
  0
ENDTAB
  0
TABLE
  2
LAYER
 70
     9
  0
LAYER
  2
0
 70
     0
 62
     7
  6
CONTINUOUS
  0
LAYER
  2
CT
 70
     0
 62
     3
  6
CENTER
  0
LAYER
  2
FUTO
 70
     0
 62
     4
  6
CONTINUOUS
  0
LAYER
  2
HOSO
 70
     0
 62
     7
  6
CONTINUOUS
  0
LAYER
  2
KL
 70
     0
 62
     7
  6
HIDDEN
  0
LAYER
  2
SL
 70
     0
 62
     1
  6
PHANTOM
  0
LAYER
  2
SP
 70
     0
 62
     2
  6
CONTINUOUS
  0
LAYER
  2
DEFPOINTS
 70
     0
 62
     7
  6
CONTINUOUS
  0
LAYER
  2
4
 70
     0
 62
     7
  6
CONTINUOUS
  0
ENDTAB
  0
TABLE
  2
STYLE
 70
     1
  0
STYLE
  2
STANDARD
 70
     0
 40
0.0
 41
1.0
 50
15.0
 71
     0
 42
120.0
  3
C:\Program Files\AutoCAD LT\simplex.shx
  4
C:\Program Files\AutoCAD LT\extfont.shx
  0
ENDTAB
  0
TABLE
  2
VIEW
 70
     0
  0
ENDTAB
  0
TABLE
  2
UCS
 70
     0
  0
ENDTAB
  0
TABLE
  2
APPID
 70
     2
  0
APPID
  2
ACAD
 70
     0
  0
APPID
  2
CONTENTBLOCKICON
 70
     0
  0
ENDTAB
  0
TABLE
  2
DIMSTYLE
 70
     2
  0
DIMSTYLE
  2
DIA1
 70
     0
  3

  4

  5

  6

  7

 40
1.0
 41
2.0
 42
1.0
 43
10.0
 44
1.0
 45
0.0
 46
0.0
 47
0.0
 48
0.0
140
2.5
141
0.0
142
0.0
143
25.399999999999999
144
1.0
145
0.0
146
1.0
147
0.09
 71
     0
 72
     0
 73
     0
 74
     0
 75
     0
 76
     0
 77
     1
 78
     8
170
     0
171
     2
172
     1
173
     0
174
     0
175
     0
176
     2
177
     2
178
     2
  0
DIMSTYLE
  2
STANDARD
 70
     0
  3

  4

  5

  6

  7

 40
1.0
 41
0.18
 42
0.0625
 43
0.38
 44
0.18
 45
0.0
 46
0.0
 47
0.0
 48
0.0
140
0.18
141
0.09
142
0.0
143
25.399999999999999
144
1.0
145
0.0
146
1.0
147
0.09
 71
     0
 72
     0
 73
     1
 74
     1
 75
     0
 76
     0
 77
     0
 78
     0
170
     0
171
     2
172
     0
173
     0
174
     0
175
     0
176
     0
177
     0
178
     0
  0
ENDTAB
  0
ENDSEC
  0
SECTION
  2
BLOCKS
  0
BLOCK
  8
0
  2
$MODEL_SPACE
 70
     0
 10
0.0
 20
0.0
 30
0.0
  3
$MODEL_SPACE
  1

  0
ENDBLK
  5
7
  8
0
  0
BLOCK
 67
     1
  8
0
  2
$PAPER_SPACE
 70
     0
 10
0.0
 20
0.0
 30
0.0
  3
$PAPER_SPACE
  1

  0
ENDBLK
  5
A
 67
     1
  8
0
  0
BLOCK
  8
0
  2
_OPEN
 70
     0
 10
0.0
 20
0.0
 30
0.0
  3
_OPEN
  1

  0
LINE
  5
25
  8
0
  6
BYBLOCK
 62
     0
 10
-1.0
 20
0.1666666666666666
 30
0.0
 11
0.0
 21
0.0
 31
0.0
  0
LINE
  5
26
  8
0
  6
BYBLOCK
 62
     0
 10
0.0
 20
0.0
 30
0.0
 11
-1.0
 21
-0.1666666666666666
 31
0.0
  0
LINE
  5
27
  8
0
  6
BYBLOCK
 62
     0
 10
0.0
 20
0.0
 30
0.0
 11
-1.0
 21
0.0
 31
0.0
  0
ENDBLK
  5
29
  8
0
  0
BLOCK
  8
0
  2
_DOT
 70
     0
 10
0.0
 20
0.0
 30
0.0
  3
_DOT
  1

  0
POLYLINE
  5
16D
  8
0
  6
BYBLOCK
 62
     0
 66
     1
 10
0.0
 20
0.0
 30
0.0
 70
     1
 40
0.25
 41
0.25
  0
VERTEX
  5
3231
  8
0
  6
BYBLOCK
 62
     0
 10
-0.125
 20
0.0
 30
0.0
 42
1.0
  0
VERTEX
  5
3232
  8
0
  6
BYBLOCK
 62
     0
 10
0.125
 20
0.0
 30
0.0
 42
1.0
  0
SEQEND
  5
3233
  8
0
  6
BYBLOCK
 62
     0
  0
LINE
  5
171
  8
0
  6
BYBLOCK
 62
     0
 10
-0.25
 20
0.0
 30
0.0
 11
-1.0
 21
0.0
 31
0.0
  0
ENDBLK
  5
173
  8
0
  0
BLOCK
  8
0
  2
L-75-6
 70
     0
 10
0.0
 20
0.0
 30
0.0
  3
L-75-6
  1

  0
LINE
  5
293
  8
0
 10
114.6064614035558
 20
81.429596884474719
 30
0.0
 11
189.60646140355581
 21
81.429596884474719
 31
0.0
  0
LINE
  5
294
  8
0
 10
114.6064614035558
 20
81.429596884474719
 30
0.0
 11
114.6064614035558
 21
156.42959688447471
 31
0.0
  0
LINE
  5
295
  8
0
 10
189.60646140355581
 20
81.429596884474719
 30
0.0
 11
189.60646140355581
 21
83.429596884474705
 31
0.0
  0
LINE
  5
296
  8
0
 10
114.6064614035558
 20
156.42959688447471
 30
0.0
 11
116.6064614035558
 21
156.42959688447471
 31
0.0
  0
LINE
  5
297
  8
0
 10
120.6064614035558
 20
95.929596884474705
 30
0.0
 11
120.6064614035558
 21
152.42959688447471
 31
0.0
  0
LINE
  5
298
  8
0
 10
129.10646140355581
 20
87.429596884474719
 30
0.0
 11
185.60646140355581
 21
87.429596884474719
 31
0.0
  0
ARC
  5
299
  8
0
 10
185.60646140355581
 20
83.429596884474705
 30
0.0
 40
4.0
 50
0.0
 51
90.0
  0
ARC
  5
29A
  8
0
 10
116.6064614035558
 20
152.42959688447471
 30
0.0
 40
4.0
 50
0.0
 51
90.0
  0
ARC
  5
29B
  8
0
 10
129.10646140355581
 20
95.929596884474705
 30
0.0
 40
8.5
 50
180.0
 51
270.0
  0
ENDBLK
  5
29D
  8
0
  0
BLOCK
  8
0
  2
22222F
 70
     0
 10
0.0
 20
0.0
 30
0.0
  3
22222F
  1

  0
ARC
  5
228
  8
FUTO
 10
-0.0000000000000568
 20
0.0
 30
0.0
 40
130.0
 50
124.6637959032814
 51
175.3362040967184
  0
ARC
  5
229
  8
FUTO
 10
-0.0000000000000568
 20
0.0
 30
0.0
 40
130.0
 50
4.6637959032815717
 51
55.336204096718511
  0
ARC
  5
22A
  8
FUTO
 10
-0.0000000000000568
 20
0.0
 30
0.0
 40
115.0
 50
8.9772148936872895
 51
51.022785106312661
  0
ARC
  5
22B
  8
FUTO
 10
-0.0000000000000568
 20
0.0
 30
0.0
 40
115.0
 50
128.9772148936872
 51
171.02278510631271
  0
ARC
  5
22C
  8
FUTO
 10
-57.499999999999829
 20
99.592921435210386
 30
0.0
 40
18.0
 50
25.51139255315622
 51
214.4886074468437
  0
ARC
  5
22D
  8
FUTO
 10
57.5
 20
99.592921435210243
 30
0.0
 40
18.0
 50
325.51139255315621
 51
154.4886074468437
  0
LINE
  5
22E
  8
FUTO
 10
-110.0
 20
-127.0
 30
0.0
 11
-0.0000000000000568
 21
-127.0
 31
0.0
  0
ARC
  5
22F
  8
FUTO
 10
-0.0000000000000568
 20
0.0
 30
0.0
 40
115.0
 50
248.9772148936872
 51
291.0227851063126
  0
CIRCLE
  5
230
  8
FUTO
 10
-0.0000000000000568
 20
0.0
 30
0.0
 40
54.0
  0
LINE
  5
231
  8
CT
 10
-190.0
 20
-140.0
 30
0.0
 11
-190.0
 21
-70.0
 31
0.0
  0
LINE
  5
232
  8
FUTO
 10
-225.0
 20
-130.0
 30
0.0
 11
-110.0
 21
-130.0
 31
0.0
  0
LINE
  5
233
  8
FUTO
 10
-125.0000000000001
 20
-80.0
 30
0.0
 11
-222.0
 21
-80.0
 31
0.0
  0
ARC
  5
234
  8
FUTO
 10
-222.0
 20
-83.0
 30
0.0
 40
3.0
 50
90.0
 51
180.0
  0
LINE
  5
235
  8
FUTO
 10
-225.0
 20
-83.0
 30
0.0
 11
-225.0
 21
-130.0
 31
0.0
  0
LINE
  5
236
  8
FUTO
 10
-129.99999999999929
 20
-9.9498743710669828
 30
0.0
 11
-130.0
 21
-60.0
 31
0.0
  0
ARC
  5
237
  8
FUTO
 10
-0.0000000000000568
 20
0.0
 30
0.0
 40
115.0
 50
188.9772148936872
 51
231.02278510631271
  0
LINE
  5
238
  8
FUTO
 10
-125.0000000000001
 20
-80.0
 30
0.0
 11
-110.0000000000001
 21
-95.0
 31
0.0
  0
ARC
  5
239
  8
FUTO
 10
-150.0
 20
-60.0
 30
0.0
 40
20.0
 50
270.0
 51
0.0
  0
LINE
  5
23A
  8
FUTO
 10
-110.0
 20
-130.0
 30
0.0
 11
-110.0000000000001
 21
-95.0
 31
0.0
  0
ARC
  5
23B
  8
FUTO
 10
-57.500000000000057
 20
-99.592921435210542
 30
0.0
 40
18.0
 50
145.51139255315621
 51
334.48860744684367
  0
ARC
  5
23C
  8
FUTO
 10
-115.0
 20
0.0
 30
0.0
 40
18.0
 50
85.511392553156256
 51
274.48860744684367
  0
LINE
  5
23D
  8
CT
 10
190.0
 20
-140.0
 30
0.0
 11
190.0
 21
-70.0
 31
0.0
  0
ARC
  5
23E
  8
FUTO
 10
150.0
 20
-60.0
 30
0.0
 40
20.0
 50
180.0
 51
270.0
  0
LINE
  5
23F
  8
FUTO
 10
222.0000000000004
 20
-80.0
 30
0.0
 11
124.9999999999997
 21
-80.0
 31
0.0
  0
LINE
  5
240
  8
FUTO
 10
110.0
 20
-130.0
 30
0.0
 11
225.0
 21
-130.0
 31
0.0
  0
LINE
  5
241
  8
FUTO
 10
130.0
 20
-60.0
 30
0.0
 11
130.0
 21
-9.9498743710661302
 31
0.0
  0
ARC
  5
242
  8
FUTO
 10
-0.0000000000000568
 20
0.0
 30
0.0
 40
115.0
 50
308.97721489368718
 51
351.02278510631271
  0
LINE
  5
243
  8
FUTO
 10
-0.0000000000000568
 20
-127.0
 30
0.0
 11
110.0
 21
-127.0
 31
0.0
  0
ARC
  5
244
  8
FUTO
 10
57.5
 20
-99.592921435210542
 30
0.0
 40
18.0
 50
205.51139255315621
 51
34.488607446843737
  0
LINE
  5
245
  8
FUTO
 10
109.9999999999997
 20
-95.0
 30
0.0
 11
124.9999999999997
 21
-80.0
 31
0.0
  0
LINE
  5
246
  8
FUTO
 10
109.9999999999997
 20
-95.0
 30
0.0
 11
110.0
 21
-130.0
 31
0.0
  0
ARC
  5
247
  8
FUTO
 10
115.0
 20
0.0
 30
0.0
 40
18.0
 50
265.51139255315621
 51
94.488607446843773
  0
ARC
  5
248
  8
FUTO
 10
222.0000000000004
 20
-83.0
 30
0.0
 40
3.0
 50
0.0
 51
90.0
  0
LINE
  5
249
  8
FUTO
 10
225.0
 20
-130.0
 30
0.0
 11
225.0000000000004
 21
-83.0
 31
0.0
  0
LINE
  5
24A
  8
FUTO
 10
19.227247756821669
 20
132.99999999999989
 30
0.0
 11
-19.227247756821779
 21
132.99999999999989
 31
0.0
  0
ARC
  5
24B
  8
FUTO
 10
-0.0000000000000568
 20
0.0
 30
0.0
 40
115.0
 50
68.977214893687218
 51
111.0227851063126
  0
ARC
  5
24C
  8
FUTO
 10
-0.0000000000000568
 20
0.0
 30
0.0
 40
130.0
 50
98.505358450480756
 51
115.3362040967184
  0
LINE
  5
24D
  8
FUTO
 10
-19.227247756821779
 20
113.3812724558063
 30
0.0
 11
-19.227247756821779
 21
132.99999999999989
 31
0.0
  0
ARC
  5
24E
  8
FUTO
 10
-0.0000000000000568
 20
0.0
 30
0.0
 40
130.0
 50
64.663795903281382
 51
81.494641549519287
  0
LINE
  5
24F
  8
FUTO
 10
19.227247756821669
 20
113.3812724558063
 30
0.0
 11
19.227247756821669
 21
132.99999999999989
 31
0.0
  0
ENDBLK
  5
251
  8
0
  0
BLOCK
  8
0
  2
まっすぐの矢印
 70
     0
 10
0.0
 20
0.0
 30
0.0
  3
まっすぐの矢印
  1

  0
LINE
  5
2CF
  8
SP
 10
0.6962157491662495
 20
-2.216890595009601
 30
0.0
 11
0.6962157491662495
 21
-5.0
 31
0.0
  0
LINE
  5
2D0
  8
SP
 10
0.6962157491662495
 20
-5.0
 30
0.0
 11
-0.6962157491662495
 21
-5.0
 31
0.0
  0
LINE
  5
2D1
  8
SP
 10
-0.6962157491662495
 20
-5.0
 30
0.0
 11
-0.6962157491662495
 21
-2.216890595009601
 31
0.0
  0
LINE
  5
2D2
  8
SP
 10
-0.6962157491662495
 20
-2.216890595009601
 30
0.0
 11
-1.7145256852758151
 21
-2.216890595009601
 31
0.0
  0
LINE
  5
2D3
  8
SP
 10
-1.7145256852758151
 20
-2.216890595009601
 30
0.0
 11
0.0
 21
0.0
 31
0.0
  0
LINE
  5
2D4
  8
SP
 10
0.0
 20
0.0
 30
0.0
 11
1.7145256852758151
 21
-2.216890595009601
 31
0.0
  0
LINE
  5
2D5
  8
SP
 10
1.7145256852758151
 20
-2.216890595009601
 30
0.0
 11
0.6962157491662495
 21
-2.216890595009601
 31
0.0
  0
ENDBLK
  5
2D7
  8
0
  0
BLOCK
  8
0
  2
右回転矢印
 70
     0
 10
0.0
 20
0.0
 30
0.0
  3
右回転矢印
  1

  0
LINE
  5
1E3
  8
SP
 10
-2.7705290305565882
 20
1.567794835092901
 30
0.0
 11
-2.4288000558398148
 21
2.8051227455822878
 31
0.0
  0
LINE
  5
1E4
  8
SP
 10
-2.4288000558398148
 20
2.8051227455822878
 30
0.0
 11
0.0
 21
0.0
 31
0.0
  0
LINE
  5
1E5
  8
SP
 10
0.0
 20
0.0
 30
0.0
 11
-3.3160037613098718
 21
-0.4072531086382499
 31
0.0
  0
LINE
  5
1E6
  8
SP
 10
-3.3160037613098718
 20
-0.4072531086382499
 30
0.0
 11
-3.0391574735299112
 21
0.5951483970269315
 31
0.0
  0
ARC
  5
1E7
  8
SP
 10
-5.9215210782018062
 20
-9.8412769578768184
 30
0.0
 40
10.82714154973578
 50
74.560750721316467
 51
112.11861101078711
  0
LINE
  5
1E8
  8
SP
 10
-9.9982127316752951
 20
0.1890560027239694
 30
0.0
 11
-10.37814929817227
 21
1.1238557349100611
 31
0.0
  0
ARC
  5
1E9
  8
SP
 10
-5.9215210782018062
 20
-9.8412769578768291
 30
0.0
 40
11.83620167374065
 50
74.560750721316396
 51
112.11861101078701
  0
ENDBLK
  5
1EB
  8
0
  0
BLOCK
  8
0
  2
*D6
 70
     1
 10
0.0
 20
0.0
 30
0.0
  3
*D6
  1

  0
LINE
  5
3184
  8
SP
 62
     2
 10
33665.175816296229
 20
1440.9668064275661
 30
0.0
 11
33665.175816296229
 21
773.34607941368085
 31
0.0
  0
LINE
  5
3185
  8
SP
 62
     2
 10
31415.175816296229
 20
1440.9668064275661
 30
0.0
 11
31415.175816296229
 21
773.34607941368085
 31
0.0
  0
LINE
  5
3186
  8
SP
 62
     2
 10
33575.175816296229
 20
818.34607941368085
 30
0.0
 11
31505.175816296229
 21
818.34607941368085
 31
0.0
  0
INSERT
  5
3187
  8
SP
 62
     2
  2
_OPEN
 10
33665.175816296229
 20
818.34607941368085
 30
0.0
 41
90.0
 42
90.0
 43
90.0
  0
INSERT
  5
3188
  8
SP
 62
     2
  2
_OPEN
 10
31415.175816296229
 20
818.34607941368085
 30
0.0
 41
90.0
 42
90.0
 43
90.0
 50
180.0
  0
TEXT
  5
3189
  8
FUTO
 62
     2
 10
32290.891449709809
 20
840.84607941368085
 30
0.0
 40
135.0
  1
2250
 51
15.0
  0
POINT
  5
318A
  8
DEFPOINTS
 62
     0
 10
33665.175816296229
 20
1485.9668064275661
 30
0.0
  0
POINT
  5
318B
  8
DEFPOINTS
 62
     0
 10
31415.175816296229
 20
1485.9668064275661
 30
0.0
  0
POINT
  5
318C
  8
DEFPOINTS
 62
     0
 10
31415.175816296229
 20
818.34607941368085
 30
0.0
  0
ENDBLK
  5
A67
  8
0
  0
BLOCK
  8
0
  2
*D7
 70
     1
 10
0.0
 20
0.0
 30
0.0
  3
*D7
  1

  0
LINE
  5
317B
  8
SP
 62
     2
 10
31415.175816296229
 20
1440.9668064275661
 30
0.0
 11
31415.175816296229
 21
773.34607941368085
 31
0.0
  0
LINE
  5
317C
  8
SP
 62
     2
 10
30265.175816296229
 20
1440.9668064275661
 30
0.0
 11
30265.175816296229
 21
773.34607941368085
 31
0.0
  0
LINE
  5
317D
  8
SP
 62
     2
 10
31325.175816296229
 20
818.34607941368085
 30
0.0
 11
30355.175816296229
 21
818.34607941368085
 31
0.0
  0
INSERT
  5
317E
  8
SP
 62
     2
  2
_OPEN
 10
31415.175816296229
 20
818.34607941368085
 30
0.0
 41
90.0
 42
90.0
 43
90.0
  0
INSERT
  5
317F
  8
SP
 62
     2
  2
_OPEN
 10
30265.175816296229
 20
818.34607941368085
 30
0.0
 41
90.0
 42
90.0
 43
90.0
 50
180.0
  0
TEXT
  5
3180
  8
FUTO
 62
     2
 10
30601.964225980551
 20
840.84607941368085
 30
0.0
 40
135.0
  1
1150
 51
15.0
  0
POINT
  5
3181
  8
DEFPOINTS
 62
     0
 10
31415.175816296229
 20
1485.9668064275661
 30
0.0
  0
POINT
  5
3182
  8
DEFPOINTS
 62
     0
 10
30265.175816296229
 20
1485.9668064275661
 30
0.0
  0
POINT
  5
3183
  8
DEFPOINTS
 62
     0
 10
30265.175816296229
 20
818.34607941368085
 30
0.0
  0
ENDBLK
  5
A74
  8
0
  0
BLOCK
  8
0
  2
*D8
 70
     1
 10
0.0
 20
0.0
 30
0.0
  3
*D8
  1

  0
LINE
  5
321D
  8
SP
 10
30265.175816296229
 20
1440.9668064275661
 30
0.0
 11
30265.175816296229
 21
478.0131825134776
 31
0.0
  0
LINE
  5
321E
  8
SP
 10
33665.175816296229
 20
1440.9668064275661
 30
0.0
 11
33665.175816296229
 21
478.0131825134776
 31
0.0
  0
LINE
  5
321F
  8
SP
 10
30355.175816296229
 20
523.01318251347755
 30
0.0
 11
33575.175816296229
 21
523.01318251347755
 31
0.0
  0
INSERT
  5
3220
  8
SP
  2
_OPEN
 10
30265.175816296229
 20
523.01318251347755
 30
0.0
 41
90.0
 42
90.0
 43
90.0
 50
180.0
  0
INSERT
  5
3221
  8
SP
  2
_OPEN
 10
33665.175816296229
 20
523.01318251347755
 30
0.0
 41
90.0
 42
90.0
 43
90.0
  0
TEXT
  8
0
  40
135
  5
32A6
  72
0
  71
0
 10
31695.2
 20
374.063
 30
0.000000
  1
3400
  0
POINT
  5
3223
  8
DEFPOINTS
 62
     0
 10
30265.175816296229
 20
1485.9668064275661
 30
0.0
  0
POINT
  5
3224
  8
DEFPOINTS
 62
     0
 10
33665.175816296229
 20
1485.9668064275661
 30
0.0
  0
POINT
  5
3225
  8
DEFPOINTS
 62
     0
 10
33665.175816296229
 20
523.01318251347755
 30
0.0
  0
ENDBLK
  5
14BE
  8
0
  0
BLOCK
  8
0
  2
*D9
 70
     1
 10
0.0
 20
0.0
 30
0.0
  3
*D9
  1

  0
LINE
  5
3226
  8
SP
 10
30254.143146882379
 20
1665.9668064275661
 30
0.0
 11
29631.06996600081
 21
1665.9668064275661
 31
0.0
  0
LINE
  5
3227
  8
SP
 10
30254.143146882379
 20
1485.9668064275661
 30
0.0
 11
29631.06996600081
 21
1485.9668064275661
 31
0.0
  0
LINE
  5
3228
  8
SP
 10
29676.069966000821
 20
1755.966806427567
 30
0.0
 11
29676.069966000821
 21
1845.9668064275661
 31
0.0
  0
LINE
  5
3229
  8
SP
 10
29676.069966000821
 20
1395.9668064275661
 30
0.0
 11
29676.069966000821
 21
945.96680642756678
 31
0.0
  0
LINE
  5
322A
  8
SP
 10
29676.069966000821
 20
1665.9668064275661
 30
0.0
 11
29676.069966000821
 21
1485.9668064275661
 31
0.0
  0
INSERT
  5
322B
  8
SP
  2
_DOT
 10
29676.069966000821
 20
1665.9668064275661
 30
0.0
 41
90.0
 42
90.0
 43
90.0
 50
270.0
  0
INSERT
  5
322C
  8
SP
  2
_OPEN
 10
29676.069966000821
 20
1485.9668064275661
 30
0.0
 41
90.0
 42
90.0
 43
90.0
 50
90.0
  0
TEXT
  8
0
  40
135
  5
32A7
  72
0
  71
0
 10
29316.1
 20
887.017
 30
0.000000
  1
180
  0
POINT
  5
322E
  8
DEFPOINTS
 62
     0
 10
30299.143146882379
 20
1665.9668064275661
 30
0.0
  0
POINT
  5
322F
  8
DEFPOINTS
 62
     0
 10
30299.143146882379
 20
1485.9668064275661
 30
0.0
  0
POINT
  5
3230
  8
DEFPOINTS
 62
     0
 10
29676.069966000821
 20
1485.9668064275661
 30
0.0
  0
ENDBLK
  5
14D8
  8
0
  0
BLOCK
  8
0
  2
*D10
 70
     1
 10
0.0
 20
0.0
 30
0.0
  3
*D10
  1

  0
LINE
  5
3234
  8
SP
 10
38532.973393976892
 20
4575.9668064275656
 30
0.0
 11
39027.16311235592
 21
4575.9668064275647
 31
0.0
  0
LINE
  5
3235
  8
SP
 10
38532.973393976892
 20
2575.9668064275661
 30
0.0
 11
39027.16311235592
 21
2575.9668064275661
 31
0.0
  0
LINE
  5
3236
  8
SP
 10
38982.16311235592
 20
4485.9668064275647
 30
0.0
 11
38982.16311235592
 21
2665.966806427567
 31
0.0
  0
INSERT
  5
3237
  8
SP
  2
_OPEN
 10
38982.16311235592
 20
4575.9668064275647
 30
0.0
 41
90.0
 42
90.0
 43
90.0
 50
90.0
  0
INSERT
  5
3238
  8
SP
  2
_OPEN
 10
38982.16311235592
 20
2575.9668064275661
 30
0.0
 41
90.0
 42
90.0
 43
90.0
 50
270.0
  0
TEXT
  8
0
  40
135
  5
32A8
  72
0
  71
0
 10
38622.2
 20
3337.02
 30
0.000000
  1
%%C2000
  0
POINT
  5
323A
  8
DEFPOINTS
 62
     0
 10
38487.973393976892
 20
4575.9668064275656
 30
0.0
  0
POINT
  5
323B
  8
DEFPOINTS
 62
     0
 10
38487.973393976892
 20
2575.9668064275661
 30
0.0
  0
POINT
  5
323C
  8
DEFPOINTS
 62
     0
 10
38982.16311235592
 20
2575.9668064275661
 30
0.0
  0
ENDBLK
  5
1561
  8
0
  0
BLOCK
  8
0
  2
*D11
 70
     1
 10
0.0
 20
0.0
 30
0.0
  3
*D11
  1

  0
LINE
  5
323D
  8
SP
 62
     2
 10
35211.973393976892
 20
1440.9668064275661
 30
0.0
 11
35211.973393976892
 21
767.88938615932057
 31
0.0
  0
LINE
  5
323E
  8
SP
 62
     2
 10
37582.973393976892
 20
1440.9668064275661
 30
0.0
 11
37582.973393976892
 21
767.88938615932057
 31
0.0
  0
LINE
  5
323F
  8
SP
 62
     2
 10
35301.973393976892
 20
812.88938615932045
 30
0.0
 11
37492.973393976892
 21
812.88938615932045
 31
0.0
  0
INSERT
  5
3240
  8
SP
 62
     2
  2
_OPEN
 10
35211.973393976892
 20
812.88938615932045
 30
0.0
 41
90.0
 42
90.0
 43
90.0
 50
180.0
  0
INSERT
  5
3241
  8
SP
 62
     2
  2
_OPEN
 10
37582.973393976892
 20
812.88938615932045
 30
0.0
 41
90.0
 42
90.0
 43
90.0
  0
TEXT
  8
0
  40
135
  5
32A9
  62
2
  72
0
  71
0
 10
36127.5
 20
663.939
 30
0.000000
  1
2371
  0
POINT
  5
3243
  8
DEFPOINTS
 62
     0
 10
35211.973393976892
 20
1485.9668064275661
 30
0.0
  0
POINT
  5
3244
  8
DEFPOINTS
 62
     0
 10
37582.973393976892
 20
1485.9668064275661
 30
0.0
  0
POINT
  5
3245
  8
DEFPOINTS
 62
     0
 10
37582.973393976892
 20
812.88938615932045
 30
0.0
  0
ENDBLK
  5
1B15
  8
0
  0
BLOCK
  8
0
  2
*D12
 70
     1
 10
0.0
 20
0.0
 30
0.0
  3
*D12
  1

  0
LINE
  5
3246
  8
SP
 62
     2
 10
38411.973393976892
 20
1440.9668064275661
 30
0.0
 11
38411.973393976892
 21
767.88938615932057
 31
0.0
  0
LINE
  5
3247
  8
SP
 62
     2
 10
37672.973393976892
 20
812.88938615932045
 30
0.0
 11
38321.973393976892
 21
812.88938615932045
 31
0.0
  0
INSERT
  5
3248
  8
SP
 62
     2
  2
_OPEN
 10
37582.973393976892
 20
812.88938615932045
 30
0.0
 41
90.0
 42
90.0
 43
90.0
 50
180.0
  0
INSERT
  5
3249
  8
SP
 62
     2
  2
_OPEN
 10
38411.973393976892
 20
812.88938615932045
 30
0.0
 41
90.0
 42
90.0
 43
90.0
  0
TEXT
  8
0
  40
135
  5
32AA
  62
2
  72
0
  71
0
 10
37727.5
 20
663.939
 30
0.000000
  1
829
  0
POINT
  5
324B
  8
DEFPOINTS
 62
     0
 10
37582.973393976892
 20
1485.9668064275661
 30
0.0
  0
POINT
  5
324C
  8
DEFPOINTS
 62
     0
 10
38411.973393976892
 20
1485.9668064275661
 30
0.0
  0
POINT
  5
324D
  8
DEFPOINTS
 62
     0
 10
38411.973393976892
 20
812.88938615932045
 30
0.0
  0
ENDBLK
  5
1B21
  8
0
  0
BLOCK
  8
0
  2
*D13
 70
     1
 10
0.0
 20
0.0
 30
0.0
  3
*D13
  1

  0
LINE
  5
324E
  8
SP
 62
     2
 10
38411.973393976892
 20
767.88938615932057
 30
0.0
 11
38411.973393976892
 21
475.76708590642369
 31
0.0
  0
LINE
  5
324F
  8
SP
 62
     2
 10
35211.973393976892
 20
767.88938615932057
 30
0.0
 11
35211.973393976892
 21
475.76708590642369
 31
0.0
  0
LINE
  5
3250
  8
SP
 62
     2
 10
38321.973393976892
 20
520.76708590642374
 30
0.0
 11
35301.973393976892
 21
520.76708590642374
 31
0.0
  0
INSERT
  5
3251
  8
SP
 62
     2
  2
_OPEN
 10
38411.973393976892
 20
520.76708590642374
 30
0.0
 41
90.0
 42
90.0
 43
90.0
  0
INSERT
  5
3252
  8
SP
 62
     2
  2
_OPEN
 10
35211.973393976892
 20
520.76708590642374
 30
0.0
 41
90.0
 42
90.0
 43
90.0
 50
180.0
  0
TEXT
  8
0
  40
135
  5
32AB
  62
2
  72
0
  71
0
 10
36542.0
 20
371.817
 30
0.000000
  1
3200
  0
POINT
  5
3254
  8
DEFPOINTS
 62
     0
 10
38411.973393976892
 20
812.88938615932045
 30
0.0
  0
POINT
  5
3255
  8
DEFPOINTS
 62
     0
 10
35211.973393976892
 20
812.88938615932045
 30
0.0
  0
POINT
  5
3256
  8
DEFPOINTS
 62
     0
 10
35211.973393976892
 20
520.76708590642374
 30
0.0
  0
ENDBLK
  5
1B2E
  8
0
  0
BLOCK
  8
0
  2
*D14
 70
     1
 10
0.0
 20
0.0
 30
0.0
  3
*D14
  1

  0
LINE
  5
3257
  8
SP
 62
     2
 10
35072.973393976899
 20
5327.0988118409514
 30
0.0
 11
37492.973393976892
 21
5327.0988118409514
 31
0.0
  0
INSERT
  5
3258
  8
SP
 62
     2
  2
_OPEN
 10
34982.973393976892
 20
5327.0988118409514
 30
0.0
 41
90.0
 42
90.0
 43
90.0
 50
180.0
  0
INSERT
  5
3259
  8
SP
 62
     2
  2
_OPEN
 10
37582.973393976892
 20
5327.0988118409514
 30
0.0
 41
90.0
 42
90.0
 43
90.0
  0
TEXT
  8
0
  40
135
  5
32AC
  62
2
  72
0
  71
0
 10
36013.0
 20
5178.15
 30
0.000000
  1
2600
  0
POINT
  5
325B
  8
DEFPOINTS
 62
     0
 10
34982.973393976892
 20
5327.0988118409514
 30
0.0
  0
POINT
  5
325C
  8
DEFPOINTS
 62
     0
 10
37582.973393976892
 20
5327.0988118409514
 30
0.0
  0
POINT
  5
325D
  8
DEFPOINTS
 62
     0
 10
37582.973393976892
 20
5327.0988118409514
 30
0.0
  0
ENDBLK
  5
1BFE
  8
0
  0
BLOCK
  8
0
  2
*D15
 70
     1
 10
0.0
 20
0.0
 30
0.0
  3
*D15
  1

  0
LINE
  5
325E
  8
SP
 62
     2
 10
31415.175816296229
 20
4964.3083722567626
 30
0.0
 11
31415.175816296229
 21
5360.072656722984
 31
0.0
  0
LINE
  5
325F
  8
SP
 62
     2
 10
33642.175816296229
 20
4895.9668064290263
 30
0.0
 11
33642.175816296229
 21
5360.072656722984
 31
0.0
  0
LINE
  5
3260
  8
SP
 62
     2
 10
31505.175816296229
 20
5315.0726567229831
 30
0.0
 11
33552.175816296229
 21
5315.0726567229831
 31
0.0
  0
INSERT
  5
3261
  8
SP
 62
     2
  2
_OPEN
 10
31415.175816296229
 20
5315.0726567229831
 30
0.0
 41
90.0
 42
90.0
 43
90.0
 50
180.0
  0
INSERT
  5
3262
  8
SP
 62
     2
  2
_OPEN
 10
33642.175816296229
 20
5315.0726567229831
 30
0.0
 41
90.0
 42
90.0
 43
90.0
  0
TEXT
  8
0
  40
135
  5
32AD
  62
2
  72
0
  71
0
 10
32258.7
 20
5166.12
 30
0.000000
  1
2227
  0
POINT
  5
3264
  8
DEFPOINTS
 62
     0
 10
31415.175816296229
 20
4919.3083722567626
 30
0.0
  0
POINT
  5
3265
  8
DEFPOINTS
 62
     0
 10
33642.175816296229
 20
4850.9668064290272
 30
0.0
  0
POINT
  5
3266
  8
DEFPOINTS
 62
     0
 10
33642.175816296229
 20
5315.0726567229831
 30
0.0
  0
ENDBLK
  5
1C2F
  8
0
  0
BLOCK
  8
0
  2
*D16
 70
     1
 10
0.0
 20
0.0
 30
0.0
  3
*D16
  1

  0
LINE
  5
31A8
  8
SP
 10
30254.143146882379
 20
1805.9668064275661
 30
0.0
 11
29631.06996600081
 21
1805.966806427567
 31
0.0
  0
LINE
  5
31A9
  8
SP
 10
30254.143146882379
 20
1665.9668064275661
 30
0.0
 11
29631.06996600081
 21
1665.9668064275661
 31
0.0
  0
LINE
  5
31AA
  8
SP
 10
29676.069966000821
 20
1895.9668064275661
 30
0.0
 11
29676.069966000821
 21
1985.9668064275661
 31
0.0
  0
LINE
  5
31AB
  8
SP
 10
29676.069966000821
 20
1575.9668064275661
 30
0.0
 11
29676.069966000821
 21
1485.9668064275661
 31
0.0
  0
TEXT
  5
31AC
  8
FUTO
 10
29499.585572581422
 20
1524.78862975889
 30
0.0
 40
135.0
  1
(140)
 50
90.0
 51
15.0
  0
LINE
  5
31AD
  8
SP
 10
29676.069966000821
 20
1805.966806427567
 30
0.0
 11
29676.069966000821
 21
1665.9668064275661
 31
0.0
  0
INSERT
  5
31AE
  8
SP
  2
_OPEN
 10
29676.069966000821
 20
1805.966806427567
 30
0.0
 41
90.0
 42
90.0
 43
90.0
 50
270.0
  0
INSERT
  5
31AF
  8
SP
  2
_DOT
 10
29676.069966000821
 20
1665.9668064275661
 30
0.0
 41
90.0
 42
90.0
 43
90.0
 50
90.0
  0
POINT
  5
31B0
  8
DEFPOINTS
 62
     0
 10
30299.143146882379
 20
1805.9668064275661
 30
0.0
  0
POINT
  5
31B1
  8
DEFPOINTS
 62
     0
 10
30299.143146882379
 20
1665.9668064275661
 30
0.0
  0
POINT
  5
31B2
  8
DEFPOINTS
 62
     0
 10
29676.069966000821
 20
1665.9668064275661
 30
0.0
  0
ENDBLK
  5
1C46
  8
0
  0
BLOCK
  8
0
  2
*D17
 70
     1
 10
0.0
 20
0.0
 30
0.0
  3
*D17
  1

  0
LINE
  5
3267
  8
SP
 62
     2
 10
30295.17577899127
 20
9633.2742839424191
 30
0.0
 11
29510.535967823362
 21
9633.2742839424191
 31
0.0
  0
LINE
  5
3268
  8
SP
 62
     2
 10
29874.269067309098
 20
8728.2742839424172
 30
0.0
 11
29510.535967823362
 21
8728.2742839424172
 31
0.0
  0
LINE
  5
3269
  8
SP
 62
     2
 10
29555.535967823362
 20
9543.2742839424209
 30
0.0
 11
29555.535967823362
 21
8818.2742839424209
 31
0.0
  0
INSERT
  5
326A
  8
SP
 62
     2
  2
_OPEN
 10
29555.535967823362
 20
9633.2742839424191
 30
0.0
 41
90.0
 42
90.0
 43
90.0
 50
90.0
  0
INSERT
  5
326B
  8
SP
 62
     2
  2
_OPEN
 10
29555.535967823362
 20
8728.2742839424172
 30
0.0
 41
90.0
 42
90.0
 43
90.0
 50
270.0
  0
TEXT
  8
0
  40
135
  5
32AE
  62
2
  72
0
  71
0
 10
29195.5
 20
8925.11
 30
0.000000
  1
905
  0
POINT
  5
326D
  8
DEFPOINTS
 62
     0
 10
30340.17577899127
 20
9633.2742839424191
 30
0.0
  0
POINT
  5
326E
  8
DEFPOINTS
 62
     0
 10
29919.269067309091
 20
8728.2742839424172
 30
0.0
  0
POINT
  5
326F
  8
DEFPOINTS
 62
     0
 10
29555.535967823362
 20
8728.2742839424172
 30
0.0
  0
ENDBLK
  5
2561
  8
0
  0
BLOCK
  8
0
  2
*D18
 70
     1
 10
0.0
 20
0.0
 30
0.0
  3
*D18
  1

  0
LINE
  5
3270
  8
SP
 62
     2
 10
29874.269067309098
 20
8728.2742839424172
 30
0.0
 11
29510.535967823369
 21
8728.2742839424172
 31
0.0
  0
LINE
  5
3271
  8
SP
 62
     2
 10
30890.17577899127
 20
6128.2742839424227
 30
0.0
 11
29510.535967823362
 21
6128.2742839424236
 31
0.0
  0
LINE
  5
3272
  8
SP
 62
     2
 10
29555.535967823369
 20
8638.2742839424209
 30
0.0
 11
29555.535967823362
 21
6218.2742839424236
 31
0.0
  0
INSERT
  5
3273
  8
SP
 62
     2
  2
_OPEN
 10
29555.535967823369
 20
8728.2742839424172
 30
0.0
 41
90.0
 42
90.0
 43
90.0
 50
90.0
  0
INSERT
  5
3274
  8
SP
 62
     2
  2
_OPEN
 10
29555.535967823362
 20
6128.2742839424236
 30
0.0
 41
90.0
 42
90.0
 43
90.0
 50
270.0
  0
TEXT
  8
0
  40
135
  5
32AF
  62
2
  72
0
  71
0
 10
29195.5
 20
7189.32
 30
0.000000
  1
2600
  0
POINT
  5
3276
  8
DEFPOINTS
 62
     0
 10
29919.269067309091
 20
8728.2742839424172
 30
0.0
  0
POINT
  5
3277
  8
DEFPOINTS
 62
     0
 10
30935.17577899127
 20
6128.2742839424227
 30
0.0
  0
POINT
  5
3278
  8
DEFPOINTS
 62
     0
 10
29555.535967823362
 20
6128.2742839424236
 30
0.0
  0
ENDBLK
  5
256E
  8
0
  0
BLOCK
  8
0
  2
*D19
 70
     1
 10
0.0
 20
0.0
 30
0.0
  3
*D19
  1

  0
LINE
  5
3279
  8
FUTO
 62
     2
 10
33665.175816296229
 20
8019.2742839424172
 30
0.0
 11
33665.175816296229
 21
10108.24007344832
 31
0.0
  0
LINE
  5
327A
  8
FUTO
 62
     2
 10
31415.175816296229
 20
9931.8926643764644
 30
0.0
 11
31415.175816296229
 21
10108.24007344832
 31
0.0
  0
LINE
  5
327B
  8
FUTO
 62
     2
 10
33575.175816296229
 20
10063.24007344832
 30
0.0
 11
31505.175816296229
 21
10063.24007344832
 31
0.0
  0
INSERT
  5
327C
  8
FUTO
 62
     2
  2
_OPEN
 10
33665.175816296229
 20
10063.24007344832
 30
0.0
 41
90.0
 42
90.0
 43
90.0
  0
INSERT
  5
327D
  8
FUTO
 62
     2
  2
_OPEN
 10
31415.175816296229
 20
10063.24007344832
 30
0.0
 41
90.0
 42
90.0
 43
90.0
 50
180.0
  0
TEXT
  8
0
  40
135
  5
32B0
  62
2
  72
0
  71
0
 10
32270.2
 20
9914.29
 30
0.000000
  1
2250
  0
POINT
  5
327F
  8
DEFPOINTS
 62
     0
 10
33665.175816296229
 20
7974.2742839424172
 30
0.0
  0
POINT
  5
3280
  8
DEFPOINTS
 62
     0
 10
31415.175816296229
 20
9886.8926643764662
 30
0.0
  0
POINT
  5
3281
  8
DEFPOINTS
 62
     0
 10
31415.175816296229
 20
10063.24007344832
 30
0.0
  0
ENDBLK
  5
2703
  8
0
  0
BLOCK
  8
0
  2
*D20
 70
     1
 10
0.0
 20
0.0
 30
0.0
  3
*D20
  1

  0
LINE
  5
3282
  8
FUTO
 62
     2
 10
31415.175816296229
 20
9931.8926643764644
 30
0.0
 11
31415.175816296229
 21
10108.24007344832
 31
0.0
  0
LINE
  5
3283
  8
FUTO
 62
     2
 10
29923.17581629624
 20
9577.2742839424227
 30
0.0
 11
29923.17581629624
 21
10108.24007344832
 31
0.0
  0
LINE
  5
3284
  8
FUTO
 62
     2
 10
31325.175816296229
 20
10063.24007344832
 30
0.0
 11
30013.175816296229
 21
10063.24007344832
 31
0.0
  0
INSERT
  5
3285
  8
FUTO
 62
     2
  2
_OPEN
 10
31415.175816296229
 20
10063.24007344832
 30
0.0
 41
90.0
 42
90.0
 43
90.0
  0
INSERT
  5
3286
  8
FUTO
 62
     2
  2
_OPEN
 10
29923.17581629624
 20
10063.24007344832
 30
0.0
 41
90.0
 42
90.0
 43
90.0
 50
180.0
  0
TEXT
  8
0
  40
135
  5
32B1
  62
2
  72
0
  71
0
 10
30399.2
 20
9914.29
 30
0.000000
  1
1492
  0
POINT
  5
3288
  8
DEFPOINTS
 62
     0
 10
31415.175816296229
 20
9886.8926643764662
 30
0.0
  0
POINT
  5
3289
  8
DEFPOINTS
 62
     0
 10
29923.17581629624
 20
9532.2742839424227
 30
0.0
  0
POINT
  5
328A
  8
DEFPOINTS
 62
     0
 10
29923.17581629624
 20
10063.24007344832
 30
0.0
  0
ENDBLK
  5
2710
  8
0
  0
BLOCK
  8
0
  2
*D21
 70
     1
 10
0.0
 20
0.0
 30
0.0
  3
*D21
  1

  0
LINE
  5
328B
  8
FUTO
 62
     2
 10
30220.175816296229
 20
1805.9668064275661
 30
0.0
 11
29631.06996600081
 21
1805.966806427567
 31
0.0
  0
LINE
  5
328C
  8
FUTO
 62
     2
 10
29806.332238462051
 20
3575.9668064275661
 30
0.0
 11
29631.06996600081
 21
3575.966806427567
 31
0.0
  0
LINE
  5
328D
  8
FUTO
 62
     2
 10
29676.069966000821
 20
1895.9668064275661
 30
0.0
 11
29676.069966000821
 21
3485.966806427567
 31
0.0
  0
INSERT
  5
328E
  8
FUTO
 62
     2
  2
_OPEN
 10
29676.069966000821
 20
1805.966806427567
 30
0.0
 41
90.0
 42
90.0
 43
90.0
 50
270.0
  0
INSERT
  5
328F
  8
FUTO
 62
     2
  2
_OPEN
 10
29676.069966000821
 20
3575.966806427567
 30
0.0
 41
90.0
 42
90.0
 43
90.0
 50
90.0
  0
TEXT
  8
0
  40
135
  5
32B2
  62
2
  72
0
  71
0
 10
29316.1
 20
2452.02
 30
0.000000
  1
1770
  0
POINT
  5
3291
  8
DEFPOINTS
 62
     0
 10
30265.175816296229
 20
1805.9668064275661
 30
0.0
  0
POINT
  5
3292
  8
DEFPOINTS
 62
     0
 10
29851.332238462051
 20
3575.9668064275661
 30
0.0
  0
POINT
  5
3293
  8
DEFPOINTS
 62
     0
 10
29676.069966000821
 20
3575.966806427567
 30
0.0
  0
ENDBLK
  5
271D
  8
0
  0
BLOCK
  8
0
  2
*D22
 70
     1
 10
0.0
 20
0.0
 30
0.0
  3
*D22
  1

  0
LINE
  5
3294
  8
FUTO
 62
     2
 10
29806.332238462051
 20
3575.9668064275661
 30
0.0
 11
29631.06996600081
 21
3575.966806427567
 31
0.0
  0
LINE
  5
3295
  8
FUTO
 62
     2
 10
31379.175816296229
 20
4850.9668064280222
 30
0.0
 11
29631.06996600081
 21
4850.9668064280231
 31
0.0
  0
LINE
  5
3296
  8
FUTO
 62
     2
 10
29676.069966000821
 20
3665.966806427567
 30
0.0
 11
29676.069966000821
 21
4760.9668064280231
 31
0.0
  0
INSERT
  5
3297
  8
FUTO
 62
     2
  2
_OPEN
 10
29676.069966000821
 20
3575.966806427567
 30
0.0
 41
90.0
 42
90.0
 43
90.0
 50
270.0
  0
INSERT
  5
3298
  8
FUTO
 62
     2
  2
_OPEN
 10
29676.069966000821
 20
4850.9668064280231
 30
0.0
 41
90.0
 42
90.0
 43
90.0
 50
90.0
  0
TEXT
  8
0
  40
135
  5
32B3
  62
2
  72
0
  71
0
 10
29316.1
 20
3974.52
 30
0.000000
  1
1275
  0
POINT
  5
329A
  8
DEFPOINTS
 62
     0
 10
29851.332238462051
 20
3575.9668064275661
 30
0.0
  0
POINT
  5
329B
  8
DEFPOINTS
 62
     0
 10
31424.175816296229
 20
4850.9668064280222
 30
0.0
  0
POINT
  5
329C
  8
DEFPOINTS
 62
     0
 10
29676.069966000821
 20
4850.9668064280231
 30
0.0
  0
ENDBLK
  5
272A
  8
0
  0
BLOCK
  8
0
  2
*D23
 70
     1
 10
0.0
 20
0.0
 30
0.0
  3
*D23
  1

  0
LINE
  5
329D
  8
FUTO
 62
     2
 10
38487.973393976899
 20
4695.9668064275656
 30
0.0
 11
38487.973393976899
 21
5372.0988118409523
 31
0.0
  0
LINE
  5
329E
  8
FUTO
 62
     2
 10
37582.973393976892
 20
5304.6585834980688
 30
0.0
 11
37582.973393976892
 21
5372.0988118409523
 31
0.0
  0
LINE
  5
329F
  8
FUTO
 62
     2
 10
38397.973393976899
 20
5327.0988118409514
 30
0.0
 11
37672.973393976892
 21
5327.0988118409514
 31
0.0
  0
INSERT
  5
32A0
  8
FUTO
 62
     2
  2
_OPEN
 10
38487.973393976899
 20
5327.0988118409514
 30
0.0
 41
90.0
 42
90.0
 43
90.0
  0
INSERT
  5
32A1
  8
FUTO
 62
     2
  2
_OPEN
 10
37582.973393976892
 20
5327.0988118409514
 30
0.0
 41
90.0
 42
90.0
 43
90.0
 50
180.0
  0
TEXT
  8
0
  40
135
  5
32B4
  62
2
  72
0
  71
0
 10
37765.5
 20
5178.15
 30
0.000000
  1
905
  0
POINT
  5
32A3
  8
DEFPOINTS
 62
     0
 10
38487.973393976899
 20
4650.9668064275656
 30
0.0
  0
POINT
  5
32A4
  8
DEFPOINTS
 62
     0
 10
37582.973393976892
 20
5259.6585834980688
 30
0.0
  0
POINT
  5
32A5
  8
DEFPOINTS
 62
     0
 10
37582.973393976892
 20
5327.0988118409514
 30
0.0
  0
ENDBLK
  5
28FE
  8
0
  0
ENDSEC
  0
SECTION
  2
ENTITIES
  0
LINE
  5
46
  8
FUTO
 10
35466.973393976892
 20
3415.9668064275661
 30
0.0
 11
36716.973393976892
 21
3415.9668064275661
 31
0.0
  0
LINE
  5
49
  8
FUTO
 10
36524.973393976892
 20
3633.4668064275661
 30
0.0
 11
35462.973393976892
 21
3633.4668064275661
 31
0.0
  0
LINE
  5
4A
  8
FUTO
 10
36524.973393976892
 20
3518.466806427567
 30
0.0
 11
35462.973393976892
 21
3518.466806427567
 31
0.0
  0
LINE
  5
4B
  8
FUTO
 10
35211.973393976892
 20
1985.9668064275661
 30
0.0
 11
38426.173393976889
 21
1985.9668064275661
 31
0.0
  0
LINE
  5
4C
  8
CT
 10
38609.236605975857
 20
3575.9668064275661
 30
0.0
 11
34878.195970978479
 21
3575.9668064275661
 31
0.0
  0
LINE
  5
4F
  8
FUTO
 10
35211.973393976892
 20
1665.9668064275661
 30
0.0
 11
38411.973393976892
 21
1665.9668064275661
 31
0.0
  0
LINE
  5
50
  8
FUTO
 10
35286.973393976892
 20
1805.9668064275661
 30
0.0
 11
38336.973393976892
 21
1805.9668064275661
 31
0.0
  0
LINE
  5
51
  8
FUTO
 10
35286.973393976892
 20
1497.9668064275661
 30
0.0
 11
36800.118472431037
 21
1497.9668064275661
 31
0.0
  0
LINE
  5
52
  8
FUTO
 10
35286.973393976892
 20
1653.9668064275661
 30
0.0
 11
36800.118472431037
 21
1653.9668064275661
 31
0.0
  0
LINE
  5
53
  8
FUTO
 10
35286.973393976892
 20
1817.9668064275661
 30
0.0
 11
36800.118472431037
 21
1817.9668064275661
 31
0.0
  0
LINE
  5
54
  8
FUTO
 10
35286.973393976892
 20
1973.9668064275661
 30
0.0
 11
36800.118472431037
 21
1973.9668064275661
 31
0.0
  0
DIMENSION
  5
6B
  8
SP
  2
*D8
 10
33665.175816296229
 20
523.01318251347755
 30
0.0
 11
31965.175816296229
 21
613.01318251347755
 31
0.0
 70
     0
 13
30265.175816296229
 23
1485.9668064275661
 33
0.0
 14
33665.175816296229
 24
1485.9668064275661
 34
0.0
 50
180.0
1001
ACAD
1000
DSTYLE
1002
{
1070
   287
1070
     0
1070
   287
1070
     0
1070
    40
1040
45.0
1070
   140
1040
3.0
1070
   143
1040
0.03937
1070
   147
1040
0.5
1070
   173
1070
     1
1070
   176
1070
   256
1070
   177
1070
   256
1070
   178
1070
   256
1070
   271
1070
     4
1070
   272
1070
     4
1070
   279
1070
     0
1070
   285
1070
     0
1070
   286
1070
     0
1070
   289
1070
     0
1070
     6
1000
OPEN
1070
     7
1000
OPEN
1002
}
  0
LINE
  5
78
  8
CT
 10
33526.802448659677
 20
3575.9668064275661
 30
0.0
 11
33508.209016436384
 21
3575.9668064275661
 31
0.0
  0
LINE
  5
80
  8
FUTO
 10
32940.408809534747
 20
1805.9668064275661
 30
0.0
 11
33505.942507110922
 21
1805.9668064275661
 31
0.0
  0
ARC
  5
86
  8
KL
 10
31562.175816296229
 20
3428.9668064275661
 30
0.0
 40
1589.0
 50
180.0
 51
270.0
  0
LINE
  5
89
  8
FUTO
 10
30265.175816296229
 20
1805.9668064275661
 30
0.0
 11
33665.175816296229
 21
1805.9668064275661
 31
0.0
  0
LINE
  5
8A
  8
FUTO
 10
30265.175816296229
 20
1985.9668064275661
 30
0.0
 11
33665.175816296229
 21
1985.9668064275661
 31
0.0
  0
LINE
  5
8C
  8
FUTO
 10
30265.175816296229
 20
1665.9668064275661
 30
0.0
 11
33665.175816296229
 21
1665.9668064275661
 31
0.0
  0
LINE
  5
8D
  8
FUTO
 10
30265.175816296229
 20
1485.9668064275661
 30
0.0
 11
33665.175816296229
 21
1485.9668064275661
 31
0.0
  0
LINE
  5
8E
  8
FUTO
 10
30265.175816296229
 20
1969.9668064275661
 30
0.0
 11
33665.175816296229
 21
1969.9668064275661
 31
0.0
  0
LINE
  5
8F
  8
FUTO
 10
30265.175816296229
 20
1821.9668064275661
 30
0.0
 11
33665.175816296229
 21
1821.9668064275661
 31
0.0
  0
LINE
  5
90
  8
FUTO
 10
30265.175816296229
 20
1649.9668064275661
 30
0.0
 11
33665.175816296229
 21
1649.9668064275661
 31
0.0
  0
LINE
  5
91
  8
FUTO
 10
30265.175816296229
 20
1501.9668064275661
 30
0.0
 11
33665.175816296229
 21
1501.9668064275661
 31
0.0
  0
ARC
  5
92
  8
KL
 10
31562.175816296229
 20
3722.9668064275661
 30
0.0
 40
1883.0
 50
270.0
 51
354.42838162163292
  0
ARC
  5
93
  8
FUTO
 10
31562.175816296229
 20
3722.9668064275661
 30
0.0
 40
1903.0
 50
335.2403678865245
 51
354.5126398729289
  0
LINE
  5
A6
  8
FUTO
 10
33665.175816296229
 20
1805.9668064275661
 30
0.0
 11
33665.175816296229
 21
1985.9668064275661
 31
0.0
  0
LINE
  5
A7
  8
FUTO
 10
33665.175816296229
 20
1485.9668064275661
 30
0.0
 11
33665.175816296229
 21
1665.9668064275661
 31
0.0
  0
LINE
  5
FF
  8
FUTO
 10
35466.973393976892
 20
3435.966806427567
 30
0.0
 11
35466.973393976892
 21
3415.9668064275661
 31
0.0
  0
LINE
  5
100
  8
FUTO
 10
35286.973393976892
 20
3435.966806427567
 30
0.0
 11
35286.973393976892
 21
1985.9668064275661
 31
0.0
  0
LINE
  5
101
  8
SL
 10
35230.773393976888
 20
3950.9668064275661
 30
0.0
 11
35230.773393976888
 21
2180.9668064275661
 31
0.0
  0
LINE
  5
102
  8
SL
 10
35100.773393976888
 20
3950.9668064275661
 30
0.0
 11
35100.773393976888
 21
2180.9668064275661
 31
0.0
  0
LINE
  5
103
  8
FUTO
 10
34982.973393976892
 20
4055.966806427567
 30
0.0
 11
34982.973393976892
 21
2085.9668064275661
 31
0.0
  0
LINE
  5
104
  8
FUTO
 10
30274.175816296229
 20
1985.9668064275661
 30
0.0
 11
30274.175816296229
 21
4323.4771511936497
 31
0.0
  0
LINE
  5
105
  8
FUTO
 10
30265.175816296229
 20
1805.9668064275661
 30
0.0
 11
30265.175816296229
 21
4312.8293608828999
 31
0.0
  0
ARC
  5
10A
  8
KL
 10
31292.675816296229
 20
3453.4668064275661
 30
0.0
 40
1319.5
 50
90.0
 51
181.0639085026279
  0
ARC
  5
10B
  8
FUTO
 10
31292.675816296229
 20
3453.4668064275661
 30
0.0
 40
1339.5
 50
90.0
 51
174.75285293416121
  0
LINE
  5
10D
  8
CT
 10
31415.175816296229
 20
1423.636787508414
 30
0.0
 11
31415.175816296229
 21
4995.5842045581048
 31
0.0
  0
LINE
  5
10E
  8
FUTO
 10
32574.175816296229
 20
2141.0044984159258
 30
0.0
 11
32574.175816296229
 21
2394.8159408203551
 31
0.0
  0
LINE
  5
110
  8
CT
 10
33265.175816296229
 20
3012.2502836881431
 30
0.0
 11
33265.175816296229
 21
1649.0351949562951
 31
0.0
  0
LINE
  5
111
  8
FUTO
 10
32556.175816296229
 20
1985.9668064275661
 30
0.0
 11
32556.175816296229
 21
2404.6627205884351
 31
0.0
  0
LINE
  5
112
  8
FUTO
 10
32565.175816296229
 20
1985.9668064275661
 30
0.0
 11
32565.175816296229
 21
2399.7393307043949
 31
0.0
  0
LINE
  5
127
  8
FUTO
 10
32565.175816296229
 20
2116.6038152814431
 30
0.0
 11
32600.531155355558
 21
2081.2484762221161
 31
0.0
  0
LINE
  5
128
  8
FUTO
 10
32565.175816296229
 20
2150.0044984159258
 30
0.0
 11
32618.531155355558
 21
2096.6491593565988
 31
0.0
  0
LINE
  5
129
  8
FUTO
 10
32565.175816296229
 20
2133.2460577074762
 30
0.0
 11
32609.531155355558
 21
2088.8907186481501
 31
0.0
  0
LINE
  5
156
  8
FUTO
 10
32618.531155355558
 20
2096.6491593565988
 30
0.0
 11
32600.531155355558
 21
2081.2484762221161
 31
0.0
  0
LINE
  5
157
  8
FUTO
 10
32215.175816296229
 20
1805.966806427567
 30
0.0
 11
32215.175816296229
 21
2000.1788529052769
 31
0.0
  0
LINE
  5
15F
  8
CT
 10
30398.703137069409
 20
1893.5751945717709
 30
0.0
 11
30398.703137069409
 21
1582.2668010819141
 31
0.0
  0
LINE
  5
160
  8
FUTO
 10
30615.175816296229
 20
1805.9668064275661
 30
0.0
 11
30615.175816296229
 21
2000.178852905276
 31
0.0
  0
LINE
  5
162
  8
SP
 10
30358.703137069409
 20
1805.9668064275661
 30
0.0
 11
30358.703137069409
 21
1665.9668064275661
 31
0.0
  0
LINE
  5
163
  8
SP
 10
30438.703137069409
 20
1805.9668064275661
 30
0.0
 11
30438.703137069409
 21
1665.9668064275661
 31
0.0
  0
DIMENSION
  5
164
  8
SP
  2
*D9
 10
29676.069966000821
 20
1485.9668064275661
 30
0.0
 11
29586.069966000821
 21
1125.9668064275711
 31
0.0
 70
     0
 13
30299.143146882379
 23
1665.9668064275661
 33
0.0
 14
30299.143146882379
 24
1485.9668064275661
 34
0.0
 50
90.0
1001
ACAD
1000
DSTYLE
1002
{
1070
   287
1070
     0
1070
   287
1070
     0
1070
    40
1040
45.0
1070
   140
1040
3.0
1070
   143
1040
0.03937
1070
   147
1040
0.5
1070
   173
1070
     1
1070
   176
1070
   256
1070
   177
1070
   256
1070
   178
1070
   256
1070
   271
1070
     4
1070
   272
1070
     4
1070
   279
1070
     0
1070
   285
1070
     0
1070
   286
1070
     0
1070
   289
1070
     0
1070
     6
1000
DOT
1070
     7
1000
OPEN
1002
}
  0
DIMENSION
  5
17B
  8
SP
  2
*D16
 10
29676.069966000821
 20
1665.9668064275661
 30
0.0
 11
29454.585572581411
 21
1781.7625476341329
 31
0.0
 70
   128
  1
(<>)
 13
30299.143146882379
 23
1805.9668064275661
 33
0.0
 14
30299.143146882379
 24
1665.9668064275661
 34
0.0
 50
90.0
1001
ACAD
1000
DSTYLE
1002
{
1070
   140
1040
3.0
1070
   272
1070
     4
1070
    40
1040
45.0
1070
   173
1070
     1
1070
   147
1040
0.5
1070
   271
1070
     4
1070
   178
1070
   256
1070
   177
1070
   256
1070
   176
1070
   256
1070
     7
1000
_DOT
1070
     6
1000
_OPEN
1070
     5
1000

1070
   285
1070
     0
1070
   286
1070
     0
1070
   143
1040
0.03937
1002
}
  0
LINE
  5
18A
  8
FUTO
 10
30265.175816296229
 20
1485.9668064275661
 30
0.0
 11
30265.175816296229
 21
1665.9668064275661
 31
0.0
  0
ARC
  5
19A
  8
FUTO
 10
35269.973393976892
 20
1829.0421760452509
 30
0.0
 40
10.0
 50
275.0
 51
0.0
  0
LINE
  5
19B
  8
FUTO
 10
35286.973393976892
 20
1985.9668064275661
 30
0.0
 11
35286.973393976892
 21
1805.9668064275661
 31
0.0
  0
ARC
  5
1A0
  8
FUTO
 10
35269.973393976892
 20
1642.891436809881
 30
0.0
 40
10.0
 50
0.0
 51
85.000000000000014
  0
LINE
  5
1A1
  8
FUTO
 10
35211.973393976892
 20
1808.8898137282181
 30
0.0
 11
35211.973393976892
 21
1805.9668064275661
 31
0.0
  0
ARC
  5
1A2
  8
FUTO
 10
35217.473393976892
 20
1808.889813728219
 30
0.0
 40
5.5
 50
95.000000000000057
 51
180.00000000000051
  0
LINE
  5
1A3
  8
FUTO
 10
35211.973393976892
 20
1663.043799126913
 30
0.0
 11
35211.973393976892
 21
1665.9668064275661
 31
0.0
  0
ARC
  5
1A4
  8
FUTO
 10
35217.473393976892
 20
1663.043799126913
 30
0.0
 40
5.5
 50
180.0
 51
265.0
  0
LINE
  5
1A5
  8
FUTO
 10
35286.973393976892
 20
1805.9668064275661
 30
0.0
 11
35211.973393976892
 21
1805.9668064275661
 31
0.0
  0
LINE
  5
1A6
  8
FUTO
 10
35270.844951404368
 20
1819.0802290643339
 30
0.0
 11
35216.994037391778
 21
1814.3688845677229
 31
0.0
  0
LINE
  5
1A7
  8
FUTO
 10
35270.844951404368
 20
1652.8533837907989
 30
0.0
 11
35216.994037391778
 21
1657.564728287409
 31
0.0
  0
LINE
  5
1A8
  8
FUTO
 10
35286.973393976892
 20
1665.9668064275661
 30
0.0
 11
35211.973393976892
 21
1665.9668064275661
 31
0.0
  0
ARC
  5
1A9
  8
FUTO
 10
35269.973393976892
 20
1509.0421760452509
 30
0.0
 40
10.0
 50
275.0
 51
0.0
  0
LINE
  5
1AA
  8
FUTO
 10
35211.973393976892
 20
1488.8898137282181
 30
0.0
 11
35211.973393976892
 21
1485.9668064275661
 31
0.0
  0
ARC
  5
1AB
  8
FUTO
 10
35217.473393976892
 20
1488.889813728219
 30
0.0
 40
5.5
 50
95.000000000000057
 51
180.00000000000051
  0
LINE
  5
1AC
  8
FUTO
 10
35286.973393976892
 20
1485.9668064275661
 30
0.0
 11
35211.973393976892
 21
1485.9668064275661
 31
0.0
  0
LINE
  5
1AD
  8
FUTO
 10
35270.844951404368
 20
1499.0802290643339
 30
0.0
 11
35216.994037391778
 21
1494.3688845677229
 31
0.0
  0
LINE
  5
1AE
  8
FUTO
 10
35286.973393976892
 20
1665.9668064275661
 30
0.0
 11
35286.973393976892
 21
1485.9668064275661
 31
0.0
  0
LINE
  5
1AF
  8
FUTO
 10
35279.973393976892
 20
1642.891436809881
 30
0.0
 11
35279.973393976892
 21
1509.0421760452509
 31
0.0
  0
LINE
  5
1B0
  8
CT
 10
35359.36970198348
 20
2335.9668064275561
 30
0.0
 11
34885.165345062218
 21
2335.9668064275561
 31
0.0
  0
LINE
  5
1B1
  8
SL
 10
35230.773393976888
 20
2180.9668064275661
 30
0.0
 11
35100.773393976888
 21
2180.9668064275661
 31
0.0
  0
LINE
  5
1B2
  8
FUTO
 10
35263.722428139401
 20
2085.9668064275661
 30
0.0
 11
34982.973393976892
 21
2085.9668064275661
 31
0.0
  0
ARC
  5
1B3
  8
FUTO
 10
35269.973393976892
 20
1962.891436809881
 30
0.0
 40
10.0
 50
0.0
 51
85.000000000000014
  0
LINE
  5
1B4
  8
FUTO
 10
35211.973393976892
 20
1983.043799126913
 30
0.0
 11
35211.973393976892
 21
1985.9668064275661
 31
0.0
  0
ARC
  5
1B5
  8
FUTO
 10
35217.473393976892
 20
1983.043799126913
 30
0.0
 40
5.5
 50
180.0
 51
265.0
  0
LINE
  5
1B6
  8
FUTO
 10
35270.844951404368
 20
1972.853383790798
 30
0.0
 11
35216.994037391778
 21
1977.564728287409
 31
0.0
  0
LINE
  5
1B7
  8
FUTO
 10
35286.973393976892
 20
1985.9668064275661
 30
0.0
 11
35211.973393976892
 21
1985.9668064275661
 31
0.0
  0
LINE
  5
1B8
  8
FUTO
 10
35279.973393976892
 20
1962.891436809881
 30
0.0
 11
35279.973393976892
 21
1829.0421760452509
 31
0.0
  0
LINE
  5
1B9
  8
FUTO
 10
35263.722428139401
 20
2207.4885223876659
 30
0.0
 11
35263.722428139401
 21
2085.9668064275661
 31
0.0
  0
LINE
  5
1C7
  8
KL
 10
33563.175816296229
 20
4850.9668064275666
 30
0.0
 11
33436.279800914359
 21
3540.1465262657739
 31
0.0
  0
LINE
  5
1C8
  8
FUTO
 10
33576.00882011628
 20
4775.9668064275656
 30
0.0
 11
33456.186030887497
 21
3538.2120851782138
 31
0.0
  0
LINE
  5
1CD
  8
CT
 10
30070.591923875669
 20
3575.9668064275661
 30
0.0
 11
31615.175816296229
 21
3575.9668064275661
 31
0.0
  0
ARC
  5
1D3
  8
KL
 10
31292.675816296229
 20
3698.4668064275661
 30
0.0
 40
1074.5
 50
56.848085055909642
 51
90.0
  0
INSERT
  5
1E1
  8
FUTO
  2
右回転矢印
 10
31204.031663367161
 20
4394.2292202335548
 30
0.0
 41
-40.0
 42
40.0
 43
40.0
 50
359.00304546478287
  0
LINE
  5
1F0
  8
FUTO
 10
32565.175816296229
 20
3584.966806427567
 30
0.0
 11
32565.175816296229
 21
4775.9668064275656
 31
0.0
  0
LINE
  5
1F1
  8
FUTO
 10
32556.175816296229
 20
3584.966806427567
 30
0.0
 11
32556.175816296229
 21
4775.9668064275656
 31
0.0
  0
LINE
  5
1F3
  8
KL
 10
31615.175816296229
 20
3575.9668064275661
 30
0.0
 11
32178.150497452061
 21
3575.9668064275661
 31
0.0
  0
LINE
  5
1F4
  8
KL
 10
31615.175816296229
 20
3584.966806427567
 30
0.0
 11
32167.030461205552
 21
3584.966806427567
 31
0.0
  0
LINE
  5
1F5
  8
KL
 10
31615.175816296229
 20
3566.966806427567
 30
0.0
 11
32189.27053369856
 21
3566.966806427567
 31
0.0
  0
INSERT
  5
226
  8
FUTO
  2
22222F
 10
31415.175816296229
 20
3575.9668064275661
 30
0.0
 41
-1.0
  0
LINE
  5
259
  8
KL
 10
31415.175816296229
 20
3435.966806427567
 30
0.0
 11
31764.762620773668
 21
3435.966806427567
 31
0.0
  0
LINE
  5
25C
  8
KL
 10
31615.175816296229
 20
3566.966806427567
 30
0.0
 11
31615.175816296229
 21
3584.966806427567
 31
0.0
  0
LINE
  5
25E
  8
KL
 10
31415.175816296229
 20
3435.966806427567
 30
0.0
 11
31065.589011818789
 21
3435.966806427567
 31
0.0
  0
CIRCLE
  5
265
  8
KL
 10
31893.675816296229
 20
4618.5754956594419
 30
0.0
 40
24.5
  0
LINE
  5
26C
  8
SP
 10
34982.973393976892
 20
4095.966806427567
 30
0.0
 11
34982.973393976892
 21
5367.0988118409523
 31
0.0
  0
LINE
  5
289
  8
FUTO
 10
31499.175816296229
 20
4775.9668064275656
 30
0.0
 11
33576.00882011628
 21
4775.9668064275666
 31
0.0
  0
LINE
  5
28A
  8
FUTO
 10
31499.175816296229
 20
4844.9668064275666
 30
0.0
 11
33567.175816296229
 21
4844.9668064275666
 31
0.0
  0
LINE
  5
28B
  8
FUTO
 10
31424.175816296229
 20
4850.9668064275666
 30
0.0
 11
33642.175816296229
 21
4850.9668064275666
 31
0.0
  0
LINE
  5
28E
  8
FUTO
 10
31424.175816296131
 20
4850.9668064280222
 30
0.0
 11
33642.175816296127
 21
4850.9668064290272
 31
0.0
  0
LINE
  5
28F
  8
FUTO
 10
31424.175816296131
 20
4850.9668064275129
 30
0.0
 11
33642.175816296127
 21
4850.9668064290272
 31
0.0
  0
INSERT
  5
291
  8
FUTO
  2
L-75-6
 10
31613.782277699789
 20
4932.396403312041
 30
0.0
 50
180.0
  0
ARC
  5
29E
  8
FUTO
 10
31292.675816296229
 20
3698.4668064275661
 30
0.0
 40
1094.5
 50
79.976500332403376
 51
87.370994160035693
  0
LINE
  5
2A1
  8
CT
 10
31415.175816296229
 20
4947.2502134519054
 30
0.0
 11
31415.175816296229
 21
4815.2514768094616
 31
0.0
  0
LINE
  5
2A2
  8
FUTO
 10
31459.40775563967
 20
4811.6312545396477
 30
0.0
 11
31459.40775563971
 21
4906.327565768268
 31
0.0
  0
ARC
  5
2A3
  8
FUTO
 10
31292.675816296229
 20
3698.4668064275661
 30
0.0
 40
1094.5
 50
88.318441996926666
 51
90.0
  0
LINE
  5
2A5
  8
KL
 10
31503.175816296229
 20
4752.1460745162958
 30
0.0
 11
31503.175816296229
 21
4850.9668064275666
 31
0.0
  0
LINE
  5
2A6
  8
FUTO
 10
31499.175816296229
 20
4775.9668064275656
 30
0.0
 11
31499.175816296229
 21
4850.9668064275666
 31
0.0
  0
LINE
  5
2A7
  8
FUTO
 10
31483.175816296229
 20
4776.2608498328909
 30
0.0
 11
31496.098598266271
 21
4776.2608498328909
 31
0.0
  0
LINE
  5
2A8
  8
FUTO
 10
35312.973393976892
 20
3690.9668064275661
 30
0.0
 11
35312.973393976892
 21
3495.966806427567
 31
0.0
  0
LINE
  5
2A9
  8
FUTO
 10
35440.973393976892
 20
3690.9668064275661
 30
0.0
 11
35440.973393976892
 21
3495.966806427567
 31
0.0
  0
LINE
  5
2AA
  8
CT
 10
35376.973393976892
 20
3739.4584249373961
 30
0.0
 11
35376.973393976892
 21
3424.8096526655272
 31
0.0
  0
LINE
  5
2AB
  8
FUTO
 10
35298.973393976892
 20
3690.9668064275661
 30
0.0
 11
35298.973393976892
 21
3460.9668064275661
 31
0.0
  0
LINE
  5
2AC
  8
FUTO
 10
35454.973393976892
 20
3690.9668064275661
 30
0.0
 11
35454.973393976892
 21
3460.9668064275661
 31
0.0
  0
LINE
  5
2AD
  8
FUTO
 10
35440.973393976892
 20
3690.9668064275661
 30
0.0
 11
35440.973393976892
 21
3495.966806427567
 31
0.0
  0
LINE
  5
2AE
  8
FUTO
 10
35290.973393976892
 20
3655.966806427567
 30
0.0
 11
35290.973393976892
 21
3495.966806427567
 31
0.0
  0
LINE
  5
2AF
  8
FUTO
 10
35462.973393976892
 20
3655.966806427567
 30
0.0
 11
35462.973393976892
 21
3495.966806427567
 31
0.0
  0
LINE
  5
2B1
  8
SL
 10
35230.773393976888
 20
2460.9668064275561
 30
0.0
 11
35100.773393976888
 21
2460.9668064275561
 31
0.0
  0
LINE
  5
2B2
  8
SL
 10
35230.773393976888
 20
3200.9668064275661
 30
0.0
 11
35100.773393976888
 21
3200.9668064275661
 31
0.0
  0
LINE
  5
2B3
  8
FUTO
 10
35306.973393976892
 20
3445.9668064275661
 30
0.0
 11
35446.973393976892
 21
3445.9668064275661
 31
0.0
  0
LINE
  5
2B4
  8
FUTO
 10
35306.973393976892
 20
3495.966806427567
 30
0.0
 11
35446.973393976892
 21
3495.966806427567
 31
0.0
  0
LINE
  5
2B5
  8
FUTO
 10
35286.973393976892
 20
3435.966806427567
 30
0.0
 11
35466.973393976892
 21
3435.966806427567
 31
0.0
  0
LINE
  5
2B6
  8
CT
 10
35331.973393976892
 20
3522.71346390492
 30
0.0
 11
35331.973393976892
 21
3424.8096526655272
 31
0.0
  0
LINE
  5
2B7
  8
FUTO
 10
35306.973393976892
 20
3495.966806427567
 30
0.0
 11
35306.973393976892
 21
3435.966806427567
 31
0.0
  0
LINE
  5
2B8
  8
FUTO
 10
35290.973393976892
 20
3495.966806427567
 30
0.0
 11
35298.973393976892
 21
3475.9668064275661
 31
0.0
  0
LINE
  5
2B9
  8
FUTO
 10
35298.973393976892
 20
3460.9668064275661
 30
0.0
 11
35306.973393976892
 21
3460.9668064275661
 31
0.0
  0
LINE
  5
2BA
  8
FUTO
 10
35290.973393976892
 20
3628.4668064275661
 30
0.0
 11
35230.773393976888
 21
3628.4668064275661
 31
0.0
  0
LINE
  5
2BB
  8
FUTO
 10
35290.973393976892
 20
3523.4668064275661
 30
0.0
 11
35230.773393976888
 21
3523.4668064275661
 31
0.0
  0
LINE
  5
2BC
  8
CT
 10
35421.973393976892
 20
3522.71346390492
 30
0.0
 11
35421.973393976892
 21
3424.8096526655272
 31
0.0
  0
LINE
  5
2BD
  8
FUTO
 10
35446.973393976892
 20
3495.966806427567
 30
0.0
 11
35446.973393976892
 21
3435.966806427567
 31
0.0
  0
LINE
  5
2BE
  8
FUTO
 10
35454.973393976892
 20
3460.9668064275661
 30
0.0
 11
35446.973393976892
 21
3460.9668064275661
 31
0.0
  0
LINE
  5
2BF
  8
FUTO
 10
35462.973393976892
 20
3495.966806427567
 30
0.0
 11
35454.973393976892
 21
3475.9668064275661
 31
0.0
  0
LINE
  5
2C0
  8
SL
 10
35230.773393976888
 20
3950.9668064275661
 30
0.0
 11
35100.773393976888
 21
3950.9668064275661
 31
0.0
  0
LINE
  5
2C1
  8
FUTO
 10
35263.722428139401
 20
4055.966806427567
 30
0.0
 11
34982.973393976892
 21
4055.966806427567
 31
0.0
  0
POINT
  5
2C2
  8
DEFPOINTS
 10
34982.973393976892
 20
4055.966806427567
 30
0.0
  0
LINE
  5
2C3
  8
FUTO
 10
35263.722428139401
 20
4055.966806427567
 30
0.0
 11
35263.722428139401
 21
3788.6890529318471
 31
0.0
  0
LINE
  5
2C4
  8
FUTO
 10
35322.973393976892
 20
3708.9668064275661
 30
0.0
 11
35430.973393976892
 21
3708.9668064275661
 31
0.0
  0
LINE
  5
2C5
  8
FUTO
 10
35290.973393976892
 20
3655.966806427567
 30
0.0
 11
35298.973393976892
 21
3675.9668064275661
 31
0.0
  0
LINE
  5
2C6
  8
FUTO
 10
35298.973393976892
 20
3690.9668064275661
 30
0.0
 11
35312.973393976892
 21
3690.9668064275661
 31
0.0
  0
LINE
  5
2C7
  8
FUTO
 10
35322.973393976892
 20
3708.9668064275661
 30
0.0
 11
35322.973393976892
 21
3690.9668064275661
 31
0.0
  0
LINE
  5
2C8
  8
FUTO
 10
35312.973393976892
 20
3690.9668064275661
 30
0.0
 11
35322.973393976892
 21
3690.9668064275661
 31
0.0
  0
LINE
  5
2C9
  8
FUTO
 10
35430.973393976892
 20
3708.9668064275661
 30
0.0
 11
35430.973393976892
 21
3690.9668064275661
 31
0.0
  0
LINE
  5
2CA
  8
FUTO
 10
35430.973393976892
 20
3690.9668064275661
 30
0.0
 11
35440.973393976892
 21
3690.9668064275661
 31
0.0
  0
LINE
  5
2CB
  8
FUTO
 10
35454.973393976892
 20
3690.9668064275661
 30
0.0
 11
35440.973393976892
 21
3690.9668064275661
 31
0.0
  0
LINE
  5
2CC
  8
FUTO
 10
35462.973393976892
 20
3655.966806427567
 30
0.0
 11
35454.973393976892
 21
3675.9668064275661
 31
0.0
  0
INSERT
  5
2CD
  8
FUTO
  2
まっすぐの矢印
 10
32956.744398517912
 20
5224.0914756066768
 30
0.0
 41
-40.0
 42
40.0
 43
40.0
  0
LINE
  5
2D8
  8
FUTO
 10
33607.175816296221
 20
4811.6312545396504
 30
0.0
 11
33607.175816296178
 21
4906.327565768267
 31
0.0
  0
INSERT
  5
2D9
  8
FUTO
  2
L-75-6
 10
33452.569354892679
 20
4932.396403312041
 30
0.0
 41
-1.0
 50
180.0
  0
LINE
  5
2DA
  8
FUTO
 10
33567.175816296127
 20
4850.966806428989
 30
0.0
 11
33642.175816296127
 21
4850.9668064290272
 31
0.0
  0
LINE
  5
2DB
  8
FUTO
 10
33567.175816296127
 20
4850.9668064289754
 30
0.0
 11
33642.175816296127
 21
4850.9668064290272
 31
0.0
  0
LINE
  5
33E
  8
FUTO
 10
29973.175816296229
 20
7974.2742839424172
 30
0.0
 11
31424.175816296229
 21
7974.2742839424172
 31
0.0
  0
LINE
  5
33F
  8
FUTO
 10
30265.175816296229
 20
7899.2742839424172
 30
0.0
 11
33665.175816296229
 21
7899.2742839424172
 31
0.0
  0
LINE
  5
340
  8
FUTO
 10
30615.175816296229
 20
6357.2742839424172
 30
0.0
 11
33665.175816296229
 21
6357.2742839424172
 31
0.0
  0
LINE
  5
341
  8
FUTO
 10
30615.175816296229
 20
6432.2742839424191
 30
0.0
 11
33665.175816296229
 21
6432.2742839424182
 31
0.0
  0
LINE
  5
35D
  8
FUTO
 10
33665.175816296229
 20
6357.2742839424172
 30
0.0
 11
33665.175816296229
 21
6432.2742839424182
 31
0.0
  0
LINE
  5
35E
  8
SL
 10
33490.175816296229
 20
6432.2742839424182
 30
0.0
 11
33490.175816296229
 21
7336.0742839423492
 31
0.0
  0
POINT
  5
388
  8
DEFPOINTS
 10
33665.175816296229
 20
7974.2742839424172
 30
0.0
  0
LINE
  5
3AB
  8
CT
 10
31415.175816296229
 20
5907.4997227116291
 30
0.0
 11
31415.175816296229
 21
9886.8926643764662
 31
0.0
  0
LINE
  5
3AE
  8
FUTO
 10
32565.175816296229
 20
7974.2742839424172
 30
0.0
 11
32565.175816296229
 21
7899.2742839424172
 31
0.0
  0
LINE
  5
44F
  8
FUTO
 10
30615.175816296229
 20
6357.2742839424172
 30
0.0
 11
30615.175816296229
 21
7899.2742839424172
 31
0.0
  0
LINE
  5
450
  8
FUTO
 10
30690.175816296229
 20
6432.2742839424182
 30
0.0
 11
30690.175816296229
 21
7899.2742839424172
 31
0.0
  0
LINE
  5
452
  8
FUTO
 10
32140.175816296229
 20
6432.2742839424182
 30
0.0
 11
32140.175816296229
 21
7899.2742839424172
 31
0.0
  0
LINE
  5
454
  8
FUTO
 10
32215.175816296229
 20
6357.2742839424172
 30
0.0
 11
32215.175816296229
 21
7899.2742839424172
 31
0.0
  0
LINE
  5
546
  8
CT
 10
29919.269104614061
 20
8728.2742839424172
 30
0.0
 11
33832.561246766163
 21
8728.2742839424172
 31
0.0
  0
LINE
  5
547
  8
FUTO
 10
29973.175816296229
 20
9482.2742839424209
 30
0.0
 11
31424.175816296229
 21
9482.2742839424209
 31
0.0
  0
LINE
  5
548
  8
FUTO
 10
30265.175816296229
 20
9557.2742839424227
 30
0.0
 11
33642.175816296229
 21
9557.2742839424172
 31
0.0
  0
LINE
  5
568
  8
FUTO
 10
32565.175816296229
 20
9482.2742839424209
 30
0.0
 11
32565.175816296229
 21
9557.2742839424209
 31
0.0
  0
DIMENSION
  5
5CF
  8
SP
  2
*D10
 10
38982.16311235592
 20
2575.9668064275661
 30
0.0
 11
38982.16311235592
 21
3575.9668064275661
 31
0.0
 70
   128
  1
%%C<>
 13
38487.973393976892
 23
4575.9668064275656
 33
0.0
 14
38487.973393976892
 24
2575.9668064275661
 34
0.0
 50
90.0
1001
ACAD
1000
DSTYLE
1002
{
1070
   287
1070
     0
1070
   287
1070
     0
1070
    40
1040
45.0
1070
   140
1040
3.0
1070
   143
1040
0.03937
1070
   147
1040
0.5
1070
   173
1070
     1
1070
   176
1070
   256
1070
   177
1070
   256
1070
   178
1070
   256
1070
   271
1070
     4
1070
   272
1070
     4
1070
   279
1070
     0
1070
   285
1070
     0
1070
   286
1070
     0
1070
   289
1070
     0
1070
     6
1000
OPEN
1070
     7
1000
OPEN
1002
}
  0
LINE
  5
5DE
  8
FUTO
 10
38336.173393976889
 20
1985.9668064275661
 30
0.0
 11
38336.173393976882
 21
3588.9668064275661
 31
0.0
  0
LINE
  5
5DF
  8
FUTO
 10
38332.973393976892
 20
1985.9668064275661
 30
0.0
 11
38332.973393976892
 21
3588.9668064275661
 31
0.0
  0
LINE
  5
5E0
  8
FUTO
 10
38426.173393976889
 20
1985.9668064275661
 30
0.0
 11
38426.173393976889
 21
3566.966806427567
 31
0.0
  0
LINE
  5
5E5
  8
KL
 10
38345.173393977791
 20
2500.9668064275661
 30
0.0
 11
38345.173393978279
 21
4650.9668064275656
 31
0.0
  0
LINE
  5
5E6
  8
FUTO
 10
38487.973393976892
 20
2500.9668064275661
 30
0.0
 11
38487.973393976899
 21
4650.9668064275656
 31
0.0
  0
LINE
  5
5E7
  8
FUTO
 10
38481.973393976892
 20
2500.9668064275661
 30
0.0
 11
38481.973393976892
 21
4650.9668064275656
 31
0.0
  0
LINE
  5
5EB
  8
FUTO
 10
36829.773393976888
 20
1985.9668064275661
 30
0.0
 11
36829.773393976888
 21
3486.9668064275661
 31
0.0
  0
LINE
  5
5EC
  8
FUTO
 10
36832.973393976892
 20
1985.9668064275661
 30
0.0
 11
36832.973393976892
 21
3486.9668064275661
 31
0.0
  0
LINE
  5
5ED
  8
FUTO
 10
36739.773393976888
 20
1985.9668064275661
 30
0.0
 11
36739.773393976888
 21
3566.966806427567
 31
0.0
  0
LINE
  5
5EE
  8
FUTO
 10
36716.973393976892
 20
1985.9668064275661
 30
0.0
 11
36716.973393976892
 21
3415.9668064275661
 31
0.0
  0
LINE
  5
5F0
  8
CT
 10
37582.973393976892
 20
1448.9789534261979
 30
0.0
 11
37582.973393976892
 21
5259.6585834980688
 31
0.0
  0
LINE
  5
603
  8
KL
 10
36832.973393976892
 20
1843.9668064275661
 30
0.0
 11
38336.173393976889
 21
1843.9668064275661
 31
0.0
  0
LINE
  5
604
  8
KL
 10
36832.973393976892
 20
1823.9668064275661
 30
0.0
 11
36832.973393976892
 21
1985.9668064275661
 31
0.0
  0
LINE
  5
605
  8
KL
 10
36829.773393976888
 20
1823.9668064275661
 30
0.0
 11
36829.773393976888
 21
1985.9668064275661
 31
0.0
  0
LINE
  5
606
  8
KL
 10
36829.773393976888
 20
1823.9668064275661
 30
0.0
 11
36832.973393976892
 21
1823.9668064275661
 31
0.0
  0
ARC
  5
614
  8
FUTO
 10
38353.973393976892
 20
1829.0421760452509
 30
0.0
 40
10.0
 50
180.0
 51
265.0
  0
LINE
  5
615
  8
KL
 10
38332.973393976892
 20
1823.9668064275661
 30
0.0
 11
38332.973393976892
 21
1985.9668064275661
 31
0.0
  0
LINE
  5
616
  8
KL
 10
38336.173393976889
 20
1823.9668064275661
 30
0.0
 11
38336.173393976889
 21
1985.9668064275661
 31
0.0
  0
LINE
  5
617
  8
FUTO
 10
38336.973393976892
 20
1805.9668064275661
 30
0.0
 11
38336.973393976892
 21
1985.9668064275661
 31
0.0
  0
LINE
  5
618
  8
FUTO
 10
38336.973393976892
 20
1805.9668064275661
 30
0.0
 11
38336.973393976892
 21
1985.9668064275661
 31
0.0
  0
LINE
  5
61B
  8
FUTO
 10
38353.101836549416
 20
1819.0802290643339
 30
0.0
 11
38406.952750561999
 21
1814.3688845677229
 31
0.0
  0
LINE
  5
61C
  8
FUTO
 10
38336.973393976892
 20
1805.9668064275661
 30
0.0
 11
38411.973393976892
 21
1805.9668064275661
 31
0.0
  0
LINE
  5
61D
  8
FUTO
 10
38336.973393976892
 20
1665.9668064275661
 30
0.0
 11
38411.973393976892
 21
1665.9668064275661
 31
0.0
  0
LINE
  5
61E
  8
FUTO
 10
38336.973393976892
 20
1665.9668064275661
 30
0.0
 11
38411.973393976892
 21
1665.9668064275661
 31
0.0
  0
LINE
  5
61F
  8
FUTO
 10
38353.101836549416
 20
1652.8533837907989
 30
0.0
 11
38406.952750561999
 21
1657.564728287409
 31
0.0
  0
LINE
  5
620
  8
FUTO
 10
38353.101836549416
 20
1499.0802290643339
 30
0.0
 11
38406.952750561999
 21
1494.3688845677229
 31
0.0
  0
LINE
  5
621
  8
FUTO
 10
38336.973393976892
 20
1485.9668064275661
 30
0.0
 11
38411.973393976892
 21
1485.9668064275661
 31
0.0
  0
LINE
  5
622
  8
KL
 10
38332.973393976892
 20
1823.9668064275661
 30
0.0
 11
38336.173393976889
 21
1823.9668064275661
 31
0.0
  0
ARC
  5
623
  8
FUTO
 10
38353.973393976892
 20
1642.891436809881
 30
0.0
 40
10.0
 50
95.0
 51
180.0
  0
ARC
  5
624
  8
FUTO
 10
38353.973393976892
 20
1509.0421760452509
 30
0.0
 40
10.0
 50
180.0
 51
265.0
  0
LINE
  5
625
  8
FUTO
 10
38336.973393976892
 20
1485.9668064275661
 30
0.0
 11
38336.973393976892
 21
1665.9668064275661
 31
0.0
  0
LINE
  5
626
  8
FUTO
 10
38343.973393976892
 20
1509.0421760452509
 30
0.0
 11
38343.973393976892
 21
1642.891436809881
 31
0.0
  0
LINE
  5
629
  8
FUTO
 10
38411.973393976892
 20
1808.889813728219
 30
0.0
 11
38411.973393976892
 21
1805.9668064275661
 31
0.0
  0
ARC
  5
62A
  8
FUTO
 10
38406.473393976892
 20
1808.889813728219
 30
0.0
 40
5.5
 50
0.0
 51
84.999999999999986
  0
LINE
  5
62B
  8
FUTO
 10
38411.973393976892
 20
1663.0437991269141
 30
0.0
 11
38411.973393976892
 21
1665.9668064275661
 31
0.0
  0
ARC
  5
62C
  8
FUTO
 10
38406.473393976892
 20
1663.043799126913
 30
0.0
 40
5.5
 50
275.0
 51
0.0000000000005598
  0
LINE
  5
62D
  8
FUTO
 10
38411.973393976892
 20
1488.889813728219
 30
0.0
 11
38411.973393976892
 21
1485.9668064275661
 31
0.0
  0
ARC
  5
62E
  8
FUTO
 10
38406.473393976892
 20
1488.889813728219
 30
0.0
 40
5.5
 50
0.0
 51
84.999999999999986
  0
LINE
  5
62F
  8
0
 10
38336.973393976892
 20
1985.9668064275661
 30
0.0
 11
38411.973393976892
 21
1985.9668064275661
 31
0.0
  0
LINE
  5
630
  8
FUTO
 10
38353.101836549416
 20
1972.853383790798
 30
0.0
 11
38406.952750561999
 21
1977.564728287409
 31
0.0
  0
ARC
  5
631
  8
FUTO
 10
38353.973393976892
 20
1962.891436809881
 30
0.0
 40
10.0
 50
95.0
 51
180.0
  0
LINE
  5
632
  8
FUTO
 10
38343.973393976892
 20
1829.0421760452509
 30
0.0
 11
38343.973393976892
 21
1962.891436809881
 31
0.0
  0
LINE
  5
633
  8
FUTO
 10
38411.973393976892
 20
1983.0437991269141
 30
0.0
 11
38411.973393976892
 21
1985.9668064275661
 31
0.0
  0
ARC
  5
634
  8
FUTO
 10
38406.473393976892
 20
1983.043799126913
 30
0.0
 40
5.5
 50
275.0
 51
0.0000000000005598
  0
LINE
  5
635
  8
KL
 10
38336.173393976889
 20
2575.9668064275661
 30
0.0
 11
38487.973393976892
 21
2575.9668064275661
 31
0.0
  0
LINE
  5
636
  8
FUTO
 10
38336.173393976889
 20
2569.9668064275661
 30
0.0
 11
38426.173393976889
 21
2569.9668064275661
 31
0.0
  0
LINE
  5
637
  8
HOSO
 10
38345.173393977799
 20
2575.966806427577
 30
0.0
 11
38336.173393977799
 21
2575.9668064275788
 31
0.0
  0
LINE
  5
638
  8
HOSO
 10
38310.053650369693
 20
2535.9668064275661
 30
0.0
 11
38368.25280647492
 21
2535.9668064275661
 31
0.0
  0
LINE
  5
639
  8
KL
 10
38336.173393976889
 20
2500.9668064275661
 30
0.0
 11
38345.173393977777
 21
2500.9668064275661
 31
0.0
  0
LINE
  5
63A
  8
FUTO
 10
38426.173393976889
 20
2569.9668064275661
 30
0.0
 11
38481.973393976892
 21
2569.9668064275661
 31
0.0
  0
LINE
  5
63B
  8
HOSO
 10
38459.935204536909
 20
2535.9668064275661
 30
0.0
 11
38518.134360642143
 21
2535.9668064275661
 31
0.0
  0
LINE
  5
63C
  8
FUTO
 10
38481.973393976899
 20
2500.9668064275661
 30
0.0
 11
38487.973393976892
 21
2500.9668064275661
 31
0.0
  0
LINE
  5
68C
  8
FUTO
 10
38336.173393976889
 20
3575.9668064275661
 30
0.0
 11
38336.173393976889
 21
4850.9668064277603
 31
0.0
  0
LINE
  5
68D
  8
FUTO
 10
38332.973393976892
 20
3575.9668064275661
 30
0.0
 11
38332.973393976892
 21
4850.966806427763
 31
0.0
  0
LINE
  5
68E
  8
FUTO
 10
38411.173393976889
 20
3566.966806427567
 30
0.0
 11
38411.173393976889
 21
4850.9668064277103
 31
0.0
  0
LINE
  5
68F
  8
FUTO
 10
36832.973393976892
 20
3584.966806427567
 30
0.0
 11
36832.973393976892
 21
4850.9668064275666
 31
0.0
  0
LINE
  5
690
  8
FUTO
 10
36829.773393976888
 20
3584.966806427567
 30
0.0
 11
36829.773393976888
 21
4850.9668064275666
 31
0.0
  0
LINE
  5
691
  8
FUTO
 10
36754.773393976888
 20
3566.966806427567
 30
0.0
 11
36754.773393976888
 21
4850.9668064275666
 31
0.0
  0
LINE
  5
69A
  8
FUTO
 10
36754.773393976888
 20
3584.966806427567
 30
0.0
 11
38411.173393976889
 21
3584.966806427567
 31
0.0
  0
LINE
  5
69B
  8
FUTO
 10
36739.773393976888
 20
3566.966806427567
 30
0.0
 11
38426.173393976889
 21
3566.966806427567
 31
0.0
  0
LINE
  5
6A4
  8
FUTO
 10
36561.973393976899
 20
3480.9668064275661
 30
0.0
 11
36561.973393976892
 21
3710.9668064275661
 31
0.0
  0
LINE
  5
6A5
  8
FUTO
 10
36548.973393976899
 20
3480.9668064275661
 30
0.0
 11
36548.973393976892
 21
3710.9668064275661
 31
0.0
  0
LINE
  5
6A6
  8
FUTO
 10
36524.973393976892
 20
3486.9668064275652
 30
0.0
 11
36524.973393976899
 21
3664.9668064275679
 31
0.0
  0
LINE
  5
6A7
  8
CT
 10
36626.973393976892
 20
3345.675097353067
 30
0.0
 11
36626.973393976892
 21
3805.3005081893621
 31
0.0
  0
LINE
  5
6A8
  8
FUTO
 10
36691.973393976892
 20
3480.9668064275661
 30
0.0
 11
36691.973393976892
 21
3710.9668064275661
 31
0.0
  0
LINE
  5
6A9
  8
FUTO
 10
36728.973393976892
 20
3486.9668064275652
 30
0.0
 11
36728.973393976892
 21
3664.9668064275679
 31
0.0
  0
LINE
  5
6AA
  8
FUTO
 10
36704.973393976892
 20
3480.9668064275661
 30
0.0
 11
36704.973393976892
 21
3710.9668064275661
 31
0.0
  0
LINE
  5
6AB
  8
FUTO
 10
36691.973393976892
 20
3480.9668064275661
 30
0.0
 11
36691.973393976892
 21
3710.9668064275661
 31
0.0
  0
LINE
  5
6AF
  8
FUTO
 10
36546.973393976892
 20
3425.9668064275661
 30
0.0
 11
36706.973393976892
 21
3425.9668064275661
 31
0.0
  0
LINE
  5
6B0
  8
FUTO
 10
36546.973393976892
 20
3480.9668064275661
 30
0.0
 11
36706.973393976899
 21
3480.9668064275661
 31
0.0
  0
LINE
  5
6B1
  8
CT
 10
36576.973393976892
 20
3387.6020714944661
 30
0.0
 11
36576.973393976892
 21
3509.6603877582111
 31
0.0
  0
LINE
  5
6B2
  8
FUTO
 10
36546.973393976899
 20
3415.9668064275661
 30
0.0
 11
36546.973393976899
 21
3480.9668064275661
 31
0.0
  0
LINE
  5
6B3
  8
FUTO
 10
36524.973393976892
 20
3486.9668064275661
 30
0.0
 11
36546.973393976899
 21
3463.1334730942331
 31
0.0
  0
LINE
  5
6B6
  8
KL
 10
36728.973393976892
 20
3520.9668064275661
 30
0.0
 11
36822.617434301559
 21
3520.9668064275661
 31
0.0
  0
LINE
  5
6B7
  8
FUTO
 10
36832.973393976892
 20
3504.9668064275661
 30
0.0
 11
36832.973393976892
 21
3588.9668064275661
 31
0.0
  0
LINE
  5
6B8
  8
FUTO
 10
36829.773393976888
 20
3504.9668064275661
 30
0.0
 11
36829.773393976888
 21
3588.9668064275661
 31
0.0
  0
LINE
  5
6BA
  8
CT
 10
36676.973393976892
 20
3385.6733847814949
 30
0.0
 11
36676.973393976892
 21
3509.6603877582111
 31
0.0
  0
LINE
  5
6BB
  8
FUTO
 10
36706.973393976899
 20
3415.9668064275661
 30
0.0
 11
36706.973393976899
 21
3480.9668064275661
 31
0.0
  0
LINE
  5
6BC
  8
FUTO
 10
36728.973393976899
 20
3486.9668064275661
 30
0.0
 11
36706.973393976892
 21
3463.1334730942331
 31
0.0
  0
LINE
  5
6C2
  8
FUTO
 10
36566.973393976892
 20
3726.9668064275661
 30
0.0
 11
36686.973393976892
 21
3726.9668064275661
 31
0.0
  0
LINE
  5
6C3
  8
FUTO
 10
36566.973393976892
 20
3710.9668064275661
 30
0.0
 11
36566.973393976892
 21
3726.9668064275661
 31
0.0
  0
LINE
  5
6C4
  8
FUTO
 10
36524.973393976892
 20
3664.9668064275661
 30
0.0
 11
36548.973393976892
 21
3690.9668064275661
 31
0.0
  0
LINE
  5
6C5
  8
FUTO
 10
36548.973393976899
 20
3710.9668064275661
 30
0.0
 11
36566.973393976892
 21
3710.9668064275661
 31
0.0
  0
LINE
  5
6C6
  8
KL
 10
36728.973393976892
 20
3630.966806427567
 30
0.0
 11
36825.060471168741
 21
3630.966806427567
 31
0.0
  0
LINE
  5
6C7
  8
FUTO
 10
36704.973393976892
 20
3710.9668064275661
 30
0.0
 11
36686.973393976892
 21
3710.9668064275661
 31
0.0
  0
LINE
  5
6C8
  8
FUTO
 10
36686.973393976892
 20
3710.9668064275661
 30
0.0
 11
36686.973393976892
 21
3726.9668064275661
 31
0.0
  0
LINE
  5
6C9
  8
FUTO
 10
36728.973393976899
 20
3664.9668064275661
 30
0.0
 11
36704.973393976892
 21
3690.9668064275661
 31
0.0
  0
LINE
  5
6E2
  8
KL
 10
38336.173393976889
 20
4575.9668064275656
 30
0.0
 11
38486.973393976892
 21
4575.9668064275656
 31
0.0
  0
LINE
  5
6E3
  8
KL
 10
38336.173393976889
 20
4581.9668064275656
 30
0.0
 11
38411.173393976889
 21
4581.9668064275656
 31
0.0
  0
LINE
  5
6E4
  8
HOSO
 10
38345.17339397825
 20
4575.9668064275756
 30
0.0
 11
38336.173393978257
 21
4575.9668064275793
 31
0.0
  0
LINE
  5
6E5
  8
HOSO
 10
38302.367020132471
 20
4615.9668064275656
 30
0.0
 11
38372.994147270292
 21
4615.9668064275656
 31
0.0
  0
LINE
  5
6E6
  8
FUTO
 10
38411.173393976889
 20
4581.9668064275656
 30
0.0
 11
38480.973393976892
 21
4581.9668064275656
 31
0.0
  0
LINE
  5
6E7
  8
HOSO
 10
38450.927466534558
 20
4615.9668064275656
 30
0.0
 11
38521.554593672379
 21
4615.9668064275656
 31
0.0
  0
LINE
  5
706
  8
KL
 10
38336.173393976889
 20
4650.9668064275656
 30
0.0
 11
38345.173393978279
 21
4650.9668064275656
 31
0.0
  0
LINE
  5
707
  8
KL
 10
38336.173393976882
 20
4648.9668064275666
 30
0.0
 11
38336.173393976896
 21
4738.9668064275656
 31
0.0
  0
LINE
  5
708
  8
FUTO
 10
38481.973393976892
 20
4650.9668064275656
 30
0.0
 11
38487.973393976899
 21
4650.9668064275656
 31
0.0
  0
INSERT
  5
71C
  8
FUTO
  2
まっすぐの矢印
 10
38654.469681732917
 20
4126.8910575677583
 30
0.0
 41
40.0
 42
40.0
 43
40.0
 50
90.0
  0
DIMENSION
  5
A68
  8
SP
  2
*D6
 10
31415.175816296229
 20
818.34607941368085
 30
0.0
 11
32540.175816296229
 21
908.34607941368085
 31
0.0
 70
     0
 13
33665.175816296229
 23
1485.9668064275661
 33
0.0
 14
31415.175816296229
 24
1485.9668064275661
 34
0.0
 50
180.0
1001
ACAD
1000
DSTYLE
1002
{
1070
   140
1040
3.0
1070
    40
1040
45.0
1070
   173
1070
     1
1070
   147
1040
0.5
1070
     7
1000
_OPEN
1070
     6
1000
_OPEN
1002
}
  0
DIMENSION
  5
A75
  8
SP
  2
*D7
 10
30265.175816296229
 20
818.34607941368085
 30
0.0
 11
30840.175816296229
 21
908.34607941368085
 31
0.0
 70
     0
 13
31415.175816296229
 23
1485.9668064275661
 33
0.0
 14
30265.175816296229
 24
1485.9668064275661
 34
0.0
 50
180.0
1001
ACAD
1000
DSTYLE
1002
{
1070
   140
1040
3.0
1070
    40
1040
45.0
1070
   173
1070
     1
1070
   147
1040
0.5
1070
     7
1000
_OPEN
1070
     6
1000
_OPEN
1002
}
  0
LINE
  5
AB0
  8
SL
 10
36466.541659750801
 20
3723.1699139218958
 30
0.0
 11
35536.362886872579
 21
3723.1699139218958
 31
0.0
  0
LINE
  5
AB2
  8
CT
 10
33498.703137069409
 20
1893.5751945717709
 30
0.0
 11
33498.703137069409
 21
1607.5906037707709
 31
0.0
  0
LINE
  5
AB3
  8
SP
 10
33538.703137069409
 20
1805.9668064275661
 30
0.0
 11
33538.703137069409
 21
1665.9668064275661
 31
0.0
  0
LINE
  5
AB4
  8
SP
 10
33458.703137069409
 20
1805.9668064275661
 30
0.0
 11
33458.703137069409
 21
1665.9668064275661
 31
0.0
  0
POINT
  5
CAC
  8
DEFPOINTS
  6
BYBLOCK
 62
     0
 10
30615.175816296229
 20
6357.2742839424172
 30
0.0
  0
POINT
  5
CB7
  8
DEFPOINTS
  6
BYBLOCK
 62
     0
 10
30615.175816296229
 20
6357.2742839424172
 30
0.0
  0
LINE
  5
178C
  8
FUTO
 10
33380.175816296229
 20
1985.9668064275561
 30
0.0
 11
33615.175816296229
 21
1985.9668064275561
 31
0.0
  0
LINE
  5
178D
  8
FUTO
 10
33605.175816296221
 20
2055.9668064275561
 30
0.0
 11
33380.175816296221
 21
2055.9668064275561
 31
0.0
  0
LINE
  5
178F
  8
FUTO
 10
32915.175816296229
 20
1985.9668064275561
 30
0.0
 11
33150.175816296229
 21
1985.9668064275561
 31
0.0
  0
LINE
  5
1790
  8
FUTO
 10
33150.175816296229
 20
2055.9668064275561
 30
0.0
 11
32925.175816296221
 21
2055.9668064275561
 31
0.0
  0
LINE
  5
1791
  8
FUTO
 10
32925.175816296221
 20
2055.9668064275561
 30
0.0
 11
32915.175816296229
 21
1985.9668064275561
 31
0.0
  0
LINE
  5
1792
  8
FUTO
 10
33380.175816296229
 20
1995.9668064275561
 30
0.0
 11
33150.175816296229
 21
1995.9668064275561
 31
0.0
  0
LINE
  5
1793
  8
FUTO
 10
33380.175816296221
 20
2045.9668064275561
 30
0.0
 11
33150.175816296229
 21
2045.9668064275561
 31
0.0
  0
LINE
  5
1794
  8
FUTO
 10
33150.175816296229
 20
2055.9668064275561
 30
0.0
 11
33150.175816296229
 21
2045.9668064275561
 31
0.0
  0
LINE
  5
1795
  8
FUTO
 10
33150.175816296229
 20
1995.9668064275561
 30
0.0
 11
33150.175816296229
 21
1985.9668064275561
 31
0.0
  0
LINE
  5
1796
  8
FUTO
 10
33380.175816296221
 20
2055.9668064275561
 30
0.0
 11
33380.175816296221
 21
2045.9668064275561
 31
0.0
  0
LINE
  5
1797
  8
FUTO
 10
33380.175816296229
 20
1995.9668064275561
 30
0.0
 11
33380.175816296229
 21
1985.9668064275561
 31
0.0
  0
LINE
  5
1798
  8
FUTO
 10
33508.175816296229
 20
2055.9668064275561
 30
0.0
 11
33408.175816296229
 21
2055.9668064275561
 31
0.0
  0
LINE
  5
1799
  8
FUTO
 10
33605.175816296221
 20
2055.9668064275561
 30
0.0
 11
33615.175816296229
 21
1985.9668064275561
 31
0.0
  0
LINE
  5
179B
  8
CT
 10
33366.882230920499
 20
2785.9668064275561
 30
0.0
 11
33521.179168440191
 21
2785.9668064275561
 31
0.0
  0
LINE
  5
179C
  8
FUTO
 10
33055.175816296229
 20
2925.9668064275561
 30
0.0
 11
33445.175816296229
 21
2925.9668064275561
 31
0.0
  0
LINE
  5
179D
  8
FUTO
 10
33055.175816296229
 20
2660.9668064275561
 30
0.0
 11
33445.175816296229
 21
2660.9668064275552
 31
0.0
  0
LINE
  5
179E
  8
FUTO
 10
33109.69668402063
 20
2067.7761290600829
 30
0.0
 11
33420.654948571842
 21
2067.7761290600829
 31
0.0
  0
LINE
  5
17A0
  8
CT
 10
32927.716852106467
 20
2335.9668064275561
 30
0.0
 11
33608.453038489257
 21
2335.9668064275561
 31
0.0
  0
ARC
  5
17A1
  8
FUTO
 10
33265.175816296229
 20
2335.9668064275561
 30
0.0
 40
310.0
 50
180.0
 51
239.897691931688
  0
LINE
  5
17A3
  8
FUTO
 10
33095.175816296229
 20
2076.737178491242
 30
0.0
 11
33095.175816296229
 21
2055.9668064275552
 31
0.0
  0
LINE
  5
17A4
  8
CT
 10
33036.675816296229
 20
2101.1362549172009
 30
0.0
 11
33036.675816296229
 21
2009.510691844946
 31
0.0
  0
LINE
  5
17A5
  8
FUTO
 10
32985.175816296229
 20
2202.9254594710251
 30
0.0
 11
32985.175816296229
 21
2055.9668064275561
 31
0.0
  0
LINE
  5
17A6
  8
FUTO
 10
32985.175816296229
 20
2055.9668064275561
 30
0.0
 11
33095.175816296229
 21
2055.9668064275561
 31
0.0
  0
LINE
  5
17A7
  8
FUTO
 10
32985.175816296229
 20
2085.9668064275552
 30
0.0
 11
33081.872788498004
 21
2085.9668064275552
 31
0.0
  0
LINE
  5
17A8
  8
FUTO
 10
33035.175816296229
 20
2905.966806427557
 30
0.0
 11
33035.175816296229
 21
2680.9668064275552
 31
0.0
  0
ARC
  5
17A9
  8
FUTO
 10
33055.175816296229
 20
2680.9668064275552
 30
0.0
 40
20.0
 50
180.0
 51
270.0
  0
ARC
  5
17AA
  8
FUTO
 10
33055.175816296229
 20
2905.966806427557
 30
0.0
 40
20.0
 50
90.0
 51
180.0
  0
LINE
  5
17AB
  8
FUTO
 10
33545.175816296229
 20
2202.9254594710101
 30
0.0
 11
33545.175816296229
 21
2055.9668064275552
 31
0.0
  0
LINE
  5
17AC
  8
FUTO
 10
33435.175816296229
 20
2076.737178491242
 30
0.0
 11
33435.175816296229
 21
2055.9668064275552
 31
0.0
  0
LINE
  5
17AD
  8
CT
 10
33493.675816296229
 20
2101.1362549172009
 30
0.0
 11
33493.675816296229
 21
2013.6754901664119
 31
0.0
  0
LINE
  5
17AE
  8
FUTO
 10
33435.175816296229
 20
2055.9668064275552
 30
0.0
 11
33545.175816296229
 21
2055.9668064275552
 31
0.0
  0
LINE
  5
17AF
  8
FUTO
 10
33448.478844094469
 20
2085.9668064275552
 30
0.0
 11
33545.175816296229
 21
2085.9668064275552
 31
0.0
  0
LINE
  5
17B0
  8
FUTO
 10
33465.175816296229
 20
2905.966806427557
 30
0.0
 11
33465.175816296229
 21
2680.9668064275552
 31
0.0
  0
ARC
  5
17B1
  8
FUTO
 10
33445.175816296229
 20
2680.9668064275552
 30
0.0
 40
20.0
 50
270.0
 51
0.000000000000007
  0
ARC
  5
17B2
  8
FUTO
 10
33445.175816296229
 20
2905.966806427557
 30
0.0
 40
20.0
 50
0.000000000000007
 51
90.0
  0
CIRCLE
  5
17B5
  8
SL
 10
33265.175816296229
 20
2335.9668064275561
 30
0.0
 40
177.5
  0
CIRCLE
  5
17B6
  8
SL
 10
31415.175816296229
 20
3575.9668064275661
 30
0.0
 40
315.0
  0
ARC
  5
17B9
  8
FUTO
 10
31415.175816296229
 20
3575.9668064275661
 30
0.0
 40
480.0
 50
51.015026685292547
 51
241.31943023765371
  0
ARC
  5
17BA
  8
FUTO
 10
33265.175816296229
 20
2335.9668064275561
 30
0.0
 40
280.0
 50
241.31943023765371
 51
51.015026685292611
  0
ARC
  5
17BE
  8
FUTO
 10
31562.175816296229
 20
3428.9668064275661
 30
0.0
 40
1609.0
 50
174.75808534532601
 51
235.5244037493224
  0
DIMENSION
  5
1B16
  8
SP
  2
*D11
 10
37582.973393976892
 20
812.88938615932045
 30
0.0
 11
36397.473393976892
 21
902.88938615932045
 31
0.0
 70
     0
 13
35211.973393976892
 23
1485.9668064275661
 33
0.0
 14
37582.973393976892
 24
1485.9668064275661
 34
0.0
1001
ACAD
1000
DSTYLE
1002
{
1070
   287
1070
     3
1070
    40
1040
45.0
1070
   140
1040
3.0
1070
   147
1040
0.5
1070
   173
1070
     1
1070
   279
1070
     0
1070
     6
1000
OPEN
1070
     7
1000
OPEN
1002
}
  0
DIMENSION
  5
1B22
  8
SP
  2
*D12
 10
38411.973393976892
 20
812.88938615932045
 30
0.0
 11
37997.473393976892
 21
902.88938615932045
 31
0.0
 70
     0
 13
37582.973393976892
 23
1485.9668064275661
 33
0.0
 14
38411.973393976892
 24
1485.9668064275661
 34
0.0
1001
ACAD
1000
DSTYLE
1002
{
1070
   287
1070
     4
1070
    40
1040
45.0
1070
    75
1070
     1
1070
   140
1040
3.0
1070
   147
1040
0.5
1070
   173
1070
     1
1070
   279
1070
     1
1070
     6
1000
OPEN
1070
     7
1000
OPEN
1002
}
  0
DIMENSION
  5
1B2F
  8
SP
  2
*D13
 10
35211.973393976892
 20
520.76708590642374
 30
0.0
 11
36811.973393976892
 21
610.76708590642374
 31
0.0
 70
     0
 13
38411.973393976892
 23
812.88938615932045
 33
0.0
 14
35211.973393976892
 24
812.88938615932045
 34
0.0
1001
ACAD
1000
DSTYLE
1002
{
1070
   287
1070
     3
1070
    40
1040
45.0
1070
   140
1040
3.0
1070
   147
1040
0.5
1070
   173
1070
     1
1070
   279
1070
     0
1070
     6
1000
OPEN
1070
     7
1000
OPEN
1002
}
  0
LINE
  5
1BAD
  8
FUTO
 10
36821.973393976892
 20
1509.0421760452509
 30
0.0
 11
36821.973393976892
 21
1642.891436809881
 31
0.0
  0
LINE
  5
1BAE
  8
FUTO
 10
36828.973393976892
 20
1485.9668064275661
 30
0.0
 11
36828.973393976892
 21
1665.9668064275661
 31
0.0
  0
ARC
  5
1BAF
  8
FUTO
 10
36759.473393976892
 20
1488.889813728219
 30
0.0
 40
5.5
 50
95.000000000000014
 51
180.0
  0
LINE
  5
1BB0
  8
FUTO
 10
36753.973393976892
 20
1488.889813728219
 30
0.0
 11
36753.973393976892
 21
1485.9668064275661
 31
0.0
  0
ARC
  5
1BB1
  8
FUTO
 10
36811.973393976892
 20
1509.0421760452509
 30
0.0
 40
10.0
 50
275.0
 51
0.0
  0
LINE
  5
1BB2
  8
FUTO
 10
36828.973393976892
 20
1485.9668064275661
 30
0.0
 11
36753.973393976892
 21
1485.9668064275661
 31
0.0
  0
LINE
  5
1BB3
  8
FUTO
 10
36812.844951404368
 20
1499.0802290643339
 30
0.0
 11
36758.994037391771
 21
1494.3688845677229
 31
0.0
  0
ARC
  5
1BB4
  8
FUTO
 10
36759.473393976892
 20
1663.043799126913
 30
0.0
 40
5.5
 50
179.9999999999994
 51
264.99999999999989
  0
LINE
  5
1BB5
  8
FUTO
 10
36753.973393976892
 20
1663.0437991269141
 30
0.0
 11
36753.973393976892
 21
1665.9668064275661
 31
0.0
  0
ARC
  5
1BB6
  8
FUTO
 10
36759.473393976892
 20
1808.889813728219
 30
0.0
 40
5.5
 50
95.000000000000014
 51
180.0
  0
LINE
  5
1BB7
  8
FUTO
 10
36753.973393976892
 20
1808.889813728219
 30
0.0
 11
36753.973393976892
 21
1805.9668064275661
 31
0.0
  0
ARC
  5
1BB8
  8
FUTO
 10
36811.973393976892
 20
1642.891436809881
 30
0.0
 40
10.0
 50
0.0
 51
85.0
  0
LINE
  5
1BB9
  8
KL
 10
36832.973393976892
 20
1823.9668064275661
 30
0.0
 11
36829.773393976888
 21
1823.9668064275661
 31
0.0
  0
LINE
  5
1BBA
  8
FUTO
 10
36812.844951404368
 20
1652.8533837907989
 30
0.0
 11
36758.994037391771
 21
1657.564728287409
 31
0.0
  0
LINE
  5
1BBB
  8
FUTO
 10
36828.973393976892
 20
1665.9668064275661
 30
0.0
 11
36753.973393976892
 21
1665.9668064275661
 31
0.0
  0
LINE
  5
1BBC
  8
FUTO
 10
36828.973393976892
 20
1665.9668064275661
 30
0.0
 11
36753.973393976892
 21
1665.9668064275661
 31
0.0
  0
LINE
  5
1BBD
  8
FUTO
 10
36828.973393976892
 20
1805.9668064275661
 30
0.0
 11
36753.973393976892
 21
1805.9668064275661
 31
0.0
  0
LINE
  5
1BBE
  8
FUTO
 10
36812.844951404368
 20
1819.0802290643339
 30
0.0
 11
36758.994037391771
 21
1814.3688845677229
 31
0.0
  0
ARC
  5
1BBF
  8
FUTO
 10
36811.973393976892
 20
1829.0421760452509
 30
0.0
 40
10.0
 50
275.0
 51
0.0
  0
LINE
  5
1BC0
  8
FUTO
 10
36753.973393976892
 20
1983.0437991269141
 30
0.0
 11
36753.973393976892
 21
1985.9668064275661
 31
0.0
  0
LINE
  5
1BC1
  8
FUTO
 10
36828.973393976892
 20
1805.9668064275661
 30
0.0
 11
36828.973393976892
 21
1985.9668064275661
 31
0.0
  0
LINE
  5
1BC2
  8
FUTO
 10
36828.973393976899
 20
1805.9668064275661
 30
0.0
 11
36828.973393976892
 21
1985.9668064275661
 31
0.0
  0
LINE
  5
1BC3
  8
KL
 10
36829.773393976888
 20
1823.9668064275661
 30
0.0
 11
36829.773393976888
 21
1985.9668064275661
 31
0.0
  0
LINE
  5
1BC4
  8
KL
 10
36832.973393976892
 20
1823.9668064275661
 30
0.0
 11
36832.973393976892
 21
1985.9668064275661
 31
0.0
  0
ARC
  5
1BC5
  8
FUTO
 10
36759.473393976892
 20
1983.043799126913
 30
0.0
 40
5.5
 50
179.9999999999994
 51
264.99999999999989
  0
LINE
  5
1BC6
  8
FUTO
 10
36821.973393976892
 20
1829.0421760452509
 30
0.0
 11
36821.973393976892
 21
1962.891436809881
 31
0.0
  0
ARC
  5
1BC7
  8
FUTO
 10
36811.973393976892
 20
1962.891436809881
 30
0.0
 40
10.0
 50
0.0
 51
85.0
  0
LINE
  5
1BC8
  8
FUTO
 10
36812.844951404368
 20
1972.853383790798
 30
0.0
 11
36758.994037391771
 21
1977.564728287409
 31
0.0
  0
LINE
  5
1BC9
  8
0
 10
36828.973393976892
 20
1985.9668064275661
 30
0.0
 11
36753.973393976892
 21
1985.9668064275661
 31
0.0
  0
LINE
  5
1BCA
  8
FUTO
 10
36828.973393976892
 20
1817.9668064275661
 30
0.0
 11
38336.973393976892
 21
1817.9668064275661
 31
0.0
  0
LINE
  5
1BCB
  8
FUTO
 10
36828.973393976892
 20
1973.9668064275661
 30
0.0
 11
38336.973393976892
 21
1973.9668064275661
 31
0.0
  0
LINE
  5
1BCC
  8
FUTO
 10
36828.973393976892
 20
1653.9668064275661
 30
0.0
 11
38336.973393976892
 21
1653.9668064275661
 31
0.0
  0
LINE
  5
1BCD
  8
FUTO
 10
36828.973393976892
 20
1497.9668064275661
 30
0.0
 11
38336.973393976892
 21
1497.9668064275661
 31
0.0
  0
LINE
  5
1BCE
  8
FUTO
 10
36828.973393976892
 20
1485.9668064275661
 30
0.0
 11
38336.973393976892
 21
1485.9668064275661
 31
0.0
  0
LINE
  5
1BCF
  8
FUTO
 10
35286.973393976892
 20
1485.9668064275661
 30
0.0
 11
36800.118472431037
 21
1485.9668064275661
 31
0.0
  0
DIMENSION
  5
1BF2
  8
SP
  2
*D14
 10
37582.973393976892
 20
5327.0988118409514
 30
0.0
 11
36282.973393976892
 21
5417.0988118409514
 31
0.0
 70
     0
 13
34982.973393976892
 23
5327.0988118409514
 33
0.0
 14
37582.973393976892
 24
5327.0988118409514
 34
0.0
1001
ACAD
1000
DSTYLE
1002
{
1070
   287
1070
     3
1070
    40
1040
45.0
1070
   140
1040
3.0
1070
   147
1040
0.5
1070
   173
1070
     1
1070
   279
1070
     0
1070
   341
1005
24
1070
     6
1000
OPEN
1070
     7
1000
OPEN
1002
}
  0
LINE
  5
1C10
  8
FUTO
 10
32565.175816296229
 20
1665.9668064275661
 30
0.0
 11
32565.175816296229
 21
1485.9668064275661
 31
0.0
  0
LINE
  5
1C11
  8
FUTO
 10
32215.175816296229
 20
1665.9668064275661
 30
0.0
 11
32215.175816296229
 21
1485.9668064275661
 31
0.0
  0
LINE
  5
1C21
  8
SL
 10
35536.362886872579
 20
3723.1699139218958
 30
0.0
 11
35536.362886872579
 21
3415.9668064275661
 31
0.0
  0
LINE
  5
1C22
  8
SL
 10
36466.541659750801
 20
3723.1699139218958
 30
0.0
 11
36466.541659750801
 21
3415.9668064275661
 31
0.0
  0
DIMENSION
  5
1C23
  8
SP
  2
*D15
 10
33642.175816296229
 20
5315.0726567229831
 30
0.0
 11
32528.675816296229
 21
5405.0726567229831
 31
0.0
 70
     0
 13
31415.175816296229
 23
4919.3083722567626
 33
0.0
 14
33642.175816296229
 24
4850.9668064290272
 34
0.0
1001
ACAD
1000
DSTYLE
1002
{
1070
   287
1070
     3
1070
    40
1040
45.0
1070
   140
1040
3.0
1070
   147
1040
0.5
1070
   173
1070
     1
1070
   279
1070
     0
1070
   341
1005
24
1070
     6
1000
OPEN
1070
     7
1000
OPEN
1002
}
  0
LINE
  5
1C5C
  8
FUTO
 10
31326.175816296229
 20
7670.2742839424182
 30
0.0
 11
31300.175816296229
 21
7694.2742839424191
 31
0.0
  0
LINE
  5
1C5D
  8
FUTO
 10
31504.175816296229
 20
7670.2742839424182
 30
0.0
 11
31528.009149629572
 21
7692.2742839424209
 31
0.0
  0
LINE
  5
1C61
  8
FUTO
 10
30935.175816296229
 20
6128.2742839424227
 30
0.0
 11
33545.175816296229
 21
6128.27428394242
 31
0.0
  0
LINE
  5
1C62
  8
SL
 10
31040.175816296229
 20
6246.074283942422
 30
0.0
 11
33442.675816296229
 21
6246.0742839424192
 31
0.0
  0
LINE
  5
1C63
  8
SL
 10
31040.175816296229
 20
6376.0742839424202
 30
0.0
 11
33442.675816296229
 21
6376.0742839424211
 31
0.0
  0
LINE
  5
1C6B
  8
FUTO
 10
31472.675816296229
 20
7670.2742839424182
 30
0.0
 11
31472.675816296229
 21
6608.2742839424182
 31
0.0
  0
LINE
  5
1C6C
  8
FUTO
 10
31357.675816296229
 20
7670.2742839424182
 30
0.0
 11
31357.675816296229
 21
6608.2742839424182
 31
0.0
  0
LINE
  5
1C6D
  8
FUTO
 10
30935.175816296229
 20
6409.023318104928
 30
0.0
 11
33545.175816296229
 21
6409.0233181049271
 31
0.0
  0
LINE
  5
1C6E
  8
FUTO
 10
31335.175816296229
 20
6608.2742839424182
 30
0.0
 11
31495.175816296229
 21
6608.2742839424182
 31
0.0
  0
LINE
  5
1C6F
  8
FUTO
 10
31335.175816296229
 20
6436.2742839424182
 30
0.0
 11
31495.175816296229
 21
6436.2742839424182
 31
0.0
  0
LINE
  5
1C70
  8
FUTO
 10
31300.175816296229
 20
6586.2742839424191
 30
0.0
 11
31495.175816296229
 21
6586.2742839424191
 31
0.0
  0
LINE
  5
1C71
  8
FUTO
 10
31300.175816296229
 20
6600.2742839424182
 30
0.0
 11
31530.175816296229
 21
6600.2742839424182
 31
0.0
  0
LINE
  5
1C72
  8
FUTO
 10
31300.175816296229
 20
6444.2742839424191
 30
0.0
 11
31530.175816296229
 21
6444.2742839424191
 31
0.0
  0
LINE
  5
1C73
  8
CT
 10
31251.684197786399
 20
6522.2742839424191
 30
0.0
 11
31566.332970058269
 21
6522.2742839424191
 31
0.0
  0
LINE
  5
1C74
  8
FUTO
 10
31300.175816296229
 20
6586.2742839424191
 30
0.0
 11
31530.175816296229
 21
6586.2742839424191
 31
0.0
  0
LINE
  5
1C75
  8
FUTO
 10
31300.175816296229
 20
6458.2742839424191
 30
0.0
 11
31530.175816296229
 21
6458.2742839424191
 31
0.0
  0
LINE
  5
1C76
  8
SL
 10
31790.175816296229
 20
6376.0742839424202
 30
0.0
 11
31790.175816296229
 21
6246.0742839424202
 31
0.0
  0
LINE
  5
1C7A
  8
FUTO
 10
31467.675816296229
 20
6436.2742839424182
 30
0.0
 11
31467.675816296229
 21
6376.0742839424183
 31
0.0
  0
LINE
  5
1C7B
  8
FUTO
 10
31530.175816296229
 20
6444.2742839424191
 30
0.0
 11
31530.175816296229
 21
6452.2742839424191
 31
0.0
  0
LINE
  5
1C7C
  8
FUTO
 10
31495.175816296229
 20
6436.2742839424182
 30
0.0
 11
31515.175816296229
 21
6444.2742839424191
 31
0.0
  0
LINE
  5
1C7F
  8
FUTO
 10
31495.175816296229
 20
6608.2742839424182
 30
0.0
 11
31515.175816296229
 21
6600.2742839424182
 31
0.0
  0
LINE
  5
1C80
  8
FUTO
 10
31530.175816296229
 20
6600.2742839424182
 30
0.0
 11
31530.175816296229
 21
6592.2742839424191
 31
0.0
  0
LINE
  5
1C83
  8
SL
 10
31040.175816296229
 20
6376.0742839424183
 30
0.0
 11
31040.175816296229
 21
6246.074283942422
 31
0.0
  0
LINE
  5
1C84
  8
FUTO
 10
31282.175816296229
 20
6468.2742839424191
 30
0.0
 11
31282.175816296229
 21
6576.2742839424191
 31
0.0
  0
LINE
  5
1C85
  8
FUTO
 10
31300.175816296229
 20
6458.2742839424191
 30
0.0
 11
31300.175816296229
 21
6468.2742839424191
 31
0.0
  0
LINE
  5
1C86
  8
FUTO
 10
31282.175816296229
 20
6468.2742839424191
 30
0.0
 11
31300.175816296229
 21
6468.2742839424191
 31
0.0
  0
LINE
  5
1C87
  8
FUTO
 10
31300.175816296229
 20
6444.2742839424191
 30
0.0
 11
31300.175816296229
 21
6458.2742839424191
 31
0.0
  0
LINE
  5
1C88
  8
FUTO
 10
31335.175816296229
 20
6436.2742839424182
 30
0.0
 11
31315.175816296229
 21
6444.2742839424191
 31
0.0
  0
LINE
  5
1C89
  8
FUTO
 10
31362.675816296229
 20
6436.2742839424182
 30
0.0
 11
31362.675816296229
 21
6376.0742839424183
 31
0.0
  0
LINE
  5
1C8A
  8
FUTO
 10
31335.175816296229
 20
6608.2742839424182
 30
0.0
 11
31315.175816296229
 21
6600.2742839424182
 31
0.0
  0
LINE
  5
1C8B
  8
FUTO
 10
31300.175816296229
 20
6600.2742839424182
 30
0.0
 11
31300.175816296229
 21
6586.2742839424191
 31
0.0
  0
LINE
  5
1C8C
  8
FUTO
 10
31300.175816296229
 20
6576.2742839424191
 30
0.0
 11
31300.175816296229
 21
6586.2742839424191
 31
0.0
  0
LINE
  5
1C8D
  8
FUTO
 10
31282.175816296229
 20
6576.2742839424191
 30
0.0
 11
31300.175816296229
 21
6576.2742839424191
 31
0.0
  0
LINE
  5
1C8E
  8
FUTO
 10
30935.175816296229
 20
6409.023318104928
 30
0.0
 11
30935.175816296229
 21
6128.2742839424227
 31
0.0
  0
POINT
  5
1C8F
  8
DEFPOINTS
 10
30935.175816296229
 20
6128.2742839424227
 30
0.0
  0
LINE
  5
1C93
  8
FUTO
 10
31504.175816296229
 20
7670.2742839424182
 30
0.0
 11
31326.175816296229
 21
7670.27428394242
 31
0.0
  0
LINE
  5
1C9A
  8
FUTO
 10
30340.175816296229
 20
9627.2742839424191
 30
0.0
 11
32490.175816296229
 21
9627.2742839424191
 31
0.0
  0
LINE
  5
1C9B
  8
FUTO
 10
30340.175816296229
 20
9633.2742839424191
 30
0.0
 11
32490.175816296229
 21
9633.2742839424209
 31
0.0
  0
LINE
  5
1C9C
  8
KL
 10
30340.175816296229
 20
9490.4742839433111
 30
0.0
 11
32490.175816296229
 21
9490.4742839438022
 31
0.0
  0
LINE
  5
1CA1
  8
HOSO
 10
30375.175816296229
 20
9455.3545403352182
 30
0.0
 11
30375.175816296229
 21
9513.5536964404473
 31
0.0
  0
LINE
  5
1CA2
  8
FUTO
 10
30409.175816296229
 20
9481.4742839424198
 30
0.0
 11
30409.175816296229
 21
9571.4742839424198
 31
0.0
  0
LINE
  5
1CA3
  8
KL
 10
30415.175816296229
 20
9481.4742839424198
 30
0.0
 11
30415.175816296229
 21
9633.2742839424191
 31
0.0
  0
LINE
  5
1CA4
  8
KL
 10
30340.175816296229
 20
9481.4742839424198
 30
0.0
 11
30340.175816296229
 21
9490.4742839433093
 31
0.0
  0
LINE
  5
1CA5
  8
HOSO
 10
30415.17581629624
 20
9490.4742839433293
 30
0.0
 11
30415.17581629624
 21
9481.4742839433293
 31
0.0
  0
LINE
  5
1CA6
  8
FUTO
 10
30340.175816296229
 20
9627.2742839424209
 30
0.0
 11
30340.175816296229
 21
9633.2742839424191
 31
0.0
  0
LINE
  5
1CA7
  8
HOSO
 10
30375.175816296229
 20
9605.2360945024375
 30
0.0
 11
30375.175816296229
 21
9663.4352506076648
 31
0.0
  0
LINE
  5
1CA8
  8
FUTO
 10
30409.175816296229
 20
9571.4742839424198
 30
0.0
 11
30409.175816296229
 21
9627.2742839424191
 31
0.0
  0
LINE
  5
1CBE
  8
FUTO
 10
31510.175816296229
 20
7837.2742839424191
 30
0.0
 11
31280.175816296229
 21
7837.2742839424191
 31
0.0
  0
LINE
  5
1CBF
  8
FUTO
 10
31550.175816296229
 20
7850.2742839424182
 30
0.0
 11
31280.175816296229
 21
7850.2742839424182
 31
0.0
  0
LINE
  5
1CC0
  8
FUTO
 10
31504.175816296229
 20
7874.2742839424191
 30
0.0
 11
31326.175816296229
 21
7874.2742839424191
 31
0.0
  0
LINE
  5
1CC1
  8
FUTO
 10
31550.175816296229
 20
7837.27428394242
 30
0.0
 11
31280.175816296229
 21
7837.2742839424191
 31
0.0
  0
LINE
  5
1CC2
  8
CT
 10
31645.467525370728
 20
7772.2742839424191
 30
0.0
 11
31185.84211453444
 21
7772.2742839424191
 31
0.0
  0
LINE
  5
1CC3
  8
FUTO
 10
31550.175816296229
 20
7694.2742839424209
 30
0.0
 11
31280.175816296229
 21
7694.2742839424191
 31
0.0
  0
LINE
  5
1CC4
  8
FUTO
 10
31550.175816296229
 20
7707.2742839424209
 30
0.0
 11
31280.175816296229
 21
7707.2742839424191
 31
0.0
  0
LINE
  5
1CC5
  8
KL
 10
31470.175816296229
 20
7874.2742839424191
 30
0.0
 11
31470.175816296229
 21
7967.9183242670788
 31
0.0
  0
LINE
  5
1CCB
  8
FUTO
 10
31504.175816296229
 20
7874.2742839424209
 30
0.0
 11
31528.009149629572
 21
7852.27428394242
 31
0.0
  0
LINE
  5
1CCE
  8
KL
 10
31360.175816296229
 20
7874.2742839424191
 30
0.0
 11
31360.175816296229
 21
7970.3613611342671
 31
0.0
  0
LINE
  5
1CCF
  8
FUTO
 10
31264.175816296229
 20
7712.2742839424191
 30
0.0
 11
31264.175816296229
 21
7832.2742839424191
 31
0.0
  0
LINE
  5
1CD0
  8
FUTO
 10
31280.175816296229
 20
7694.2742839424209
 30
0.0
 11
31280.175816296229
 21
7712.2742839424191
 31
0.0
  0
LINE
  5
1CD1
  8
FUTO
 10
31280.175816296229
 20
7712.2742839424191
 30
0.0
 11
31264.175816296229
 21
7712.2742839424191
 31
0.0
  0
LINE
  5
1CD2
  8
FUTO
 10
31326.175816296229
 20
7874.2742839424209
 30
0.0
 11
31300.175816296229
 21
7850.2742839424182
 31
0.0
  0
LINE
  5
1CD3
  8
FUTO
 10
31280.175816296229
 20
7832.2742839424191
 30
0.0
 11
31264.175816296229
 21
7832.2742839424191
 31
0.0
  0
LINE
  5
1CD4
  8
FUTO
 10
31280.175816296229
 20
7850.2742839424182
 30
0.0
 11
31280.175816296229
 21
7832.2742839424191
 31
0.0
  0
LINE
  5
1CE0
  8
HOSO
 10
32455.175816296229
 20
9447.6679100979964
 30
0.0
 11
32455.175816296229
 21
9518.2950372358191
 31
0.0
  0
LINE
  5
1CE1
  8
KL
 10
32421.175816296229
 20
9481.4742839424198
 30
0.0
 11
32421.175816296229
 21
9556.4742839424198
 31
0.0
  0
LINE
  5
1CE2
  8
KL
 10
32415.175816296229
 20
9481.4742839424198
 30
0.0
 11
32415.175816296229
 21
9633.2742839424191
 31
0.0
  0
LINE
  5
1CE4
  8
KL
 10
32490.175816296229
 20
9481.4742839424198
 30
0.0
 11
32490.175816296229
 21
9490.4742839438022
 31
0.0
  0
LINE
  5
1CE5
  8
HOSO
 10
32415.17581629624
 20
9490.474283943784
 30
0.0
 11
32415.17581629624
 21
9481.4742839437877
 31
0.0
  0
LINE
  5
1CE6
  8
FUTO
 10
32490.175816296229
 20
9627.2742839424191
 30
0.0
 11
32490.175816296229
 21
9633.2742839424209
 31
0.0
  0
LINE
  5
1CE7
  8
HOSO
 10
32455.175816296229
 20
9597.228356500078
 30
0.0
 11
32455.175816296229
 21
9667.8554836379008
 31
0.0
  0
LINE
  5
1CE8
  8
FUTO
 10
32421.175816296229
 20
9556.4742839424198
 30
0.0
 11
32421.175816296229
 21
9627.2742839424191
 31
0.0
  0
INSERT
  5
1CE9
  8
FUTO
  2
まっすぐの矢印
 10
31966.100067436419
 20
9799.7705716984492
 30
0.0
 41
-40.0
 42
40.0
 43
40.0
 50
180.0
  0
LINE
  5
1D14
  8
FUTO
 10
31548.175816296229
 20
6468.2742839424191
 30
0.0
 11
31548.175816296229
 21
6576.2742839424191
 31
0.0
  0
LINE
  5
1D15
  8
FUTO
 10
31530.175816296229
 20
6444.2742839424191
 30
0.0
 11
31530.175816296229
 21
6458.2742839424191
 31
0.0
  0
LINE
  5
1D16
  8
FUTO
 10
31548.175816296229
 20
6468.2742839424191
 30
0.0
 11
31530.175816296229
 21
6468.2742839424191
 31
0.0
  0
LINE
  5
1D17
  8
FUTO
 10
31530.175816296229
 20
6458.2742839424191
 30
0.0
 11
31530.175816296229
 21
6468.2742839424191
 31
0.0
  0
LINE
  5
1D18
  8
FUTO
 10
31548.175816296229
 20
6576.2742839424191
 30
0.0
 11
31530.175816296229
 21
6576.2742839424191
 31
0.0
  0
LINE
  5
1D19
  8
FUTO
 10
31530.175816296229
 20
6576.2742839424191
 30
0.0
 11
31530.175816296229
 21
6586.2742839424191
 31
0.0
  0
LINE
  5
1D1A
  8
FUTO
 10
31530.175816296229
 20
6600.2742839424182
 30
0.0
 11
31530.175816296229
 21
6586.2742839424191
 31
0.0
  0
LINE
  5
1D1B
  8
FUTO
 10
31566.175816296229
 20
7712.2742839424191
 30
0.0
 11
31566.175816296229
 21
7832.2742839424191
 31
0.0
  0
LINE
  5
1D1C
  8
FUTO
 10
31550.175816296229
 20
7712.2742839424191
 30
0.0
 11
31566.175816296229
 21
7712.2742839424191
 31
0.0
  0
LINE
  5
1D1D
  8
FUTO
 10
31550.175816296229
 20
7694.2742839424209
 30
0.0
 11
31550.175816296229
 21
7712.2742839424191
 31
0.0
  0
LINE
  5
1D1E
  8
FUTO
 10
31550.175816296229
 20
7850.2742839424182
 30
0.0
 11
31550.175816296229
 21
7832.2742839424191
 31
0.0
  0
LINE
  5
1D1F
  8
FUTO
 10
31550.175816296229
 20
7832.2742839424191
 30
0.0
 11
31566.175816296229
 21
7832.2742839424191
 31
0.0
  0
LINE
  5
1D20
  8
FUTO
 10
31764.762620773668
 20
6426.2742839424163
 30
0.0
 11
31764.762620773668
 21
7899.2742839424172
 31
0.0
  0
LINE
  5
1D21
  8
FUTO
 10
31065.589011818789
 20
6426.2742839424163
 30
0.0
 11
31065.589011818789
 21
7899.2742839424172
 31
0.0
  0
LINE
  5
1D22
  8
FUTO
 10
33567.175816295981
 20
7974.2742839424182
 30
0.0
 11
33567.175816294948
 21
9482.2742839424209
 31
0.0
  0
LINE
  5
1D23
  8
FUTO
 10
33567.175816295567
 20
7974.2742839424182
 30
0.0
 11
33567.17581629489
 21
9482.2742839424209
 31
0.0
  0
LINE
  5
1D24
  8
FUTO
 10
33567.175816296229
 20
7974.2742839424182
 30
0.0
 11
33567.175816296229
 21
9482.2742839424209
 31
0.0
  0
LINE
  5
1D26
  8
FUTO
 10
33642.175816296229
 20
7899.2742839424172
 30
0.0
 11
33642.175816296229
 21
9557.2742839424172
 31
0.0
  0
LINE
  5
1D35
  8
CT
 10
33265.175816296229
 20
7495.9880963029764
 30
0.0
 11
33265.175816296229
 21
6132.773007571127
 31
0.0
  0
LINE
  5
1D3A
  8
SL
 10
33442.675816296229
 20
6376.074283942422
 30
0.0
 11
33442.675816296229
 21
6246.0742839424192
 31
0.0
  0
LINE
  5
1D3B
  8
FUTO
 10
33545.175816296229
 20
6409.0233181049271
 30
0.0
 11
33545.175816296229
 21
6128.2742839424182
 31
0.0
  0
LINE
  5
2121
  8
CT
 10
35304.273393976888
 20
2335.9668064275561
 30
0.0
 11
34936.453393976888
 21
2335.9668064275561
 31
0.0
  0
LINE
  5
2132
  8
FUTO
 10
35564.491393976903
 20
2060.9668064275552
 30
0.0
 11
35492.9203939769
 21
2060.9668064275552
 31
0.0
  0
LINE
  5
2306
  8
FUTO
 10
33552.675816296491
 20
7081.0742839423301
 30
0.0
 11
33552.675816296549
 21
7276.0742839423283
 31
0.0
  0
LINE
  5
2307
  8
FUTO
 10
32995.175816296549
 20
7294.3351539425012
 30
0.0
 11
32995.175816296491
 21
7081.074283942502
 31
0.0
  0
LINE
  5
2308
  8
FUTO
 10
33552.675816296549
 20
7276.0742839423283
 30
0.0
 11
32995.175816296542
 21
7276.074283942502
 31
0.0
  0
LINE
  5
2309
  8
FUTO
 10
33035.175816296563
 20
7336.0742839424902
 30
0.0
 11
33495.175816296563
 21
7336.0742839423483
 31
0.0
  0
LINE
  5
230A
  8
FUTO
 10
32995.175816296549
 20
7294.3351539425012
 30
0.0
 11
33035.175816296563
 21
7336.0742839424902
 31
0.0
  0
LINE
  5
230B
  8
FUTO
 10
33552.675816296549
 20
7276.0742839423283
 30
0.0
 11
33495.175816296563
 21
7336.0742839423483
 31
0.0
  0
LINE
  5
230C
  8
CT
 10
32954.860956643293
 20
6815.5742839425166
 30
0.0
 11
33597.936290392259
 21
6815.5742839423174
 31
0.0
  0
LINE
  5
230D
  8
FUTO
 10
33552.675816296491
 20
7081.0742839423301
 30
0.0
 11
32995.175816296491
 21
7081.074283942502
 31
0.0
  0
LINE
  5
230E
  8
FUTO
 10
33552.675816296309
 20
6532.5742839423301
 30
0.0
 11
33500.60979443555
 21
6532.5742839423447
 31
0.0
  0
LINE
  5
230F
  8
FUTO
 10
33552.67581629628
 20
6432.5742839423292
 30
0.0
 11
33268.175816296287
 21
6432.5742839424156
 31
0.0
  0
LINE
  5
2310
  8
CT
 10
32961.045751329293
 20
7025.0742839425129
 30
0.0
 11
32924.360211329287
 21
7025.0742839425238
 31
0.0
  0
LINE
  5
2311
  8
CT
 10
32961.045751329162
 20
6606.0742839425129
 30
0.0
 11
32924.360211329164
 21
6606.0742839425247
 31
0.0
  0
LINE
  5
2312
  8
FUTO
 10
33222.675816296229
 20
6246.0742839424329
 30
0.0
 11
33222.67581629628
 21
6416.0742839424329
 31
0.0
  0
LINE
  5
2313
  8
FUTO
 10
33307.67581629628
 20
6416.0742839424056
 30
0.0
 11
33307.675816296221
 21
6246.0742839424047
 31
0.0
  0
LINE
  5
2314
  8
FUTO
 10
33312.675816296229
 20
6246.0742839424029
 30
0.0
 11
33312.675816296272
 21
6386.0742839424038
 31
0.0
  0
LINE
  5
2315
  8
FUTO
 10
33215.17581629628
 20
6416.0742839424329
 30
0.0
 11
33315.17581629628
 21
6416.0742839424038
 31
0.0
  0
LINE
  5
2316
  8
FUTO
 10
33179.67581629628
 20
6426.0742839424438
 30
0.0
 11
33350.67581629628
 21
6426.074283942392
 31
0.0
  0
LINE
  5
2317
  8
FUTO
 10
33177.67581629628
 20
6432.9226589424452
 30
0.0
 11
33177.67581629628
 21
6428.0742839424429
 31
0.0
  0
ARC
  5
2318
  8
FUTO
 10
33179.67581629628
 20
6428.0742839424429
 30
0.0
 40
2.0
 50
180.0
 51
270.0
  0
LINE
  5
2319
  8
FUTO
 10
33215.17581629628
 20
6416.0742839424329
 30
0.0
 11
33215.17581629628
 21
6426.074283942432
 31
0.0
  0
LINE
  5
231A
  8
FUTO
 10
33315.17581629628
 20
6416.0742839424038
 30
0.0
 11
33315.17581629628
 21
6426.0742839424038
 31
0.0
  0
LINE
  5
231B
  8
FUTO
 10
33307.675816296272
 20
6386.0742839424056
 30
0.0
 11
33312.675816296272
 21
6386.0742839424038
 31
0.0
  0
LINE
  5
231C
  8
FUTO
 10
33352.67581629628
 20
6432.574283942392
 30
0.0
 11
33352.67581629628
 21
6428.0742839423929
 31
0.0
  0
ARC
  5
231D
  8
FUTO
 10
33350.67581629628
 20
6428.0742839423929
 30
0.0
 40
2.0
 50
270.0
 51
0.000000000000007
  0
LINE
  5
231E
  8
FUTO
 10
33222.675816296229
 20
6246.0742839424329
 30
0.0
 11
33312.675816296229
 21
6246.0742839424029
 31
0.0
  0
LINE
  5
231F
  8
FUTO
 10
33550.989893296399
 20
6815.574283942331
 30
0.0
 11
33550.989893296319
 21
6560.074283942331
 31
0.0
  0
LINE
  5
2320
  8
FUTO
 10
33500.609794435622
 20
6775.0742839423483
 30
0.0
 11
33102.692776236872
 21
6775.0742839424693
 31
0.0
  0
LINE
  5
2321
  8
FUTO
 10
33500.609794435608
 20
6756.6742899423434
 30
0.0
 11
33102.692776236858
 21
6756.6742899424662
 31
0.0
  0
LINE
  5
2322
  8
CT
 10
33317.711685785463
 20
6630.074283942402
 30
0.0
 11
33174.56687978546
 21
6630.0742839424474
 31
0.0
  0
LINE
  5
2323
  8
FUTO
 10
33555.175816296491
 20
7071.0742839423292
 30
0.0
 11
33555.175816296382
 21
6760.0742839423292
 31
0.0
  0
LINE
  5
2324
  8
FUTO
 10
33550.989893296399
 20
6815.574283942331
 30
0.0
 11
33550.989893296479
 21
7071.0742839423319
 31
0.0
  0
LINE
  5
2325
  8
FUTO
 10
33550.989893296479
 20
7071.0742839423319
 30
0.0
 11
33544.538031296492
 21
7081.0742839423319
 31
0.0
  0
LINE
  5
2326
  8
FUTO
 10
33555.175816296491
 20
7071.0742839423292
 30
0.0
 11
33548.509150296479
 21
7081.074283942331
 31
0.0
  0
LINE
  5
2327
  8
FUTO
 10
33555.175816296382
 20
6760.0742839423292
 30
0.0
 11
33550.989893296392
 21
6755.8883609423301
 31
0.0
  0
LINE
  5
2328
  8
FUTO
 10
33102.69277623677
 20
6485.0742839424702
 30
0.0
 11
33500.609794435528
 21
6485.0742839423474
 31
0.0
  0
LINE
  5
2329
  8
FUTO
 10
33102.692776236778
 20
6503.4743079424652
 30
0.0
 11
33500.609794435528
 21
6503.4743079423424
 31
0.0
  0
LINE
  5
232A
  8
FUTO
 10
33552.67581629628
 20
6432.5742839423292
 30
0.0
 11
33552.675816296309
 21
6532.5742839423301
 31
0.0
  0
LINE
  5
232B
  8
FUTO
 10
33547.690864296317
 20
6548.8468559423309
 30
0.0
 11
33536.842483296321
 21
6532.5742839423338
 31
0.0
  0
LINE
  5
232C
  8
FUTO
 10
33550.989893296319
 20
6560.074283942331
 30
0.0
 11
33533.247273296322
 21
6532.5742839423338
 31
0.0
  0
LINE
  5
232D
  8
FUTO
 10
33541.404421296327
 20
6545.2173759423331
 30
0.0
 11
33549.816832296317
 21
6550.074283942331
 31
0.0
  0
LINE
  5
232E
  8
FUTO
 10
33102.69277623677
 20
6485.0742839424647
 30
0.0
 11
33102.692776236872
 21
6775.0742839424693
 31
0.0
  0
LINE
  5
232F
  8
FUTO
 10
33500.609794435528
 20
6485.0742839423456
 30
0.0
 11
33500.609794435622
 21
6775.0742839423483
 31
0.0
  0
LINE
  5
2330
  8
FUTO
 10
32977.675816296309
 20
6532.5742839425084
 30
0.0
 11
33102.692776236792
 21
6532.5742839424656
 31
0.0
  0
LINE
  5
2331
  8
FUTO
 10
32977.67581629628
 20
6432.5742839425066
 30
0.0
 11
33262.17581629628
 21
6432.5742839424183
 31
0.0
  0
LINE
  5
2332
  8
FUTO
 10
32977.67581629628
 20
6432.5742839425066
 30
0.0
 11
32977.675816296309
 21
6532.5742839425084
 31
0.0
  0
LINE
  5
2333
  8
FUTO
 10
32979.361739296401
 20
6815.5742839425056
 30
0.0
 11
32979.361739296481
 21
7071.0742839425047
 31
0.0
  0
LINE
  5
2334
  8
FUTO
 10
32975.175816296491
 20
7071.0742839425084
 30
0.0
 11
32975.175816296389
 21
6760.0742839425084
 31
0.0
  0
LINE
  5
2335
  8
FUTO
 10
32979.361739296401
 20
6815.5742839425056
 30
0.0
 11
32979.361739296321
 21
6560.0742839425047
 31
0.0
  0
LINE
  5
2336
  8
FUTO
 10
32979.361739296321
 20
6560.0742839425047
 30
0.0
 11
32997.104359296318
 21
6532.5742839425011
 31
0.0
  0
LINE
  5
2337
  8
FUTO
 10
32988.947211296319
 20
6545.2173759425032
 30
0.0
 11
32980.534800296322
 21
6550.0742839425056
 31
0.0
  0
LINE
  5
2338
  8
FUTO
 10
32982.660768296329
 20
6548.8468559425073
 30
0.0
 11
32993.509149296318
 21
6532.5742839425011
 31
0.0
  0
LINE
  5
2339
  8
FUTO
 10
32975.175816296491
 20
7071.0742839425084
 30
0.0
 11
32981.842482296488
 21
7081.0742839425056
 31
0.0
  0
LINE
  5
233A
  8
FUTO
 10
32979.361739296481
 20
7071.0742839425047
 30
0.0
 11
32985.81360129649
 21
7081.0742839425056
 31
0.0
  0
LINE
  5
233B
  8
FUTO
 10
32915.175816296338
 20
6511.495350403954
 30
0.0
 11
32915.175816296527
 21
7119.6532174810973
 31
0.0
  0
LINE
  5
233C
  8
FUTO
 10
32915.175816296338
 20
6511.495350403954
 30
0.0
 11
32977.675816296309
 21
6511.4953504039386
 31
0.0
  0
LINE
  5
233D
  8
FUTO
 10
32915.175816296527
 20
7119.6532174810973
 30
0.0
 11
32995.175816296498
 21
7119.65321748107
 31
0.0
  0
LINE
  5
233E
  8
FUTO
 10
33615.17581629628
 20
6511.4953504037403
 30
0.0
 11
33615.175816296469
 21
7119.6532174808817
 31
0.0
  0
LINE
  5
233F
  8
FUTO
 10
33615.175816296462
 20
7119.6532174808817
 30
0.0
 11
33535.175816296498
 21
7119.6532174809017
 31
0.0
  0
LINE
  5
2340
  8
FUTO
 10
33615.17581629628
 20
6511.4953504037403
 30
0.0
 11
33552.675816296309
 21
6511.4953504037603
 31
0.0
  0
LINE
  5
2370
  8
FUTO
 10
35280.773393976873
 20
2233.4363234275179
 30
0.0
 11
35280.773393976851
 21
2148.583509427518
 31
0.0
  0
LINE
  5
2371
  8
FUTO
 10
35364.773393976888
 20
2335.9668064275002
 30
0.0
 11
35364.77339397683
 21
2077.9668064275002
 31
0.0
  0
LINE
  5
2372
  8
FUTO
 10
35364.773393976888
 20
2338.9668064275002
 30
0.0
 11
35364.77339397683
 21
2105.9668064275002
 31
0.0
  0
LINE
  5
2373
  8
FUTO
 10
35529.773393976859
 20
2181.972911427466
 30
0.0
 11
35529.773393976837
 21
2105.9668064274651
 31
0.0
  0
LINE
  5
2374
  8
FUTO
 10
35810.773393976859
 20
2185.4388434274028
 30
0.0
 11
35810.77339397683
 21
2105.9668064274028
 31
0.0
  0
LINE
  5
2375
  8
FUTO
 10
35935.773393976953
 20
2623.4668064273778
 30
0.0
 11
35935.77339397683
 21
2065.9668064273778
 31
0.0
  0
LINE
  5
2376
  8
CT
 10
35670.27339397683
 20
2037.0166904274349
 30
0.0
 11
35670.273393976968
 21
2668.7272805232919
 31
0.0
  0
LINE
  5
2377
  8
FUTO
 10
36190.773393976837
 20
2105.966806427321
 30
0.0
 11
36190.773393976931
 21
2565.9668064273219
 31
0.0
  0
LINE
  5
2378
  8
FUTO
 10
36130.773393976953
 20
2623.4668064273342
 30
0.0
 11
36130.77339397683
 21
2065.9668064273342
 31
0.0
  0
LINE
  5
2379
  8
FUTO
 10
35925.77339397683
 20
2065.9178664273791
 30
0.0
 11
35915.27339397683
 21
2065.9178664273809
 31
0.0
  0
LINE
  5
237C
  8
FUTO
 10
35545.27339397683
 20
2055.966806427462
 30
0.0
 11
35974.27339397683
 21
2055.9668064273692
 31
0.0
  0
ARC
  5
237D
  8
FUTO
 10
35313.108094976829
 20
2108.774241427509
 30
0.0
 40
10.0
 50
183.0000000000033
 51
225.0000000001105
  0
LINE
  5
237E
  8
FUTO
 10
35303.121798976827
 20
2108.2508824275119
 30
0.0
 11
35301.008055976847
 21
2148.5835094275121
 31
0.0
  0
LINE
  5
237F
  8
FUTO
 10
35280.773393976851
 20
2148.583509427518
 30
0.0
 11
35334.773393976851
 21
2148.5835094275049
 31
0.0
  0
LINE
  5
2380
  8
FUTO
 10
35509.77339397683
 20
2085.9668064274688
 30
0.0
 11
35429.77339397683
 21
2085.9668064274852
 31
0.0
  0
LINE
  5
2381
  8
FUTO
 10
35425.27339397683
 20
2055.966806427487
 30
0.0
 11
35545.27339397683
 21
2055.966806427462
 31
0.0
  0
LINE
  5
2383
  8
FUTO
 10
35364.773393976851
 20
2149.388065427499
 30
0.0
 11
35529.773393976851
 21
2149.388065427464
 31
0.0
  0
LINE
  5
2384
  8
FUTO
 10
35545.27339397683
 20
2055.966806427462
 30
0.0
 11
35366.27339397683
 21
2055.9668064275002
 31
0.0
  0
ARC
  5
238A
  8
FUTO
 10
35332.973563976833
 20
2088.9087724275082
 30
0.0
 40
10.0
 50
225.0000000001105
 51
267.99999999999602
  0
LINE
  5
238B
  8
FUTO
 10
35374.77339397683
 20
2105.9668064274979
 30
0.0
 11
35374.77339397683
 21
2104.102374427498
 31
0.0
  0
LINE
  5
238C
  8
FUTO
 10
35374.77339397683
 20
2105.9668064274979
 30
0.0
 11
35364.77339397683
 21
2105.9668064275002
 31
0.0
  0
ARC
  5
238D
  8
FUTO
 10
35430.27339397683
 20
2080.9668064274852
 30
0.0
 40
5.0
 50
90.0
 51
180.0
  0
LINE
  5
238E
  8
FUTO
 10
35414.77339397683
 20
2065.9178664274882
 30
0.0
 11
35425.27339397683
 21
2065.9178664274859
 31
0.0
  0
LINE
  5
238F
  8
FUTO
 10
35384.773393976837
 20
2069.7379754274939
 30
0.0
 11
35414.77339397683
 21
2065.9178664274882
 31
0.0
  0
LINE
  5
2390
  8
FUTO
 10
35374.77339397683
 20
2104.102374427498
 30
0.0
 11
35384.773393976837
 21
2069.7379754274939
 31
0.0
  0
LINE
  5
2391
  8
FUTO
 10
35332.624568976833
 20
2078.9148644275069
 30
0.0
 11
35364.77339397683
 21
2077.9668064275002
 31
0.0
  0
LINE
  5
2393
  8
FUTO
 10
35425.27339397683
 20
2080.966806427487
 30
0.0
 11
35425.27339397683
 21
2055.966806427487
 31
0.0
  0
LINE
  5
2394
  8
FUTO
 10
35366.27339397683
 20
2055.9668064275002
 30
0.0
 11
35366.2733939768
 21
1992.72703729554
 31
0.0
  0
ARC
  5
2398
  8
FUTO
 10
35509.77339397683
 20
2105.9668064274688
 30
0.0
 40
20.0
 50
270.0
 51
0.0
  0
LINE
  5
2399
  8
FUTO
 10
35550.27339397683
 20
2065.9668064274601
 30
0.0
 11
35670.27339397683
 21
2065.9668064274342
 31
0.0
  0
ARC
  5
239B
  8
FUTO
 10
35550.27339397683
 20
2060.9668064274588
 30
0.0
 40
5.0
 50
90.0
 51
180.0
  0
LINE
  5
239C
  8
FUTO
 10
35460.77339397683
 20
2089.7271784274772
 30
0.0
 11
35460.77339397683
 21
2053.0416384274781
 31
0.0
  0
ARC
  5
239D
  8
FUTO
 10
35830.773393976837
 20
2105.9668064274001
 30
0.0
 40
20.0
 50
180.0
 51
270.0
  0
ARC
  5
239E
  8
FUTO
 10
35910.27339397683
 20
2080.966806427381
 30
0.0
 40
5.0
 50
0.0
 51
90.0
  0
LINE
  5
239F
  8
FUTO
 10
35830.773393976837
 20
2085.9668064273992
 30
0.0
 11
35910.773393976837
 21
2085.9668064273819
 31
0.0
  0
LINE
  5
23A0
  8
FUTO
 10
35795.27339397683
 20
2060.9668064274069
 30
0.0
 11
35795.27339397683
 21
2055.9668064274069
 31
0.0
  0
LINE
  5
23A1
  8
FUTO
 10
35915.77339397683
 20
2055.966806427381
 30
0.0
 11
35795.27339397683
 21
2055.9668064274069
 31
0.0
  0
LINE
  5
23A2
  8
FUTO
 10
35915.27339397683
 20
2080.966806427381
 30
0.0
 11
35915.27339397683
 21
2055.966806427381
 31
0.0
  0
LINE
  5
23A3
  8
FUTO
 10
35879.77339397683
 20
2089.7271784273871
 30
0.0
 11
35879.77339397683
 21
2053.041638427389
 31
0.0
  0
ARC
  5
23A4
  8
FUTO
 10
35790.27339397683
 20
2060.9668064274092
 30
0.0
 40
5.0
 50
0.0
 51
90.0
  0
LINE
  5
23A5
  8
FUTO
 10
35790.27339397683
 20
2065.9668064274092
 30
0.0
 11
35670.27339397683
 21
2065.9668064274342
 31
0.0
  0
LINE
  5
23A6
  8
FUTO
 10
35325.902495976821
 20
2081.837705427507
 30
0.0
 11
35306.037026976832
 21
2101.703173427512
 31
0.0
  0
LINE
  5
23A7
  8
FUTO
 10
36149.034263976828
 20
2065.966806427331
 30
0.0
 11
35935.77339397683
 21
2065.9668064273778
 31
0.0
  0
LINE
  5
23A8
  8
FUTO
 10
35974.27339397683
 20
2055.9668064273692
 30
0.0
 11
35974.2733939768
 21
1992.7831070804971
 31
0.0
  0
LINE
  5
23A9
  8
FUTO
 10
36149.034263976828
 20
2065.966806427331
 30
0.0
 11
36190.773393976837
 21
2105.966806427321
 31
0.0
  0
LINE
  5
23AA
  8
FUTO
 10
35935.77339397683
 20
2067.1912364273762
 30
0.0
 11
35925.77339397683
 21
2065.9178664273791
 31
0.0
  0
LINE
  5
23AB
  8
FUTO
 10
35670.273393976953
 20
2621.7808834274329
 30
0.0
 11
35925.773393976953
 21
2621.7808834273792
 31
0.0
  0
LINE
  5
23AC
  8
FUTO
 10
35925.773393976953
 20
2625.9668064273801
 30
0.0
 11
35614.773393976953
 21
2625.966806427447
 31
0.0
  0
CIRCLE
  5
23AE
  8
FUTO
 10
35484.773393976982
 20
2760.9668064274738
 30
0.0
 40
59.0
  0
LINE
  5
23AF
  8
FUTO
 10
35358.173417976948
 20
2652.566755427501
 30
0.0
 11
35358.173417976999
 21
2847.4381654275012
 31
0.0
  0
LINE
  5
23B0
  8
FUTO
 10
35339.773393976961
 20
2671.9087394275061
 30
0.0
 11
35339.773393977011
 21
2856.6320594275039
 31
0.0
  0
LINE
  5
23B1
  8
CT
 10
35484.773393976997
 20
2830.5484564274748
 30
0.0
 11
35484.773393976968
 21
2687.4036504274741
 31
0.0
  0
LINE
  5
23B2
  8
FUTO
 10
35611.373399976997
 20
2847.4381654274462
 30
0.0
 11
35611.373399976961
 21
2652.5667974274461
 31
0.0
  0
LINE
  5
23B3
  8
FUTO
 10
35629.773393977011
 20
2856.632059427443
 30
0.0
 11
35629.773393976968
 21
2671.9087394274429
 31
0.0
  0
LINE
  5
23B4
  8
FUTO
 10
35287.273393976953
 20
2623.4668064275161
 30
0.0
 11
35287.273393976888
 21
2338.9668064275161
 31
0.0
  0
LINE
  5
23B5
  8
FUTO
 10
35387.273393976953
 20
2623.4668064274952
 30
0.0
 11
35387.273393976888
 21
2338.9668064274938
 31
0.0
  0
LINE
  5
23B6
  8
CT
 10
34888.068381770383
 20
2335.966806427622
 30
0.0
 11
36249.444750916911
 21
2335.9668064272068
 31
0.0
  0
LINE
  5
23B7
  8
KL
 10
35287.273393976888
 20
2338.9668064275161
 30
0.0
 11
35387.273393976888
 21
2338.9668064274938
 31
0.0
  0
LINE
  5
23B8
  8
FUTO
 10
35364.773393976859
 20
2226.3652554275
 30
0.0
 11
35280.773393976859
 21
2226.3652554275182
 31
0.0
  0
LINE
  5
23B9
  8
FUTO
 10
35100.77339397688
 20
2293.4668064275561
 30
0.0
 11
35100.77339397691
 21
2383.4668064275561
 31
0.0
  0
ARC
  5
23BA
  8
FUTO
 10
35282.773393976902
 20
2421.4668064275179
 30
0.0
 40
2.0
 50
90.0
 51
180.0
  0
LINE
  5
23BB
  8
FUTO
 10
35287.27339397691
 20
2423.4668064275161
 30
0.0
 11
35282.773393976902
 21
2423.4668064275179
 31
0.0
  0
LINE
  5
23BC
  8
FUTO
 10
35240.773393976902
 20
2378.466806427527
 30
0.0
 11
35240.773393976902
 21
2383.466806427527
 31
0.0
  0
LINE
  5
23BD
  8
FUTO
 10
35270.77339397691
 20
2385.9668064275202
 30
0.0
 11
35280.773393976902
 21
2385.9668064275179
 31
0.0
  0
LINE
  5
23BE
  8
FUTO
 10
35270.77339397688
 20
2285.9668064275202
 30
0.0
 11
35280.77339397688
 21
2285.9668064275179
 31
0.0
  0
ARC
  5
23BF
  8
FUTO
 10
35282.773393976873
 20
2250.4668064275179
 30
0.0
 40
2.0
 50
180.0
 51
270.0
  0
LINE
  5
23C0
  8
FUTO
 10
35287.621768976867
 20
2248.4668064275161
 30
0.0
 11
35282.773393976873
 21
2248.4668064275179
 31
0.0
  0
LINE
  5
23C1
  8
FUTO
 10
35285.773393976873
 20
2233.4363234275161
 30
0.0
 11
35280.773393976873
 21
2233.4363234275179
 31
0.0
  0
LINE
  5
23C3
  8
FUTO
 10
35280.773393976873
 20
2250.4668064275179
 30
0.0
 11
35280.773393976902
 21
2421.4668064275179
 31
0.0
  0
LINE
  5
23C4
  8
FUTO
 10
35270.77339397688
 20
2285.9668064275202
 30
0.0
 11
35270.77339397691
 21
2385.9668064275202
 31
0.0
  0
LINE
  5
23C6
  8
FUTO
 10
35100.77339397691
 20
2383.4668064275561
 30
0.0
 11
35240.773393976902
 21
2383.466806427527
 31
0.0
  0
LINE
  5
23C7
  8
FUTO
 10
35270.77339397691
 20
2378.4668064275202
 30
0.0
 11
35100.77339397691
 21
2378.4668064275561
 31
0.0
  0
LINE
  5
23C8
  8
FUTO
 10
35100.77339397688
 20
2293.4668064275561
 30
0.0
 11
35270.77339397688
 21
2293.4668064275202
 31
0.0
  0
ARC
  5
23CD
  8
FUTO
 10
35815.773393976859
 20
2185.4388434274028
 30
0.0
 40
5.0
 50
90.0
 51
180.0
  0
LINE
  5
23CE
  8
FUTO
 10
35287.273393976953
 20
2623.4668064275161
 30
0.0
 11
35387.273393976953
 21
2623.4668064274952
 31
0.0
  0
LINE
  5
23CF
  8
FUTO
 10
35599.773393976968
 20
2670.9668064274488
 30
0.0
 11
35369.773393976961
 21
2670.9668064274979
 31
0.0
  0
LINE
  5
23D0
  8
CT
 10
35391.292352976969
 20
2760.9668064274952
 30
0.0
 11
35571.215720976979
 21
2760.966806427456
 31
0.0
  0
LINE
  5
23D1
  8
FUTO
 10
35599.773393976961
 20
2640.9668064274488
 30
0.0
 11
35369.773393976961
 21
2640.9668064274979
 31
0.0
  0
LINE
  5
23D2
  8
FUTO
 10
35670.273393976953
 20
2621.7808834274329
 30
0.0
 11
35414.773393976953
 21
2621.7808834274879
 31
0.0
  0
LINE
  5
23D3
  8
FUTO
 10
35404.773393976961
 20
2630.9668064274911
 30
0.0
 11
35564.773393976961
 21
2630.966806427456
 31
0.0
  0
LINE
  5
23D4
  8
FUTO
 10
35358.173417976963
 20
2671.908739427502
 30
0.0
 11
35339.773393976961
 21
2671.9087394275061
 31
0.0
  0
ARC
  5
23D5
  8
FUTO
 10
35369.773271976963
 20
2682.5666944274972
 30
0.0
 40
11.599888
 50
179.99945399997631
 51
270.0006100000092
  0
LINE
  5
23D6
  8
FUTO
 10
35399.916485976952
 20
2612.1954114274931
 30
0.0
 11
35404.773393976953
 21
2620.6078224274911
 31
0.0
  0
LINE
  5
23D7
  8
FUTO
 10
35414.773393976953
 20
2621.7808834274879
 30
0.0
 11
35387.273393976953
 21
2604.0382634274952
 31
0.0
  0
LINE
  5
23D8
  8
FUTO
 10
35403.545965976948
 20
2618.4818544274922
 30
0.0
 11
35387.273393976953
 21
2607.6334734274942
 31
0.0
  0
LINE
  5
23D9
  8
FUTO
 10
35404.773393976953
 20
2620.6078224274911
 30
0.0
 11
35404.773393976961
 21
2640.9668064274911
 31
0.0
  0
ARC
  5
23DA
  8
FUTO
 10
35369.773393976961
 20
2652.5667554274978
 30
0.0
 40
11.599949000000001
 50
179.9997550000013
 51
270.0
  0
LINE
  5
23DB
  8
FUTO
 10
35564.773393976961
 20
2640.966806427456
 30
0.0
 11
35564.773393976953
 21
2621.7808834274551
 31
0.0
  0
ARC
  5
23DC
  8
FUTO
 10
35599.773424976956
 20
2682.5667824274492
 30
0.0
 40
11.599976
 50
269.99984700005228
 51
0.0001069999742915
  0
LINE
  5
23DD
  8
FUTO
 10
35611.373399976961
 20
2671.908739427447
 30
0.0
 11
35629.773393976968
 21
2671.9087394274429
 31
0.0
  0
ARC
  5
23DE
  8
FUTO
 10
35599.773393976968
 20
2652.5668034274481
 30
0.0
 40
11.600006
 50
270.0
 51
0.0000150000275647
  0
LINE
  5
23DF
  8
FUTO
 10
35614.773393976953
 20
2625.966806427447
 30
0.0
 11
35610.587470976949
 21
2621.780883427446
 31
0.0
  0
LINE
  5
23E0
  8
FUTO
 10
35339.773393977011
 20
2856.6320594275039
 30
0.0
 11
35629.773393977011
 21
2856.632059427443
 31
0.0
  0
LINE
  5
23E1
  8
FUTO
 10
35358.173417976999
 20
2847.4381654275012
 30
0.0
 11
35611.373399976997
 21
2847.4381654274462
 31
0.0
  0
LINE
  5
23E2
  8
FUTO
 10
35599.773393977011
 20
2889.024957427448
 30
0.0
 11
35369.773393977011
 21
2889.0249574274972
 31
0.0
  0
ARC
  5
23E3
  8
FUTO
 10
35369.773393977011
 20
2877.4250124274972
 30
0.0
 40
11.599976
 50
90.0
 51
180.0003050000046
  0
LINE
  5
23E4
  8
FUTO
 10
35358.173417976999
 20
2856.6320594275012
 30
0.0
 11
35358.173417977006
 21
2877.4249514275002
 31
0.0
  0
ARC
  5
23E5
  8
FUTO
 10
35599.773393977011
 20
2877.424967427447
 30
0.0
 40
11.599990999999999
 50
359.99992399997137
 51
90.0
  0
LINE
  5
23E6
  8
FUTO
 10
35611.373399976997
 20
2877.4249514274461
 30
0.0
 11
35611.373399976997
 21
2856.6320594274462
 31
0.0
  0
LINE
  5
23E8
  8
FUTO
 10
35935.773393976953
 20
2623.4668064273778
 30
0.0
 11
36130.773393976953
 21
2623.4668064273342
 31
0.0
  0
LINE
  5
23E9
  8
FUTO
 10
36130.773393976953
 20
2623.4668064273342
 30
0.0
 11
36190.773393976931
 21
2565.9668064273219
 31
0.0
  0
LINE
  5
23EA
  8
FUTO
 10
35925.773393976953
 20
2625.9668064273801
 30
0.0
 11
35935.773393976953
 21
2619.3001404273768
 31
0.0
  0
LINE
  5
23EB
  8
FUTO
 10
35925.773393976953
 20
2621.7808834273792
 30
0.0
 11
35935.773393976953
 21
2615.3290214273752
 31
0.0
  0
LINE
  5
2519
  8
SL
 10
33565.175816296229
 20
6432.2742839424182
 30
0.0
 11
33565.175816296229
 21
7119.6532174808954
 31
0.0
  0
LINE
  5
251A
  8
FUTO
 10
33665.175816296229
 20
7899.2742839424172
 30
0.0
 11
33665.175816296229
 21
7974.2742839424172
 31
0.0
  0
LINE
  5
251B
  8
FUTO
 10
33490.175816296229
 20
7336.0742839423492
 30
0.0
 11
33490.175816296229
 21
7899.2742839424172
 31
0.0
  0
LINE
  5
251C
  8
FUTO
 10
33565.175816296229
 20
7119.6532174808954
 30
0.0
 11
33565.175816296229
 21
7899.2742839424172
 31
0.0
  0
LINE
  5
251D
  8
SL
 10
33040.175816296229
 20
6432.2742839424163
 30
0.0
 11
33040.175816296229
 21
7336.0742839423483
 31
0.0
  0
LINE
  5
251E
  8
SL
 10
32965.175816296229
 20
6432.2742839424154
 30
0.0
 11
32965.175816296221
 21
7119.6532174808917
 31
0.0
  0
LINE
  5
251F
  8
FUTO
 10
32965.175816296221
 20
7119.6532174808917
 30
0.0
 11
32965.175816296221
 21
7899.2742839424172
 31
0.0
  0
LINE
  5
2520
  8
FUTO
 10
33040.175816296229
 20
7336.0742839423483
 30
0.0
 11
33040.175816296229
 21
7899.2742839424172
 31
0.0
  0
LINE
  5
2523
  8
FUTO
 10
29923.17581629624
 20
9532.2742839424227
 30
0.0
 11
31424.175816296229
 21
9532.2742839424227
 31
0.0
  0
LINE
  5
2524
  8
FUTO
 10
29923.17581629624
 20
7924.27428394242
 30
0.0
 11
31424.175816296229
 21
7924.2742839424182
 31
0.0
  0
LINE
  5
2525
  8
FUTO
 10
33642.175816296229
 20
7974.2742839424172
 30
0.0
 11
33665.175816296229
 21
7974.2742839424172
 31
0.0
  0
DIMENSION
  5
2555
  8
SP
  2
*D17
 10
29555.535967823362
 20
8728.2742839424172
 30
0.0
 11
29555.535967823362
 21
9164.0610926825648
 31
0.0
 70
   128
 13
30340.17577899127
 23
9633.2742839424191
 33
0.0
 14
29919.269067309091
 24
8728.2742839424172
 34
0.0
 50
90.0
1001
ACAD
1000
DSTYLE
1002
{
1070
   287
1070
     3
1070
    40
1040
45.0
1070
   140
1040
3.0
1070
   147
1040
0.5
1070
   173
1070
     1
1070
   279
1070
     0
1070
   341
1005
24
1070
     6
1000
OPEN
1070
     7
1000
OPEN
1002
}
  0
DIMENSION
  5
2562
  8
SP
  2
*D18
 10
29555.535967823362
 20
6128.2742839424236
 30
0.0
 11
29555.535967823362
 21
7428.2742839424227
 31
0.0
 70
   128
 13
29919.269067309091
 23
8728.2742839424172
 33
0.0
 14
30935.17577899127
 24
6128.2742839424227
 34
0.0
 50
90.0
1001
ACAD
1000
DSTYLE
1002
{
1070
   287
1070
     3
1070
    40
1040
45.0
1070
   140
1040
3.0
1070
   147
1040
0.5
1070
   173
1070
     1
1070
   279
1070
     0
1070
   341
1005
24
1070
     6
1000
OPEN
1070
     7
1000
OPEN
1002
}
  0
LINE
  5
259B
  8
KL
 10
32556.175816296229
 20
2404.6627205884351
 30
0.0
 11
32556.175816296229
 21
3270.0120600419991
 31
0.0
  0
LINE
  5
259C
  8
KL
 10
32565.175816296229
 20
2399.7393307043949
 30
0.0
 11
32565.175816296229
 21
3262.7279111233788
 31
0.0
  0
LINE
  5
259D
  8
KL
 10
32574.175816296229
 20
2394.8159408203542
 30
0.0
 11
32574.175816296229
 21
3255.4437622047581
 31
0.0
  0
LINE
  5
259E
  8
FUTO
 10
32574.175816296229
 20
3255.4437622047571
 30
0.0
 11
32574.175816296229
 21
3566.966806427567
 31
0.0
  0
LINE
  5
259F
  8
FUTO
 10
32565.175816296229
 20
3262.7279111233788
 30
0.0
 11
32565.175816296229
 21
3566.966806427567
 31
0.0
  0
LINE
  5
25A0
  8
FUTO
 10
32556.175816296229
 20
3270.0120600419991
 30
0.0
 11
32556.175816296229
 21
3566.966806427567
 31
0.0
  0
LINE
  5
25A1
  8
FUTO
 10
32167.030461205552
 20
3584.966806427567
 30
0.0
 11
33489.747439377992
 21
3584.966806427567
 31
0.0
  0
LINE
  5
25A2
  8
FUTO
 10
32178.150497452061
 20
3575.9668064275661
 30
0.0
 11
33526.802448659677
 21
3575.9668064275661
 31
0.0
  0
LINE
  5
25A3
  8
FUTO
 10
32189.27053369856
 20
3566.9668064275661
 30
0.0
 11
33489.747439377992
 21
3566.966806427567
 31
0.0
  0
LINE
  5
26BF
  8
SP
 10
33489.747439377992
 20
3584.966806427567
 30
0.0
 11
33489.747439377992
 21
3566.966806427567
 31
0.0
  0
LINE
  5
26C0
  8
FUTO
 10
32215.175816296229
 20
1985.9668064275661
 30
0.0
 11
31988.683602945352
 21
2715.105545308792
 31
0.0
  0
LINE
  5
26C1
  8
FUTO
 10
30615.175816296229
 20
1985.9668064275661
 30
0.0
 11
31023.07370745518
 21
3299.0987218775381
 31
0.0
  0
LINE
  5
26C3
  8
KL
 10
31215.175816296229
 20
3566.966806427567
 30
0.0
 11
30935.260198713309
 21
3566.966806427567
 31
0.0
  0
LINE
  5
26C4
  8
KL
 10
31215.175816296229
 20
3584.966806427567
 30
0.0
 11
30935.260198713309
 21
3584.966806427567
 31
0.0
  0
LINE
  5
26C5
  8
KL
 10
31215.175816296229
 20
3575.9668064275661
 30
0.0
 11
30935.175816296229
 21
3575.9668064275661
 31
0.0
  0
LINE
  5
26C6
  8
KL
 10
31215.175816296229
 20
3566.966806427567
 30
0.0
 11
31215.175816296229
 21
3584.966806427567
 31
0.0
  0
LINE
  5
26C7
  8
FUTO
 10
30935.260198713309
 20
3584.966806427567
 30
0.0
 11
29923.17581629624
 21
3584.966806427567
 31
0.0
  0
LINE
  5
26C8
  8
FUTO
 10
30935.260198713309
 20
3566.966806427567
 30
0.0
 11
29923.17581629624
 21
3566.966806427567
 31
0.0
  0
LINE
  5
26C9
  8
CT
 10
30526.676089422621
 20
3575.9668064275661
 30
0.0
 11
29851.332238462051
 21
3575.9668064275661
 31
0.0
  0
LINE
  5
26CD
  8
FUTO
 10
29923.17581629624
 20
3566.966806427567
 30
0.0
 11
29923.17581629624
 21
3584.966806427567
 31
0.0
  0
LINE
  5
26CE
  8
FUTO
 10
29923.17581629624
 20
7924.2742839424163
 30
0.0
 11
29923.17581629624
 21
9532.2742839424263
 31
0.0
  0
LINE
  5
26CF
  8
FUTO
 10
29973.175816296229
 20
7974.2742839424172
 30
0.0
 11
29973.175816296229
 21
9482.2742839424209
 31
0.0
  0
LINE
  5
26EE
  8
FUTO
 10
31499.175816296229
 20
7974.2742839424172
 30
0.0
 11
31499.175816296229
 21
9482.2742839424209
 31
0.0
  0
LINE
  5
26EF
  8
FUTO
 10
31424.175816296229
 20
7899.2742839424172
 30
0.0
 11
31424.175816296229
 21
9557.2742839424209
 31
0.0
  0
LINE
  5
26F0
  8
FUTO
 10
30265.175816296229
 20
7899.2742839424172
 30
0.0
 11
30265.175816296229
 21
7974.2742839424172
 31
0.0
  0
LINE
  5
26F1
  8
FUTO
 10
30265.175816296229
 20
9482.2742839424209
 30
0.0
 11
30265.175816296229
 21
9557.2742839424227
 31
0.0
  0
LINE
  5
26F2
  8
FUTO
 10
31499.175816296229
 20
7974.2742839424172
 30
0.0
 11
33567.175816295981
 21
7974.2742839424182
 31
0.0
  0
LINE
  5
26F3
  8
FUTO
 10
31499.175816296229
 20
9482.2742839424209
 30
0.0
 11
33567.175816294941
 21
9482.2742839424209
 31
0.0
  0
LINE
  5
26F5
  8
SL
 10
33567.17581629489
 20
9482.2742839424209
 30
0.0
 11
31499.175816296229
 21
7974.2742839424172
 31
0.0
  0
LINE
  5
26F6
  8
SL
 10
31499.175816296229
 20
9482.2742839424209
 30
0.0
 11
33567.175816295567
 21
7974.2742839424182
 31
0.0
  0
DIMENSION
  5
26F7
  8
FUTO
  2
*D19
 10
31415.175816296229
 20
10063.24007344832
 30
0.0
 11
32540.175816296229
 21
10153.24007344832
 31
0.0
 70
     0
 13
33665.175816296229
 23
7974.2742839424172
 33
0.0
 14
31415.175816296229
 24
9886.8926643764662
 34
0.0
 50
180.0
1001
ACAD
1000
DSTYLE
1002
{
1070
   287
1070
     3
1070
    40
1040
45.0
1070
   140
1040
3.0
1070
   147
1040
0.5
1070
   173
1070
     1
1070
   279
1070
     0
1070
   341
1005
24
1070
     6
1000
OPEN
1070
     7
1000
OPEN
1002
}
  0
DIMENSION
  5
2704
  8
FUTO
  2
*D20
 10
29923.17581629624
 20
10063.24007344832
 30
0.0
 11
30669.175816296229
 21
10153.24007344832
 31
0.0
 70
     0
 13
31415.175816296229
 23
9886.8926643764662
 33
0.0
 14
29923.17581629624
 24
9532.2742839424227
 34
0.0
 50
180.0
1001
ACAD
1000
DSTYLE
1002
{
1070
   287
1070
     3
1070
    40
1040
45.0
1070
   140
1040
3.0
1070
   147
1040
0.5
1070
   173
1070
     1
1070
   279
1070
     0
1070
   341
1005
24
1070
     6
1000
OPEN
1070
     7
1000
OPEN
1002
}
  0
DIMENSION
  5
2711
  8
FUTO
  2
*D21
 10
29676.069966000821
 20
3575.966806427567
 30
0.0
 11
29586.069966000821
 21
2690.9668064275711
 31
0.0
 70
     0
 13
30265.175816296229
 23
1805.9668064275661
 33
0.0
 14
29851.332238462051
 24
3575.9668064275661
 34
0.0
 50
90.0
1001
ACAD
1000
DSTYLE
1002
{
1070
   287
1070
     3
1070
    40
1040
45.0
1070
   140
1040
3.0
1070
   147
1040
0.5
1070
   173
1070
     1
1070
   279
1070
     0
1070
   341
1005
24
1070
     6
1000
OPEN
1070
     7
1000
OPEN
1002
}
  0
DIMENSION
  5
271E
  8
FUTO
  2
*D22
 10
29676.069966000821
 20
4850.9668064280231
 30
0.0
 11
29586.069966000821
 21
4213.4668064277994
 31
0.0
 70
     0
 13
29851.332238462051
 23
3575.9668064275661
 33
0.0
 14
31424.175816296229
 24
4850.9668064280222
 34
0.0
 50
90.0
1001
ACAD
1000
DSTYLE
1002
{
1070
   287
1070
     3
1070
    40
1040
45.0
1070
   140
1040
3.0
1070
   147
1040
0.5
1070
   173
1070
     1
1070
   279
1070
     0
1070
   341
1005
24
1070
     6
1000
OPEN
1070
     7
1000
OPEN
1002
}
  0
LINE
  5
272B
  8
SL
 10
33372.917064282861
 20
2477.027337697938
 30
0.0
 11
31606.37859441336
 21
3826.299580231343
 31
0.0
  0
LINE
  5
272C
  8
SL
 10
33175.64047645661
 20
2182.7033961829602
 30
0.0
 11
31256.28211460901
 21
3303.9782192329312
 31
0.0
  0
LINE
  5
272D
  8
FUTO
 10
33441.328450609602
 20
2553.6138818144332
 30
0.0
 11
31717.151760833429
 21
3949.0760785193561
 31
0.0
  0
LINE
  5
272E
  8
FUTO
 10
33130.796533326589
 20
2090.3202955454271
 30
0.0
 11
31184.811331205408
 21
3154.8585020582018
 31
0.0
  0
ARC
  5
272F
  8
FUTO
 10
33265.175816296229
 20
2335.9668064275561
 30
0.0
 40
310.0
 50
300.10230806831191
 51
180.0
  0
ARC
  5
2730
  8
FUTO
 10
31562.175816296229
 20
3722.9668064275661
 30
0.0
 40
1903.0
 50
294.10910014545141
 51
310.39876610008503
  0
LINE
  5
2731
  8
KL
 10
31023.07370745518
 20
3299.0987218775381
 30
0.0
 11
31065.589011818789
 21
3435.966806427567
 31
0.0
  0
LINE
  5
2732
  8
KL
 10
31988.683602945352
 20
2715.105545308792
 30
0.0
 11
31764.762620773668
 21
3435.966806427567
 31
0.0
  0
LINE
  5
2733
  8
FUTO
 10
38411.173393976889
 20
4775.9668064275656
 30
0.0
 11
36754.773393976888
 21
4775.9668064275684
 31
0.0
  0
LINE
  5
2734
  8
FUTO
 10
38411.173393976889
 20
4844.9668064275666
 30
0.0
 11
36754.773393976888
 21
4844.9668064275666
 31
0.0
  0
LINE
  5
2735
  8
FUTO
 10
38411.173393976889
 20
4850.9668064275666
 30
0.0
 11
36754.773393976888
 21
4850.9668064275666
 31
0.0
  0
LINE
  5
2736
  8
FUTO
 10
38411.173393976889
 20
4850.9668064281532
 30
0.0
 11
36754.773393976888
 21
4850.9668064289008
 31
0.0
  0
LINE
  5
2737
  8
FUTO
 10
38411.173393976889
 20
4850.9668064277103
 30
0.0
 11
36754.773393976888
 21
4850.9668064288389
 31
0.0
  0
DIMENSION
  5
28F2
  8
FUTO
  2
*D23
 10
37582.973393976892
 20
5327.0988118409514
 30
0.0
 11
38035.473393976892
 21
5417.0988118409514
 31
0.0
 70
     0
 13
38487.973393976899
 23
4650.9668064275656
 33
0.0
 14
37582.973393976892
 24
5259.6585834980688
 34
0.0
1001
ACAD
1000
DSTYLE
1002
{
1070
   287
1070
     3
1070
    40
1040
45.0
1070
   140
1040
3.0
1070
   147
1040
0.5
1070
   173
1070
     1
1070
   279
1070
     0
1070
   341
1005
24
1070
     6
1000
OPEN
1070
     7
1000
OPEN
1002
}
  0
LINE
  5
2FCC
  8
4
 10
38638.445703569269
 20
-501.3624403061275
 30
0.0
 11
38638.445703569269
 21
-1701.3624403061269
 31
0.0
  0
LINE
  5
2FCD
  8
4
 10
34438.445703569261
 20
-501.3624403061275
 30
0.0
 11
34438.445703569261
 21
-1701.3624403061269
 31
0.0
  0
LINE
  5
2FCE
  8
4
 10
31438.445703569269
 20
-501.3624403061275
 30
0.0
 11
31438.445703569269
 21
-1701.3624403061269
 31
0.0
  0
LINE
  5
2FD1
  8
4
 10
31438.445703569269
 20
-1701.3624403061269
 30
0.0
 11
38638.445703569269
 21
-1701.3624403061269
 31
0.0
  0
LINE
  5
2FD2
  8
4
 10
31438.445703569269
 20
-1101.3624403061269
 30
0.0
 11
38638.445703569269
 21
-1101.3624403061269
 31
0.0
  0
TEXT
  5
2FD3
  8
4
 10
31669.458188650678
 20
-912.10428510645033
 30
0.0
 40
300.0
  1
機器名称
  0
TEXT
  5
2FD4
  8
4
 10
31655.99433971805
 20
-1571.4914999140619
 30
0.0
 40
300.0
  1
機器型番
  0
TEXT
  5
2FD5
  8
4
 10
34467.204073775523
 20
-968.23862616444785
 30
0.0
 40
270.0
  1
ミツヤリミットロードファン
  0
TEXT
  5
2FD6
  8
4
 10
34658.372677082159
 20
-1598.4049346264669
 30
0.0
 40
300.0
  1
LL#12-1
  0
TEXT
  5
2FD8
  8
4
 10
29435.45126354594
 20
11701.92341688966
 30
0.0
 40
432.0
  1
遠心式片吸込片持リミットロードファン
  0
LINE
  5
2FD9
  8
4
 10
29038.445703569261
 20
11315.0900852827
 30
0.0
 11
38638.445703569269
 21
11315.0900852827
 31
0.0
  0
LINE
  5
2FDA
  8
4
 10
29038.445703569261
 20
12515.0900852827
 30
0.0
 11
38638.445703569269
 21
12515.0900852827
 31
0.0
  0
LINE
  5
2FDB
  8
4
 10
31438.445703569269
 20
-501.3624403061275
 30
0.0
 11
38638.445703569269
 21
-501.3624403061275
 31
0.0
  0
LINE
  5
2FDC
  8
4
 10
29038.445703569261
 20
12515.0900852827
 30
0.0
 11
29038.445703569261
 21
11315.0900852827
 31
0.0
  0
TEXT
  5
2FDD
  8
4
 10
36352.263059065008
 20
12735.00404866572
 30
0.0
 40
336.00000000000011
  1
No.
  0
TEXT
  5
2FDE
  8
4
 10
36437.516674450941
 20
10151.438663336279
 30
0.0
 40
323.99999999999989
  1
縮尺：1/60
  0
LINE
  5
2FDF
  8
4
 10
38638.445703569269
 20
12515.0900852827
 30
0.0
 11
38638.445703569269
 21
11315.0900852827
 31
0.0
  0
LINE
  5
2FE0
  8
4
 10
40138.445703569269
 20
14198.637559693871
 30
0.0
 11
40138.445703569269
 21
14198.637559693871
 31
0.0
  0
LINE
  5
2FE1
  8
4
 10
36182.150237728449
 20
12586.21905844627
 30
0.0
 11
36182.150237728449
 21
13218.55112899238
 31
0.0
  0
LINE
  5
2FE2
  8
4
 10
36182.150237728449
 20
13218.55112899238
 30
0.0
 11
38638.445703569269
 21
13218.55112899238
 31
0.0
  0
LINE
  5
2FE3
  8
4
 10
38638.445703569269
 20
13218.55112899238
 30
0.0
 11
38638.445703569269
 21
12586.21905844627
 31
0.0
  0
LINE
  5
2FE4
  8
4
 10
38638.445703569269
 20
12586.21905844627
 30
0.0
 11
36182.150237728449
 21
12586.21905844627
 31
0.0
  0
LINE
  5
2FE5
  8
4
 10
27538.445703569261
 20
-3501.3624403061272
 30
0.0
 11
27538.445703569261
 21
14198.637559693871
 31
0.0
  0
LINE
  5
2FE6
  8
4
 10
27538.445703569261
 20
14198.637559693871
 30
0.0
 11
40138.445703569269
 21
14198.637559693871
 31
0.0
  0
LINE
  5
2FE7
  8
4
 10
40138.445703569269
 20
14198.637559693871
 30
0.0
 11
40138.445703569269
 21
-3501.3624403061272
 31
0.0
  0
LINE
  5
2FE8
  8
4
 10
40138.445703569269
 20
-3501.3624403061272
 30
0.0
 11
27538.445703569261
 21
-3501.3624403061272
 31
0.0
  0
TEXT
  5
2FE9
  8
4
 10
32487.26277961607
 20
10759.20008695119
 30
0.0
 40
323.99999999999989
  1
床置防振ベット
  0
TEXT
  5
2FEA
  8
4
 10
29319.156328821879
 20
10777.70922430117
 30
0.0
 40
323.99999999999989
  1
左回転上向
  0
ENDSEC
  0
EOF
