  0
SECTION
  2
HEADER
  9
$ACADVER
  1
AC1009
  9
$INSBASE
 10
0.0
 20
0.0
 30
0.0
  9
$EXTMIN
 10
23023.696459179559
 20
-5528.3392335450226
 30
0.0
  9
$EXTMAX
 10
35623.69645917957
 20
12171.66076645497
 30
0.0
  9
$LIMMIN
 10
0.0
 20
0.0
  9
$LIMMAX
 10
297.0
 20
210.0
  9
$ORTHOMODE
 70
     0
  9
$REGENMODE
 70
     1
  9
$FILLMODE
 70
     1
  9
$QTEXTMODE
 70
     0
  9
$MIRRTEXT
 70
     0
  9
$DRAGMODE
 70
     2
  9
$LTSCALE
 40
225.0
  9
$OSMODE
 70
    37
  9
$ATTMODE
 70
     1
  9
$TEXTSIZE
 40
120.0
  9
$TRACEWID
 40
0.05
  9
$TEXTSTYLE
  7
STANDARD
  9
$CLAYER
  8
SP
  9
$CELTYPE
  6
BYLAYER
  9
$CECOLOR
 62
   256
  9
$DIMSCALE
 40
45.0
  9
$DIMASZ
 40
2.0
  9
$DIMEXO
 40
1.0
  9
$DIMDLI
 40
10.0
  9
$DIMRND
 40
0.0
  9
$DIMDLE
 40
0.0
  9
$DIMEXE
 40
1.0
  9
$DIMTP
 40
0.0
  9
$DIMTM
 40
0.0
  9
$DIMTXT
 40
3.0
  9
$DIMCEN
 40
0.0
  9
$DIMTSZ
 40
0.0
  9
$DIMTOL
 70
     0
  9
$DIMLIM
 70
     0
  9
$DIMTIH
 70
     0
  9
$DIMTOH
 70
     0
  9
$DIMSE1
 70
     0
  9
$DIMSE2
 70
     0
  9
$DIMTAD
 70
     1
  9
$DIMZIN
 70
     8
  9
$DIMBLK
  1

  9
$DIMASO
 70
     1
  9
$DIMSHO
 70
     1
  9
$DIMPOST
  1

  9
$DIMAPOST
  1

  9
$DIMALT
 70
     0
  9
$DIMALTD
 70
     2
  9
$DIMALTF
 40
25.399999999999999
  9
$DIMLFAC
 40
1.0
  9
$DIMTOFL
 70
     1
  9
$DIMTVP
 40
0.0
  9
$DIMTIX
 70
     0
  9
$DIMSOXD
 70
     0
  9
$DIMSAH
 70
     1
  9
$DIMBLK1
  1
OPEN
  9
$DIMBLK2
  1
OPEN
  9
$DIMSTYLE
  2
DIA1
  9
$DIMCLRD
 70
     2
  9
$DIMCLRE
 70
     2
  9
$DIMCLRT
 70
     2
  9
$DIMTFAC
 40
1.0
  9
$DIMGAP
 40
0.5
  9
$LUNITS
 70
     2
  9
$LUPREC
 70
     3
  9
$SKETCHINC
 40
0.1
  9
$FILLETRAD
 40
10.0
  9
$AUNITS
 70
     0
  9
$AUPREC
 70
     2
  9
$MENU
  1
acad
  9
$ELEVATION
 40
0.0
  9
$PELEVATION
 40
0.0
  9
$THICKNESS
 40
0.0
  9
$LIMCHECK
 70
     0
  9
$BLIPMODE
 70
     0
  9
$CHAMFERA
 40
10.0
  9
$CHAMFERB
 40
10.0
  9
$SKPOLY
 70
     0
  9
$TDCREATE
 40
2451270.426261805
  9
$TDUPDATE
 40
2454953.6373601961
  9
$TDINDWG
 40
0.8362558681
  9
$TDUSRTIMER
 40
0.8362558681
  9
$USRTIMER
 70
     1
  9
$ANGBASE
 50
0.0
  9
$ANGDIR
 70
     0
  9
$PDMODE
 70
     0
  9
$PDSIZE
 40
1.0
  9
$PLINEWID
 40
0.0
  9
$COORDS
 70
     1
  9
$SPLFRAME
 70
     0
  9
$SPLINETYPE
 70
     6
  9
$SPLINESEGS
 70
     8
  9
$ATTDIA
 70
     0
  9
$ATTREQ
 70
     1
  9
$HANDLING
 70
 10241
  9
$HANDSEED
  5
307D
  9
$SURFTAB1
 70
     6
  9
$SURFTAB2
 70
     6
  9
$SURFTYPE
 70
     6
  9
$SURFU
 70
     6
  9
$SURFV
 70
     6
  9
$UCSNAME
  2

  9
$UCSORG
 10
0.0
 20
0.0
 30
0.0
  9
$UCSXDIR
 10
1.0
 20
0.0
 30
0.0
  9
$UCSYDIR
 10
0.0
 20
1.0
 30
0.0
  9
$PUCSNAME
  2

  9
$PUCSORG
 10
0.0
 20
0.0
 30
0.0
  9
$PUCSXDIR
 10
1.0
 20
0.0
 30
0.0
  9
$PUCSYDIR
 10
0.0
 20
1.0
 30
0.0
  9
$USERI1
 70
     0
  9
$USERI2
 70
     0
  9
$USERI3
 70
     0
  9
$USERI4
 70
     0
  9
$USERI5
 70
     0
  9
$USERR1
 40
0.0
  9
$USERR2
 40
0.0
  9
$USERR3
 40
0.0
  9
$USERR4
 40
0.0
  9
$USERR5
 40
0.0
  9
$WORLDVIEW
 70
     1
  9
$SHADEDGE
 70
     3
  9
$SHADEDIF
 70
    70
  9
$TILEMODE
 70
     1
  9
$MAXACTVP
 70
    16
  9
$PLIMCHECK
 70
     0
  9
$PEXTMIN
 10
1.0000000000000000E+020
 20
1.0000000000000000E+020
 30
1.0000000000000000E+020
  9
$PEXTMAX
 10
-1.0000000000000000E+020
 20
-1.0000000000000000E+020
 30
-1.0000000000000000E+020
  9
$PLIMMIN
 10
0.0
 20
0.0
  9
$PLIMMAX
 10
12.0
 20
9.0
  9
$UNITMODE
 70
     0
  9
$VISRETAIN
 70
     0
  9
$PLINEGEN
 70
     0
  9
$PSLTSCALE
 70
     0
  0
ENDSEC
  0
SECTION
  2
TABLES
  0
TABLE
  2
VPORT
 70
     2
  0
VPORT
  2
*ACTIVE
 70
     0
 10
0.0
 20
0.0
 11
1.0
 21
1.0
 12
35016.122033081949
 22
-3517.924643123049
 13
0.0
 23
0.0
 14
5.0
 24
5.0
 15
0.0
 25
0.0
 16
0.0
 26
0.0
 36
1.0
 17
0.0
 27
0.0
 37
0.0
 40
5503.2759165830048
 41
3.1666666666666661
 42
50.0
 43
0.0
 44
0.0
 50
0.0
 51
0.0
 71
     0
 72
   100
 73
     1
 74
     0
 75
     0
 76
     0
 77
     0
 78
     0
  0
ENDTAB
  0
TABLE
  2
LTYPE
 70
     4
  0
LTYPE
  2
CONTINUOUS
 70
     0
  3
Solid line
 72
    65
 73
     0
 40
0.0
  0
LTYPE
  2
CENTER
 70
     0
  3
____ _ ____ _ ____ _ ____ _ ____ _ ____ _ ____ 
 72
    65
 73
     4
 40
2.0
 49
1.25
 49
-0.25
 49
0.25
 49
-0.25
  0
LTYPE
  2
HIDDEN
 70
     0
  3
__ __ __ __ __ __ __ __ __ __ __ __ __ __ __ __
 72
    65
 73
     2
 40
0.375
 49
0.25
 49
-0.125
  0
LTYPE
  2
PHANTOM
 70
     0
  3
______  __  __  ______  __  __  ______  __  __ 
 72
    65
 73
     6
 40
2.5
 49
1.25
 49
-0.25
 49
0.25
 49
-0.25
 49
0.25
 49
-0.25
  0
ENDTAB
  0
TABLE
  2
LAYER
 70
     9
  0
LAYER
  2
0
 70
     0
 62
     7
  6
CONTINUOUS
  0
LAYER
  2
CT
 70
     0
 62
     3
  6
CENTER
  0
LAYER
  2
FUTO
 70
     0
 62
     4
  6
CONTINUOUS
  0
LAYER
  2
HOSO
 70
     0
 62
     7
  6
CONTINUOUS
  0
LAYER
  2
KL
 70
     0
 62
     7
  6
HIDDEN
  0
LAYER
  2
SL
 70
     0
 62
     1
  6
PHANTOM
  0
LAYER
  2
SP
 70
     0
 62
     2
  6
CONTINUOUS
  0
LAYER
  2
DEFPOINTS
 70
     0
 62
     7
  6
CONTINUOUS
  0
LAYER
  2
4
 70
     0
 62
     7
  6
CONTINUOUS
  0
ENDTAB
  0
TABLE
  2
STYLE
 70
     1
  0
STYLE
  2
STANDARD
 70
     0
 40
0.0
 41
1.0
 50
15.0
 71
     0
 42
120.0
  3
C:\Program Files\AutoCAD LT\simplex.shx
  4
C:\Program Files\AutoCAD LT\extfont.shx
  0
ENDTAB
  0
TABLE
  2
VIEW
 70
     0
  0
ENDTAB
  0
TABLE
  2
UCS
 70
     0
  0
ENDTAB
  0
TABLE
  2
APPID
 70
     2
  0
APPID
  2
ACAD
 70
     0
  0
APPID
  2
CONTENTBLOCKICON
 70
     0
  0
ENDTAB
  0
TABLE
  2
DIMSTYLE
 70
     2
  0
DIMSTYLE
  2
DIA1
 70
     0
  3

  4

  5

  6

  7

 40
1.0
 41
2.0
 42
1.0
 43
10.0
 44
1.0
 45
0.0
 46
0.0
 47
0.0
 48
0.0
140
2.5
141
0.0
142
0.0
143
25.399999999999999
144
1.0
145
0.0
146
1.0
147
0.09
 71
     0
 72
     0
 73
     0
 74
     0
 75
     0
 76
     0
 77
     1
 78
     8
170
     0
171
     2
172
     1
173
     0
174
     0
175
     0
176
     2
177
     2
178
     2
  0
DIMSTYLE
  2
STANDARD
 70
     0
  3

  4

  5

  6

  7

 40
1.0
 41
0.18
 42
0.0625
 43
0.38
 44
0.18
 45
0.0
 46
0.0
 47
0.0
 48
0.0
140
0.18
141
0.09
142
0.0
143
25.399999999999999
144
1.0
145
0.0
146
1.0
147
0.09
 71
     0
 72
     0
 73
     1
 74
     1
 75
     0
 76
     0
 77
     0
 78
     0
170
     0
171
     2
172
     0
173
     0
174
     0
175
     0
176
     0
177
     0
178
     0
  0
ENDTAB
  0
ENDSEC
  0
SECTION
  2
BLOCKS
  0
BLOCK
  8
0
  2
$MODEL_SPACE
 70
     0
 10
0.0
 20
0.0
 30
0.0
  3
$MODEL_SPACE
  1

  0
ENDBLK
  5
7
  8
0
  0
BLOCK
 67
     1
  8
0
  2
$PAPER_SPACE
 70
     0
 10
0.0
 20
0.0
 30
0.0
  3
$PAPER_SPACE
  1

  0
ENDBLK
  5
A
 67
     1
  8
0
  0
BLOCK
  8
0
  2
_OPEN
 70
     0
 10
0.0
 20
0.0
 30
0.0
  3
_OPEN
  1

  0
LINE
  5
25
  8
0
  6
BYBLOCK
 62
     0
 10
-1.0
 20
0.1666666666666666
 30
0.0
 11
0.0
 21
0.0
 31
0.0
  0
LINE
  5
26
  8
0
  6
BYBLOCK
 62
     0
 10
0.0
 20
0.0
 30
0.0
 11
-1.0
 21
-0.1666666666666666
 31
0.0
  0
LINE
  5
27
  8
0
  6
BYBLOCK
 62
     0
 10
0.0
 20
0.0
 30
0.0
 11
-1.0
 21
0.0
 31
0.0
  0
ENDBLK
  5
29
  8
0
  0
BLOCK
  8
0
  2
_DOT
 70
     0
 10
0.0
 20
0.0
 30
0.0
  3
_DOT
  1

  0
POLYLINE
  5
16D
  8
0
  6
BYBLOCK
 62
     0
 66
     1
 10
0.0
 20
0.0
 30
0.0
 70
     1
 40
0.25
 41
0.25
  0
VERTEX
  5
3002
  8
0
  6
BYBLOCK
 62
     0
 10
-0.125
 20
0.0
 30
0.0
 42
1.0
  0
VERTEX
  5
3003
  8
0
  6
BYBLOCK
 62
     0
 10
0.125
 20
0.0
 30
0.0
 42
1.0
  0
SEQEND
  5
3004
  8
0
  6
BYBLOCK
 62
     0
  0
LINE
  5
171
  8
0
  6
BYBLOCK
 62
     0
 10
-0.25
 20
0.0
 30
0.0
 11
-1.0
 21
0.0
 31
0.0
  0
ENDBLK
  5
173
  8
0
  0
BLOCK
  8
0
  2
L-75-6
 70
     0
 10
0.0
 20
0.0
 30
0.0
  3
L-75-6
  1

  0
LINE
  5
293
  8
0
 10
114.6064614035558
 20
81.429596884474719
 30
0.0
 11
189.60646140355581
 21
81.429596884474719
 31
0.0
  0
LINE
  5
294
  8
0
 10
114.6064614035558
 20
81.429596884474719
 30
0.0
 11
114.6064614035558
 21
156.42959688447471
 31
0.0
  0
LINE
  5
295
  8
0
 10
189.60646140355581
 20
81.429596884474719
 30
0.0
 11
189.60646140355581
 21
83.429596884474705
 31
0.0
  0
LINE
  5
296
  8
0
 10
114.6064614035558
 20
156.42959688447471
 30
0.0
 11
116.6064614035558
 21
156.42959688447471
 31
0.0
  0
LINE
  5
297
  8
0
 10
120.6064614035558
 20
95.929596884474705
 30
0.0
 11
120.6064614035558
 21
152.42959688447471
 31
0.0
  0
LINE
  5
298
  8
0
 10
129.10646140355581
 20
87.429596884474719
 30
0.0
 11
185.60646140355581
 21
87.429596884474719
 31
0.0
  0
ARC
  5
299
  8
0
 10
185.60646140355581
 20
83.429596884474705
 30
0.0
 40
4.0
 50
0.0
 51
90.0
  0
ARC
  5
29A
  8
0
 10
116.6064614035558
 20
152.42959688447471
 30
0.0
 40
4.0
 50
0.0
 51
90.0
  0
ARC
  5
29B
  8
0
 10
129.10646140355581
 20
95.929596884474705
 30
0.0
 40
8.5
 50
180.0
 51
270.0
  0
ENDBLK
  5
29D
  8
0
  0
BLOCK
  8
0
  2
22222F
 70
     0
 10
0.0
 20
0.0
 30
0.0
  3
22222F
  1

  0
ARC
  5
228
  8
FUTO
 10
-0.0000000000000568
 20
0.0
 30
0.0
 40
130.0
 50
124.6637959032814
 51
175.3362040967184
  0
ARC
  5
229
  8
FUTO
 10
-0.0000000000000568
 20
0.0
 30
0.0
 40
130.0
 50
4.6637959032815717
 51
55.336204096718511
  0
ARC
  5
22A
  8
FUTO
 10
-0.0000000000000568
 20
0.0
 30
0.0
 40
115.0
 50
8.9772148936872895
 51
51.022785106312661
  0
ARC
  5
22B
  8
FUTO
 10
-0.0000000000000568
 20
0.0
 30
0.0
 40
115.0
 50
128.9772148936872
 51
171.02278510631271
  0
ARC
  5
22C
  8
FUTO
 10
-57.499999999999829
 20
99.592921435210386
 30
0.0
 40
18.0
 50
25.51139255315622
 51
214.4886074468437
  0
ARC
  5
22D
  8
FUTO
 10
57.5
 20
99.592921435210243
 30
0.0
 40
18.0
 50
325.51139255315621
 51
154.4886074468437
  0
LINE
  5
22E
  8
FUTO
 10
-110.0
 20
-127.0
 30
0.0
 11
-0.0000000000000568
 21
-127.0
 31
0.0
  0
ARC
  5
22F
  8
FUTO
 10
-0.0000000000000568
 20
0.0
 30
0.0
 40
115.0
 50
248.9772148936872
 51
291.0227851063126
  0
CIRCLE
  5
230
  8
FUTO
 10
-0.0000000000000568
 20
0.0
 30
0.0
 40
54.0
  0
LINE
  5
231
  8
CT
 10
-190.0
 20
-140.0
 30
0.0
 11
-190.0
 21
-70.0
 31
0.0
  0
LINE
  5
232
  8
FUTO
 10
-225.0
 20
-130.0
 30
0.0
 11
-110.0
 21
-130.0
 31
0.0
  0
LINE
  5
233
  8
FUTO
 10
-125.0000000000001
 20
-80.0
 30
0.0
 11
-222.0
 21
-80.0
 31
0.0
  0
ARC
  5
234
  8
FUTO
 10
-222.0
 20
-83.0
 30
0.0
 40
3.0
 50
90.0
 51
180.0
  0
LINE
  5
235
  8
FUTO
 10
-225.0
 20
-83.0
 30
0.0
 11
-225.0
 21
-130.0
 31
0.0
  0
LINE
  5
236
  8
FUTO
 10
-129.99999999999929
 20
-9.9498743710669828
 30
0.0
 11
-130.0
 21
-60.0
 31
0.0
  0
ARC
  5
237
  8
FUTO
 10
-0.0000000000000568
 20
0.0
 30
0.0
 40
115.0
 50
188.9772148936872
 51
231.02278510631271
  0
LINE
  5
238
  8
FUTO
 10
-125.0000000000001
 20
-80.0
 30
0.0
 11
-110.0000000000001
 21
-95.0
 31
0.0
  0
ARC
  5
239
  8
FUTO
 10
-150.0
 20
-60.0
 30
0.0
 40
20.0
 50
270.0
 51
0.0
  0
LINE
  5
23A
  8
FUTO
 10
-110.0
 20
-130.0
 30
0.0
 11
-110.0000000000001
 21
-95.0
 31
0.0
  0
ARC
  5
23B
  8
FUTO
 10
-57.500000000000057
 20
-99.592921435210542
 30
0.0
 40
18.0
 50
145.51139255315621
 51
334.48860744684367
  0
ARC
  5
23C
  8
FUTO
 10
-115.0
 20
0.0
 30
0.0
 40
18.0
 50
85.511392553156256
 51
274.48860744684367
  0
LINE
  5
23D
  8
CT
 10
190.0
 20
-140.0
 30
0.0
 11
190.0
 21
-70.0
 31
0.0
  0
ARC
  5
23E
  8
FUTO
 10
150.0
 20
-60.0
 30
0.0
 40
20.0
 50
180.0
 51
270.0
  0
LINE
  5
23F
  8
FUTO
 10
222.0000000000004
 20
-80.0
 30
0.0
 11
124.9999999999997
 21
-80.0
 31
0.0
  0
LINE
  5
240
  8
FUTO
 10
110.0
 20
-130.0
 30
0.0
 11
225.0
 21
-130.0
 31
0.0
  0
LINE
  5
241
  8
FUTO
 10
130.0
 20
-60.0
 30
0.0
 11
130.0
 21
-9.9498743710661302
 31
0.0
  0
ARC
  5
242
  8
FUTO
 10
-0.0000000000000568
 20
0.0
 30
0.0
 40
115.0
 50
308.97721489368718
 51
351.02278510631271
  0
LINE
  5
243
  8
FUTO
 10
-0.0000000000000568
 20
-127.0
 30
0.0
 11
110.0
 21
-127.0
 31
0.0
  0
ARC
  5
244
  8
FUTO
 10
57.5
 20
-99.592921435210542
 30
0.0
 40
18.0
 50
205.51139255315621
 51
34.488607446843737
  0
LINE
  5
245
  8
FUTO
 10
109.9999999999997
 20
-95.0
 30
0.0
 11
124.9999999999997
 21
-80.0
 31
0.0
  0
LINE
  5
246
  8
FUTO
 10
109.9999999999997
 20
-95.0
 30
0.0
 11
110.0
 21
-130.0
 31
0.0
  0
ARC
  5
247
  8
FUTO
 10
115.0
 20
0.0
 30
0.0
 40
18.0
 50
265.51139255315621
 51
94.488607446843773
  0
ARC
  5
248
  8
FUTO
 10
222.0000000000004
 20
-83.0
 30
0.0
 40
3.0
 50
0.0
 51
90.0
  0
LINE
  5
249
  8
FUTO
 10
225.0
 20
-130.0
 30
0.0
 11
225.0000000000004
 21
-83.0
 31
0.0
  0
LINE
  5
24A
  8
FUTO
 10
19.227247756821669
 20
132.99999999999989
 30
0.0
 11
-19.227247756821779
 21
132.99999999999989
 31
0.0
  0
ARC
  5
24B
  8
FUTO
 10
-0.0000000000000568
 20
0.0
 30
0.0
 40
115.0
 50
68.977214893687218
 51
111.0227851063126
  0
ARC
  5
24C
  8
FUTO
 10
-0.0000000000000568
 20
0.0
 30
0.0
 40
130.0
 50
98.505358450480756
 51
115.3362040967184
  0
LINE
  5
24D
  8
FUTO
 10
-19.227247756821779
 20
113.3812724558063
 30
0.0
 11
-19.227247756821779
 21
132.99999999999989
 31
0.0
  0
ARC
  5
24E
  8
FUTO
 10
-0.0000000000000568
 20
0.0
 30
0.0
 40
130.0
 50
64.663795903281382
 51
81.494641549519287
  0
LINE
  5
24F
  8
FUTO
 10
19.227247756821669
 20
113.3812724558063
 30
0.0
 11
19.227247756821669
 21
132.99999999999989
 31
0.0
  0
ENDBLK
  5
251
  8
0
  0
BLOCK
  8
0
  2
まっすぐの矢印
 70
     0
 10
0.0
 20
0.0
 30
0.0
  3
まっすぐの矢印
  1

  0
LINE
  5
2CF
  8
SP
 10
0.6962157491662495
 20
-2.216890595009601
 30
0.0
 11
0.6962157491662495
 21
-5.0
 31
0.0
  0
LINE
  5
2D0
  8
SP
 10
0.6962157491662495
 20
-5.0
 30
0.0
 11
-0.6962157491662495
 21
-5.0
 31
0.0
  0
LINE
  5
2D1
  8
SP
 10
-0.6962157491662495
 20
-5.0
 30
0.0
 11
-0.6962157491662495
 21
-2.216890595009601
 31
0.0
  0
LINE
  5
2D2
  8
SP
 10
-0.6962157491662495
 20
-2.216890595009601
 30
0.0
 11
-1.7145256852758151
 21
-2.216890595009601
 31
0.0
  0
LINE
  5
2D3
  8
SP
 10
-1.7145256852758151
 20
-2.216890595009601
 30
0.0
 11
0.0
 21
0.0
 31
0.0
  0
LINE
  5
2D4
  8
SP
 10
0.0
 20
0.0
 30
0.0
 11
1.7145256852758151
 21
-2.216890595009601
 31
0.0
  0
LINE
  5
2D5
  8
SP
 10
1.7145256852758151
 20
-2.216890595009601
 30
0.0
 11
0.6962157491662495
 21
-2.216890595009601
 31
0.0
  0
ENDBLK
  5
2D7
  8
0
  0
BLOCK
  8
0
  2
右回転矢印
 70
     0
 10
0.0
 20
0.0
 30
0.0
  3
右回転矢印
  1

  0
LINE
  5
1E3
  8
SP
 10
-2.7705290305565882
 20
1.567794835092901
 30
0.0
 11
-2.4288000558398148
 21
2.8051227455822878
 31
0.0
  0
LINE
  5
1E4
  8
SP
 10
-2.4288000558398148
 20
2.8051227455822878
 30
0.0
 11
0.0
 21
0.0
 31
0.0
  0
LINE
  5
1E5
  8
SP
 10
0.0
 20
0.0
 30
0.0
 11
-3.3160037613098718
 21
-0.4072531086382499
 31
0.0
  0
LINE
  5
1E6
  8
SP
 10
-3.3160037613098718
 20
-0.4072531086382499
 30
0.0
 11
-3.0391574735299112
 21
0.5951483970269315
 31
0.0
  0
ARC
  5
1E7
  8
SP
 10
-5.9215210782018062
 20
-9.8412769578768184
 30
0.0
 40
10.82714154973578
 50
74.560750721316467
 51
112.11861101078711
  0
LINE
  5
1E8
  8
SP
 10
-9.9982127316752951
 20
0.1890560027239694
 30
0.0
 11
-10.37814929817227
 21
1.1238557349100611
 31
0.0
  0
ARC
  5
1E9
  8
SP
 10
-5.9215210782018062
 20
-9.8412769578768291
 30
0.0
 40
11.83620167374065
 50
74.560750721316396
 51
112.11861101078701
  0
ENDBLK
  5
1EB
  8
0
  0
BLOCK
  8
0
  2
*D6
 70
     1
 10
0.0
 20
0.0
 30
0.0
  3
*D6
  1

  0
LINE
  5
2F38
  8
SP
 62
     2
 10
29528.050427651211
 20
-1038.0149546304719
 30
0.0
 11
29528.050427651211
 21
-1705.6356816443581
 31
0.0
  0
LINE
  5
2F39
  8
SP
 62
     2
 10
27278.050427651218
 20
-1038.0149546304719
 30
0.0
 11
27278.050427651218
 21
-1705.6356816443581
 31
0.0
  0
LINE
  5
2F3A
  8
SP
 62
     2
 10
29438.050427651211
 20
-1660.6356816443581
 30
0.0
 11
27368.050427651218
 21
-1660.6356816443581
 31
0.0
  0
INSERT
  5
2F3B
  8
SP
 62
     2
  2
_OPEN
 10
29528.050427651211
 20
-1660.6356816443581
 30
0.0
 41
90.0
 42
90.0
 43
90.0
  0
INSERT
  5
2F3C
  8
SP
 62
     2
  2
_OPEN
 10
27278.050427651218
 20
-1660.6356816443581
 30
0.0
 41
90.0
 42
90.0
 43
90.0
 50
180.0
  0
TEXT
  5
2F3D
  8
SP
 62
     2
 10
28153.766061064802
 20
-1638.1356816443581
 30
0.0
 40
135.0
  1
2250
 51
15.0
  0
POINT
  5
2F3E
  8
DEFPOINTS
 62
     0
 10
29528.050427651211
 20
-993.01495463047286
 30
0.0
  0
POINT
  5
2F3F
  8
DEFPOINTS
 62
     0
 10
27278.050427651218
 20
-993.01495463047286
 30
0.0
  0
POINT
  5
2F40
  8
DEFPOINTS
 62
     0
 10
27278.050427651218
 20
-1660.6356816443581
 30
0.0
  0
ENDBLK
  5
A67
  8
0
  0
BLOCK
  8
0
  2
*D7
 70
     1
 10
0.0
 20
0.0
 30
0.0
  3
*D7
  1

  0
LINE
  5
2F72
  8
SP
 62
     2
 10
27278.050427651218
 20
-1038.0149546304719
 30
0.0
 11
27278.050427651218
 21
-1705.6356816443581
 31
0.0
  0
LINE
  5
2F73
  8
SP
 62
     2
 10
26128.050427651218
 20
-1038.0149546304719
 30
0.0
 11
26128.050427651218
 21
-1705.6356816443581
 31
0.0
  0
LINE
  5
2F74
  8
SP
 62
     2
 10
27188.050427651218
 20
-1660.6356816443581
 30
0.0
 11
26218.050427651218
 21
-1660.6356816443581
 31
0.0
  0
INSERT
  5
2F75
  8
SP
 62
     2
  2
_OPEN
 10
27278.050427651218
 20
-1660.6356816443581
 30
0.0
 41
90.0
 42
90.0
 43
90.0
  0
INSERT
  5
2F76
  8
SP
 62
     2
  2
_OPEN
 10
26128.050427651218
 20
-1660.6356816443581
 30
0.0
 41
90.0
 42
90.0
 43
90.0
 50
180.0
  0
TEXT
  5
2F77
  8
SP
 62
     2
 10
26464.83883733553
 20
-1638.1356816443581
 30
0.0
 40
135.0
  1
1150
 51
15.0
  0
POINT
  5
2F78
  8
DEFPOINTS
 62
     0
 10
27278.050427651218
 20
-993.01495463047286
 30
0.0
  0
POINT
  5
2F79
  8
DEFPOINTS
 62
     0
 10
26128.050427651218
 20
-993.01495463047286
 30
0.0
  0
POINT
  5
2F7A
  8
DEFPOINTS
 62
     0
 10
26128.050427651218
 20
-1660.6356816443581
 30
0.0
  0
ENDBLK
  5
A74
  8
0
  0
BLOCK
  8
0
  2
*D8
 70
     1
 10
0.0
 20
0.0
 30
0.0
  3
*D8
  1

  0
LINE
  5
2FE5
  8
SP
 10
26128.050427651218
 20
-1038.0149546304719
 30
0.0
 11
26128.050427651218
 21
-2000.9685785445611
 31
0.0
  0
LINE
  5
2FE6
  8
SP
 10
29528.050427651211
 20
-1038.0149546304719
 30
0.0
 11
29528.050427651211
 21
-2000.9685785445611
 31
0.0
  0
LINE
  5
2FE7
  8
SP
 10
26218.050427651218
 20
-1955.9685785445611
 30
0.0
 11
29438.050427651211
 21
-1955.9685785445611
 31
0.0
  0
INSERT
  5
2FE8
  8
SP
  2
_OPEN
 10
26128.050427651218
 20
-1955.9685785445611
 30
0.0
 41
90.0
 42
90.0
 43
90.0
 50
180.0
  0
INSERT
  5
2FE9
  8
SP
  2
_OPEN
 10
29528.050427651211
 20
-1955.9685785445611
 30
0.0
 41
90.0
 42
90.0
 43
90.0
  0
TEXT
  8
0
  40
135
  5
306E
  72
0
  71
0
 10
27558.1
 20
-2104.92
 30
0.000000
  1
3400
  0
POINT
  5
2FEB
  8
DEFPOINTS
 62
     0
 10
26128.050427651218
 20
-993.01495463047286
 30
0.0
  0
POINT
  5
2FEC
  8
DEFPOINTS
 62
     0
 10
29528.050427651211
 20
-993.01495463047286
 30
0.0
  0
POINT
  5
2FED
  8
DEFPOINTS
 62
     0
 10
29528.050427651211
 20
-1955.9685785445611
 30
0.0
  0
ENDBLK
  5
14BE
  8
0
  0
BLOCK
  8
0
  2
*D9
 70
     1
 10
0.0
 20
0.0
 30
0.0
  3
*D9
  1

  0
LINE
  5
2FEE
  8
SP
 10
25934.708861822019
 20
806.98504536952726
 30
0.0
 11
25493.9445773558
 21
806.98504536952726
 31
0.0
  0
LINE
  5
2FEF
  8
SP
 10
26117.017758237369
 20
-673.01495463047274
 30
0.0
 11
25493.9445773558
 21
-673.01495463047274
 31
0.0
  0
LINE
  5
2FF0
  8
SP
 10
25538.9445773558
 20
716.98504536952726
 30
0.0
 11
25538.9445773558
 21
-583.01495463047274
 31
0.0
  0
INSERT
  5
2FF1
  8
SP
  2
_OPEN
 10
25538.9445773558
 20
806.98504536952726
 30
0.0
 41
90.0
 42
90.0
 43
90.0
 50
90.0
  0
INSERT
  5
2FF2
  8
SP
  2
_OPEN
 10
25538.9445773558
 20
-673.01495463047274
 30
0.0
 41
90.0
 42
90.0
 43
90.0
 50
270.0
  0
TEXT
  8
0
  40
135
  5
306F
  72
0
  71
0
 10
25178.9
 20
-161.477
 30
0.000000
  1
1480
  0
POINT
  5
2FF4
  8
DEFPOINTS
 62
     0
 10
25979.708861822019
 20
806.98504536952726
 30
0.0
  0
POINT
  5
2FF5
  8
DEFPOINTS
 62
     0
 10
26162.017758237369
 20
-673.01495463047274
 30
0.0
  0
POINT
  5
2FF6
  8
DEFPOINTS
 62
     0
 10
25538.9445773558
 20
-673.01495463047274
 30
0.0
  0
ENDBLK
  5
14CA
  8
0
  0
BLOCK
  8
0
  2
*D10
 70
     1
 10
0.0
 20
0.0
 30
0.0
  3
*D10
  1

  0
LINE
  5
2FF7
  8
SP
 10
26117.017758237369
 20
-813.01495463047274
 30
0.0
 11
25493.9445773558
 21
-813.01495463047274
 31
0.0
  0
LINE
  5
2FF8
  8
SP
 10
26117.017758237369
 20
-993.01495463047286
 30
0.0
 11
25493.9445773558
 21
-993.01495463047274
 31
0.0
  0
LINE
  5
2FF9
  8
SP
 10
25538.9445773558
 20
-723.01495463047274
 30
0.0
 11
25538.9445773558
 21
-633.01495463047274
 31
0.0
  0
LINE
  5
2FFA
  8
SP
 10
25538.9445773558
 20
-1083.0149546304719
 30
0.0
 11
25538.9445773558
 21
-1533.0149546304719
 31
0.0
  0
LINE
  5
2FFB
  8
SP
 10
25538.9445773558
 20
-813.01495463047274
 30
0.0
 11
25538.9445773558
 21
-993.01495463047274
 31
0.0
  0
INSERT
  5
2FFC
  8
SP
  2
_DOT
 10
25538.9445773558
 20
-813.01495463047274
 30
0.0
 41
90.0
 42
90.0
 43
90.0
 50
270.0
  0
INSERT
  5
2FFD
  8
SP
  2
_OPEN
 10
25538.9445773558
 20
-993.01495463047274
 30
0.0
 41
90.0
 42
90.0
 43
90.0
 50
90.0
  0
TEXT
  8
0
  40
135
  5
3070
  72
0
  71
0
 10
25178.9
 20
-1591.96
 30
0.000000
  1
180
  0
POINT
  5
2FFF
  8
DEFPOINTS
 62
     0
 10
26162.017758237369
 20
-813.01495463047274
 30
0.0
  0
POINT
  5
3000
  8
DEFPOINTS
 62
     0
 10
26162.017758237369
 20
-993.01495463047286
 30
0.0
  0
POINT
  5
3001
  8
DEFPOINTS
 62
     0
 10
25538.9445773558
 20
-993.01495463047274
 30
0.0
  0
ENDBLK
  5
14D8
  8
0
  0
BLOCK
  8
0
  2
*D11
 70
     1
 10
0.0
 20
0.0
 30
0.0
  3
*D11
  1

  0
LINE
  5
3005
  8
SP
 10
27278.050427651218
 20
3052.3678926661992
 30
0.0
 11
27278.050427651218
 21
3515.0504052202632
 31
0.0
  0
LINE
  5
3006
  8
SP
 10
26003.050427651218
 20
3078.9850453695271
 30
0.0
 11
26003.050427651218
 21
3515.0504052202632
 31
0.0
  0
LINE
  5
3007
  8
SP
 10
27188.050427651218
 20
3470.0504052202632
 30
0.0
 11
26093.050427651218
 21
3470.0504052202632
 31
0.0
  0
INSERT
  5
3008
  8
SP
  2
_OPEN
 10
27278.050427651218
 20
3470.0504052202632
 30
0.0
 41
90.0
 42
90.0
 43
90.0
  0
INSERT
  5
3009
  8
SP
  2
_OPEN
 10
26003.050427651218
 20
3470.0504052202632
 30
0.0
 41
90.0
 42
90.0
 43
90.0
 50
180.0
  0
TEXT
  8
0
  40
135
  5
3071
  72
0
  71
0
 10
26370.6
 20
3321.10
 30
0.000000
  1
1275
  0
POINT
  5
300B
  8
DEFPOINTS
 62
     0
 10
27278.050427651218
 20
3007.3678926661992
 30
0.0
  0
POINT
  5
300C
  8
DEFPOINTS
 62
     0
 10
26003.050427651218
 20
3033.9850453695271
 30
0.0
  0
POINT
  5
300D
  8
DEFPOINTS
 62
     0
 10
26003.050427651218
 20
3470.0504052202632
 30
0.0
  0
ENDBLK
  5
14E7
  8
0
  0
BLOCK
  8
0
  2
*D12
 70
     1
 10
0.0
 20
0.0
 30
0.0
  3
*D12
  1

  0
LINE
  5
300E
  8
SP
 10
33756.79003722209
 20
1806.9850453695269
 30
0.0
 11
34250.979755601118
 21
1806.9850453695269
 31
0.0
  0
LINE
  5
300F
  8
SP
 10
33756.79003722209
 20
-193.0149546304728
 30
0.0
 11
34250.979755601118
 21
-193.014954630473
 31
0.0
  0
LINE
  5
3010
  8
SP
 10
34205.979755601118
 20
1716.9850453695269
 30
0.0
 11
34205.979755601118
 21
-103.014954630473
 31
0.0
  0
INSERT
  5
3011
  8
SP
  2
_OPEN
 10
34205.979755601118
 20
1806.9850453695269
 30
0.0
 41
90.0
 42
90.0
 43
90.0
 50
90.0
  0
INSERT
  5
3012
  8
SP
  2
_OPEN
 10
34205.979755601118
 20
-193.01495463047289
 30
0.0
 41
90.0
 42
90.0
 43
90.0
 50
270.0
  0
TEXT
  8
0
  40
135
  5
3072
  72
0
  71
0
 10
33846.0
 20
568.035
 30
0.000000
  1
%%C2000
  0
POINT
  5
3014
  8
DEFPOINTS
 62
     0
 10
33711.79003722209
 20
1806.9850453695269
 30
0.0
  0
POINT
  5
3015
  8
DEFPOINTS
 62
     0
 10
33711.79003722209
 20
-193.0149546304728
 30
0.0
  0
POINT
  5
3016
  8
DEFPOINTS
 62
     0
 10
34205.979755601118
 20
-193.01495463047289
 30
0.0
  0
ENDBLK
  5
1561
  8
0
  0
BLOCK
  8
0
  2
*D13
 70
     1
 10
0.0
 20
0.0
 30
0.0
  3
*D13
  1

  0
LINE
  5
3017
  8
SP
 10
32806.79003722209
 20
3376.1628146042631
 30
0.0
 11
32806.79003722209
 21
3492.1224779262729
 31
0.0
  0
LINE
  5
3018
  8
SP
 10
33711.79003722209
 20
1926.9850453695269
 30
0.0
 11
33711.79003722209
 21
3492.1224779262729
 31
0.0
  0
LINE
  5
3019
  8
SP
 10
32896.790037222097
 20
3447.1224779262739
 30
0.0
 11
33621.79003722209
 21
3447.1224779262739
 31
0.0
  0
INSERT
  5
301A
  8
SP
  2
_OPEN
 10
32806.79003722209
 20
3447.1224779262739
 30
0.0
 41
90.0
 42
90.0
 43
90.0
 50
180.0
  0
INSERT
  5
301B
  8
SP
  2
_OPEN
 10
33711.79003722209
 20
3447.1224779262739
 30
0.0
 41
90.0
 42
90.0
 43
90.0
  0
TEXT
  8
0
  40
135
  5
3073
  72
0
  71
0
 10
32989.3
 20
3298.17
 30
0.000000
  1
905
  0
POINT
  5
301D
  8
DEFPOINTS
 62
     0
 10
32806.79003722209
 20
3331.162814604264
 30
0.0
  0
POINT
  5
301E
  8
DEFPOINTS
 62
     0
 10
33711.79003722209
 20
1881.9850453695269
 30
0.0
  0
POINT
  5
301F
  8
DEFPOINTS
 62
     0
 10
33711.79003722209
 20
3447.1224779262739
 30
0.0
  0
ENDBLK
  5
1576
  8
0
  0
BLOCK
  8
0
  2
*D14
 70
     1
 10
0.0
 20
0.0
 30
0.0
  3
*D14
  1

  0
LINE
  5
3020
  8
SP
 62
     2
 10
30435.79003722209
 20
-1038.0149546304719
 30
0.0
 11
30435.79003722209
 21
-1711.0923748987191
 31
0.0
  0
LINE
  5
3021
  8
SP
 62
     2
 10
32806.79003722209
 20
-1038.0149546304719
 30
0.0
 11
32806.79003722209
 21
-1711.0923748987191
 31
0.0
  0
LINE
  5
3022
  8
SP
 62
     2
 10
30525.79003722209
 20
-1666.0923748987179
 30
0.0
 11
32716.79003722209
 21
-1666.0923748987179
 31
0.0
  0
INSERT
  5
3023
  8
SP
 62
     2
  2
_OPEN
 10
30435.79003722209
 20
-1666.0923748987179
 30
0.0
 41
90.0
 42
90.0
 43
90.0
 50
180.0
  0
INSERT
  5
3024
  8
SP
 62
     2
  2
_OPEN
 10
32806.79003722209
 20
-1666.0923748987179
 30
0.0
 41
90.0
 42
90.0
 43
90.0
  0
TEXT
  8
0
  40
135
  5
3074
  62
2
  72
0
  71
0
 10
31351.3
 20
-1815.04
 30
0.000000
  1
2371
  0
POINT
  5
3026
  8
DEFPOINTS
 62
     0
 10
30435.79003722209
 20
-993.01495463047286
 30
0.0
  0
POINT
  5
3027
  8
DEFPOINTS
 62
     0
 10
32806.79003722209
 20
-993.01495463047286
 30
0.0
  0
POINT
  5
3028
  8
DEFPOINTS
 62
     0
 10
32806.79003722209
 20
-1666.0923748987179
 30
0.0
  0
ENDBLK
  5
1B15
  8
0
  0
BLOCK
  8
0
  2
*D15
 70
     1
 10
0.0
 20
0.0
 30
0.0
  3
*D15
  1

  0
LINE
  5
3029
  8
SP
 62
     2
 10
33635.79003722209
 20
-1038.0149546304719
 30
0.0
 11
33635.79003722209
 21
-1711.0923748987191
 31
0.0
  0
LINE
  5
302A
  8
SP
 62
     2
 10
32896.790037222097
 20
-1666.0923748987179
 30
0.0
 11
33545.79003722209
 21
-1666.0923748987179
 31
0.0
  0
INSERT
  5
302B
  8
SP
 62
     2
  2
_OPEN
 10
32806.79003722209
 20
-1666.0923748987179
 30
0.0
 41
90.0
 42
90.0
 43
90.0
 50
180.0
  0
INSERT
  5
302C
  8
SP
 62
     2
  2
_OPEN
 10
33635.79003722209
 20
-1666.0923748987179
 30
0.0
 41
90.0
 42
90.0
 43
90.0
  0
TEXT
  8
0
  40
135
  5
3075
  62
2
  72
0
  71
0
 10
32951.3
 20
-1815.04
 30
0.000000
  1
829
  0
POINT
  5
302E
  8
DEFPOINTS
 62
     0
 10
32806.79003722209
 20
-993.01495463047286
 30
0.0
  0
POINT
  5
302F
  8
DEFPOINTS
 62
     0
 10
33635.79003722209
 20
-993.01495463047286
 30
0.0
  0
POINT
  5
3030
  8
DEFPOINTS
 62
     0
 10
33635.79003722209
 20
-1666.0923748987179
 30
0.0
  0
ENDBLK
  5
1B21
  8
0
  0
BLOCK
  8
0
  2
*D16
 70
     1
 10
0.0
 20
0.0
 30
0.0
  3
*D16
  1

  0
LINE
  5
3031
  8
SP
 62
     2
 10
33635.79003722209
 20
-1711.0923748987191
 30
0.0
 11
33635.79003722209
 21
-2003.214675151615
 31
0.0
  0
LINE
  5
3032
  8
SP
 62
     2
 10
30435.79003722209
 20
-1711.0923748987191
 30
0.0
 11
30435.79003722209
 21
-2003.214675151615
 31
0.0
  0
LINE
  5
3033
  8
SP
 62
     2
 10
33545.79003722209
 20
-1958.214675151615
 30
0.0
 11
30525.79003722209
 21
-1958.214675151615
 31
0.0
  0
INSERT
  5
3034
  8
SP
 62
     2
  2
_OPEN
 10
33635.79003722209
 20
-1958.214675151615
 30
0.0
 41
90.0
 42
90.0
 43
90.0
  0
INSERT
  5
3035
  8
SP
 62
     2
  2
_OPEN
 10
30435.79003722209
 20
-1958.214675151615
 30
0.0
 41
90.0
 42
90.0
 43
90.0
 50
180.0
  0
TEXT
  8
0
  40
135
  5
3076
  62
2
  72
0
  71
0
 10
31765.8
 20
-2107.16
 30
0.000000
  1
3200
  0
POINT
  5
3037
  8
DEFPOINTS
 62
     0
 10
33635.79003722209
 20
-1666.0923748987179
 30
0.0
  0
POINT
  5
3038
  8
DEFPOINTS
 62
     0
 10
30435.79003722209
 20
-1666.0923748987179
 30
0.0
  0
POINT
  5
3039
  8
DEFPOINTS
 62
     0
 10
30435.79003722209
 20
-1958.214675151615
 30
0.0
  0
ENDBLK
  5
1B2E
  8
0
  0
BLOCK
  8
0
  2
*D17
 70
     1
 10
0.0
 20
0.0
 30
0.0
  3
*D17
  1

  0
LINE
  5
303A
  8
SP
 62
     2
 10
30296.790037222101
 20
3447.1224779262739
 30
0.0
 11
32716.79003722209
 21
3447.1224779262739
 31
0.0
  0
INSERT
  5
303B
  8
SP
 62
     2
  2
_OPEN
 10
30206.790037222101
 20
3447.1224779262739
 30
0.0
 41
90.0
 42
90.0
 43
90.0
 50
180.0
  0
INSERT
  5
303C
  8
SP
 62
     2
  2
_OPEN
 10
32806.79003722209
 20
3447.1224779262739
 30
0.0
 41
90.0
 42
90.0
 43
90.0
  0
TEXT
  8
0
  40
135
  5
3077
  62
2
  72
0
  71
0
 10
31236.8
 20
3298.17
 30
0.000000
  1
2600
  0
POINT
  5
303E
  8
DEFPOINTS
 62
     0
 10
30206.790037222101
 20
3447.1224779262739
 30
0.0
  0
POINT
  5
303F
  8
DEFPOINTS
 62
     0
 10
32806.79003722209
 20
3447.1224779262739
 30
0.0
  0
POINT
  5
3040
  8
DEFPOINTS
 62
     0
 10
32806.79003722209
 20
3447.1224779262739
 30
0.0
  0
ENDBLK
  5
1BFE
  8
0
  0
BLOCK
  8
0
  2
*D18
 70
     1
 10
0.0
 20
0.0
 30
0.0
  3
*D18
  1

  0
LINE
  5
3041
  8
SP
 62
     2
 10
25889.708861822019
 20
806.98504536952726
 30
0.0
 11
25493.9445773558
 21
806.98504536952726
 31
0.0
  0
LINE
  5
3042
  8
SP
 62
     2
 10
25958.050427649749
 20
3033.9850453695281
 30
0.0
 11
25493.9445773558
 21
3033.9850453695281
 31
0.0
  0
LINE
  5
3043
  8
SP
 62
     2
 10
25538.9445773558
 20
896.98504536952726
 30
0.0
 11
25538.9445773558
 21
2943.9850453695281
 31
0.0
  0
INSERT
  5
3044
  8
SP
 62
     2
  2
_OPEN
 10
25538.9445773558
 20
806.98504536952726
 30
0.0
 41
90.0
 42
90.0
 43
90.0
 50
270.0
  0
INSERT
  5
3045
  8
SP
 62
     2
  2
_OPEN
 10
25538.9445773558
 20
3033.9850453695281
 30
0.0
 41
90.0
 42
90.0
 43
90.0
 50
90.0
  0
TEXT
  8
0
  40
135
  5
3078
  62
2
  72
0
  71
0
 10
25178.9
 20
1681.54
 30
0.000000
  1
2227
  0
POINT
  5
3047
  8
DEFPOINTS
 62
     0
 10
25934.708861822019
 20
806.98504536952726
 30
0.0
  0
POINT
  5
3048
  8
DEFPOINTS
 62
     0
 10
26003.05042764976
 20
3033.9850453695281
 30
0.0
  0
POINT
  5
3049
  8
DEFPOINTS
 62
     0
 10
25538.9445773558
 20
3033.9850453695281
 30
0.0
  0
ENDBLK
  5
1C2F
  8
0
  0
BLOCK
  8
0
  2
*D19
 70
     1
 10
0.0
 20
0.0
 30
0.0
  3
*D19
  1

  0
LINE
  5
2F5C
  8
SP
 10
26117.017758237369
 20
-673.01495463047274
 30
0.0
 11
25493.9445773558
 21
-673.01495463047274
 31
0.0
  0
LINE
  5
2F5D
  8
SP
 10
26117.017758237369
 20
-813.01495463047274
 30
0.0
 11
25493.9445773558
 21
-813.01495463047274
 31
0.0
  0
LINE
  5
2F5E
  8
SP
 10
25538.9445773558
 20
-583.01495463047274
 30
0.0
 11
25538.9445773558
 21
-493.01495463047269
 31
0.0
  0
LINE
  5
2F5F
  8
SP
 10
25538.9445773558
 20
-903.01495463047274
 30
0.0
 11
25538.9445773558
 21
-993.01495463047274
 31
0.0
  0
TEXT
  5
2F60
  8
SP
 10
25362.4601839364
 20
-954.19313129914894
 30
0.0
 40
135.0
  1
(140)
 50
90.0
 51
15.0
  0
LINE
  5
2F61
  8
SP
 10
25538.9445773558
 20
-673.01495463047274
 30
0.0
 11
25538.9445773558
 21
-813.01495463047274
 31
0.0
  0
INSERT
  5
2F62
  8
SP
  2
_OPEN
 10
25538.9445773558
 20
-673.01495463047274
 30
0.0
 41
90.0
 42
90.0
 43
90.0
 50
270.0
  0
INSERT
  5
2F63
  8
SP
  2
_DOT
 10
25538.9445773558
 20
-813.01495463047274
 30
0.0
 41
90.0
 42
90.0
 43
90.0
 50
90.0
  0
POINT
  5
2F64
  8
DEFPOINTS
 62
     0
 10
26162.017758237369
 20
-673.01495463047274
 30
0.0
  0
POINT
  5
2F65
  8
DEFPOINTS
 62
     0
 10
26162.017758237369
 20
-813.01495463047274
 30
0.0
  0
POINT
  5
2F66
  8
DEFPOINTS
 62
     0
 10
25538.9445773558
 20
-813.01495463047274
 30
0.0
  0
ENDBLK
  5
1C46
  8
0
  0
BLOCK
  8
0
  2
*D20
 70
     1
 10
0.0
 20
0.0
 30
0.0
  3
*D20
  1

  0
LINE
  5
304A
  8
SP
 62
     2
 10
27278.050427651218
 20
7995.3925110937298
 30
0.0
 11
27278.050427651218
 21
8278.6702187224873
 31
0.0
  0
LINE
  5
304B
  8
SP
 62
     2
 10
26003.05042764984
 20
7665.774130659689
 30
0.0
 11
26003.05042764984
 21
8278.6702187224873
 31
0.0
  0
LINE
  5
304C
  8
SP
 62
     2
 10
27188.050427651218
 20
8233.6702187224873
 30
0.0
 11
26093.05042764984
 21
8233.6702187224873
 31
0.0
  0
INSERT
  5
304D
  8
SP
 62
     2
  2
_OPEN
 10
27278.050427651218
 20
8233.6702187224873
 30
0.0
 41
90.0
 42
90.0
 43
90.0
  0
INSERT
  5
304E
  8
SP
 62
     2
  2
_OPEN
 10
26003.05042764984
 20
8233.6702187224873
 30
0.0
 41
90.0
 42
90.0
 43
90.0
 50
180.0
  0
TEXT
  8
0
  40
135
  5
3079
  62
2
  72
0
  71
0
 10
26370.6
 20
8084.72
 30
0.000000
  1
1275
  0
POINT
  5
3050
  8
DEFPOINTS
 62
     0
 10
27278.050427651218
 20
7950.3925110937298
 30
0.0
  0
POINT
  5
3051
  8
DEFPOINTS
 62
     0
 10
26003.05042764984
 20
7620.774130659689
 30
0.0
  0
POINT
  5
3052
  8
DEFPOINTS
 62
     0
 10
26003.05042764984
 20
8233.6702187224873
 30
0.0
  0
ENDBLK
  5
2546
  8
0
  0
BLOCK
  8
0
  2
*D21
 70
     1
 10
0.0
 20
0.0
 30
0.0
  3
*D21
  1

  0
LINE
  5
3053
  8
SP
 62
     2
 10
26158.050427651218
 20
7696.7741306596854
 30
0.0
 11
25392.047006997102
 21
7696.7741306596854
 31
0.0
  0
LINE
  5
3054
  8
SP
 62
     2
 10
25737.143715969039
 20
6791.7741306596854
 30
0.0
 11
25392.047006997102
 21
6791.7741306596854
 31
0.0
  0
LINE
  5
3055
  8
SP
 62
     2
 10
25437.047006997091
 20
7606.7741306596863
 30
0.0
 11
25437.047006997091
 21
6881.7741306596854
 31
0.0
  0
INSERT
  5
3056
  8
SP
 62
     2
  2
_OPEN
 10
25437.047006997091
 20
7696.7741306596854
 30
0.0
 41
90.0
 42
90.0
 43
90.0
 50
90.0
  0
INSERT
  5
3057
  8
SP
 62
     2
  2
_OPEN
 10
25437.047006997091
 20
6791.7741306596854
 30
0.0
 41
90.0
 42
90.0
 43
90.0
 50
270.0
  0
TEXT
  8
0
  40
135
  5
307A
  62
2
  72
0
  71
0
 10
25077.0
 20
7005.32
 30
0.000000
  1
905
  0
POINT
  5
3059
  8
DEFPOINTS
 62
     0
 10
26203.050427651218
 20
7696.7741306596854
 30
0.0
  0
POINT
  5
305A
  8
DEFPOINTS
 62
     0
 10
25782.143715969039
 20
6791.7741306596854
 30
0.0
  0
POINT
  5
305B
  8
DEFPOINTS
 62
     0
 10
25437.047006997091
 20
6791.7741306596854
 30
0.0
  0
ENDBLK
  5
2561
  8
0
  0
BLOCK
  8
0
  2
*D22
 70
     1
 10
0.0
 20
0.0
 30
0.0
  3
*D22
  1

  0
LINE
  5
305C
  8
SP
 62
     2
 10
25737.143715969039
 20
6791.7741306596854
 30
0.0
 11
25392.047006997102
 21
6791.7741306596854
 31
0.0
  0
LINE
  5
305D
  8
SP
 62
     2
 10
26753.050427651218
 20
4191.7741306596881
 30
0.0
 11
25392.047006997102
 21
4191.7741306596899
 31
0.0
  0
LINE
  5
305E
  8
SP
 62
     2
 10
25437.047006997091
 20
6701.7741306596863
 30
0.0
 11
25437.047006997091
 21
4281.7741306596899
 31
0.0
  0
INSERT
  5
305F
  8
SP
 62
     2
  2
_OPEN
 10
25437.047006997091
 20
6791.7741306596854
 30
0.0
 41
90.0
 42
90.0
 43
90.0
 50
90.0
  0
INSERT
  5
3060
  8
SP
 62
     2
  2
_OPEN
 10
25437.047006997091
 20
4191.7741306596899
 30
0.0
 41
90.0
 42
90.0
 43
90.0
 50
270.0
  0
TEXT
  8
0
  40
135
  5
307B
  62
2
  72
0
  71
0
 10
25077.0
 20
5252.82
 30
0.000000
  1
2600
  0
POINT
  5
3062
  8
DEFPOINTS
 62
     0
 10
25782.143715969039
 20
6791.7741306596854
 30
0.0
  0
POINT
  5
3063
  8
DEFPOINTS
 62
     0
 10
26798.050427651218
 20
4191.7741306596881
 30
0.0
  0
POINT
  5
3064
  8
DEFPOINTS
 62
     0
 10
25437.047006997091
 20
4191.7741306596899
 30
0.0
  0
ENDBLK
  5
256E
  8
0
  0
BLOCK
  8
0
  2
*D23
 70
     1
 10
0.0
 20
0.0
 30
0.0
  3
*D23
  1

  0
LINE
  5
3065
  8
SP
 62
     2
 10
27278.050427651218
 20
7995.3925110937298
 30
0.0
 11
27278.050427651218
 21
8278.6702187224873
 31
0.0
  0
LINE
  5
3066
  8
SP
 62
     2
 10
29528.050427651218
 20
6082.7741306596827
 30
0.0
 11
29528.050427651218
 21
8278.6702187224873
 31
0.0
  0
LINE
  5
3067
  8
SP
 62
     2
 10
27368.050427651218
 20
8233.6702187224873
 30
0.0
 11
29438.050427651218
 21
8233.6702187224873
 31
0.0
  0
INSERT
  5
3068
  8
SP
 62
     2
  2
_OPEN
 10
27278.050427651218
 20
8233.6702187224873
 30
0.0
 41
90.0
 42
90.0
 43
90.0
 50
180.0
  0
INSERT
  5
3069
  8
SP
 62
     2
  2
_OPEN
 10
29528.050427651218
 20
8233.6702187224873
 30
0.0
 41
90.0
 42
90.0
 43
90.0
  0
TEXT
  8
0
  40
135
  5
307C
  62
2
  72
0
  71
0
 10
28133.1
 20
8084.72
 30
0.000000
  1
2250
  0
POINT
  5
306B
  8
DEFPOINTS
 62
     0
 10
27278.050427651218
 20
7950.3925110937298
 30
0.0
  0
POINT
  5
306C
  8
DEFPOINTS
 62
     0
 10
29528.050427651218
 20
6037.7741306596836
 30
0.0
  0
POINT
  5
306D
  8
DEFPOINTS
 62
     0
 10
29528.050427651218
 20
8233.6702187224873
 30
0.0
  0
ENDBLK
  5
26F5
  8
0
  0
ENDSEC
  0
SECTION
  2
ENTITIES
  0
LINE
  5
46
  8
FUTO
 10
30690.79003722209
 20
646.98504536952714
 30
0.0
 11
31940.79003722209
 21
646.98504536952714
 31
0.0
  0
LINE
  5
49
  8
FUTO
 10
31748.79003722209
 20
864.48504536952714
 30
0.0
 11
30686.790037222101
 21
864.48504536952714
 31
0.0
  0
LINE
  5
4A
  8
FUTO
 10
31748.79003722209
 20
749.48504536952714
 30
0.0
 11
30686.790037222101
 21
749.48504536952714
 31
0.0
  0
LINE
  5
4B
  8
FUTO
 10
30435.79003722209
 20
-493.0149546304728
 30
0.0
 11
33649.990037222102
 21
-493.0149546304728
 31
0.0
  0
LINE
  5
4C
  8
CT
 10
33833.05324922107
 20
806.98504536952726
 30
0.0
 11
30102.012614223691
 21
806.98504536952726
 31
0.0
  0
LINE
  5
4F
  8
FUTO
 10
30435.79003722209
 20
-813.01495463047274
 30
0.0
 11
33635.79003722209
 21
-813.01495463047274
 31
0.0
  0
LINE
  5
50
  8
FUTO
 10
30510.79003722209
 20
-673.01495463047274
 30
0.0
 11
33560.79003722209
 21
-673.01495463047274
 31
0.0
  0
LINE
  5
51
  8
FUTO
 10
30510.79003722209
 20
-981.01495463047274
 30
0.0
 11
32023.935115676239
 21
-981.01495463047274
 31
0.0
  0
LINE
  5
52
  8
FUTO
 10
30510.79003722209
 20
-825.01495463047274
 30
0.0
 11
32023.935115676239
 21
-825.01495463047274
 31
0.0
  0
LINE
  5
53
  8
FUTO
 10
30510.79003722209
 20
-661.01495463047274
 30
0.0
 11
32023.935115676239
 21
-661.01495463047274
 31
0.0
  0
LINE
  5
54
  8
FUTO
 10
30525.79003722209
 20
-505.0149546304728
 30
0.0
 11
32023.935115676239
 21
-505.0149546304728
 31
0.0
  0
DIMENSION
  5
6B
  8
SP
  2
*D8
 10
29528.050427651211
 20
-1955.9685785445611
 30
0.0
 11
27828.050427651218
 21
-1865.9685785445611
 31
0.0
 70
     0
 13
26128.050427651218
 23
-993.01495463047286
 33
0.0
 14
29528.050427651211
 24
-993.01495463047286
 34
0.0
 50
180.0
1001
ACAD
1000
DSTYLE
1002
{
1070
   287
1070
     0
1070
   287
1070
     0
1070
    40
1040
45.0
1070
   140
1040
3.0
1070
   143
1040
0.03937
1070
   147
1040
0.5
1070
   173
1070
     1
1070
   176
1070
   256
1070
   177
1070
   256
1070
   178
1070
   256
1070
   271
1070
     4
1070
   272
1070
     4
1070
   279
1070
     0
1070
   285
1070
     0
1070
   286
1070
     0
1070
   289
1070
     0
1070
     6
1000
OPEN
1070
     7
1000
OPEN
1002
}
  0
LINE
  5
78
  8
CT
 10
29073.283420889729
 20
806.98504536952726
 30
0.0
 11
29371.08362779137
 21
806.98504536952726
 31
0.0
  0
LINE
  5
80
  8
FUTO
 10
28803.283420889729
 20
-673.01495463047274
 30
0.0
 11
29368.817118465911
 21
-673.01495463047274
 31
0.0
  0
ARC
  5
86
  8
KL
 10
27425.050427651218
 20
953.98504536952714
 30
0.0
 40
1589.0
 50
270.0
 51
0.000000000000007
  0
LINE
  5
89
  8
FUTO
 10
26128.050427651218
 20
-673.01495463047274
 30
0.0
 11
29528.050427651218
 21
-673.01495463047274
 31
0.0
  0
LINE
  5
8A
  8
FUTO
 10
26128.050427651218
 20
-493.0149546304728
 30
0.0
 11
29528.050427651218
 21
-493.0149546304728
 31
0.0
  0
LINE
  5
8C
  8
FUTO
 10
26128.050427651218
 20
-813.01495463047274
 30
0.0
 11
29528.050427651218
 21
-813.01495463047274
 31
0.0
  0
LINE
  5
8D
  8
FUTO
 10
26128.050427651218
 20
-993.01495463047286
 30
0.0
 11
29528.050427651218
 21
-993.01495463047286
 31
0.0
  0
LINE
  5
8E
  8
FUTO
 10
26128.050427651218
 20
-509.0149546304728
 30
0.0
 11
29528.050427651218
 21
-509.0149546304728
 31
0.0
  0
LINE
  5
8F
  8
FUTO
 10
26128.050427651218
 20
-657.01495463047274
 30
0.0
 11
29528.050427651218
 21
-657.01495463047274
 31
0.0
  0
LINE
  5
90
  8
FUTO
 10
26128.050427651218
 20
-829.01495463047286
 30
0.0
 11
29528.050427651218
 21
-829.01495463047286
 31
0.0
  0
LINE
  5
91
  8
FUTO
 10
26128.050427651218
 20
-977.01495463047286
 30
0.0
 11
29528.050427651218
 21
-977.01495463047286
 31
0.0
  0
ARC
  5
92
  8
KL
 10
27131.050427651218
 20
953.98504536952714
 30
0.0
 40
1883.0
 50
0.000000000000007
 51
84.428381621632965
  0
ARC
  5
93
  8
FUTO
 10
27131.050427651218
 20
953.98504536952714
 30
0.0
 40
1903.0
 50
355.84142722598313
 51
84.512639872928943
  0
LINE
  5
A6
  8
FUTO
 10
29528.050427651218
 20
-673.01495463047274
 30
0.0
 11
29528.050427651218
 21
-493.0149546304728
 31
0.0
  0
LINE
  5
A7
  8
FUTO
 10
29528.050427651211
 20
-993.01495463047286
 30
0.0
 11
29528.050427651218
 21
-813.01495463047274
 31
0.0
  0
DIMENSION
  5
F2
  8
SP
  2
*D9
 10
25538.9445773558
 20
-673.01495463047274
 30
0.0
 11
25538.9445773558
 21
77.472828895242856
 31
0.0
 70
   128
 13
25979.708861822019
 23
806.98504536952726
 33
0.0
 14
26162.017758237369
 24
-673.01495463047274
 34
0.0
 50
90.0
1001
ACAD
1000
DSTYLE
1002
{
1070
   287
1070
     0
1070
   287
1070
     0
1070
    40
1040
45.0
1070
   140
1040
3.0
1070
   143
1040
0.03937
1070
   147
1040
0.5
1070
   173
1070
     1
1070
   176
1070
   256
1070
   177
1070
   256
1070
   178
1070
   256
1070
   271
1070
     4
1070
   272
1070
     4
1070
   279
1070
     0
1070
   285
1070
     0
1070
   286
1070
     0
1070
   289
1070
     0
1070
     6
1000
OPEN
1070
     7
1000
OPEN
1002
}
  0
LINE
  5
FF
  8
FUTO
 10
30690.79003722209
 20
666.98504536952714
 30
0.0
 11
30690.79003722209
 21
646.98504536952714
 31
0.0
  0
LINE
  5
100
  8
FUTO
 10
30510.79003722209
 20
666.98504536952714
 30
0.0
 11
30510.79003722209
 21
-493.0149546304728
 31
0.0
  0
LINE
  5
101
  8
SL
 10
30454.5900372221
 20
1181.9850453695269
 30
0.0
 11
30454.5900372221
 21
-298.0149546304728
 31
0.0
  0
LINE
  5
102
  8
SL
 10
30324.5900372221
 20
1181.9850453695269
 30
0.0
 11
30324.5900372221
 21
-298.0149546304728
 31
0.0
  0
LINE
  5
103
  8
FUTO
 10
30206.790037222101
 20
1286.9850453695269
 30
0.0
 11
30206.79003722209
 21
-393.0149546304728
 31
0.0
  0
LINE
  5
104
  8
FUTO
 10
26137.050427651218
 20
-493.0149546304728
 30
0.0
 11
26137.050427651218
 21
719.64760246451795
 31
0.0
  0
LINE
  5
105
  8
FUTO
 10
26128.050427651218
 20
-673.01495463047274
 30
0.0
 11
26128.050427651218
 21
719.04567588000191
 31
0.0
  0
LINE
  5
107
  8
FUTO
 10
26478.050427651218
 20
-478.80290815276379
 30
0.0
 11
26878.770495668701
 21
540.57270347066151
 31
0.0
  0
ARC
  5
10A
  8
KL
 10
27400.550427651218
 20
684.48504536952714
 30
0.0
 40
1319.5
 50
180.0
 51
271.06390850262778
  0
ARC
  5
10B
  8
FUTO
 10
27400.550427651218
 20
684.48504536952714
 30
0.0
 40
1339.5
 50
180.0
 51
241.5291007991155
  0
LINE
  5
10C
  8
CT
 10
27278.050427651218
 20
-993.01495463047286
 30
0.0
 11
27278.050427651218
 21
3007.3678926661992
 31
0.0
  0
LINE
  5
10D
  8
CT
 10
27278.050427651218
 20
-993.01495463047286
 30
0.0
 11
27278.050427651218
 21
3007.3678926661992
 31
0.0
  0
LINE
  5
10E
  8
FUTO
 10
28437.050427651218
 20
-245.66365320851941
 30
0.0
 11
28437.050427651218
 21
-169.83457034343471
 31
0.0
  0
ARC
  5
10F
  8
FUTO
 10
27425.050427651218
 20
953.98504536952714
 30
0.0
 40
1609.0
 50
341.63299535782642
 51
354.4361687009731
  0
LINE
  5
110
  8
CT
 10
29128.050427651211
 20
490.20013410137472
 30
0.0
 11
29128.050427651218
 21
-993.01495463047286
 31
0.0
  0
LINE
  5
111
  8
FUTO
 10
28419.050427651218
 20
-493.0149546304728
 30
0.0
 11
28419.050427651218
 21
-162.68515037477661
 31
0.0
  0
LINE
  5
112
  8
FUTO
 10
28428.050427651218
 20
-673.01495463047274
 30
0.0
 11
28428.050427651218
 21
-166.25986035910589
 31
0.0
  0
LINE
  5
116
  8
FUTO
 10
28078.050427651218
 20
-478.80290815276288
 30
0.0
 11
27867.696893746979
 21
56.306958796621529
 31
0.0
  0
LINE
  5
127
  8
FUTO
 10
28428.050427651218
 20
-270.06433634300259
 30
0.0
 11
28463.405766710552
 21
-305.41967540232957
 31
0.0
  0
LINE
  5
128
  8
FUTO
 10
28428.050427651218
 20
-236.66365320851941
 30
0.0
 11
28481.405766710541
 21
-290.01899226784639
 31
0.0
  0
LINE
  5
129
  8
FUTO
 10
28428.050427651218
 20
-253.42209391696991
 30
0.0
 11
28472.405766710552
 21
-297.77743297629598
 31
0.0
  0
LINE
  5
156
  8
FUTO
 10
28481.405766710541
 20
-290.01899226784639
 30
0.0
 11
28463.405766710552
 21
-305.41967540232957
 31
0.0
  0
LINE
  5
157
  8
FUTO
 10
28078.050427651218
 20
-673.01495463047195
 30
0.0
 11
28078.050427651218
 21
-478.80290815276197
 31
0.0
  0
LINE
  5
15F
  8
CT
 10
26261.577748424399
 20
-585.40656648626816
 30
0.0
 11
26261.577748424399
 21
-896.7149599761251
 31
0.0
  0
LINE
  5
160
  8
FUTO
 10
26478.050427651218
 20
-673.01495463047274
 30
0.0
 11
26478.050427651218
 21
-478.80290815276288
 31
0.0
  0
LINE
  5
162
  8
SP
 10
26221.577748424399
 20
-673.01495463047274
 30
0.0
 11
26221.577748424399
 21
-813.01495463047274
 31
0.0
  0
LINE
  5
163
  8
SP
 10
26301.577748424399
 20
-673.01495463047274
 30
0.0
 11
26301.577748424399
 21
-813.01495463047274
 31
0.0
  0
DIMENSION
  5
164
  8
SP
  2
*D10
 10
25538.9445773558
 20
-993.01495463047274
 30
0.0
 11
25448.9445773558
 21
-1353.0149546304681
 31
0.0
 70
     0
 13
26162.017758237369
 23
-813.01495463047274
 33
0.0
 14
26162.017758237369
 24
-993.01495463047286
 34
0.0
 50
90.0
1001
ACAD
1000
DSTYLE
1002
{
1070
   287
1070
     0
1070
   287
1070
     0
1070
    40
1040
45.0
1070
   140
1040
3.0
1070
   143
1040
0.03937
1070
   147
1040
0.5
1070
   173
1070
     1
1070
   176
1070
   256
1070
   177
1070
   256
1070
   178
1070
   256
1070
   271
1070
     4
1070
   272
1070
     4
1070
   279
1070
     0
1070
   285
1070
     0
1070
   286
1070
     0
1070
   289
1070
     0
1070
     6
1000
DOT
1070
     7
1000
OPEN
1002
}
  0
DIMENSION
  5
17B
  8
SP
  2
*D19
 10
25538.9445773558
 20
-813.01495463047274
 30
0.0
 11
25317.4601839364
 21
-697.21921342390556
 31
0.0
 70
   128
  1
(<>)
 13
26162.017758237369
 23
-673.01495463047274
 33
0.0
 14
26162.017758237369
 24
-813.01495463047274
 34
0.0
 50
90.0
1001
ACAD
1000
DSTYLE
1002
{
1070
   140
1040
3.0
1070
   272
1070
     4
1070
    40
1040
45.0
1070
   173
1070
     1
1070
   147
1040
0.5
1070
   271
1070
     4
1070
   178
1070
   256
1070
   177
1070
   256
1070
   176
1070
   256
1070
     7
1000
_DOT
1070
     6
1000
_OPEN
1070
     5
1000

1070
   285
1070
     0
1070
   286
1070
     0
1070
   143
1040
0.03937
1002
}
  0
LINE
  5
18A
  8
FUTO
 10
26128.050427651218
 20
-993.01495463047286
 30
0.0
 11
26128.050427651218
 21
-813.01495463047274
 31
0.0
  0
ARC
  5
19A
  8
FUTO
 10
30493.79003722209
 20
-649.93958501278746
 30
0.0
 40
10.0
 50
275.0
 51
0.0
  0
LINE
  5
19B
  8
FUTO
 10
30510.79003722209
 20
-493.0149546304728
 30
0.0
 11
30510.79003722209
 21
-673.01495463047274
 31
0.0
  0
ARC
  5
1A0
  8
FUTO
 10
30493.79003722209
 20
-836.09032424815814
 30
0.0
 40
10.0
 50
0.0
 51
85.000000000000014
  0
LINE
  5
1A1
  8
FUTO
 10
30435.79003722209
 20
-670.09194732982075
 30
0.0
 11
30435.79003722209
 21
-673.01495463047274
 31
0.0
  0
ARC
  5
1A2
  8
FUTO
 10
30441.29003722209
 20
-670.09194732981985
 30
0.0
 40
5.5
 50
95.000000000000057
 51
180.00000000000051
  0
LINE
  5
1A3
  8
FUTO
 10
30435.79003722209
 20
-815.93796193112576
 30
0.0
 11
30435.79003722209
 21
-813.01495463047274
 31
0.0
  0
ARC
  5
1A4
  8
FUTO
 10
30441.29003722209
 20
-815.93796193112576
 30
0.0
 40
5.5
 50
180.0
 51
265.0
  0
LINE
  5
1A5
  8
FUTO
 10
30510.79003722209
 20
-673.01495463047274
 30
0.0
 11
30435.79003722209
 21
-673.01495463047274
 31
0.0
  0
LINE
  5
1A6
  8
FUTO
 10
30494.661594649569
 20
-659.90153199370525
 30
0.0
 11
30440.81068063698
 21
-664.61287649031601
 31
0.0
  0
LINE
  5
1A7
  8
FUTO
 10
30494.661594649569
 20
-826.12837726724035
 30
0.0
 11
30440.81068063698
 21
-821.41703277062959
 31
0.0
  0
LINE
  5
1A8
  8
FUTO
 10
30510.79003722209
 20
-813.01495463047274
 30
0.0
 11
30435.79003722209
 21
-813.01495463047274
 31
0.0
  0
ARC
  5
1A9
  8
FUTO
 10
30493.79003722209
 20
-969.93958501278757
 30
0.0
 40
10.0
 50
275.0
 51
0.0
  0
LINE
  5
1AA
  8
FUTO
 10
30435.79003722209
 20
-990.09194732982087
 30
0.0
 11
30435.79003722209
 21
-993.01495463047286
 31
0.0
  0
ARC
  5
1AB
  8
FUTO
 10
30441.29003722209
 20
-990.09194732981996
 30
0.0
 40
5.5
 50
95.000000000000057
 51
180.00000000000051
  0
LINE
  5
1AC
  8
FUTO
 10
30510.79003722209
 20
-993.01495463047286
 30
0.0
 11
30435.79003722209
 21
-993.01495463047286
 31
0.0
  0
LINE
  5
1AD
  8
FUTO
 10
30494.661594649569
 20
-979.90153199370525
 30
0.0
 11
30440.81068063698
 21
-984.6128764903159
 31
0.0
  0
LINE
  5
1AE
  8
FUTO
 10
30510.79003722209
 20
-813.01495463047274
 30
0.0
 11
30510.79003722209
 21
-993.01495463047286
 31
0.0
  0
LINE
  5
1AF
  8
FUTO
 10
30503.790037222101
 20
-836.09032424815814
 30
0.0
 11
30503.790037222101
 21
-969.93958501278757
 31
0.0
  0
LINE
  5
1B0
  8
CT
 10
30583.186345228682
 20
-143.0149546304828
 30
0.0
 11
30108.981988307431
 21
-143.0149546304828
 31
0.0
  0
LINE
  5
1B1
  8
SL
 10
30454.5900372221
 20
-298.0149546304728
 30
0.0
 11
30324.5900372221
 21
-298.0149546304728
 31
0.0
  0
LINE
  5
1B2
  8
FUTO
 10
30487.539071384599
 20
-393.0149546304728
 30
0.0
 11
30206.79003722209
 21
-393.0149546304728
 31
0.0
  0
ARC
  5
1B3
  8
FUTO
 10
30493.79003722209
 20
-516.09032424815814
 30
0.0
 40
10.0
 50
0.0
 51
85.000000000000014
  0
LINE
  5
1B4
  8
FUTO
 10
30435.79003722209
 20
-495.9379619311257
 30
0.0
 11
30435.79003722209
 21
-493.0149546304728
 31
0.0
  0
ARC
  5
1B5
  8
FUTO
 10
30441.29003722209
 20
-495.9379619311257
 30
0.0
 40
5.5
 50
180.0
 51
265.0
  0
LINE
  5
1B6
  8
FUTO
 10
30494.661594649569
 20
-506.12837726724041
 30
0.0
 11
30440.81068063698
 21
-501.41703277062959
 31
0.0
  0
LINE
  5
1B7
  8
FUTO
 10
30510.79003722209
 20
-493.0149546304728
 30
0.0
 11
30435.79003722209
 21
-493.0149546304728
 31
0.0
  0
LINE
  5
1B8
  8
FUTO
 10
30503.790037222101
 20
-516.09032424815814
 30
0.0
 11
30503.790037222101
 21
-649.93958501278746
 31
0.0
  0
LINE
  5
1B9
  8
FUTO
 10
30487.539071384599
 20
-271.49323867037299
 30
0.0
 11
30487.539071384599
 21
-393.0149546304728
 31
0.0
  0
DIMENSION
  5
1BA
  8
SP
  2
*D11
 10
26003.050427651218
 20
3470.0504052202632
 30
0.0
 11
26640.550427651218
 21
3560.0504052202632
 31
0.0
 70
     0
 13
27278.050427651218
 23
3007.3678926661992
 33
0.0
 14
26003.050427651218
 24
3033.9850453695271
 34
0.0
 50
180.0
1001
ACAD
1000
DSTYLE
1002
{
1070
   287
1070
     0
1070
   287
1070
     0
1070
    40
1040
45.0
1070
   140
1040
3.0
1070
   143
1040
0.03937
1070
   147
1040
0.5
1070
   173
1070
     1
1070
   176
1070
   256
1070
   177
1070
   256
1070
   178
1070
   256
1070
   271
1070
     4
1070
   272
1070
     4
1070
   279
1070
     0
1070
   285
1070
     0
1070
   286
1070
     0
1070
   289
1070
     0
1070
     6
1000
OPEN
1070
     7
1000
OPEN
1002
}
  0
LINE
  5
1C7
  8
KL
 10
26003.050427651218
 20
2954.9850453695249
 30
0.0
 11
27313.87070781301
 21
2828.0890299876592
 31
0.0
  0
LINE
  5
1C8
  8
FUTO
 10
26078.050427651218
 20
2967.818049189576
 30
0.0
 11
27315.80514890057
 21
2847.9952599607982
 31
0.0
  0
LINE
  5
1CD
  8
CT
 10
25933.466535230651
 20
806.98504536952726
 30
0.0
 11
27478.050427651218
 21
806.98504536952726
 31
0.0
  0
LINE
  5
1CE
  8
FUTO
 10
26017.027651977201
 20
731.66702573833209
 30
0.0
 11
26798.603976782571
 21
783.93942215260154
 31
0.0
  0
LINE
  5
1CF
  8
FUTO
 10
26018.22882170818
 20
713.70714847601812
 30
0.0
 11
26782.962107085888
 21
764.85307009078133
 31
0.0
  0
LINE
  5
1D0
  8
FUTO
 10
26017.628236842691
 20
722.68708710717533
 30
0.0
 11
26799.120367322848
 21
774.95385254337702
 31
0.0
  0
ARC
  5
1D3
  8
KL
 10
27155.550427651218
 20
684.48504536952714
 30
0.0
 40
1074.5
 50
146.84808505590959
 51
180.0
  0
INSERT
  5
1E1
  8
FUTO
  2
右回転矢印
 10
27066.906274722151
 20
2075.6582746149929
 30
0.0
 41
-40.0
 42
40.0
 43
40.0
 50
359.00304546478287
  0
LINE
  5
1F0
  8
FUTO
 10
28428.050427651218
 20
815.98504536952726
 30
0.0
 11
28428.050427651218
 21
2317.9791802542782
 31
0.0
  0
LINE
  5
1F1
  8
FUTO
 10
28419.050427651218
 20
815.98504536952726
 30
0.0
 11
28419.050427651218
 21
2326.677654805449
 31
0.0
  0
LINE
  5
1F3
  8
KL
 10
27478.050427651218
 20
806.98504536952726
 30
0.0
 11
28166.550154524819
 21
806.98504536952726
 31
0.0
  0
LINE
  5
1F4
  8
KL
 10
27478.050427651218
 20
815.98504536952726
 30
0.0
 11
28152.531074499329
 21
815.98504536952726
 31
0.0
  0
LINE
  5
1F5
  8
KL
 10
27478.050427651218
 20
797.98504536952714
 30
0.0
 11
28180.569234550319
 21
797.98504536952714
 31
0.0
  0
LINE
  5
21D
  8
FUTO
 10
29073.283420889729
 20
815.98504536952726
 30
0.0
 11
29073.283420889729
 21
797.98504536952714
 31
0.0
  0
INSERT
  5
226
  8
FUTO
  2
22222F
 10
27278.050427651218
 20
806.98504536952726
 30
0.0
 41
-1.0
  0
LINE
  5
259
  8
KL
 10
27278.050427651218
 20
666.98504536952714
 30
0.0
 11
27627.637232128662
 21
666.98504536952714
 31
0.0
  0
LINE
  5
25C
  8
KL
 10
27478.050427651218
 20
797.98504536952714
 30
0.0
 11
27478.050427651218
 21
815.98504536952726
 31
0.0
  0
LINE
  5
25E
  8
KL
 10
27278.050427651218
 20
666.98504536952714
 30
0.0
 11
26928.463623173771
 21
666.98504536952714
 31
0.0
  0
LINE
  5
25F
  8
FUTO
 10
27079.096820713221
 20
784.65877639414055
 30
0.0
 11
27077.895650982238
 21
802.61865365645463
 31
0.0
  0
CIRCLE
  5
265
  8
KL
 10
26235.44173841934
 20
1285.4850453695269
 30
0.0
 40
24.5
  0
LINE
  5
26B
  8
FUTO
 10
27287.050427651218
 20
2850.7789059000461
 30
0.0
 11
27315.797830247811
 21
2847.9959684544701
 31
0.0
  0
LINE
  5
26C
  8
SP
 10
30206.790037222101
 20
1326.9850453695269
 30
0.0
 11
30206.790037222101
 21
3487.1224779262729
 31
0.0
  0
LINE
  5
289
  8
FUTO
 10
26078.050427651218
 20
890.98504536952726
 30
0.0
 11
26078.050427651218
 21
2967.818049189576
 31
0.0
  0
LINE
  5
28A
  8
FUTO
 10
26009.050427651218
 20
890.98504536952726
 30
0.0
 11
26009.050427651218
 21
2958.9850453695249
 31
0.0
  0
LINE
  5
28B
  8
FUTO
 10
26003.050427651218
 20
815.98504536952726
 30
0.0
 11
26003.050427651218
 21
3033.985045369529
 31
0.0
  0
LINE
  5
28C
  8
FUTO
 10
26128.050427651218
 20
739.09231020110019
 30
0.0
 11
26128.050427651218
 21
2962.9777206829781
 31
0.0
  0
LINE
  5
28D
  8
FUTO
 10
26137.050427651218
 20
739.69423678561634
 30
0.0
 11
26137.050427651218
 21
2962.1064615517898
 31
0.0
  0
LINE
  5
28E
  8
FUTO
 10
26003.05042765076
 20
815.98504536942892
 30
0.0
 11
26003.05042764976
 21
3033.9850453694289
 31
0.0
  0
LINE
  5
28F
  8
FUTO
 10
26003.050427651269
 20
815.98504536942517
 30
0.0
 11
26003.05042764976
 21
3033.9850453694248
 31
0.0
  0
INSERT
  5
291
  8
FUTO
  2
L-75-6
 10
25921.62083076674
 20
1005.591506773082
 30
0.0
 50
270.0
  0
ARC
  5
29E
  8
FUTO
 10
27155.550427651218
 20
684.48504536952714
 30
0.0
 40
1094.5
 50
169.9765003324033
 51
177.37099416003559
  0
LINE
  5
2A1
  8
CT
 10
25906.767020626881
 20
806.98504536952726
 30
0.0
 11
26038.765757269321
 21
806.98504536952726
 31
0.0
  0
LINE
  5
2A2
  8
FUTO
 10
26042.385979539129
 20
851.2169847129644
 30
0.0
 11
25947.689668310511
 21
851.21698471300442
 31
0.0
  0
ARC
  5
2A3
  8
FUTO
 10
27155.550427651218
 20
684.48504536952714
 30
0.0
 40
1094.5
 50
178.31844199692659
 51
180.0
  0
LINE
  5
2A4
  8
FUTO
 10
26017.027651977201
 20
731.66702573833209
 30
0.0
 11
26018.22882170818
 21
713.70714847601812
 31
0.0
  0
LINE
  5
2A5
  8
KL
 10
26101.871159562492
 20
894.98504536952714
 30
0.0
 11
26003.050427651218
 21
894.98504536952714
 31
0.0
  0
LINE
  5
2A6
  8
FUTO
 10
26078.050427651218
 20
890.98504536952726
 30
0.0
 11
26003.050427651218
 21
890.98504536952726
 31
0.0
  0
LINE
  5
2A7
  8
FUTO
 10
26077.756384245891
 20
874.98504536952714
 30
0.0
 11
26077.756384245891
 21
887.90782733955984
 31
0.0
  0
LINE
  5
2A8
  8
FUTO
 10
30536.79003722209
 20
921.98504536952703
 30
0.0
 11
30536.79003722209
 21
726.98504536952714
 31
0.0
  0
LINE
  5
2A9
  8
FUTO
 10
30664.79003722209
 20
921.98504536952703
 30
0.0
 11
30664.79003722209
 21
726.98504536952714
 31
0.0
  0
LINE
  5
2AA
  8
CT
 10
30600.790037222101
 20
970.47666387935715
 30
0.0
 11
30600.790037222101
 21
655.82789160748769
 31
0.0
  0
LINE
  5
2AB
  8
FUTO
 10
30522.790037222101
 20
921.98504536952703
 30
0.0
 11
30522.790037222101
 21
691.98504536952714
 31
0.0
  0
LINE
  5
2AC
  8
FUTO
 10
30678.79003722209
 20
921.98504536952703
 30
0.0
 11
30678.79003722209
 21
691.98504536952714
 31
0.0
  0
LINE
  5
2AD
  8
FUTO
 10
30664.79003722209
 20
921.98504536952703
 30
0.0
 11
30664.79003722209
 21
726.98504536952714
 31
0.0
  0
LINE
  5
2AE
  8
FUTO
 10
30514.79003722209
 20
886.98504536952714
 30
0.0
 11
30514.79003722209
 21
726.98504536952714
 31
0.0
  0
LINE
  5
2AF
  8
FUTO
 10
30686.790037222101
 20
886.98504536952714
 30
0.0
 11
30686.790037222101
 21
726.98504536952714
 31
0.0
  0
LINE
  5
2B1
  8
SL
 10
30454.5900372221
 20
-18.014954630482858
 30
0.0
 11
30324.5900372221
 21
-18.014954630482858
 31
0.0
  0
LINE
  5
2B2
  8
SL
 10
30454.5900372221
 20
431.98504536952709
 30
0.0
 11
30324.5900372221
 21
431.98504536952709
 31
0.0
  0
LINE
  5
2B3
  8
FUTO
 10
30530.79003722209
 20
676.98504536952714
 30
0.0
 11
30670.79003722209
 21
676.98504536952714
 31
0.0
  0
LINE
  5
2B4
  8
FUTO
 10
30530.79003722209
 20
726.98504536952714
 30
0.0
 11
30670.79003722209
 21
726.98504536952714
 31
0.0
  0
LINE
  5
2B5
  8
FUTO
 10
30510.79003722209
 20
666.98504536952714
 30
0.0
 11
30690.79003722209
 21
666.98504536952714
 31
0.0
  0
LINE
  5
2B6
  8
CT
 10
30555.79003722209
 20
753.73170284688047
 30
0.0
 11
30555.79003722209
 21
655.82789160748769
 31
0.0
  0
LINE
  5
2B7
  8
FUTO
 10
30530.79003722209
 20
726.98504536952714
 30
0.0
 11
30530.79003722209
 21
666.98504536952714
 31
0.0
  0
LINE
  5
2B8
  8
FUTO
 10
30514.79003722209
 20
726.98504536952714
 30
0.0
 11
30522.790037222101
 21
706.98504536952714
 31
0.0
  0
LINE
  5
2B9
  8
FUTO
 10
30522.790037222101
 20
691.98504536952714
 30
0.0
 11
30530.79003722209
 21
691.98504536952714
 31
0.0
  0
LINE
  5
2BA
  8
FUTO
 10
30514.79003722209
 20
859.48504536952703
 30
0.0
 11
30454.590037222089
 21
859.48504536952703
 31
0.0
  0
LINE
  5
2BB
  8
FUTO
 10
30514.79003722209
 20
754.48504536952714
 30
0.0
 11
30454.590037222089
 21
754.48504536952714
 31
0.0
  0
LINE
  5
2BC
  8
CT
 10
30645.79003722209
 20
753.73170284688047
 30
0.0
 11
30645.79003722209
 21
655.82789160748769
 31
0.0
  0
LINE
  5
2BD
  8
FUTO
 10
30670.79003722209
 20
726.98504536952714
 30
0.0
 11
30670.79003722209
 21
666.98504536952714
 31
0.0
  0
LINE
  5
2BE
  8
FUTO
 10
30678.79003722209
 20
691.98504536952714
 30
0.0
 11
30670.79003722209
 21
691.98504536952714
 31
0.0
  0
LINE
  5
2BF
  8
FUTO
 10
30686.790037222101
 20
726.98504536952714
 30
0.0
 11
30678.79003722209
 21
706.98504536952714
 31
0.0
  0
LINE
  5
2C0
  8
SL
 10
30454.590037222089
 20
1181.9850453695269
 30
0.0
 11
30324.5900372221
 21
1181.9850453695269
 31
0.0
  0
LINE
  5
2C1
  8
FUTO
 10
30487.539071384599
 20
1286.9850453695269
 30
0.0
 11
30206.790037222101
 21
1286.9850453695269
 31
0.0
  0
POINT
  5
2C2
  8
DEFPOINTS
 10
30206.790037222101
 20
1286.9850453695269
 30
0.0
  0
LINE
  5
2C3
  8
FUTO
 10
30487.539071384599
 20
1286.9850453695269
 30
0.0
 11
30487.539071384599
 21
1019.707291873808
 31
0.0
  0
LINE
  5
2C4
  8
FUTO
 10
30546.79003722209
 20
939.98504536952726
 30
0.0
 11
30654.79003722209
 21
939.98504536952726
 31
0.0
  0
LINE
  5
2C5
  8
FUTO
 10
30514.79003722209
 20
886.98504536952714
 30
0.0
 11
30522.790037222101
 21
906.98504536952726
 31
0.0
  0
LINE
  5
2C6
  8
FUTO
 10
30522.790037222101
 20
921.98504536952703
 30
0.0
 11
30536.79003722209
 21
921.98504536952703
 31
0.0
  0
LINE
  5
2C7
  8
FUTO
 10
30546.79003722209
 20
939.98504536952726
 30
0.0
 11
30546.79003722209
 21
921.98504536952703
 31
0.0
  0
LINE
  5
2C8
  8
FUTO
 10
30536.79003722209
 20
921.98504536952703
 30
0.0
 11
30546.79003722209
 21
921.98504536952703
 31
0.0
  0
LINE
  5
2C9
  8
FUTO
 10
30654.79003722209
 20
939.98504536952726
 30
0.0
 11
30654.79003722209
 21
921.98504536952703
 31
0.0
  0
LINE
  5
2CA
  8
FUTO
 10
30654.79003722209
 20
921.98504536952703
 30
0.0
 11
30664.79003722209
 21
921.98504536952703
 31
0.0
  0
LINE
  5
2CB
  8
FUTO
 10
30678.79003722209
 20
921.98504536952703
 30
0.0
 11
30664.79003722209
 21
921.98504536952703
 31
0.0
  0
LINE
  5
2CC
  8
FUTO
 10
30686.790037222101
 20
886.98504536952714
 30
0.0
 11
30678.79003722209
 21
906.98504536952726
 31
0.0
  0
INSERT
  5
2CD
  8
FUTO
  2
まっすぐの矢印
 10
25629.925758472109
 20
2348.5536275912018
 30
0.0
 41
-40.0
 42
40.0
 43
40.0
 50
90.0
  0
LINE
  5
2D8
  8
FUTO
 10
26042.385979539129
 20
2998.9850453695158
 30
0.0
 11
25947.689668310519
 21
2998.9850453694762
 31
0.0
  0
INSERT
  5
2D9
  8
FUTO
  2
L-75-6
 10
25921.62083076674
 20
2844.3785839659722
 30
0.0
 41
-1.0
 50
270.0
  0
LINE
  5
2DA
  8
FUTO
 10
26003.050427649789
 20
2958.9850453694289
 30
0.0
 11
26003.05042764976
 21
3033.9850453694289
 31
0.0
  0
LINE
  5
2DB
  8
FUTO
 10
26003.0504276498
 20
2958.9850453694248
 30
0.0
 11
26003.05042764976
 21
3033.9850453694248
 31
0.0
  0
LINE
  5
33E
  8
FUTO
 10
26003.05042765096
 20
6037.7741306596836
 30
0.0
 11
29014.050427651218
 21
6037.7741306596836
 31
0.0
  0
LINE
  5
33F
  8
FUTO
 10
26003.050427651011
 20
5962.7741306596836
 30
0.0
 11
29528.050427651218
 21
5962.7741306596836
 31
0.0
  0
LINE
  5
340
  8
FUTO
 10
26478.050427651218
 20
4420.7741306596827
 30
0.0
 11
29528.050427651218
 21
4420.7741306596827
 31
0.0
  0
LINE
  5
341
  8
FUTO
 10
26478.050427651218
 20
4495.7741306596854
 30
0.0
 11
29528.050427651218
 21
4495.7741306596827
 31
0.0
  0
LINE
  5
35D
  8
FUTO
 10
29528.050427651218
 20
4420.7741306596827
 30
0.0
 11
29528.050427651218
 21
4495.7741306596827
 31
0.0
  0
LINE
  5
35E
  8
SL
 10
29353.050427651218
 20
4495.7741306596827
 30
0.0
 11
29353.050427651218
 21
5399.5741306596146
 31
0.0
  0
POINT
  5
388
  8
DEFPOINTS
 10
29528.050427651218
 20
6037.7741306596836
 30
0.0
  0
LINE
  5
3AB
  8
CT
 10
27278.050427651218
 20
3970.999569428895
 30
0.0
 11
27278.050427651218
 21
7950.3925110937298
 31
0.0
  0
LINE
  5
3AE
  8
FUTO
 10
28428.050427651218
 20
5987.7741306596827
 30
0.0
 11
28428.050427651218
 21
5962.7741306596836
 31
0.0
  0
LINE
  5
44F
  8
FUTO
 10
26478.050427651218
 20
4420.7741306596827
 30
0.0
 11
26478.050427651218
 21
5962.7741306596836
 31
0.0
  0
LINE
  5
450
  8
FUTO
 10
26553.050427651218
 20
4495.7741306596827
 30
0.0
 11
26553.050427651218
 21
5962.7741306596836
 31
0.0
  0
LINE
  5
452
  8
FUTO
 10
28003.050427651218
 20
4495.7741306596827
 30
0.0
 11
28003.050427651218
 21
5962.7741306596836
 31
0.0
  0
LINE
  5
454
  8
FUTO
 10
28078.050427651218
 20
4420.7741306596827
 30
0.0
 11
28078.050427651218
 21
5962.7741306596836
 31
0.0
  0
LINE
  5
546
  8
CT
 10
25782.143715969039
 20
6791.7741306596854
 30
0.0
 11
29217.115418296959
 21
6791.7741306596854
 31
0.0
  0
LINE
  5
547
  8
FUTO
 10
26003.050427651218
 20
7545.774130659689
 30
0.0
 11
29014.050427651218
 21
7545.774130659689
 31
0.0
  0
LINE
  5
548
  8
FUTO
 10
26003.050427651218
 20
7620.774130659689
 30
0.0
 11
28428.050427651218
 21
7620.7741306596872
 31
0.0
  0
LINE
  5
568
  8
FUTO
 10
28428.050427651218
 20
7595.7741306596881
 30
0.0
 11
28428.050427651218
 21
7620.7741306596872
 31
0.0
  0
DIMENSION
  5
5CF
  8
SP
  2
*D12
 10
34205.979755601118
 20
-193.01495463047289
 30
0.0
 11
34205.979755601118
 21
806.98504536952726
 31
0.0
 70
   128
  1
%%C<>
 13
33711.79003722209
 23
1806.9850453695269
 33
0.0
 14
33711.79003722209
 24
-193.0149546304728
 34
0.0
 50
90.0
1001
ACAD
1000
DSTYLE
1002
{
1070
   287
1070
     0
1070
   287
1070
     0
1070
    40
1040
45.0
1070
   140
1040
3.0
1070
   143
1040
0.03937
1070
   147
1040
0.5
1070
   173
1070
     1
1070
   176
1070
   256
1070
   177
1070
   256
1070
   178
1070
   256
1070
   271
1070
     4
1070
   272
1070
     4
1070
   279
1070
     0
1070
   285
1070
     0
1070
   286
1070
     0
1070
   289
1070
     0
1070
     6
1000
OPEN
1070
     7
1000
OPEN
1002
}
  0
LINE
  5
5DE
  8
FUTO
 10
33559.990037222102
 20
-493.0149546304728
 30
0.0
 11
33559.990037222087
 21
806.9850453695268
 31
0.0
  0
LINE
  5
5DF
  8
FUTO
 10
33556.79003722209
 20
-493.0149546304728
 30
0.0
 11
33556.79003722209
 21
806.9850453695268
 31
0.0
  0
LINE
  5
5E0
  8
FUTO
 10
33649.990037222102
 20
-493.0149546304728
 30
0.0
 11
33649.990037222087
 21
797.98504536952714
 31
0.0
  0
LINE
  5
5E5
  8
KL
 10
33568.990037222989
 20
-268.0149546304728
 30
0.0
 11
33568.990037223477
 21
1881.9850453695269
 31
0.0
  0
LINE
  5
5E6
  8
FUTO
 10
33711.79003722209
 20
-268.0149546304728
 30
0.0
 11
33711.79003722209
 21
1881.9850453695269
 31
0.0
  0
LINE
  5
5E7
  8
FUTO
 10
33705.79003722209
 20
-268.0149546304728
 30
0.0
 11
33705.79003722209
 21
1881.9850453695269
 31
0.0
  0
LINE
  5
5EB
  8
FUTO
 10
32053.5900372221
 20
-493.0149546304728
 30
0.0
 11
32053.590037222089
 21
806.98504536952726
 31
0.0
  0
LINE
  5
5EC
  8
FUTO
 10
32056.790037222101
 20
-493.0149546304728
 30
0.0
 11
32056.790037222101
 21
806.98504536952726
 31
0.0
  0
LINE
  5
5ED
  8
FUTO
 10
31963.590037222089
 20
-493.0149546304728
 30
0.0
 11
31963.590037222089
 21
797.98504536952714
 31
0.0
  0
LINE
  5
5EE
  8
FUTO
 10
31940.79003722209
 20
-493.0149546304728
 30
0.0
 11
31940.79003722209
 21
646.98504536952714
 31
0.0
  0
LINE
  5
5F0
  8
CT
 10
32806.79003722209
 20
-993.01495463047286
 30
0.0
 11
32806.79003722209
 21
3379.6822495833908
 31
0.0
  0
LINE
  5
603
  8
KL
 10
32056.790037222101
 20
-635.01495463047274
 30
0.0
 11
33559.990037222102
 21
-635.01495463047274
 31
0.0
  0
LINE
  5
604
  8
KL
 10
32056.790037222101
 20
-655.01495463047274
 30
0.0
 11
32056.790037222101
 21
-493.0149546304728
 31
0.0
  0
LINE
  5
605
  8
KL
 10
32053.590037222089
 20
-655.01495463047274
 30
0.0
 11
32053.5900372221
 21
-493.0149546304728
 31
0.0
  0
LINE
  5
606
  8
KL
 10
32053.5900372221
 20
-655.01495463047274
 30
0.0
 11
32056.790037222101
 21
-655.01495463047274
 31
0.0
  0
ARC
  5
614
  8
FUTO
 10
33577.79003722209
 20
-649.93958501278746
 30
0.0
 40
10.0
 50
180.0
 51
265.0
  0
LINE
  5
615
  8
KL
 10
33556.79003722209
 20
-655.01495463047274
 30
0.0
 11
33556.79003722209
 21
-493.0149546304728
 31
0.0
  0
LINE
  5
616
  8
KL
 10
33559.990037222102
 20
-655.01495463047274
 30
0.0
 11
33559.990037222102
 21
-493.0149546304728
 31
0.0
  0
LINE
  5
617
  8
FUTO
 10
33560.79003722209
 20
-673.01495463047274
 30
0.0
 11
33560.79003722209
 21
-493.0149546304728
 31
0.0
  0
LINE
  5
618
  8
FUTO
 10
33560.79003722209
 20
-673.01495463047274
 30
0.0
 11
33560.79003722209
 21
-493.0149546304728
 31
0.0
  0
LINE
  5
61B
  8
FUTO
 10
33576.918479794622
 20
-659.90153199370525
 30
0.0
 11
33630.769393807212
 21
-664.61287649031601
 31
0.0
  0
LINE
  5
61C
  8
FUTO
 10
33560.79003722209
 20
-673.01495463047274
 30
0.0
 11
33635.79003722209
 21
-673.01495463047274
 31
0.0
  0
LINE
  5
61D
  8
FUTO
 10
33560.79003722209
 20
-813.01495463047274
 30
0.0
 11
33635.79003722209
 21
-813.01495463047274
 31
0.0
  0
LINE
  5
61E
  8
FUTO
 10
33560.79003722209
 20
-813.01495463047274
 30
0.0
 11
33635.79003722209
 21
-813.01495463047274
 31
0.0
  0
LINE
  5
61F
  8
FUTO
 10
33576.918479794622
 20
-826.12837726724035
 30
0.0
 11
33630.769393807212
 21
-821.41703277062959
 31
0.0
  0
LINE
  5
620
  8
FUTO
 10
33576.918479794622
 20
-979.90153199370525
 30
0.0
 11
33630.769393807212
 21
-984.6128764903159
 31
0.0
  0
LINE
  5
621
  8
FUTO
 10
33560.79003722209
 20
-993.01495463047286
 30
0.0
 11
33635.79003722209
 21
-993.01495463047286
 31
0.0
  0
LINE
  5
622
  8
KL
 10
33556.79003722209
 20
-655.01495463047274
 30
0.0
 11
33559.990037222102
 21
-655.01495463047274
 31
0.0
  0
ARC
  5
623
  8
FUTO
 10
33577.79003722209
 20
-836.09032424815814
 30
0.0
 40
10.0
 50
95.0
 51
180.0
  0
ARC
  5
624
  8
FUTO
 10
33577.79003722209
 20
-969.93958501278757
 30
0.0
 40
10.0
 50
180.0
 51
265.0
  0
LINE
  5
625
  8
FUTO
 10
33560.79003722209
 20
-993.01495463047286
 30
0.0
 11
33560.79003722209
 21
-813.01495463047274
 31
0.0
  0
LINE
  5
626
  8
FUTO
 10
33567.790037222097
 20
-969.93958501278757
 30
0.0
 11
33567.790037222097
 21
-836.09032424815814
 31
0.0
  0
LINE
  5
629
  8
FUTO
 10
33635.79003722209
 20
-670.09194732981985
 30
0.0
 11
33635.79003722209
 21
-673.01495463047274
 31
0.0
  0
ARC
  5
62A
  8
FUTO
 10
33630.29003722209
 20
-670.09194732981985
 30
0.0
 40
5.5
 50
0.0
 51
84.999999999999986
  0
LINE
  5
62B
  8
FUTO
 10
33635.79003722209
 20
-815.93796193112485
 30
0.0
 11
33635.79003722209
 21
-813.01495463047274
 31
0.0
  0
ARC
  5
62C
  8
FUTO
 10
33630.29003722209
 20
-815.93796193112576
 30
0.0
 40
5.5
 50
275.0
 51
0.0000000000005598
  0
LINE
  5
62D
  8
FUTO
 10
33635.79003722209
 20
-990.09194732981996
 30
0.0
 11
33635.79003722209
 21
-993.01495463047286
 31
0.0
  0
ARC
  5
62E
  8
FUTO
 10
33630.29003722209
 20
-990.09194732981996
 30
0.0
 40
5.5
 50
0.0
 51
84.999999999999986
  0
LINE
  5
62F
  8
0
 10
33560.79003722209
 20
-493.0149546304728
 30
0.0
 11
33635.79003722209
 21
-493.0149546304728
 31
0.0
  0
LINE
  5
630
  8
FUTO
 10
33576.918479794622
 20
-506.12837726724041
 30
0.0
 11
33630.769393807212
 21
-501.41703277062959
 31
0.0
  0
ARC
  5
631
  8
FUTO
 10
33577.79003722209
 20
-516.09032424815814
 30
0.0
 40
10.0
 50
95.0
 51
180.0
  0
LINE
  5
632
  8
FUTO
 10
33567.790037222097
 20
-649.93958501278746
 30
0.0
 11
33567.790037222097
 21
-516.09032424815814
 31
0.0
  0
LINE
  5
633
  8
FUTO
 10
33635.79003722209
 20
-495.93796193112479
 30
0.0
 11
33635.79003722209
 21
-493.0149546304728
 31
0.0
  0
ARC
  5
634
  8
FUTO
 10
33630.29003722209
 20
-495.9379619311257
 30
0.0
 40
5.5
 50
275.0
 51
0.0000000000005598
  0
LINE
  5
635
  8
KL
 10
33559.990037222102
 20
-193.0149546304728
 30
0.0
 11
33711.79003722209
 21
-193.0149546304728
 31
0.0
  0
LINE
  5
636
  8
FUTO
 10
33559.990037222102
 20
-199.0149546304728
 30
0.0
 11
33649.990037222102
 21
-199.0149546304728
 31
0.0
  0
LINE
  5
637
  8
HOSO
 10
33568.990037222997
 20
-193.01495463046189
 30
0.0
 11
33559.990037222997
 21
-193.0149546304601
 31
0.0
  0
LINE
  5
638
  8
HOSO
 10
33533.870293614891
 20
-233.0149546304728
 30
0.0
 11
33592.069449720118
 21
-233.0149546304728
 31
0.0
  0
LINE
  5
639
  8
KL
 10
33559.990037222102
 20
-268.0149546304728
 30
0.0
 11
33568.990037222989
 21
-268.0149546304728
 31
0.0
  0
LINE
  5
63A
  8
FUTO
 10
33649.990037222102
 20
-199.0149546304728
 30
0.0
 11
33705.79003722209
 21
-199.0149546304728
 31
0.0
  0
LINE
  5
63B
  8
HOSO
 10
33683.751847782107
 20
-233.0149546304728
 30
0.0
 11
33741.951003887341
 21
-233.0149546304728
 31
0.0
  0
LINE
  5
63C
  8
FUTO
 10
33705.79003722209
 20
-268.0149546304728
 30
0.0
 11
33711.79003722209
 21
-268.0149546304728
 31
0.0
  0
LINE
  5
68C
  8
FUTO
 10
33559.990037222102
 20
806.98504536952726
 30
0.0
 11
33559.990037222102
 21
2960.9850453695249
 31
0.0
  0
LINE
  5
68D
  8
FUTO
 10
33556.79003722209
 20
806.98504536952726
 30
0.0
 11
33556.79003722209
 21
2954.9850453695249
 31
0.0
  0
LINE
  5
68E
  8
FUTO
 10
33634.990037222102
 20
797.98504536952737
 30
0.0
 11
33634.990037222102
 21
3029.9850453695249
 31
0.0
  0
LINE
  5
68F
  8
FUTO
 10
32056.790037222101
 20
806.98504536952726
 30
0.0
 11
32056.790037222101
 21
2954.9850453695249
 31
0.0
  0
LINE
  5
690
  8
FUTO
 10
32053.5900372221
 20
806.98504536952726
 30
0.0
 11
32053.5900372221
 21
2960.9850453695249
 31
0.0
  0
LINE
  5
691
  8
FUTO
 10
31978.5900372221
 20
797.98504536952714
 30
0.0
 11
31978.5900372221
 21
3029.9850453695249
 31
0.0
  0
LINE
  5
69A
  8
FUTO
 10
31978.5900372221
 20
815.98504536952726
 30
0.0
 11
33634.990037222087
 21
815.9850453695268
 31
0.0
  0
LINE
  5
69B
  8
FUTO
 10
31963.590037222089
 20
797.98504536952737
 30
0.0
 11
33649.990037222087
 21
797.98504536952737
 31
0.0
  0
LINE
  5
6A4
  8
FUTO
 10
31785.79003722209
 20
711.98504536952714
 30
0.0
 11
31785.79003722209
 21
941.98504536952714
 31
0.0
  0
LINE
  5
6A5
  8
FUTO
 10
31772.790037222101
 20
711.98504536952714
 30
0.0
 11
31772.790037222101
 21
941.98504536952714
 31
0.0
  0
LINE
  5
6A6
  8
FUTO
 10
31748.79003722209
 20
717.98504536952623
 30
0.0
 11
31748.79003722209
 21
895.98504536952896
 31
0.0
  0
LINE
  5
6A7
  8
CT
 10
31850.790037222101
 20
576.69333629502751
 30
0.0
 11
31850.790037222101
 21
1036.3187471313231
 31
0.0
  0
LINE
  5
6A8
  8
FUTO
 10
31915.790037222101
 20
711.98504536952714
 30
0.0
 11
31915.790037222101
 21
941.98504536952714
 31
0.0
  0
LINE
  5
6A9
  8
FUTO
 10
31952.79003722209
 20
717.98504536952623
 30
0.0
 11
31952.79003722209
 21
895.98504536952896
 31
0.0
  0
LINE
  5
6AA
  8
FUTO
 10
31928.790037222101
 20
711.98504536952714
 30
0.0
 11
31928.790037222101
 21
941.98504536952714
 31
0.0
  0
LINE
  5
6AB
  8
FUTO
 10
31915.790037222101
 20
711.98504536952714
 30
0.0
 11
31915.790037222101
 21
941.98504536952714
 31
0.0
  0
LINE
  5
6AF
  8
FUTO
 10
31770.790037222101
 20
656.98504536952714
 30
0.0
 11
31930.790037222101
 21
656.98504536952714
 31
0.0
  0
LINE
  5
6B0
  8
FUTO
 10
31770.790037222101
 20
711.98504536952714
 30
0.0
 11
31930.790037222101
 21
711.98504536952714
 31
0.0
  0
LINE
  5
6B1
  8
CT
 10
31800.79003722209
 20
618.62031043642673
 30
0.0
 11
31800.79003722209
 21
740.67862670017246
 31
0.0
  0
LINE
  5
6B2
  8
FUTO
 10
31770.790037222101
 20
646.98504536952714
 30
0.0
 11
31770.790037222101
 21
711.98504536952714
 31
0.0
  0
LINE
  5
6B3
  8
FUTO
 10
31748.79003722209
 20
717.98504536952714
 30
0.0
 11
31770.790037222101
 21
694.1517120361932
 31
0.0
  0
LINE
  5
6B6
  8
KL
 10
31952.79003722209
 20
751.98504536952714
 30
0.0
 11
32046.43407754675
 21
751.98504536952714
 31
0.0
  0
LINE
  5
6BA
  8
CT
 10
31900.79003722209
 20
616.69162372345545
 30
0.0
 11
31900.79003722209
 21
740.67862670017246
 31
0.0
  0
LINE
  5
6BB
  8
FUTO
 10
31930.790037222101
 20
646.98504536952714
 30
0.0
 11
31930.790037222101
 21
711.98504536952714
 31
0.0
  0
LINE
  5
6BC
  8
FUTO
 10
31952.79003722209
 20
717.98504536952714
 30
0.0
 11
31930.790037222101
 21
694.1517120361932
 31
0.0
  0
LINE
  5
6C2
  8
FUTO
 10
31790.79003722209
 20
957.98504536952714
 30
0.0
 11
31910.79003722209
 21
957.98504536952714
 31
0.0
  0
LINE
  5
6C3
  8
FUTO
 10
31790.79003722209
 20
941.98504536952714
 30
0.0
 11
31790.79003722209
 21
957.98504536952714
 31
0.0
  0
LINE
  5
6C4
  8
FUTO
 10
31748.79003722209
 20
895.98504536952703
 30
0.0
 11
31772.790037222101
 21
921.98504536952703
 31
0.0
  0
LINE
  5
6C5
  8
FUTO
 10
31772.790037222101
 20
941.98504536952714
 30
0.0
 11
31790.79003722209
 21
941.98504536952714
 31
0.0
  0
LINE
  5
6C6
  8
KL
 10
31952.79003722209
 20
861.98504536952714
 30
0.0
 11
32048.877114413939
 21
861.98504536952714
 31
0.0
  0
LINE
  5
6C7
  8
FUTO
 10
31928.790037222101
 20
941.98504536952714
 30
0.0
 11
31910.79003722209
 21
941.98504536952714
 31
0.0
  0
LINE
  5
6C8
  8
FUTO
 10
31910.79003722209
 20
941.98504536952714
 30
0.0
 11
31910.79003722209
 21
957.98504536952714
 31
0.0
  0
LINE
  5
6C9
  8
FUTO
 10
31952.79003722209
 20
895.98504536952703
 30
0.0
 11
31928.790037222101
 21
921.98504536952703
 31
0.0
  0
LINE
  5
6E2
  8
KL
 10
33559.990037222102
 20
1806.9850453695269
 30
0.0
 11
33711.79003722209
 21
1806.9850453695269
 31
0.0
  0
LINE
  5
6E3
  8
KL
 10
33559.990037222102
 20
1812.9850453695269
 30
0.0
 11
33634.990037222102
 21
1812.9850453695269
 31
0.0
  0
LINE
  5
6E4
  8
HOSO
 10
33568.990037223462
 20
1806.9850453695369
 30
0.0
 11
33559.99003722347
 21
1806.9850453695401
 31
0.0
  0
LINE
  5
6E5
  8
HOSO
 10
33526.183663377669
 20
1846.9850453695269
 30
0.0
 11
33596.81079051549
 21
1846.9850453695269
 31
0.0
  0
LINE
  5
6E6
  8
FUTO
 10
33634.990037222102
 20
1812.9850453695269
 30
0.0
 11
33705.79003722209
 21
1812.9850453695269
 31
0.0
  0
LINE
  5
6E7
  8
HOSO
 10
33675.744109779749
 20
1846.9850453695269
 30
0.0
 11
33746.371236917577
 21
1846.9850453695269
 31
0.0
  0
LINE
  5
6F6
  8
FUTO
 10
32056.790037222101
 20
2954.9850453695249
 30
0.0
 11
33556.79003722209
 21
2954.9850453695249
 31
0.0
  0
LINE
  5
6F7
  8
FUTO
 10
31978.5900372221
 20
3029.9850453695249
 30
0.0
 11
33634.990037222102
 21
3029.9850453695249
 31
0.0
  0
LINE
  5
6F8
  8
FUTO
 10
32053.5900372221
 20
2960.9850453695249
 30
0.0
 11
33559.990037222102
 21
2960.9850453695249
 31
0.0
  0
DIMENSION
  5
6F9
  8
SP
  2
*D13
 10
33711.79003722209
 20
3447.1224779262739
 30
0.0
 11
33259.290037222097
 21
3537.1224779262739
 31
0.0
 70
     0
  1
905
 13
32806.79003722209
 23
3331.162814604264
 33
0.0
 14
33711.79003722209
 24
1881.9850453695269
 34
0.0
1001
ACAD
1000
DSTYLE
1002
{
1070
   287
1070
     0
1070
   287
1070
     0
1070
    40
1040
45.0
1070
   140
1040
3.0
1070
   143
1040
0.03937
1070
   147
1040
0.5
1070
   173
1070
     1
1070
   176
1070
   256
1070
   177
1070
   256
1070
   178
1070
   256
1070
   271
1070
     4
1070
   272
1070
     4
1070
   279
1070
     0
1070
   285
1070
     0
1070
   286
1070
     0
1070
   289
1070
     0
1070
     6
1000
OPEN
1070
     7
1000
OPEN
1002
}
  0
LINE
  5
706
  8
KL
 10
33559.990037222102
 20
1881.9850453695269
 30
0.0
 11
33568.990037223477
 21
1881.9850453695269
 31
0.0
  0
LINE
  5
707
  8
KL
 10
33559.99003722208
 20
1879.9850453695269
 30
0.0
 11
33559.990037222109
 21
1969.9850453695269
 31
0.0
  0
LINE
  5
708
  8
FUTO
 10
33705.79003722209
 20
1881.9850453695269
 30
0.0
 11
33711.79003722209
 21
1881.9850453695269
 31
0.0
  0
INSERT
  5
71C
  8
FUTO
  2
まっすぐの矢印
 10
33878.286324978129
 20
1357.9092965097191
 30
0.0
 41
40.0
 42
40.0
 43
40.0
 50
90.0
  0
DIMENSION
  5
A68
  8
SP
  2
*D6
 10
27278.050427651218
 20
-1660.6356816443581
 30
0.0
 11
28403.050427651218
 21
-1570.6356816443581
 31
0.0
 70
     0
 13
29528.050427651211
 23
-993.01495463047286
 33
0.0
 14
27278.050427651218
 24
-993.01495463047286
 34
0.0
 50
180.0
1001
ACAD
1000
DSTYLE
1002
{
1070
   140
1040
3.0
1070
    40
1040
45.0
1070
   173
1070
     1
1070
   147
1040
0.5
1070
     7
1000
_OPEN
1070
     6
1000
_OPEN
1002
}
  0
DIMENSION
  5
A75
  8
SP
  2
*D7
 10
26128.050427651218
 20
-1660.6356816443581
 30
0.0
 11
26703.050427651218
 21
-1570.6356816443581
 31
0.0
 70
     0
 13
27278.050427651218
 23
-993.01495463047286
 33
0.0
 14
26128.050427651218
 24
-993.01495463047286
 34
0.0
 50
180.0
1001
ACAD
1000
DSTYLE
1002
{
1070
   140
1040
3.0
1070
    40
1040
45.0
1070
   173
1070
     1
1070
   147
1040
0.5
1070
     7
1000
_OPEN
1070
     6
1000
_OPEN
1002
}
  0
LINE
  5
AB0
  8
SL
 10
31690.358302995999
 20
954.18815286385689
 30
0.0
 11
30760.17953011777
 21
954.18815286385689
 31
0.0
  0
LINE
  5
AB2
  8
CT
 10
29361.577748424399
 20
-585.40656648626816
 30
0.0
 11
29361.577748424399
 21
-896.7149599761251
 31
0.0
  0
LINE
  5
AB3
  8
SP
 10
29401.577748424399
 20
-673.01495463047274
 30
0.0
 11
29401.577748424399
 21
-813.01495463047274
 31
0.0
  0
LINE
  5
AB4
  8
SP
 10
29321.577748424399
 20
-673.01495463047274
 30
0.0
 11
29321.577748424399
 21
-813.01495463047274
 31
0.0
  0
POINT
  5
CAC
  8
DEFPOINTS
  6
BYBLOCK
 62
     0
 10
26478.050427651218
 20
4420.7741306596827
 30
0.0
  0
POINT
  5
CB7
  8
DEFPOINTS
  6
BYBLOCK
 62
     0
 10
26478.050427651218
 20
4420.7741306596827
 30
0.0
  0
LINE
  5
178C
  8
FUTO
 10
29243.050427651211
 20
-493.01495463048298
 30
0.0
 11
29478.050427651211
 21
-493.01495463048298
 31
0.0
  0
LINE
  5
178D
  8
FUTO
 10
29468.050427651218
 20
-423.01495463048298
 30
0.0
 11
29243.050427651211
 21
-423.01495463048298
 31
0.0
  0
LINE
  5
178F
  8
FUTO
 10
28778.050427651211
 20
-493.01495463048298
 30
0.0
 11
29013.050427651211
 21
-493.01495463048298
 31
0.0
  0
LINE
  5
1790
  8
FUTO
 10
29013.050427651211
 20
-423.01495463048298
 30
0.0
 11
28788.050427651211
 21
-423.01495463048298
 31
0.0
  0
LINE
  5
1791
  8
FUTO
 10
28788.050427651211
 20
-423.01495463048298
 30
0.0
 11
28778.050427651211
 21
-493.01495463048298
 31
0.0
  0
LINE
  5
1792
  8
FUTO
 10
29243.050427651211
 20
-483.01495463048309
 30
0.0
 11
29013.050427651211
 21
-483.01495463048309
 31
0.0
  0
LINE
  5
1793
  8
FUTO
 10
29243.050427651211
 20
-433.01495463048309
 30
0.0
 11
29013.050427651211
 21
-433.01495463048309
 31
0.0
  0
LINE
  5
1794
  8
FUTO
 10
29013.050427651211
 20
-423.01495463048298
 30
0.0
 11
29013.050427651211
 21
-433.01495463048309
 31
0.0
  0
LINE
  5
1795
  8
FUTO
 10
29013.050427651211
 20
-483.01495463048309
 30
0.0
 11
29013.050427651211
 21
-493.01495463048298
 31
0.0
  0
LINE
  5
1796
  8
FUTO
 10
29243.050427651211
 20
-423.01495463048298
 30
0.0
 11
29243.050427651211
 21
-433.01495463048309
 31
0.0
  0
LINE
  5
1797
  8
FUTO
 10
29243.050427651211
 20
-483.01495463048309
 30
0.0
 11
29243.050427651211
 21
-493.01495463048298
 31
0.0
  0
LINE
  5
1798
  8
FUTO
 10
29371.050427651218
 20
-423.01495463048298
 30
0.0
 11
29271.050427651218
 21
-423.01495463048298
 31
0.0
  0
LINE
  5
1799
  8
FUTO
 10
29468.050427651218
 20
-423.01495463048298
 30
0.0
 11
29478.050427651211
 21
-493.01495463048298
 31
0.0
  0
LINE
  5
179B
  8
CT
 10
29229.756842275481
 20
306.985045369516
 30
0.0
 11
29384.053779795169
 21
306.985045369516
 31
0.0
  0
LINE
  5
179C
  8
FUTO
 10
28918.050427651218
 20
446.98504536951691
 30
0.0
 11
29308.050427651218
 21
446.98504536951691
 31
0.0
  0
LINE
  5
179D
  8
FUTO
 10
28918.050427651218
 20
181.985045369516
 30
0.0
 11
29308.050427651218
 21
181.98504536951509
 31
0.0
  0
LINE
  5
179E
  8
FUTO
 10
28972.571295375608
 20
-411.20563199795669
 30
0.0
 11
29283.529559926821
 21
-411.20563199795578
 31
0.0
  0
LINE
  5
17A0
  8
CT
 10
28790.59146346146
 20
-143.014954630483
 30
0.0
 11
29471.32764984425
 21
-143.014954630483
 31
0.0
  0
ARC
  5
17A1
  8
FUTO
 10
29128.050427651218
 20
-143.014954630483
 30
0.0
 40
310.0
 50
300.10230806831191
 51
239.897691931688
  0
LINE
  5
17A3
  8
FUTO
 10
28958.050427651218
 20
-402.24458256679759
 30
0.0
 11
28958.050427651218
 21
-423.014954630484
 31
0.0
  0
LINE
  5
17A4
  8
CT
 10
28899.550427651218
 20
-377.84550614083872
 30
0.0
 11
28899.550427651218
 21
-469.47106921309307
 31
0.0
  0
LINE
  5
17A5
  8
FUTO
 10
28848.050427651211
 20
-276.0563015870141
 30
0.0
 11
28848.050427651218
 21
-423.01495463048298
 31
0.0
  0
LINE
  5
17A6
  8
FUTO
 10
28848.050427651218
 20
-423.01495463048298
 30
0.0
 11
28958.050427651218
 21
-423.01495463048298
 31
0.0
  0
LINE
  5
17A7
  8
FUTO
 10
28848.050427651218
 20
-393.014954630484
 30
0.0
 11
28944.747399852979
 21
-393.014954630484
 31
0.0
  0
LINE
  5
17A8
  8
FUTO
 10
28898.050427651218
 20
426.98504536951691
 30
0.0
 11
28898.050427651218
 21
201.985045369516
 31
0.0
  0
ARC
  5
17A9
  8
FUTO
 10
28918.050427651218
 20
201.985045369516
 30
0.0
 40
20.0
 50
180.0
 51
270.0
  0
ARC
  5
17AA
  8
FUTO
 10
28918.050427651218
 20
426.98504536951691
 30
0.0
 40
20.0
 50
90.0
 51
180.0
  0
LINE
  5
17AB
  8
FUTO
 10
29408.050427651218
 20
-276.05630158702951
 30
0.0
 11
29408.050427651218
 21
-423.014954630484
 31
0.0
  0
LINE
  5
17AC
  8
FUTO
 10
29298.050427651218
 20
-402.24458256679759
 30
0.0
 11
29298.050427651218
 21
-423.014954630484
 31
0.0
  0
LINE
  5
17AD
  8
CT
 10
29356.550427651218
 20
-377.84550614083872
 30
0.0
 11
29356.550427651218
 21
-465.30627089162698
 31
0.0
  0
LINE
  5
17AE
  8
FUTO
 10
29298.050427651218
 20
-423.014954630484
 30
0.0
 11
29408.050427651218
 21
-423.014954630484
 31
0.0
  0
LINE
  5
17AF
  8
FUTO
 10
29311.353455449451
 20
-393.014954630484
 30
0.0
 11
29408.050427651218
 21
-393.014954630484
 31
0.0
  0
LINE
  5
17B0
  8
FUTO
 10
29328.050427651218
 20
426.98504536951691
 30
0.0
 11
29328.050427651218
 21
201.98504536951509
 31
0.0
  0
ARC
  5
17B1
  8
FUTO
 10
29308.050427651218
 20
201.98504536951509
 30
0.0
 40
20.0
 50
270.0
 51
0.000000000000007
  0
ARC
  5
17B2
  8
FUTO
 10
29308.050427651218
 20
426.98504536951691
 30
0.0
 40
20.0
 50
0.000000000000007
 51
90.0
  0
CIRCLE
  5
17B5
  8
SL
 10
29128.050427651218
 20
-143.014954630483
 30
0.0
 40
177.5
  0
CIRCLE
  5
17B6
  8
SL
 10
27278.050427651218
 20
806.98504536952726
 30
0.0
 40
315.0
  0
LINE
  5
17B7
  8
SL
 10
29219.3955105368
 20
9.1767857256434127
 30
0.0
 11
27440.155786011539
 21
1077.071795860681
 31
0.0
  0
LINE
  5
17B8
  8
SL
 10
27152.998537498988
 20
517.87083823097385
 30
0.0
 11
29057.58468002575
 21
-305.92851579585829
 31
0.0
  0
ARC
  5
17B9
  8
FUTO
 10
27278.050427651218
 20
806.98504536952726
 30
0.0
 40
480.0
 50
57.300258797799358
 51
248.33751903124571
  0
ARC
  5
17BA
  8
FUTO
 10
29128.050427651218
 20
-143.014954630483
 30
0.0
 40
280.0
 50
248.33751903124571
 51
57.300258797799358
  0
LINE
  5
17BB
  8
FUTO
 10
27537.363956998852
 20
1210.9113919938541
 30
0.0
 11
29279.316653104001
 21
92.608747567041064
 31
0.0
  0
LINE
  5
17BD
  8
FUTO
 10
29024.6917166493
 20
-403.23981289737139
 30
0.0
 11
27100.864065933649
 21
360.8852883405757
 31
0.0
  0
ARC
  5
17BE
  8
FUTO
 10
27425.050427651218
 20
953.98504536952714
 30
0.0
 40
1609.0
 50
295.93165108678471
 51
313.69499590110451
  0
DIMENSION
  5
1B16
  8
SP
  2
*D14
 10
32806.79003722209
 20
-1666.0923748987179
 30
0.0
 11
31621.29003722209
 21
-1576.0923748987191
 31
0.0
 70
     0
 13
30435.79003722209
 23
-993.01495463047286
 33
0.0
 14
32806.79003722209
 24
-993.01495463047286
 34
0.0
1001
ACAD
1000
DSTYLE
1002
{
1070
   287
1070
     3
1070
    40
1040
45.0
1070
   140
1040
3.0
1070
   147
1040
0.5
1070
   173
1070
     1
1070
   279
1070
     0
1070
     6
1000
OPEN
1070
     7
1000
OPEN
1002
}
  0
DIMENSION
  5
1B22
  8
SP
  2
*D15
 10
33635.79003722209
 20
-1666.0923748987179
 30
0.0
 11
33221.29003722209
 21
-1576.0923748987191
 31
0.0
 70
     0
 13
32806.79003722209
 23
-993.01495463047286
 33
0.0
 14
33635.79003722209
 24
-993.01495463047286
 34
0.0
1001
ACAD
1000
DSTYLE
1002
{
1070
   287
1070
     4
1070
    40
1040
45.0
1070
    75
1070
     1
1070
   140
1040
3.0
1070
   147
1040
0.5
1070
   173
1070
     1
1070
   279
1070
     1
1070
     6
1000
OPEN
1070
     7
1000
OPEN
1002
}
  0
DIMENSION
  5
1B2F
  8
SP
  2
*D16
 10
30435.79003722209
 20
-1958.214675151615
 30
0.0
 11
32035.790037222101
 21
-1868.214675151615
 31
0.0
 70
     0
 13
33635.79003722209
 23
-1666.0923748987179
 33
0.0
 14
30435.79003722209
 24
-1666.0923748987179
 34
0.0
1001
ACAD
1000
DSTYLE
1002
{
1070
   287
1070
     3
1070
    40
1040
45.0
1070
   140
1040
3.0
1070
   147
1040
0.5
1070
   173
1070
     1
1070
   279
1070
     0
1070
     6
1000
OPEN
1070
     7
1000
OPEN
1002
}
  0
LINE
  5
1BAD
  8
FUTO
 10
32045.79003722209
 20
-969.93958501278757
 30
0.0
 11
32045.79003722209
 21
-836.09032424815814
 31
0.0
  0
LINE
  5
1BAE
  8
FUTO
 10
32052.790037222101
 20
-993.01495463047286
 30
0.0
 11
32052.790037222101
 21
-813.01495463047274
 31
0.0
  0
ARC
  5
1BAF
  8
FUTO
 10
31983.29003722209
 20
-990.09194732981996
 30
0.0
 40
5.5
 50
95.000000000000014
 51
180.0
  0
LINE
  5
1BB0
  8
FUTO
 10
31977.79003722209
 20
-990.09194732981996
 30
0.0
 11
31977.79003722209
 21
-993.01495463047286
 31
0.0
  0
ARC
  5
1BB1
  8
FUTO
 10
32035.790037222101
 20
-969.93958501278757
 30
0.0
 40
10.0
 50
275.0
 51
0.0
  0
LINE
  5
1BB2
  8
FUTO
 10
32052.790037222101
 20
-993.01495463047286
 30
0.0
 11
31977.79003722209
 21
-993.01495463047286
 31
0.0
  0
LINE
  5
1BB3
  8
FUTO
 10
32036.661594649569
 20
-979.90153199370525
 30
0.0
 11
31982.81068063698
 21
-984.6128764903159
 31
0.0
  0
ARC
  5
1BB4
  8
FUTO
 10
31983.29003722209
 20
-815.93796193112576
 30
0.0
 40
5.5
 50
179.9999999999994
 51
264.99999999999989
  0
LINE
  5
1BB5
  8
FUTO
 10
31977.79003722209
 20
-815.93796193112485
 30
0.0
 11
31977.79003722209
 21
-813.01495463047274
 31
0.0
  0
ARC
  5
1BB6
  8
FUTO
 10
31983.29003722209
 20
-670.09194732981985
 30
0.0
 40
5.5
 50
95.000000000000014
 51
180.0
  0
LINE
  5
1BB7
  8
FUTO
 10
31977.79003722209
 20
-670.09194732981985
 30
0.0
 11
31977.79003722209
 21
-673.01495463047274
 31
0.0
  0
ARC
  5
1BB8
  8
FUTO
 10
32035.790037222101
 20
-836.09032424815814
 30
0.0
 40
10.0
 50
0.0
 51
85.0
  0
LINE
  5
1BB9
  8
KL
 10
32056.790037222101
 20
-655.01495463047274
 30
0.0
 11
32053.590037222089
 21
-655.01495463047274
 31
0.0
  0
LINE
  5
1BBA
  8
FUTO
 10
32036.661594649569
 20
-826.12837726724035
 30
0.0
 11
31982.81068063698
 21
-821.41703277062959
 31
0.0
  0
LINE
  5
1BBB
  8
FUTO
 10
32052.790037222101
 20
-813.01495463047274
 30
0.0
 11
31977.79003722209
 21
-813.01495463047274
 31
0.0
  0
LINE
  5
1BBC
  8
FUTO
 10
32052.790037222101
 20
-813.01495463047274
 30
0.0
 11
31977.79003722209
 21
-813.01495463047274
 31
0.0
  0
LINE
  5
1BBD
  8
FUTO
 10
32052.790037222101
 20
-673.01495463047274
 30
0.0
 11
31977.79003722209
 21
-673.01495463047274
 31
0.0
  0
LINE
  5
1BBE
  8
FUTO
 10
32036.661594649569
 20
-659.90153199370525
 30
0.0
 11
31982.81068063698
 21
-664.61287649031601
 31
0.0
  0
ARC
  5
1BBF
  8
FUTO
 10
32035.790037222101
 20
-649.93958501278746
 30
0.0
 40
10.0
 50
275.0
 51
0.0
  0
LINE
  5
1BC0
  8
FUTO
 10
31977.79003722209
 20
-495.93796193112479
 30
0.0
 11
31977.79003722209
 21
-493.0149546304728
 31
0.0
  0
LINE
  5
1BC1
  8
FUTO
 10
32052.790037222101
 20
-673.01495463047274
 30
0.0
 11
32052.790037222101
 21
-493.0149546304728
 31
0.0
  0
LINE
  5
1BC2
  8
FUTO
 10
32052.790037222101
 20
-673.01495463047274
 30
0.0
 11
32052.790037222101
 21
-493.0149546304728
 31
0.0
  0
LINE
  5
1BC3
  8
KL
 10
32053.590037222089
 20
-655.01495463047274
 30
0.0
 11
32053.590037222089
 21
-493.0149546304728
 31
0.0
  0
LINE
  5
1BC4
  8
KL
 10
32056.790037222101
 20
-655.01495463047274
 30
0.0
 11
32056.790037222101
 21
-493.0149546304728
 31
0.0
  0
ARC
  5
1BC5
  8
FUTO
 10
31983.29003722209
 20
-495.9379619311257
 30
0.0
 40
5.5
 50
179.9999999999994
 51
264.99999999999989
  0
LINE
  5
1BC6
  8
FUTO
 10
32045.79003722209
 20
-649.93958501278746
 30
0.0
 11
32045.79003722209
 21
-516.09032424815814
 31
0.0
  0
ARC
  5
1BC7
  8
FUTO
 10
32035.790037222101
 20
-516.09032424815814
 30
0.0
 40
10.0
 50
0.0
 51
85.0
  0
LINE
  5
1BC8
  8
FUTO
 10
32036.661594649569
 20
-506.12837726724041
 30
0.0
 11
31982.81068063698
 21
-501.41703277062959
 31
0.0
  0
LINE
  5
1BC9
  8
0
 10
32052.790037222101
 20
-493.0149546304728
 30
0.0
 11
31977.79003722209
 21
-493.0149546304728
 31
0.0
  0
LINE
  5
1BCA
  8
FUTO
 10
32052.790037222101
 20
-661.01495463047274
 30
0.0
 11
33560.79003722209
 21
-661.01495463047274
 31
0.0
  0
LINE
  5
1BCB
  8
FUTO
 10
32052.790037222101
 20
-505.0149546304728
 30
0.0
 11
33560.79003722209
 21
-505.0149546304728
 31
0.0
  0
LINE
  5
1BCC
  8
FUTO
 10
32052.790037222101
 20
-825.01495463047274
 30
0.0
 11
33560.79003722209
 21
-825.01495463047274
 31
0.0
  0
LINE
  5
1BCD
  8
FUTO
 10
32052.790037222101
 20
-981.01495463047274
 30
0.0
 11
33560.79003722209
 21
-981.01495463047274
 31
0.0
  0
LINE
  5
1BCE
  8
FUTO
 10
32052.790037222101
 20
-993.01495463047286
 30
0.0
 11
33560.79003722209
 21
-993.01495463047286
 31
0.0
  0
LINE
  5
1BCF
  8
FUTO
 10
30510.79003722209
 20
-993.01495463047286
 30
0.0
 11
32023.935115676239
 21
-993.01495463047286
 31
0.0
  0
DIMENSION
  5
1BF2
  8
SP
  2
*D17
 10
32806.79003722209
 20
3447.1224779262739
 30
0.0
 11
31506.79003722209
 21
3537.1224779262739
 31
0.0
 70
     0
 13
30206.790037222101
 23
3447.1224779262739
 33
0.0
 14
32806.79003722209
 24
3447.1224779262739
 34
0.0
1001
ACAD
1000
DSTYLE
1002
{
1070
   287
1070
     3
1070
    40
1040
45.0
1070
   140
1040
3.0
1070
   147
1040
0.5
1070
   173
1070
     1
1070
   279
1070
     0
1070
   341
1005
24
1070
     6
1000
OPEN
1070
     7
1000
OPEN
1002
}
  0
LINE
  5
1C10
  8
FUTO
 10
28428.050427651218
 20
-813.01495463047274
 30
0.0
 11
28428.050427651218
 21
-993.01495463047286
 31
0.0
  0
LINE
  5
1C11
  8
FUTO
 10
28078.050427651218
 20
-813.01495463047274
 30
0.0
 11
28078.050427651218
 21
-993.01495463047286
 31
0.0
  0
LINE
  5
1C21
  8
SL
 10
30760.17953011777
 20
954.18815286385689
 30
0.0
 11
30760.17953011777
 21
646.98504536952714
 31
0.0
  0
LINE
  5
1C22
  8
SL
 10
31690.358302995999
 20
954.18815286385689
 30
0.0
 11
31690.358302995999
 21
646.98504536952714
 31
0.0
  0
DIMENSION
  5
1C23
  8
SP
  2
*D18
 10
25538.9445773558
 20
3033.9850453695281
 30
0.0
 11
25448.9445773558
 21
1920.485045369531
 31
0.0
 70
     0
 13
25934.708861822019
 23
806.98504536952726
 33
0.0
 14
26003.05042764976
 24
3033.9850453695281
 34
0.0
 50
90.0
1001
ACAD
1000
DSTYLE
1002
{
1070
   287
1070
     3
1070
    40
1040
45.0
1070
   140
1040
3.0
1070
   147
1040
0.5
1070
   173
1070
     1
1070
   279
1070
     0
1070
   341
1005
24
1070
     6
1000
OPEN
1070
     7
1000
OPEN
1002
}
  0
LINE
  5
1C5C
  8
FUTO
 10
27189.050427651218
 20
5733.7741306596863
 30
0.0
 11
27163.050427651218
 21
5757.7741306596863
 31
0.0
  0
LINE
  5
1C5D
  8
FUTO
 10
27367.050427651218
 20
5733.7741306596863
 30
0.0
 11
27390.88376098455
 21
5755.7741306596881
 31
0.0
  0
LINE
  5
1C61
  8
FUTO
 10
26798.050427651218
 20
4191.7741306596881
 30
0.0
 11
29408.050427651218
 21
4191.7741306596854
 31
0.0
  0
LINE
  5
1C62
  8
SL
 10
26903.050427651218
 20
4309.5741306596883
 30
0.0
 11
29305.550427651218
 21
4309.5741306596847
 31
0.0
  0
LINE
  5
1C63
  8
SL
 10
26903.050427651218
 20
4439.5741306596856
 30
0.0
 11
29305.550427651218
 21
4439.5741306596874
 31
0.0
  0
LINE
  5
1C6B
  8
FUTO
 10
27335.550427651218
 20
5733.7741306596863
 30
0.0
 11
27335.550427651218
 21
4671.7741306596854
 31
0.0
  0
LINE
  5
1C6C
  8
FUTO
 10
27220.550427651218
 20
5733.7741306596863
 30
0.0
 11
27220.550427651218
 21
4671.7741306596854
 31
0.0
  0
LINE
  5
1C6D
  8
FUTO
 10
26798.050427651218
 20
4472.5231648221943
 30
0.0
 11
29408.050427651218
 21
4472.5231648221934
 31
0.0
  0
LINE
  5
1C6E
  8
FUTO
 10
27198.050427651218
 20
4671.7741306596854
 30
0.0
 11
27358.050427651218
 21
4671.7741306596854
 31
0.0
  0
LINE
  5
1C6F
  8
FUTO
 10
27198.050427651218
 20
4499.7741306596863
 30
0.0
 11
27358.050427651218
 21
4499.7741306596863
 31
0.0
  0
LINE
  5
1C70
  8
FUTO
 10
27163.050427651218
 20
4649.7741306596854
 30
0.0
 11
27358.050427651218
 21
4649.7741306596854
 31
0.0
  0
LINE
  5
1C71
  8
FUTO
 10
27163.050427651218
 20
4663.7741306596854
 30
0.0
 11
27393.050427651218
 21
4663.7741306596854
 31
0.0
  0
LINE
  5
1C72
  8
FUTO
 10
27163.050427651218
 20
4507.7741306596863
 30
0.0
 11
27393.050427651218
 21
4507.7741306596863
 31
0.0
  0
LINE
  5
1C73
  8
CT
 10
27114.558809141388
 20
4585.7741306596854
 30
0.0
 11
27429.207581413259
 21
4585.7741306596854
 31
0.0
  0
LINE
  5
1C74
  8
FUTO
 10
27163.050427651218
 20
4649.7741306596854
 30
0.0
 11
27393.050427651218
 21
4649.7741306596854
 31
0.0
  0
LINE
  5
1C75
  8
FUTO
 10
27163.050427651218
 20
4521.7741306596854
 30
0.0
 11
27393.050427651218
 21
4521.7741306596854
 31
0.0
  0
LINE
  5
1C76
  8
SL
 10
27653.050427651218
 20
4439.5741306596856
 30
0.0
 11
27653.050427651218
 21
4309.5741306596856
 31
0.0
  0
LINE
  5
1C7A
  8
FUTO
 10
27330.550427651218
 20
4499.7741306596863
 30
0.0
 11
27330.550427651218
 21
4439.5741306596847
 31
0.0
  0
LINE
  5
1C7B
  8
FUTO
 10
27393.050427651218
 20
4507.7741306596863
 30
0.0
 11
27393.050427651218
 21
4515.7741306596854
 31
0.0
  0
LINE
  5
1C7C
  8
FUTO
 10
27358.050427651218
 20
4499.7741306596863
 30
0.0
 11
27378.050427651218
 21
4507.7741306596863
 31
0.0
  0
LINE
  5
1C7F
  8
FUTO
 10
27358.050427651218
 20
4671.7741306596854
 30
0.0
 11
27378.050427651218
 21
4663.7741306596854
 31
0.0
  0
LINE
  5
1C80
  8
FUTO
 10
27393.050427651218
 20
4663.7741306596854
 30
0.0
 11
27393.050427651218
 21
4655.7741306596854
 31
0.0
  0
LINE
  5
1C83
  8
SL
 10
26903.050427651218
 20
4439.5741306596847
 30
0.0
 11
26903.050427651218
 21
4309.5741306596883
 31
0.0
  0
LINE
  5
1C84
  8
FUTO
 10
27145.050427651218
 20
4531.7741306596863
 30
0.0
 11
27145.050427651218
 21
4639.7741306596854
 31
0.0
  0
LINE
  5
1C85
  8
FUTO
 10
27163.050427651218
 20
4521.7741306596854
 30
0.0
 11
27163.050427651218
 21
4531.7741306596863
 31
0.0
  0
LINE
  5
1C86
  8
FUTO
 10
27145.050427651218
 20
4531.7741306596863
 30
0.0
 11
27163.050427651218
 21
4531.7741306596863
 31
0.0
  0
LINE
  5
1C87
  8
FUTO
 10
27163.050427651218
 20
4507.7741306596863
 30
0.0
 11
27163.050427651218
 21
4521.7741306596854
 31
0.0
  0
LINE
  5
1C88
  8
FUTO
 10
27198.050427651218
 20
4499.7741306596863
 30
0.0
 11
27178.050427651218
 21
4507.7741306596863
 31
0.0
  0
LINE
  5
1C89
  8
FUTO
 10
27225.550427651218
 20
4499.7741306596863
 30
0.0
 11
27225.550427651218
 21
4439.5741306596847
 31
0.0
  0
LINE
  5
1C8A
  8
FUTO
 10
27198.050427651218
 20
4671.7741306596854
 30
0.0
 11
27178.050427651218
 21
4663.7741306596854
 31
0.0
  0
LINE
  5
1C8B
  8
FUTO
 10
27163.050427651218
 20
4663.7741306596854
 30
0.0
 11
27163.050427651218
 21
4649.7741306596854
 31
0.0
  0
LINE
  5
1C8C
  8
FUTO
 10
27163.050427651218
 20
4639.7741306596854
 30
0.0
 11
27163.050427651218
 21
4649.7741306596854
 31
0.0
  0
LINE
  5
1C8D
  8
FUTO
 10
27145.050427651218
 20
4639.7741306596854
 30
0.0
 11
27163.050427651218
 21
4639.7741306596854
 31
0.0
  0
LINE
  5
1C8E
  8
FUTO
 10
26798.050427651218
 20
4472.5231648221943
 30
0.0
 11
26798.050427651218
 21
4191.7741306596881
 31
0.0
  0
POINT
  5
1C8F
  8
DEFPOINTS
 10
26798.050427651218
 20
4191.7741306596881
 30
0.0
  0
LINE
  5
1C93
  8
FUTO
 10
27367.050427651218
 20
5733.7741306596863
 30
0.0
 11
27189.050427651218
 21
5733.7741306596872
 31
0.0
  0
LINE
  5
1C9A
  8
FUTO
 10
26203.050427651218
 20
7690.7741306596863
 30
0.0
 11
28353.050427651218
 21
7690.7741306596863
 31
0.0
  0
LINE
  5
1C9B
  8
FUTO
 10
26203.050427651218
 20
7696.7741306596854
 30
0.0
 11
28353.050427651218
 21
7696.7741306596872
 31
0.0
  0
LINE
  5
1C9C
  8
KL
 10
26203.050427651218
 20
7553.9741306605774
 30
0.0
 11
28353.050427651218
 21
7553.9741306610686
 31
0.0
  0
LINE
  5
1CA1
  8
HOSO
 10
26238.050427651218
 20
7518.8543870524873
 30
0.0
 11
26238.050427651218
 21
7577.0535431577136
 31
0.0
  0
LINE
  5
1CA2
  8
FUTO
 10
26272.050427651218
 20
7544.9741306596861
 30
0.0
 11
26272.050427651218
 21
7634.974130659687
 31
0.0
  0
LINE
  5
1CA3
  8
KL
 10
26278.050427651218
 20
7544.9741306596861
 30
0.0
 11
26278.050427651218
 21
7696.7741306596854
 31
0.0
  0
LINE
  5
1CA4
  8
KL
 10
26203.050427651218
 20
7544.9741306596861
 30
0.0
 11
26203.050427651218
 21
7553.9741306605756
 31
0.0
  0
LINE
  5
1CA5
  8
HOSO
 10
26278.050427651229
 20
7553.9741306605956
 30
0.0
 11
26278.050427651229
 21
7544.9741306605947
 31
0.0
  0
LINE
  5
1CA6
  8
FUTO
 10
26203.050427651218
 20
7690.7741306596872
 30
0.0
 11
26203.050427651218
 21
7696.7741306596854
 31
0.0
  0
LINE
  5
1CA7
  8
HOSO
 10
26238.050427651218
 20
7668.735941219702
 30
0.0
 11
26238.050427651218
 21
7726.9350973249293
 31
0.0
  0
LINE
  5
1CA8
  8
FUTO
 10
26272.050427651218
 20
7634.974130659687
 30
0.0
 11
26272.050427651218
 21
7690.7741306596863
 31
0.0
  0
LINE
  5
1CBE
  8
FUTO
 10
27373.050427651218
 20
5900.7741306596854
 30
0.0
 11
27143.050427651218
 21
5900.7741306596854
 31
0.0
  0
LINE
  5
1CBF
  8
FUTO
 10
27413.050427651218
 20
5913.7741306596854
 30
0.0
 11
27143.050427651218
 21
5913.7741306596854
 31
0.0
  0
LINE
  5
1CC0
  8
FUTO
 10
27367.050427651218
 20
5937.7741306596854
 30
0.0
 11
27189.050427651218
 21
5937.7741306596854
 31
0.0
  0
LINE
  5
1CC1
  8
FUTO
 10
27413.050427651218
 20
5900.7741306596872
 30
0.0
 11
27143.050427651218
 21
5900.7741306596854
 31
0.0
  0
LINE
  5
1CC2
  8
CT
 10
27508.342136725722
 20
5835.7741306596863
 30
0.0
 11
27048.716725889419
 21
5835.7741306596863
 31
0.0
  0
LINE
  5
1CC3
  8
FUTO
 10
27413.050427651218
 20
5757.7741306596872
 30
0.0
 11
27143.050427651218
 21
5757.7741306596863
 31
0.0
  0
LINE
  5
1CC4
  8
FUTO
 10
27413.050427651218
 20
5770.7741306596872
 30
0.0
 11
27143.050427651218
 21
5770.7741306596863
 31
0.0
  0
LINE
  5
1CC5
  8
KL
 10
27333.050427651218
 20
5937.7741306596854
 30
0.0
 11
27333.050427651218
 21
6031.4181709843451
 31
0.0
  0
LINE
  5
1CCB
  8
FUTO
 10
27367.050427651218
 20
5937.7741306596872
 30
0.0
 11
27390.88376098455
 21
5915.7741306596854
 31
0.0
  0
LINE
  5
1CCE
  8
KL
 10
27223.050427651218
 20
5937.7741306596854
 30
0.0
 11
27223.050427651218
 21
6033.8612078515353
 31
0.0
  0
LINE
  5
1CCF
  8
FUTO
 10
27127.050427651218
 20
5775.7741306596854
 30
0.0
 11
27127.050427651218
 21
5895.7741306596863
 31
0.0
  0
LINE
  5
1CD0
  8
FUTO
 10
27143.050427651218
 20
5757.7741306596872
 30
0.0
 11
27143.050427651218
 21
5775.7741306596854
 31
0.0
  0
LINE
  5
1CD1
  8
FUTO
 10
27143.050427651218
 20
5775.7741306596854
 30
0.0
 11
27127.050427651218
 21
5775.7741306596854
 31
0.0
  0
LINE
  5
1CD2
  8
FUTO
 10
27189.050427651218
 20
5937.7741306596872
 30
0.0
 11
27163.050427651218
 21
5913.7741306596854
 31
0.0
  0
LINE
  5
1CD3
  8
FUTO
 10
27143.050427651218
 20
5895.7741306596863
 30
0.0
 11
27127.050427651218
 21
5895.7741306596863
 31
0.0
  0
LINE
  5
1CD4
  8
FUTO
 10
27143.050427651218
 20
5913.7741306596854
 30
0.0
 11
27143.050427651218
 21
5895.7741306596863
 31
0.0
  0
LINE
  5
1CE0
  8
HOSO
 10
28318.050427651218
 20
7511.1677568152654
 30
0.0
 11
28318.050427651218
 21
7581.7948839530864
 31
0.0
  0
LINE
  5
1CE1
  8
KL
 10
28284.050427651218
 20
7544.9741306596861
 30
0.0
 11
28284.050427651218
 21
7619.9741306596861
 31
0.0
  0
LINE
  5
1CE2
  8
KL
 10
28278.050427651218
 20
7544.9741306596861
 30
0.0
 11
28278.050427651218
 21
7696.7741306596854
 31
0.0
  0
LINE
  5
1CE4
  8
KL
 10
28353.050427651218
 20
7544.9741306596861
 30
0.0
 11
28353.050427651218
 21
7553.9741306610686
 31
0.0
  0
LINE
  5
1CE5
  8
HOSO
 10
28278.050427651229
 20
7553.9741306610513
 30
0.0
 11
28278.050427651229
 21
7544.9741306610549
 31
0.0
  0
LINE
  5
1CE6
  8
FUTO
 10
28353.050427651218
 20
7690.7741306596863
 30
0.0
 11
28353.050427651218
 21
7696.7741306596872
 31
0.0
  0
LINE
  5
1CE7
  8
HOSO
 10
28318.050427651218
 20
7660.7282032173443
 30
0.0
 11
28318.050427651218
 21
7731.3553303551662
 31
0.0
  0
LINE
  5
1CE8
  8
FUTO
 10
28284.050427651218
 20
7619.9741306596861
 30
0.0
 11
28284.050427651218
 21
7690.7741306596863
 31
0.0
  0
INSERT
  5
1CE9
  8
FUTO
  2
まっすぐの矢印
 10
27828.974678791408
 20
7863.2704184157164
 30
0.0
 41
-40.0
 42
40.0
 43
40.0
 50
180.0
  0
LINE
  5
1D14
  8
FUTO
 10
27411.050427651218
 20
4531.7741306596863
 30
0.0
 11
27411.050427651218
 21
4639.7741306596854
 31
0.0
  0
LINE
  5
1D15
  8
FUTO
 10
27393.050427651218
 20
4507.7741306596863
 30
0.0
 11
27393.050427651218
 21
4521.7741306596854
 31
0.0
  0
LINE
  5
1D16
  8
FUTO
 10
27411.050427651218
 20
4531.7741306596863
 30
0.0
 11
27393.050427651218
 21
4531.7741306596863
 31
0.0
  0
LINE
  5
1D17
  8
FUTO
 10
27393.050427651218
 20
4521.7741306596854
 30
0.0
 11
27393.050427651218
 21
4531.7741306596863
 31
0.0
  0
LINE
  5
1D18
  8
FUTO
 10
27411.050427651218
 20
4639.7741306596854
 30
0.0
 11
27393.050427651218
 21
4639.7741306596854
 31
0.0
  0
LINE
  5
1D19
  8
FUTO
 10
27393.050427651218
 20
4639.7741306596854
 30
0.0
 11
27393.050427651218
 21
4649.7741306596854
 31
0.0
  0
LINE
  5
1D1A
  8
FUTO
 10
27393.050427651218
 20
4663.7741306596854
 30
0.0
 11
27393.050427651218
 21
4649.7741306596854
 31
0.0
  0
LINE
  5
1D1B
  8
FUTO
 10
27429.050427651218
 20
5775.7741306596854
 30
0.0
 11
27429.050427651218
 21
5895.7741306596863
 31
0.0
  0
LINE
  5
1D1C
  8
FUTO
 10
27413.050427651218
 20
5775.7741306596854
 30
0.0
 11
27429.050427651218
 21
5775.7741306596854
 31
0.0
  0
LINE
  5
1D1D
  8
FUTO
 10
27413.050427651218
 20
5757.7741306596872
 30
0.0
 11
27413.050427651218
 21
5775.7741306596854
 31
0.0
  0
LINE
  5
1D1E
  8
FUTO
 10
27413.050427651218
 20
5913.7741306596854
 30
0.0
 11
27413.050427651218
 21
5895.7741306596863
 31
0.0
  0
LINE
  5
1D1F
  8
FUTO
 10
27413.050427651218
 20
5895.7741306596863
 30
0.0
 11
27429.050427651218
 21
5895.7741306596863
 31
0.0
  0
LINE
  5
1D20
  8
FUTO
 10
27627.637232128662
 20
4489.7741306596818
 30
0.0
 11
27627.637232128662
 21
5962.7741306596836
 31
0.0
  0
LINE
  5
1D21
  8
FUTO
 10
26928.463623173779
 20
4489.7741306596818
 30
0.0
 11
26928.463623173771
 21
5962.7741306596836
 31
0.0
  0
LINE
  5
1D22
  8
FUTO
 10
26003.050427651011
 20
5962.7741306596836
 30
0.0
 11
26003.05042764988
 21
7620.7741306596909
 31
0.0
  0
LINE
  5
1D23
  8
FUTO
 10
26003.050427650589
 20
5962.7741306596836
 30
0.0
 11
26003.05042764984
 21
7620.7741306596909
 31
0.0
  0
LINE
  5
1D24
  8
FUTO
 10
26003.050427651218
 20
5962.7741306596836
 30
0.0
 11
26003.050427651218
 21
7620.7741306596909
 31
0.0
  0
LINE
  5
1D25
  8
FUTO
 10
26009.050427651218
 20
5962.7741306596836
 30
0.0
 11
26009.050427651218
 21
7620.7741306596909
 31
0.0
  0
LINE
  5
1D26
  8
FUTO
 10
26078.050427651218
 20
5962.7741306596836
 30
0.0
 11
26078.050427651218
 21
7620.774130659689
 31
0.0
  0
LINE
  5
1D35
  8
CT
 10
29128.050427651211
 20
5559.4879430202418
 30
0.0
 11
29128.050427651218
 21
4196.2728542883942
 31
0.0
  0
LINE
  5
1D3A
  8
SL
 10
29305.550427651218
 20
4439.5741306596883
 30
0.0
 11
29305.550427651218
 21
4309.5741306596847
 31
0.0
  0
LINE
  5
1D3B
  8
FUTO
 10
29408.050427651218
 20
4472.5231648221934
 30
0.0
 11
29408.050427651218
 21
4191.7741306596836
 31
0.0
  0
LINE
  5
2121
  8
CT
 10
30528.090037222089
 20
-143.0149546304828
 30
0.0
 11
30160.27003722209
 21
-143.0149546304828
 31
0.0
  0
LINE
  5
2132
  8
FUTO
 10
30788.308037222101
 20
-418.01495463048462
 30
0.0
 11
30716.737037222101
 21
-418.01495463048462
 31
0.0
  0
LINE
  5
2306
  8
FUTO
 10
29415.55042765148
 20
5144.5741306595946
 30
0.0
 11
29415.550427651531
 21
5339.5741306595946
 31
0.0
  0
LINE
  5
2307
  8
FUTO
 10
28858.050427651538
 20
5357.8350006597666
 30
0.0
 11
28858.050427651469
 21
5144.5741306597683
 31
0.0
  0
LINE
  5
2308
  8
FUTO
 10
29415.550427651531
 20
5339.5741306595946
 30
0.0
 11
28858.050427651531
 21
5339.5741306597693
 31
0.0
  0
LINE
  5
2309
  8
FUTO
 10
28898.050427651538
 20
5399.5741306597556
 30
0.0
 11
29358.050427651549
 21
5399.5741306596137
 31
0.0
  0
LINE
  5
230A
  8
FUTO
 10
28858.050427651538
 20
5357.8350006597666
 30
0.0
 11
28898.050427651538
 21
5399.5741306597556
 31
0.0
  0
LINE
  5
230B
  8
FUTO
 10
29415.550427651531
 20
5339.5741306595946
 30
0.0
 11
29358.050427651549
 21
5399.5741306596137
 31
0.0
  0
LINE
  5
230C
  8
CT
 10
28817.735567998279
 20
4879.0741306597829
 30
0.0
 11
29460.810901747249
 21
4879.0741306595819
 31
0.0
  0
LINE
  5
230D
  8
FUTO
 10
29415.55042765148
 20
5144.5741306595946
 30
0.0
 11
28858.050427651469
 21
5144.5741306597683
 31
0.0
  0
LINE
  5
230E
  8
FUTO
 10
29415.550427651298
 20
4596.0741306595946
 30
0.0
 11
29363.484405790528
 21
4596.074130659611
 31
0.0
  0
LINE
  5
230F
  8
FUTO
 10
29415.550427651269
 20
4496.0741306595964
 30
0.0
 11
29131.050427651269
 21
4496.0741306596829
 31
0.0
  0
LINE
  5
2310
  8
CT
 10
28823.920362684279
 20
5088.5741306597793
 30
0.0
 11
28787.234822684281
 21
5088.5741306597902
 31
0.0
  0
LINE
  5
2311
  8
CT
 10
28823.920362684141
 20
4669.5741306597793
 30
0.0
 11
28787.234822684139
 21
4669.5741306597902
 31
0.0
  0
LINE
  5
2312
  8
FUTO
 10
29085.550427651211
 20
4309.5741306596992
 30
0.0
 11
29085.550427651269
 21
4479.5741306596992
 31
0.0
  0
LINE
  5
2313
  8
FUTO
 10
29170.550427651269
 20
4479.574130659671
 30
0.0
 11
29170.550427651211
 21
4309.574130659671
 31
0.0
  0
LINE
  5
2314
  8
FUTO
 10
29175.550427651211
 20
4309.5741306596701
 30
0.0
 11
29175.550427651251
 21
4449.5741306596692
 31
0.0
  0
LINE
  5
2315
  8
FUTO
 10
29078.050427651269
 20
4479.5741306596992
 30
0.0
 11
29178.050427651269
 21
4479.5741306596701
 31
0.0
  0
LINE
  5
2316
  8
FUTO
 10
29042.550427651269
 20
4489.5741306597101
 30
0.0
 11
29213.550427651269
 21
4489.5741306596592
 31
0.0
  0
LINE
  5
2317
  8
FUTO
 10
29040.550427651269
 20
4496.4225056597106
 30
0.0
 11
29040.550427651269
 21
4491.5741306597101
 31
0.0
  0
ARC
  5
2318
  8
FUTO
 10
29042.550427651269
 20
4491.5741306597101
 30
0.0
 40
2.0
 50
180.0
 51
270.0
  0
LINE
  5
2319
  8
FUTO
 10
29078.050427651269
 20
4479.5741306596992
 30
0.0
 11
29078.050427651269
 21
4489.5741306597001
 31
0.0
  0
LINE
  5
231A
  8
FUTO
 10
29178.050427651269
 20
4479.5741306596701
 30
0.0
 11
29178.050427651269
 21
4489.5741306596701
 31
0.0
  0
LINE
  5
231B
  8
FUTO
 10
29170.550427651258
 20
4449.5741306596719
 30
0.0
 11
29175.550427651251
 21
4449.5741306596692
 31
0.0
  0
LINE
  5
231C
  8
FUTO
 10
29215.550427651269
 20
4496.0741306596601
 30
0.0
 11
29215.550427651269
 21
4491.5741306596592
 31
0.0
  0
ARC
  5
231D
  8
FUTO
 10
29213.550427651269
 20
4491.5741306596592
 30
0.0
 40
2.0
 50
270.0
 51
0.000000000000007
  0
LINE
  5
231E
  8
FUTO
 10
29085.550427651211
 20
4309.5741306596992
 30
0.0
 11
29175.550427651211
 21
4309.5741306596701
 31
0.0
  0
LINE
  5
231F
  8
FUTO
 10
29413.864504651388
 20
4879.0741306595974
 30
0.0
 11
29413.864504651308
 21
4623.5741306595974
 31
0.0
  0
LINE
  5
2320
  8
FUTO
 10
29363.484405790601
 20
4838.5741306596137
 30
0.0
 11
28965.567387591858
 21
4838.5741306597356
 31
0.0
  0
LINE
  5
2321
  8
FUTO
 10
29363.484405790601
 20
4820.1741366596088
 30
0.0
 11
28965.567387591851
 21
4820.1741366597334
 31
0.0
  0
LINE
  5
2322
  8
CT
 10
29180.586297140449
 20
4693.5741306596683
 30
0.0
 11
29037.441491140438
 21
4693.5741306597138
 31
0.0
  0
LINE
  5
2323
  8
FUTO
 10
29418.050427651469
 20
5134.5741306595946
 30
0.0
 11
29418.050427651371
 21
4823.5741306595946
 31
0.0
  0
LINE
  5
2324
  8
FUTO
 10
29413.864504651388
 20
4879.0741306595974
 30
0.0
 11
29413.864504651468
 21
5134.5741306595974
 31
0.0
  0
LINE
  5
2325
  8
FUTO
 10
29413.864504651468
 20
5134.5741306595974
 30
0.0
 11
29407.41264265147
 21
5144.5741306595992
 31
0.0
  0
LINE
  5
2326
  8
FUTO
 10
29418.050427651469
 20
5134.5741306595946
 30
0.0
 11
29411.383761651468
 21
5144.5741306595983
 31
0.0
  0
LINE
  5
2327
  8
FUTO
 10
29418.050427651371
 20
4823.5741306595946
 30
0.0
 11
29413.86450465137
 21
4819.3882076595974
 31
0.0
  0
LINE
  5
2328
  8
FUTO
 10
28965.56738759176
 20
4548.5741306597347
 30
0.0
 11
29363.484405790521
 21
4548.5741306596137
 31
0.0
  0
LINE
  5
2329
  8
FUTO
 10
28965.567387591771
 20
4566.9741546597306
 30
0.0
 11
29363.484405790521
 21
4566.9741546596078
 31
0.0
  0
LINE
  5
232A
  8
FUTO
 10
29415.550427651269
 20
4496.0741306595964
 30
0.0
 11
29415.550427651298
 21
4596.0741306595946
 31
0.0
  0
LINE
  5
232B
  8
FUTO
 10
29410.56547565131
 20
4612.3467026595972
 30
0.0
 11
29399.7170946513
 21
4596.074130659601
 31
0.0
  0
LINE
  5
232C
  8
FUTO
 10
29413.864504651308
 20
4623.5741306595974
 30
0.0
 11
29396.1218846513
 21
4596.074130659601
 31
0.0
  0
LINE
  5
232D
  8
FUTO
 10
29404.27903265131
 20
4608.7172226595994
 30
0.0
 11
29412.691443651311
 21
4613.5741306595974
 31
0.0
  0
LINE
  5
232E
  8
FUTO
 10
28965.56738759176
 20
4548.574130659732
 30
0.0
 11
28965.567387591858
 21
4838.5741306597356
 31
0.0
  0
LINE
  5
232F
  8
FUTO
 10
29363.484405790521
 20
4548.5741306596119
 30
0.0
 11
29363.484405790601
 21
4838.5741306596137
 31
0.0
  0
LINE
  5
2330
  8
FUTO
 10
28840.550427651298
 20
4596.0741306597738
 30
0.0
 11
28965.567387591778
 21
4596.074130659732
 31
0.0
  0
LINE
  5
2331
  8
FUTO
 10
28840.550427651269
 20
4496.0741306597729
 30
0.0
 11
29125.050427651269
 21
4496.0741306596838
 31
0.0
  0
LINE
  5
2332
  8
FUTO
 10
28840.550427651269
 20
4496.0741306597729
 30
0.0
 11
28840.550427651298
 21
4596.0741306597738
 31
0.0
  0
LINE
  5
2333
  8
FUTO
 10
28842.23635065139
 20
4879.074130659772
 30
0.0
 11
28842.23635065147
 21
5134.574130659772
 31
0.0
  0
LINE
  5
2334
  8
FUTO
 10
28838.050427651469
 20
5134.5741306597738
 30
0.0
 11
28838.050427651371
 21
4823.5741306597738
 31
0.0
  0
LINE
  5
2335
  8
FUTO
 10
28842.23635065139
 20
4879.074130659772
 30
0.0
 11
28842.23635065131
 21
4623.574130659772
 31
0.0
  0
LINE
  5
2336
  8
FUTO
 10
28842.23635065131
 20
4623.574130659772
 30
0.0
 11
28859.9789706513
 21
4596.0741306597683
 31
0.0
  0
LINE
  5
2337
  8
FUTO
 10
28851.821822651302
 20
4608.7172226597713
 30
0.0
 11
28843.409411651312
 21
4613.574130659772
 31
0.0
  0
LINE
  5
2338
  8
FUTO
 10
28845.535379651312
 20
4612.3467026597727
 30
0.0
 11
28856.383760651301
 21
4596.0741306597683
 31
0.0
  0
LINE
  5
2339
  8
FUTO
 10
28838.050427651469
 20
5134.5741306597738
 30
0.0
 11
28844.717093651481
 21
5144.574130659772
 31
0.0
  0
LINE
  5
233A
  8
FUTO
 10
28842.23635065147
 20
5134.574130659772
 30
0.0
 11
28848.688212651468
 21
5144.574130659772
 31
0.0
  0
LINE
  5
233B
  8
FUTO
 10
28778.050427651331
 20
4574.9951971212213
 30
0.0
 11
28778.05042765152
 21
5183.1530641983618
 31
0.0
  0
LINE
  5
233C
  8
FUTO
 10
28778.050427651331
 20
4574.9951971212213
 30
0.0
 11
28840.550427651298
 21
4574.9951971212049
 31
0.0
  0
LINE
  5
233D
  8
FUTO
 10
28778.05042765152
 20
5183.1530641983618
 30
0.0
 11
28858.050427651491
 21
5183.1530641983363
 31
0.0
  0
LINE
  5
233E
  8
FUTO
 10
29478.050427651258
 20
4574.9951971210057
 30
0.0
 11
29478.050427651451
 21
5183.1530641981481
 31
0.0
  0
LINE
  5
233F
  8
FUTO
 10
29478.05042765144
 20
5183.1530641981481
 30
0.0
 11
29398.050427651491
 21
5183.1530641981681
 31
0.0
  0
LINE
  5
2340
  8
FUTO
 10
29478.050427651258
 20
4574.9951971210057
 30
0.0
 11
29415.550427651298
 21
4574.9951971210257
 31
0.0
  0
LINE
  5
2370
  8
FUTO
 10
30504.590037222071
 20
-245.54543763052149
 30
0.0
 11
30504.590037222049
 21
-330.39825163052132
 31
0.0
  0
LINE
  5
2371
  8
FUTO
 10
30588.590037222089
 20
-143.01495463053919
 30
0.0
 11
30588.590037222031
 21
-401.01495463053919
 31
0.0
  0
LINE
  5
2372
  8
FUTO
 10
30588.590037222089
 20
-140.01495463053919
 30
0.0
 11
30588.590037222039
 21
-373.01495463053919
 31
0.0
  0
LINE
  5
2373
  8
FUTO
 10
30753.59003722206
 20
-297.00884963057342
 30
0.0
 11
30753.590037222039
 21
-373.01495463057381
 31
0.0
  0
LINE
  5
2374
  8
FUTO
 10
31034.59003722206
 20
-293.54291763063611
 30
0.0
 11
31034.590037222039
 21
-373.0149546306356
 31
0.0
  0
LINE
  5
2375
  8
FUTO
 10
31159.590037222159
 20
144.48504536933879
 30
0.0
 11
31159.590037222031
 21
-413.01495463066101
 31
0.0
  0
LINE
  5
2376
  8
CT
 10
30894.090037222031
 20
-441.96507063060471
 30
0.0
 11
30894.090037222169
 21
189.7455194652529
 31
0.0
  0
LINE
  5
2377
  8
FUTO
 10
31414.590037222039
 20
-373.0149546307174
 30
0.0
 11
31414.59003722214
 21
86.985045369282489
 31
0.0
  0
LINE
  5
2378
  8
FUTO
 10
31354.590037222151
 20
144.48504536929519
 30
0.0
 11
31354.590037222031
 21
-413.01495463070472
 31
0.0
  0
LINE
  5
2379
  8
FUTO
 10
31149.590037222031
 20
-413.06389463065977
 30
0.0
 11
31139.090037222031
 21
-413.06389463065801
 31
0.0
  0
LINE
  5
237C
  8
FUTO
 10
30769.090037222031
 20
-423.01495463057739
 30
0.0
 11
31198.090037222031
 21
-423.01495463067022
 31
0.0
  0
ARC
  5
237D
  8
KL
 10
30536.924738222038
 20
-370.20751963052948
 30
0.0
 40
10.0
 50
183.0000000000033
 51
225.0000000001105
  0
LINE
  5
237E
  8
FUTO
 10
30526.938442222039
 20
-370.7308786305266
 30
0.0
 11
30524.824699222048
 21
-330.39825163052677
 31
0.0
  0
LINE
  5
237F
  8
FUTO
 10
30504.590037222049
 20
-330.39825163052132
 30
0.0
 11
30558.590037222049
 21
-330.39825163053411
 31
0.0
  0
LINE
  5
2380
  8
FUTO
 10
30733.590037222031
 20
-393.01495463057012
 30
0.0
 11
30653.590037222031
 21
-393.0149546305538
 31
0.0
  0
LINE
  5
2381
  8
FUTO
 10
30649.090037222031
 20
-423.01495463055193
 30
0.0
 11
30769.090037222031
 21
-423.01495463057739
 31
0.0
  0
LINE
  5
2383
  8
FUTO
 10
30588.590037222049
 20
-329.59369563054042
 30
0.0
 11
30753.590037222049
 21
-329.59369563057493
 31
0.0
  0
LINE
  5
2384
  8
FUTO
 10
30769.090037222031
 20
-423.01495463057739
 30
0.0
 11
30590.090037222031
 21
-423.01495463053919
 31
0.0
  0
ARC
  5
238A
  8
FUTO
 10
30556.790207222031
 20
-390.0729886305316
 30
0.0
 40
10.0
 50
225.0000000001105
 51
267.99999999999602
  0
LINE
  5
238B
  8
FUTO
 10
30598.590037222039
 20
-373.01495463054101
 30
0.0
 11
30598.590037222039
 21
-374.87938663054132
 31
0.0
  0
LINE
  5
238C
  8
FUTO
 10
30598.590037222039
 20
-373.01495463054101
 30
0.0
 11
30588.590037222039
 21
-373.01495463053919
 31
0.0
  0
ARC
  5
238D
  8
FUTO
 10
30654.090037222039
 20
-398.0149546305538
 30
0.0
 40
5.0
 50
90.0
 51
180.0
  0
LINE
  5
238E
  8
FUTO
 10
30638.590037222031
 20
-413.06389463055069
 30
0.0
 11
30649.090037222031
 21
-413.06389463055251
 31
0.0
  0
LINE
  5
238F
  8
FUTO
 10
30608.590037222031
 20
-409.24378563054501
 30
0.0
 11
30638.590037222031
 21
-413.06389463055069
 31
0.0
  0
LINE
  5
2390
  8
FUTO
 10
30598.590037222039
 20
-374.87938663054132
 30
0.0
 11
30608.590037222031
 21
-409.24378563054501
 31
0.0
  0
LINE
  5
2391
  8
FUTO
 10
30556.441212222031
 20
-400.06689663053203
 30
0.0
 11
30588.590037222031
 21
-401.01495463053919
 31
0.0
  0
LINE
  5
2393
  8
FUTO
 10
30649.090037222031
 20
-398.01495463055193
 30
0.0
 11
30649.090037222031
 21
-423.01495463055193
 31
0.0
  0
LINE
  5
2394
  8
FUTO
 10
30590.090037222031
 20
-423.01495463053919
 30
0.0
 11
30590.090037222009
 21
-486.2547237624994
 31
0.0
  0
ARC
  5
2398
  8
FUTO
 10
30733.590037222039
 20
-373.01495463057012
 30
0.0
 40
20.0
 50
270.0
 51
0.0
  0
LINE
  5
2399
  8
FUTO
 10
30774.090037222031
 20
-413.01495463057921
 30
0.0
 11
30894.090037222031
 21
-413.01495463060468
 31
0.0
  0
ARC
  5
239B
  8
FUTO
 10
30774.090037222031
 20
-418.01495463057921
 30
0.0
 40
5.0
 50
90.0
 51
180.0
  0
LINE
  5
239C
  8
KL
 10
30684.590037222039
 20
-389.2545826305622
 30
0.0
 11
30684.590037222031
 21
-425.94012263056078
 31
0.0
  0
ARC
  5
239D
  8
FUTO
 10
31054.590037222039
 20
-373.01495463063918
 30
0.0
 40
20.0
 50
180.0
 51
270.0
  0
ARC
  5
239E
  8
FUTO
 10
31134.090037222039
 20
-398.01495463065748
 30
0.0
 40
5.0
 50
0.0
 51
90.0
  0
LINE
  5
239F
  8
FUTO
 10
31054.590037222039
 20
-393.01495463063929
 30
0.0
 11
31134.590037222039
 21
-393.01495463065743
 31
0.0
  0
LINE
  5
23A0
  8
FUTO
 10
31019.090037222031
 20
-418.01495463063202
 30
0.0
 11
31019.090037222031
 21
-423.01495463063202
 31
0.0
  0
LINE
  5
23A1
  8
FUTO
 10
31139.590037222031
 20
-423.01495463065748
 30
0.0
 11
31019.090037222031
 21
-423.01495463063202
 31
0.0
  0
LINE
  5
23A2
  8
FUTO
 10
31139.090037222031
 20
-398.01495463065748
 30
0.0
 11
31139.090037222031
 21
-423.01495463065748
 31
0.0
  0
LINE
  5
23A3
  8
FUTO
 10
31103.590037222039
 20
-389.25458263065138
 30
0.0
 11
31103.590037222031
 21
-425.94012263064991
 31
0.0
  0
ARC
  5
23A4
  8
FUTO
 10
31014.090037222031
 20
-418.01495463063009
 30
0.0
 40
5.0
 50
0.0
 51
90.0
  0
LINE
  5
23A5
  8
FUTO
 10
31014.090037222031
 20
-413.01495463063009
 30
0.0
 11
30894.090037222031
 21
-413.01495463060468
 31
0.0
  0
LINE
  5
23A6
  8
FUTO
 10
30549.71913922203
 20
-397.14405563053242
 30
0.0
 11
30529.85367022203
 21
-377.27858763052689
 31
0.0
  0
LINE
  5
23A7
  8
FUTO
 10
31372.850907222029
 20
-413.01495463070842
 30
0.0
 11
31159.590037222031
 21
-413.01495463066101
 31
0.0
  0
LINE
  5
23A8
  8
FUTO
 10
31198.090037222031
 20
-423.01495463067022
 30
0.0
 11
31198.090037222009
 21
-486.1986539775416
 31
0.0
  0
LINE
  5
23A9
  8
FUTO
 10
31372.850907222029
 20
-413.01495463070842
 30
0.0
 11
31414.590037222039
 21
-373.0149546307174
 31
0.0
  0
LINE
  5
23AA
  8
FUTO
 10
31159.590037222031
 20
-411.79052463066267
 30
0.0
 11
31149.590037222031
 21
-413.06389463065977
 31
0.0
  0
LINE
  5
23AB
  8
FUTO
 10
30894.090037222159
 20
142.7991223693943
 30
0.0
 11
31149.590037222159
 21
142.7991223693397
 31
0.0
  0
LINE
  5
23AC
  8
FUTO
 10
31149.590037222159
 20
146.98504536934061
 30
0.0
 11
30838.590037222159
 21
146.98504536940791
 31
0.0
  0
CIRCLE
  5
23AE
  8
FUTO
 10
30708.59003722218
 20
281.98504536943523
 30
0.0
 40
59.0
  0
LINE
  5
23AF
  8
FUTO
 10
30581.990061222161
 20
173.58499436946201
 30
0.0
 11
30581.990061222201
 21
368.45640436946172
 31
0.0
  0
LINE
  5
23B0
  8
FUTO
 10
30563.590037222169
 20
192.92697836946621
 30
0.0
 11
30563.59003722221
 21
377.65029836946542
 31
0.0
  0
LINE
  5
23B1
  8
CT
 10
30708.590037222199
 20
351.56669536943531
 30
0.0
 11
30708.590037222169
 21
208.42188936943509
 31
0.0
  0
LINE
  5
23B2
  8
FUTO
 10
30835.190043222199
 20
368.45640436940721
 30
0.0
 11
30835.190043222159
 21
173.58503636940711
 31
0.0
  0
LINE
  5
23B3
  8
FUTO
 10
30853.59003722221
 20
377.65029836940352
 30
0.0
 11
30853.590037222169
 21
192.9269783694044
 31
0.0
  0
LINE
  5
23B4
  8
FUTO
 10
30511.090037222159
 20
144.48504536947709
 30
0.0
 11
30511.090037222089
 21
-140.01495463052279
 31
0.0
  0
LINE
  5
23B5
  8
FUTO
 10
30611.090037222151
 20
144.48504536945521
 30
0.0
 11
30611.090037222089
 21
-140.01495463054471
 31
0.0
  0
LINE
  5
23B6
  8
CT
 10
30111.885025015581
 20
-143.01495463041729
 30
0.0
 11
31473.261394162109
 21
-143.01495463083211
 31
0.0
  0
LINE
  5
23B7
  8
KL
 10
30511.090037222089
 20
-140.01495463052279
 30
0.0
 11
30611.090037222089
 21
-140.01495463054471
 31
0.0
  0
LINE
  5
23B8
  8
FUTO
 10
30588.590037222071
 20
-252.61650563053891
 30
0.0
 11
30504.590037222071
 21
-252.61650563052081
 31
0.0
  0
LINE
  5
23B9
  8
FUTO
 10
30324.590037222079
 20
-185.5149546304828
 30
0.0
 11
30324.5900372221
 21
-95.514954630482862
 31
0.0
  0
ARC
  5
23BA
  8
FUTO
 10
30506.590037222111
 20
-57.514954630521061
 30
0.0
 40
2.0
 50
90.0
 51
180.0
  0
LINE
  5
23BB
  8
FUTO
 10
30511.090037222111
 20
-55.51495463052288
 30
0.0
 11
30506.590037222111
 21
-55.514954630521061
 31
0.0
  0
LINE
  5
23BC
  8
FUTO
 10
30464.590037222111
 20
-100.51495463051189
 30
0.0
 11
30464.590037222111
 21
-95.514954630511966
 31
0.0
  0
LINE
  5
23BD
  8
FUTO
 10
30494.590037222111
 20
-93.014954630519242
 30
0.0
 11
30504.590037222111
 21
-93.014954630521061
 31
0.0
  0
LINE
  5
23BE
  8
FUTO
 10
30494.590037222079
 20
-193.01495463051921
 30
0.0
 11
30504.590037222079
 21
-193.014954630521
 31
0.0
  0
ARC
  5
23BF
  8
FUTO
 10
30506.590037222071
 20
-228.514954630521
 30
0.0
 40
2.0
 50
180.0
 51
270.0
  0
LINE
  5
23C0
  8
FUTO
 10
30511.438412222069
 20
-230.51495463052279
 30
0.0
 11
30506.590037222071
 21
-230.514954630521
 31
0.0
  0
LINE
  5
23C1
  8
KL
 10
30509.590037222071
 20
-245.54543763052331
 30
0.0
 11
30504.590037222071
 21
-245.54543763052149
 31
0.0
  0
LINE
  5
23C3
  8
FUTO
 10
30504.590037222071
 20
-228.514954630521
 30
0.0
 11
30504.590037222111
 21
-57.514954630521061
 31
0.0
  0
LINE
  5
23C4
  8
FUTO
 10
30494.590037222079
 20
-193.01495463051921
 30
0.0
 11
30494.590037222111
 21
-93.014954630519242
 31
0.0
  0
LINE
  5
23C6
  8
FUTO
 10
30324.5900372221
 20
-95.514954630482862
 30
0.0
 11
30464.590037222111
 21
-95.514954630511966
 31
0.0
  0
LINE
  5
23C7
  8
FUTO
 10
30494.590037222111
 20
-100.5149546305192
 30
0.0
 11
30324.5900372221
 21
-100.5149546304828
 31
0.0
  0
LINE
  5
23C8
  8
FUTO
 10
30324.590037222079
 20
-185.5149546304828
 30
0.0
 11
30494.590037222079
 21
-185.51495463051921
 31
0.0
  0
ARC
  5
23CD
  8
FUTO
 10
31039.59003722206
 20
-293.54291763063611
 30
0.0
 40
5.0
 50
90.0
 51
180.0
  0
LINE
  5
23CE
  8
FUTO
 10
30511.090037222159
 20
144.48504536947709
 30
0.0
 11
30611.090037222151
 21
144.48504536945521
 31
0.0
  0
LINE
  5
23CF
  8
FUTO
 10
30823.590037222169
 20
191.98504536940979
 30
0.0
 11
30593.590037222159
 21
191.9850453694589
 31
0.0
  0
LINE
  5
23D0
  8
CT
 10
30615.10899622217
 20
281.98504536945518
 30
0.0
 11
30795.032364222181
 21
281.98504536941698
 31
0.0
  0
LINE
  5
23D1
  8
FUTO
 10
30823.590037222159
 20
161.98504536940979
 30
0.0
 11
30593.590037222159
 21
161.9850453694589
 31
0.0
  0
LINE
  5
23D2
  8
FUTO
 10
30894.090037222159
 20
142.7991223693943
 30
0.0
 11
30638.590037222159
 21
142.7991223694489
 31
0.0
  0
LINE
  5
23D3
  8
FUTO
 10
30628.590037222159
 20
151.9850453694516
 30
0.0
 11
30788.590037222159
 21
151.98504536941709
 31
0.0
  0
LINE
  5
23D4
  8
FUTO
 10
30581.990061222161
 20
192.9269783694626
 30
0.0
 11
30563.590037222169
 21
192.92697836946621
 31
0.0
  0
ARC
  5
23D5
  8
FUTO
 10
30593.589915222161
 20
203.5849333694577
 30
0.0
 40
11.599888
 50
179.99945399997631
 51
270.0006100000092
  0
LINE
  5
23D6
  8
FUTO
 10
30623.73312922215
 20
133.21365036945369
 30
0.0
 11
30628.590037222151
 21
141.62606136945121
 31
0.0
  0
LINE
  5
23D7
  8
FUTO
 10
30638.590037222159
 20
142.7991223694489
 30
0.0
 11
30611.090037222151
 21
125.0565023694553
 31
0.0
  0
LINE
  5
23D8
  8
FUTO
 10
30627.362609222149
 20
139.50009336945271
 30
0.0
 11
30611.090037222151
 21
128.6517123694548
 31
0.0
  0
LINE
  5
23D9
  8
FUTO
 10
30628.590037222151
 20
141.62606136945121
 30
0.0
 11
30628.590037222159
 21
161.9850453694516
 31
0.0
  0
ARC
  5
23DA
  8
FUTO
 10
30593.590037222159
 20
173.58499436945829
 30
0.0
 40
11.599949000000001
 50
179.9997550000013
 51
270.0
  0
LINE
  5
23DB
  8
FUTO
 10
30788.590037222159
 20
161.98504536941701
 30
0.0
 11
30788.590037222151
 21
142.7991223694161
 31
0.0
  0
ARC
  5
23DC
  8
FUTO
 10
30823.590068222162
 20
203.5850213694093
 30
0.0
 40
11.599976
 50
269.99984700005228
 51
0.0001069999742915
  0
LINE
  5
23DD
  8
FUTO
 10
30835.190043222159
 20
192.926978369408
 30
0.0
 11
30853.590037222169
 21
192.9269783694044
 31
0.0
  0
ARC
  5
23DE
  8
FUTO
 10
30823.590037222159
 20
173.58504236940911
 30
0.0
 40
11.600006
 50
270.0
 51
0.0000150000275647
  0
LINE
  5
23DF
  8
KL
 10
30838.590037222159
 20
146.98504536940791
 30
0.0
 11
30834.40411422215
 21
142.799122369407
 31
0.0
  0
LINE
  5
23E0
  8
FUTO
 10
30563.59003722221
 20
377.65029836946542
 30
0.0
 11
30853.59003722221
 21
377.65029836940352
 31
0.0
  0
LINE
  5
23E1
  8
FUTO
 10
30581.990061222201
 20
368.45640436946172
 30
0.0
 11
30835.190043222199
 21
368.45640436940721
 31
0.0
  0
LINE
  5
23E2
  8
FUTO
 10
30823.59003722221
 20
410.04319636940909
 30
0.0
 11
30593.59003722221
 21
410.0431963694582
 31
0.0
  0
ARC
  5
23E3
  8
FUTO
 10
30593.59003722221
 20
398.44325136945821
 30
0.0
 40
11.599976
 50
90.0
 51
180.0003050000046
  0
LINE
  5
23E4
  8
FUTO
 10
30581.990061222201
 20
377.65029836946178
 30
0.0
 11
30581.990061222212
 21
398.44319036946121
 31
0.0
  0
ARC
  5
23E5
  8
FUTO
 10
30823.59003722221
 20
398.44320636940841
 30
0.0
 40
11.599990999999999
 50
359.99992399997137
 51
90.0
  0
LINE
  5
23E6
  8
FUTO
 10
30835.190043222199
 20
398.44319036940658
 30
0.0
 11
30835.190043222199
 21
377.65029836940721
 31
0.0
  0
LINE
  5
23E8
  8
FUTO
 10
31159.590037222159
 20
144.48504536933879
 30
0.0
 11
31354.590037222151
 21
144.48504536929519
 31
0.0
  0
LINE
  5
23E9
  8
FUTO
 10
31354.590037222151
 20
144.48504536929519
 30
0.0
 11
31414.59003722214
 21
86.985045369282489
 31
0.0
  0
LINE
  5
23EA
  8
FUTO
 10
31149.590037222159
 20
146.98504536934061
 30
0.0
 11
31159.590037222159
 21
140.3183793693378
 31
0.0
  0
LINE
  5
23EB
  8
FUTO
 10
31149.590037222159
 20
142.7991223693397
 30
0.0
 11
31159.590037222159
 21
136.3472603693362
 31
0.0
  0
LINE
  5
2519
  8
SL
 10
29428.050427651218
 20
4495.7741306596827
 30
0.0
 11
29428.050427651218
 21
5183.1530641981608
 31
0.0
  0
LINE
  5
251A
  8
FUTO
 10
29528.050427651218
 20
5962.7741306596836
 30
0.0
 11
29528.050427651218
 21
6037.7741306596836
 31
0.0
  0
LINE
  5
251B
  8
FUTO
 10
29353.050427651218
 20
5399.5741306596146
 30
0.0
 11
29353.050427651218
 21
5962.7741306596836
 31
0.0
  0
LINE
  5
251C
  8
FUTO
 10
29428.050427651218
 20
5183.1530641981608
 30
0.0
 11
29428.050427651218
 21
5962.7741306596836
 31
0.0
  0
LINE
  5
251D
  8
SL
 10
28903.050427651211
 20
4495.7741306596827
 30
0.0
 11
28903.050427651211
 21
5399.5741306596146
 31
0.0
  0
LINE
  5
251E
  8
SL
 10
28828.050427651218
 20
4495.7741306596818
 30
0.0
 11
28828.050427651218
 21
5183.153064198159
 31
0.0
  0
LINE
  5
251F
  8
FUTO
 10
28828.050427651218
 20
5183.153064198159
 30
0.0
 11
28828.050427651211
 21
5962.7741306596836
 31
0.0
  0
LINE
  5
2520
  8
FUTO
 10
28903.050427651211
 20
5399.5741306596146
 30
0.0
 11
28903.050427651211
 21
5962.7741306596836
 31
0.0
  0
LINE
  5
2521
  8
FUTO
 10
29014.050427651218
 20
6037.7741306596836
 30
0.0
 11
29014.050427651218
 21
7545.774130659689
 31
0.0
  0
LINE
  5
2522
  8
FUTO
 10
29064.050427651218
 20
5987.7741306596827
 30
0.0
 11
29064.050427651218
 21
7595.7741306596909
 31
0.0
  0
LINE
  5
2523
  8
FUTO
 10
26078.050427651218
 20
7595.7741306596881
 30
0.0
 11
29064.050427651218
 21
7595.7741306596881
 31
0.0
  0
LINE
  5
2524
  8
FUTO
 10
26078.050427651218
 20
5987.7741306596854
 30
0.0
 11
29064.050427651218
 21
5987.7741306596827
 31
0.0
  0
LINE
  5
2525
  8
FUTO
 10
29064.050427651218
 20
6037.7741306596836
 30
0.0
 11
29528.050427651218
 21
6037.7741306596836
 31
0.0
  0
DIMENSION
  5
253A
  8
SP
  2
*D20
 10
26003.05042764984
 20
8233.6702187224873
 30
0.0
 11
26640.550427650531
 21
8323.6702187224873
 31
0.0
 70
     0
 13
27278.050427651218
 23
7950.3925110937298
 33
0.0
 14
26003.05042764984
 24
7620.774130659689
 34
0.0
 50
180.0
1001
ACAD
1000
DSTYLE
1002
{
1070
   287
1070
     3
1070
    40
1040
45.0
1070
   140
1040
3.0
1070
   147
1040
0.5
1070
   173
1070
     1
1070
   279
1070
     0
1070
   341
1005
24
1070
     6
1000
OPEN
1070
     7
1000
OPEN
1002
}
  0
DIMENSION
  5
2555
  8
SP
  2
*D21
 10
25437.047006997091
 20
6791.7741306596854
 30
0.0
 11
25347.047006997091
 21
7244.274130659689
 31
0.0
 70
     0
 13
26203.050427651218
 23
7696.7741306596854
 33
0.0
 14
25782.143715969039
 24
6791.7741306596854
 34
0.0
 50
90.0
1001
ACAD
1000
DSTYLE
1002
{
1070
   287
1070
     3
1070
    40
1040
45.0
1070
   140
1040
3.0
1070
   147
1040
0.5
1070
   173
1070
     1
1070
   279
1070
     0
1070
   341
1005
24
1070
     6
1000
OPEN
1070
     7
1000
OPEN
1002
}
  0
DIMENSION
  5
2562
  8
SP
  2
*D22
 10
25437.047006997091
 20
4191.7741306596899
 30
0.0
 11
25347.047006997091
 21
5491.7741306596909
 31
0.0
 70
     0
 13
25782.143715969039
 23
6791.7741306596854
 33
0.0
 14
26798.050427651218
 24
4191.7741306596881
 34
0.0
 50
90.0
1001
ACAD
1000
DSTYLE
1002
{
1070
   287
1070
     3
1070
    40
1040
45.0
1070
   140
1040
3.0
1070
   147
1040
0.5
1070
   173
1070
     1
1070
   279
1070
     0
1070
   341
1005
24
1070
     6
1000
OPEN
1070
     7
1000
OPEN
1002
}
  0
LINE
  5
2599
  8
KL
 10
26878.770495668701
 20
540.57270347066151
 30
0.0
 11
26928.463623173771
 21
666.98504536952714
 31
0.0
  0
LINE
  5
259A
  8
KL
 10
27867.696893746979
 20
56.306958796621529
 30
0.0
 11
27627.637232128662
 21
666.98504536952714
 31
0.0
  0
LINE
  5
259B
  8
KL
 10
28419.050427651218
 20
-162.68515037477661
 30
0.0
 11
28419.050427651218
 21
644.88436158684203
 31
0.0
  0
LINE
  5
259C
  8
KL
 10
28428.050427651218
 20
-102.26802449782549
 30
0.0
 11
28428.050427651218
 21
639.10652168203569
 31
0.0
  0
LINE
  5
259D
  8
KL
 10
28437.050427651218
 20
-169.83457034343471
 30
0.0
 11
28437.050427651218
 21
633.32868177722901
 31
0.0
  0
LINE
  5
259E
  8
FUTO
 10
28437.050427651218
 20
633.32868177722901
 30
0.0
 11
28437.050427651218
 21
797.98504536952714
 31
0.0
  0
LINE
  5
259F
  8
FUTO
 10
28428.050427651218
 20
639.10652168203569
 30
0.0
 11
28428.050427651218
 21
797.98504536952714
 31
0.0
  0
LINE
  5
25A0
  8
FUTO
 10
28419.050427651218
 20
644.88436158684203
 30
0.0
 11
28419.050427651218
 21
797.98504536952714
 31
0.0
  0
LINE
  5
25A1
  8
FUTO
 10
28152.531074499329
 20
815.98504536952726
 30
0.0
 11
29073.283420889729
 21
815.98504536952726
 31
0.0
  0
LINE
  5
25A2
  8
FUTO
 10
28166.550154524819
 20
806.98504536952726
 30
0.0
 11
29073.283420889729
 21
806.98504536952726
 31
0.0
  0
LINE
  5
25A3
  8
FUTO
 10
28180.569234550319
 20
797.98504536952714
 30
0.0
 11
29073.283420889729
 21
797.98504536952714
 31
0.0
  0
LINE
  5
25A5
  8
KL
 10
26798.603976782571
 20
783.93942215260154
 30
0.0
 11
27077.895650982238
 21
802.61865365645463
 31
0.0
  0
LINE
  5
25A6
  8
KL
 10
26799.120367322848
 20
774.95385254337702
 30
0.0
 11
27078.496235847731
 21
793.63871502529776
 31
0.0
  0
LINE
  5
25A7
  8
KL
 10
26799.80514651355
 20
765.97954489028734
 30
0.0
 11
27079.096820713221
 21
784.65877639414055
 31
0.0
  0
INSERT
  5
2632
  8
FUTO
  2
まっすぐの矢印
 10
25629.925758472109
 20
6466.3151137061222
 30
0.0
 41
-40.0
 42
40.0
 43
40.0
 50
90.0
  0
DIMENSION
  5
26E9
  8
SP
  2
*D23
 10
29528.050427651218
 20
8233.6702187224873
 30
0.0
 11
28403.050427651218
 21
8323.6702187224873
 31
0.0
 70
     0
 13
27278.050427651218
 23
7950.3925110937298
 33
0.0
 14
29528.050427651218
 24
6037.7741306596836
 34
0.0
1001
ACAD
1000
DSTYLE
1002
{
1070
   287
1070
     3
1070
    40
1040
45.0
1070
   140
1040
3.0
1070
   147
1040
0.5
1070
   173
1070
     1
1070
   279
1070
     0
1070
   341
1005
24
1070
     6
1000
OPEN
1070
     7
1000
OPEN
1002
}
  0
LINE
  5
2DA9
  8
4
 10
34123.69645917957
 20
-2528.3392335450221
 30
0.0
 11
34123.69645917957
 21
-3728.3392335450221
 31
0.0
  0
LINE
  5
2DAA
  8
4
 10
29923.696459179559
 20
-2528.3392335450221
 30
0.0
 11
29923.696459179559
 21
-3728.3392335450221
 31
0.0
  0
LINE
  5
2DAB
  8
4
 10
26923.696459179559
 20
-2528.3392335450221
 30
0.0
 11
26923.696459179559
 21
-3728.3392335450221
 31
0.0
  0
LINE
  5
2DAE
  8
4
 10
26923.696459179559
 20
-3728.3392335450221
 30
0.0
 11
34123.69645917957
 21
-3728.3392335450221
 31
0.0
  0
LINE
  5
2DAF
  8
4
 10
26923.696459179559
 20
-3128.3392335450221
 30
0.0
 11
34123.69645917957
 21
-3128.3392335450221
 31
0.0
  0
TEXT
  5
2DB0
  8
4
 10
27154.708944260979
 20
-2939.0810783453448
 30
0.0
 40
300.0
  1
機器名称
  0
TEXT
  5
2DB1
  8
4
 10
27141.245095328351
 20
-3598.4682931529569
 30
0.0
 40
300.0
  1
機器型番
  0
TEXT
  5
2DB2
  8
4
 10
29952.454829385821
 20
-2995.2154194033428
 30
0.0
 40
270.0
  1
ミツヤリミットロードファン
  0
TEXT
  5
2DB3
  8
4
 10
30143.62343269245
 20
-3625.3817278653619
 30
0.0
 40
300.0
  1
LL#12-1
  0
TEXT
  5
2DB5
  8
4
 10
24920.702019156241
 20
9674.9466236507651
 30
0.0
 40
432.0
  1
遠心式片吸込片持リミットロードファン
  0
LINE
  5
2DB6
  8
4
 10
24523.696459179559
 20
9288.1132920438067
 30
0.0
 11
34123.69645917957
 21
9288.1132920438067
 31
0.0
  0
LINE
  5
2DB7
  8
4
 10
24523.696459179559
 20
10488.113292043799
 30
0.0
 11
34123.69645917957
 21
10488.113292043799
 31
0.0
  0
LINE
  5
2DB8
  8
4
 10
26923.696459179559
 20
-2528.3392335450221
 30
0.0
 11
34123.69645917957
 21
-2528.3392335450221
 31
0.0
  0
LINE
  5
2DB9
  8
4
 10
24523.696459179559
 20
10488.113292043799
 30
0.0
 11
24523.696459179559
 21
9288.1132920438067
 31
0.0
  0
TEXT
  5
2DBA
  8
4
 10
31837.513814675309
 20
10708.02725542683
 30
0.0
 40
336.00000000000011
  1
No.
  0
TEXT
  5
2DBB
  8
4
 10
31922.767430061231
 20
8124.4618700973842
 30
0.0
 40
323.99999999999989
  1
縮尺：1/60
  0
LINE
  5
2DBC
  8
4
 10
34123.69645917957
 20
10488.113292043799
 30
0.0
 11
34123.69645917957
 21
9288.1132920438067
 31
0.0
  0
LINE
  5
2DBD
  8
4
 10
35623.69645917957
 20
12171.66076645497
 30
0.0
 11
35623.69645917957
 21
12171.66076645497
 31
0.0
  0
LINE
  5
2DBE
  8
4
 10
31667.40099333875
 20
10559.24226520738
 30
0.0
 11
31667.40099333875
 21
11191.57433575349
 31
0.0
  0
LINE
  5
2DBF
  8
4
 10
31667.40099333875
 20
11191.57433575349
 30
0.0
 11
34123.69645917957
 21
11191.57433575349
 31
0.0
  0
LINE
  5
2DC0
  8
4
 10
34123.69645917957
 20
11191.57433575349
 30
0.0
 11
34123.69645917957
 21
10559.24226520738
 31
0.0
  0
LINE
  5
2DC1
  8
4
 10
34123.69645917957
 20
10559.24226520738
 30
0.0
 11
31667.40099333875
 21
10559.24226520738
 31
0.0
  0
LINE
  5
2DC2
  8
4
 10
23023.696459179559
 20
-5528.3392335450226
 30
0.0
 11
23023.696459179559
 21
12171.66076645497
 31
0.0
  0
LINE
  5
2DC3
  8
4
 10
23023.696459179559
 20
12171.66076645497
 30
0.0
 11
35623.69645917957
 21
12171.66076645497
 31
0.0
  0
LINE
  5
2DC4
  8
4
 10
35623.69645917957
 20
12171.66076645497
 30
0.0
 11
35623.69645917957
 21
-5528.3392335450226
 31
0.0
  0
LINE
  5
2DC5
  8
4
 10
35623.69645917957
 20
-5528.3392335450226
 30
0.0
 11
23023.696459179559
 21
-5528.3392335450226
 31
0.0
  0
TEXT
  5
2DC6
  8
4
 10
27972.513535226371
 20
8732.2232937123008
 30
0.0
 40
323.99999999999989
  1
床置防振ベット
  0
TEXT
  5
2DC7
  8
4
 10
24804.40708443218
 20
8750.7324310622807
 30
0.0
 40
323.99999999999989
  1
左回転左横向
  0
ENDSEC
  0
EOF
