  0
SECTION
  2
HEADER
  9
$ACADVER
  1
AC1009
  9
$INSBASE
 10
0.0
 20
0.0
 30
0.0
  9
$EXTMIN
 10
13643.689750749771
 20
-4998.8336815270814
 30
0.0
  9
$EXTMAX
 10
26243.689750749771
 20
12701.16631847291
 30
0.0
  9
$LIMMIN
 10
0.0
 20
0.0
  9
$LIMMAX
 10
297.0
 20
210.0
  9
$ORTHOMODE
 70
     0
  9
$REGENMODE
 70
     1
  9
$FILLMODE
 70
     1
  9
$QTEXTMODE
 70
     0
  9
$MIRRTEXT
 70
     0
  9
$DRAGMODE
 70
     2
  9
$LTSCALE
 40
225.0
  9
$OSMODE
 70
    37
  9
$ATTMODE
 70
     1
  9
$TEXTSIZE
 40
120.0
  9
$TRACEWID
 40
0.05
  9
$TEXTSTYLE
  7
STANDARD
  9
$CLAYER
  8
SP
  9
$CELTYPE
  6
BYLAYER
  9
$CECOLOR
 62
   256
  9
$DIMSCALE
 40
45.0
  9
$DIMASZ
 40
2.0
  9
$DIMEXO
 40
1.0
  9
$DIMDLI
 40
10.0
  9
$DIMRND
 40
0.0
  9
$DIMDLE
 40
0.0
  9
$DIMEXE
 40
1.0
  9
$DIMTP
 40
0.0
  9
$DIMTM
 40
0.0
  9
$DIMTXT
 40
3.0
  9
$DIMCEN
 40
0.0
  9
$DIMTSZ
 40
0.0
  9
$DIMTOL
 70
     0
  9
$DIMLIM
 70
     0
  9
$DIMTIH
 70
     0
  9
$DIMTOH
 70
     0
  9
$DIMSE1
 70
     0
  9
$DIMSE2
 70
     0
  9
$DIMTAD
 70
     1
  9
$DIMZIN
 70
     8
  9
$DIMBLK
  1

  9
$DIMASO
 70
     1
  9
$DIMSHO
 70
     1
  9
$DIMPOST
  1

  9
$DIMAPOST
  1

  9
$DIMALT
 70
     0
  9
$DIMALTD
 70
     2
  9
$DIMALTF
 40
25.399999999999999
  9
$DIMLFAC
 40
1.0
  9
$DIMTOFL
 70
     1
  9
$DIMTVP
 40
0.0
  9
$DIMTIX
 70
     0
  9
$DIMSOXD
 70
     0
  9
$DIMSAH
 70
     1
  9
$DIMBLK1
  1
OPEN
  9
$DIMBLK2
  1
OPEN
  9
$DIMSTYLE
  2
DIA1
  9
$DIMCLRD
 70
     2
  9
$DIMCLRE
 70
     2
  9
$DIMCLRT
 70
     2
  9
$DIMTFAC
 40
1.0
  9
$DIMGAP
 40
0.5
  9
$LUNITS
 70
     2
  9
$LUPREC
 70
     3
  9
$SKETCHINC
 40
0.1
  9
$FILLETRAD
 40
10.0
  9
$AUNITS
 70
     0
  9
$AUPREC
 70
     2
  9
$MENU
  1
acad
  9
$ELEVATION
 40
0.0
  9
$PELEVATION
 40
0.0
  9
$THICKNESS
 40
0.0
  9
$LIMCHECK
 70
     0
  9
$BLIPMODE
 70
     0
  9
$CHAMFERA
 40
10.0
  9
$CHAMFERB
 40
10.0
  9
$SKPOLY
 70
     0
  9
$TDCREATE
 40
2451270.426261805
  9
$TDUPDATE
 40
2454953.6373064928
  9
$TDINDWG
 40
0.8482916667
  9
$TDUSRTIMER
 40
0.8482916667
  9
$USRTIMER
 70
     1
  9
$ANGBASE
 50
0.0
  9
$ANGDIR
 70
     0
  9
$PDMODE
 70
     0
  9
$PDSIZE
 40
1.0
  9
$PLINEWID
 40
0.0
  9
$COORDS
 70
     1
  9
$SPLFRAME
 70
     0
  9
$SPLINETYPE
 70
     6
  9
$SPLINESEGS
 70
     8
  9
$ATTDIA
 70
     0
  9
$ATTREQ
 70
     1
  9
$HANDLING
 70
 10241
  9
$HANDSEED
  5
30ED
  9
$SURFTAB1
 70
     6
  9
$SURFTAB2
 70
     6
  9
$SURFTYPE
 70
     6
  9
$SURFU
 70
     6
  9
$SURFV
 70
     6
  9
$UCSNAME
  2

  9
$UCSORG
 10
0.0
 20
0.0
 30
0.0
  9
$UCSXDIR
 10
1.0
 20
0.0
 30
0.0
  9
$UCSYDIR
 10
0.0
 20
1.0
 30
0.0
  9
$PUCSNAME
  2

  9
$PUCSORG
 10
0.0
 20
0.0
 30
0.0
  9
$PUCSXDIR
 10
1.0
 20
0.0
 30
0.0
  9
$PUCSYDIR
 10
0.0
 20
1.0
 30
0.0
  9
$USERI1
 70
     0
  9
$USERI2
 70
     0
  9
$USERI3
 70
     0
  9
$USERI4
 70
     0
  9
$USERI5
 70
     0
  9
$USERR1
 40
0.0
  9
$USERR2
 40
0.0
  9
$USERR3
 40
0.0
  9
$USERR4
 40
0.0
  9
$USERR5
 40
0.0
  9
$WORLDVIEW
 70
     1
  9
$SHADEDGE
 70
     3
  9
$SHADEDIF
 70
    70
  9
$TILEMODE
 70
     1
  9
$MAXACTVP
 70
    16
  9
$PLIMCHECK
 70
     0
  9
$PEXTMIN
 10
1.0000000000000000E+020
 20
1.0000000000000000E+020
 30
1.0000000000000000E+020
  9
$PEXTMAX
 10
-1.0000000000000000E+020
 20
-1.0000000000000000E+020
 30
-1.0000000000000000E+020
  9
$PLIMMIN
 10
0.0
 20
0.0
  9
$PLIMMAX
 10
12.0
 20
9.0
  9
$UNITMODE
 70
     0
  9
$VISRETAIN
 70
     0
  9
$PLINEGEN
 70
     0
  9
$PSLTSCALE
 70
     0
  0
ENDSEC
  0
SECTION
  2
TABLES
  0
TABLE
  2
VPORT
 70
     2
  0
VPORT
  2
*ACTIVE
 70
     0
 10
0.0
 20
0.0
 11
1.0
 21
1.0
 12
25293.761995902409
 22
-3082.0462847149101
 13
0.0
 23
0.0
 14
5.0
 24
5.0
 15
0.0
 25
0.0
 16
0.0
 26
0.0
 36
1.0
 17
0.0
 27
0.0
 37
0.0
 40
5101.4741671244547
 41
3.1666666666666661
 42
50.0
 43
0.0
 44
0.0
 50
0.0
 51
0.0
 71
     0
 72
   100
 73
     1
 74
     0
 75
     0
 76
     0
 77
     0
 78
     0
  0
ENDTAB
  0
TABLE
  2
LTYPE
 70
     4
  0
LTYPE
  2
CONTINUOUS
 70
     0
  3
Solid line
 72
    65
 73
     0
 40
0.0
  0
LTYPE
  2
CENTER
 70
     0
  3
____ _ ____ _ ____ _ ____ _ ____ _ ____ _ ____ 
 72
    65
 73
     4
 40
2.0
 49
1.25
 49
-0.25
 49
0.25
 49
-0.25
  0
LTYPE
  2
HIDDEN
 70
     0
  3
__ __ __ __ __ __ __ __ __ __ __ __ __ __ __ __
 72
    65
 73
     2
 40
0.375
 49
0.25
 49
-0.125
  0
LTYPE
  2
PHANTOM
 70
     0
  3
______  __  __  ______  __  __  ______  __  __ 
 72
    65
 73
     6
 40
2.5
 49
1.25
 49
-0.25
 49
0.25
 49
-0.25
 49
0.25
 49
-0.25
  0
ENDTAB
  0
TABLE
  2
LAYER
 70
     9
  0
LAYER
  2
0
 70
     0
 62
     7
  6
CONTINUOUS
  0
LAYER
  2
CT
 70
     0
 62
     3
  6
CENTER
  0
LAYER
  2
FUTO
 70
     0
 62
     4
  6
CONTINUOUS
  0
LAYER
  2
HOSO
 70
     0
 62
     7
  6
CONTINUOUS
  0
LAYER
  2
KL
 70
     0
 62
     7
  6
HIDDEN
  0
LAYER
  2
SL
 70
     0
 62
     1
  6
PHANTOM
  0
LAYER
  2
SP
 70
     0
 62
     2
  6
CONTINUOUS
  0
LAYER
  2
DEFPOINTS
 70
     0
 62
     7
  6
CONTINUOUS
  0
LAYER
  2
4
 70
     0
 62
     7
  6
CONTINUOUS
  0
ENDTAB
  0
TABLE
  2
STYLE
 70
     1
  0
STYLE
  2
STANDARD
 70
     0
 40
0.0
 41
1.0
 50
15.0
 71
     0
 42
120.0
  3
C:\Program Files\AutoCAD LT\simplex.shx
  4
C:\Program Files\AutoCAD LT\extfont.shx
  0
ENDTAB
  0
TABLE
  2
VIEW
 70
     0
  0
ENDTAB
  0
TABLE
  2
UCS
 70
     0
  0
ENDTAB
  0
TABLE
  2
APPID
 70
     2
  0
APPID
  2
ACAD
 70
     0
  0
APPID
  2
CONTENTBLOCKICON
 70
     0
  0
ENDTAB
  0
TABLE
  2
DIMSTYLE
 70
     2
  0
DIMSTYLE
  2
DIA1
 70
     0
  3

  4

  5

  6

  7

 40
1.0
 41
2.0
 42
1.0
 43
10.0
 44
1.0
 45
0.0
 46
0.0
 47
0.0
 48
0.0
140
2.5
141
0.0
142
0.0
143
25.399999999999999
144
1.0
145
0.0
146
1.0
147
0.09
 71
     0
 72
     0
 73
     0
 74
     0
 75
     0
 76
     0
 77
     1
 78
     8
170
     0
171
     2
172
     1
173
     0
174
     0
175
     0
176
     2
177
     2
178
     2
  0
DIMSTYLE
  2
STANDARD
 70
     0
  3

  4

  5

  6

  7

 40
1.0
 41
0.18
 42
0.0625
 43
0.38
 44
0.18
 45
0.0
 46
0.0
 47
0.0
 48
0.0
140
0.18
141
0.09
142
0.0
143
25.399999999999999
144
1.0
145
0.0
146
1.0
147
0.09
 71
     0
 72
     0
 73
     1
 74
     1
 75
     0
 76
     0
 77
     0
 78
     0
170
     0
171
     2
172
     0
173
     0
174
     0
175
     0
176
     0
177
     0
178
     0
  0
ENDTAB
  0
ENDSEC
  0
SECTION
  2
BLOCKS
  0
BLOCK
  8
0
  2
$MODEL_SPACE
 70
     0
 10
0.0
 20
0.0
 30
0.0
  3
$MODEL_SPACE
  1

  0
ENDBLK
  5
7
  8
0
  0
BLOCK
 67
     1
  8
0
  2
$PAPER_SPACE
 70
     0
 10
0.0
 20
0.0
 30
0.0
  3
$PAPER_SPACE
  1

  0
ENDBLK
  5
A
 67
     1
  8
0
  0
BLOCK
  8
0
  2
_OPEN
 70
     0
 10
0.0
 20
0.0
 30
0.0
  3
_OPEN
  1

  0
LINE
  5
25
  8
0
  6
BYBLOCK
 62
     0
 10
-1.0
 20
0.1666666666666666
 30
0.0
 11
0.0
 21
0.0
 31
0.0
  0
LINE
  5
26
  8
0
  6
BYBLOCK
 62
     0
 10
0.0
 20
0.0
 30
0.0
 11
-1.0
 21
-0.1666666666666666
 31
0.0
  0
LINE
  5
27
  8
0
  6
BYBLOCK
 62
     0
 10
0.0
 20
0.0
 30
0.0
 11
-1.0
 21
0.0
 31
0.0
  0
ENDBLK
  5
29
  8
0
  0
BLOCK
  8
0
  2
_DOT
 70
     0
 10
0.0
 20
0.0
 30
0.0
  3
_DOT
  1

  0
POLYLINE
  5
16D
  8
0
  6
BYBLOCK
 62
     0
 66
     1
 10
0.0
 20
0.0
 30
0.0
 70
     1
 40
0.25
 41
0.25
  0
VERTEX
  5
3073
  8
0
  6
BYBLOCK
 62
     0
 10
-0.125
 20
0.0
 30
0.0
 42
1.0
  0
VERTEX
  5
3074
  8
0
  6
BYBLOCK
 62
     0
 10
0.125
 20
0.0
 30
0.0
 42
1.0
  0
SEQEND
  5
3075
  8
0
  6
BYBLOCK
 62
     0
  0
LINE
  5
171
  8
0
  6
BYBLOCK
 62
     0
 10
-0.25
 20
0.0
 30
0.0
 11
-1.0
 21
0.0
 31
0.0
  0
ENDBLK
  5
173
  8
0
  0
BLOCK
  8
0
  2
L-75-6
 70
     0
 10
0.0
 20
0.0
 30
0.0
  3
L-75-6
  1

  0
LINE
  5
293
  8
0
 10
114.6064614035558
 20
81.429596884474719
 30
0.0
 11
189.60646140355581
 21
81.429596884474719
 31
0.0
  0
LINE
  5
294
  8
0
 10
114.6064614035558
 20
81.429596884474719
 30
0.0
 11
114.6064614035558
 21
156.42959688447471
 31
0.0
  0
LINE
  5
295
  8
0
 10
189.60646140355581
 20
81.429596884474719
 30
0.0
 11
189.60646140355581
 21
83.429596884474705
 31
0.0
  0
LINE
  5
296
  8
0
 10
114.6064614035558
 20
156.42959688447471
 30
0.0
 11
116.6064614035558
 21
156.42959688447471
 31
0.0
  0
LINE
  5
297
  8
0
 10
120.6064614035558
 20
95.929596884474705
 30
0.0
 11
120.6064614035558
 21
152.42959688447471
 31
0.0
  0
LINE
  5
298
  8
0
 10
129.10646140355581
 20
87.429596884474719
 30
0.0
 11
185.60646140355581
 21
87.429596884474719
 31
0.0
  0
ARC
  5
299
  8
0
 10
185.60646140355581
 20
83.429596884474705
 30
0.0
 40
4.0
 50
0.0
 51
90.0
  0
ARC
  5
29A
  8
0
 10
116.6064614035558
 20
152.42959688447471
 30
0.0
 40
4.0
 50
0.0
 51
90.0
  0
ARC
  5
29B
  8
0
 10
129.10646140355581
 20
95.929596884474705
 30
0.0
 40
8.5
 50
180.0
 51
270.0
  0
ENDBLK
  5
29D
  8
0
  0
BLOCK
  8
0
  2
22222F
 70
     0
 10
0.0
 20
0.0
 30
0.0
  3
22222F
  1

  0
ARC
  5
228
  8
FUTO
 10
-0.0000000000000568
 20
0.0
 30
0.0
 40
130.0
 50
124.6637959032814
 51
175.3362040967184
  0
ARC
  5
229
  8
FUTO
 10
-0.0000000000000568
 20
0.0
 30
0.0
 40
130.0
 50
4.6637959032815717
 51
55.336204096718511
  0
ARC
  5
22A
  8
FUTO
 10
-0.0000000000000568
 20
0.0
 30
0.0
 40
115.0
 50
8.9772148936872895
 51
51.022785106312661
  0
ARC
  5
22B
  8
FUTO
 10
-0.0000000000000568
 20
0.0
 30
0.0
 40
115.0
 50
128.9772148936872
 51
171.02278510631271
  0
ARC
  5
22C
  8
FUTO
 10
-57.499999999999829
 20
99.592921435210386
 30
0.0
 40
18.0
 50
25.51139255315622
 51
214.4886074468437
  0
ARC
  5
22D
  8
FUTO
 10
57.5
 20
99.592921435210243
 30
0.0
 40
18.0
 50
325.51139255315621
 51
154.4886074468437
  0
LINE
  5
22E
  8
FUTO
 10
-110.0
 20
-127.0
 30
0.0
 11
-0.0000000000000568
 21
-127.0
 31
0.0
  0
ARC
  5
22F
  8
FUTO
 10
-0.0000000000000568
 20
0.0
 30
0.0
 40
115.0
 50
248.9772148936872
 51
291.0227851063126
  0
CIRCLE
  5
230
  8
FUTO
 10
-0.0000000000000568
 20
0.0
 30
0.0
 40
54.0
  0
LINE
  5
231
  8
CT
 10
-190.0
 20
-140.0
 30
0.0
 11
-190.0
 21
-70.0
 31
0.0
  0
LINE
  5
232
  8
FUTO
 10
-225.0
 20
-130.0
 30
0.0
 11
-110.0
 21
-130.0
 31
0.0
  0
LINE
  5
233
  8
FUTO
 10
-125.0000000000001
 20
-80.0
 30
0.0
 11
-222.0
 21
-80.0
 31
0.0
  0
ARC
  5
234
  8
FUTO
 10
-222.0
 20
-83.0
 30
0.0
 40
3.0
 50
90.0
 51
180.0
  0
LINE
  5
235
  8
FUTO
 10
-225.0
 20
-83.0
 30
0.0
 11
-225.0
 21
-130.0
 31
0.0
  0
LINE
  5
236
  8
FUTO
 10
-129.99999999999929
 20
-9.9498743710669828
 30
0.0
 11
-130.0
 21
-60.0
 31
0.0
  0
ARC
  5
237
  8
FUTO
 10
-0.0000000000000568
 20
0.0
 30
0.0
 40
115.0
 50
188.9772148936872
 51
231.02278510631271
  0
LINE
  5
238
  8
FUTO
 10
-125.0000000000001
 20
-80.0
 30
0.0
 11
-110.0000000000001
 21
-95.0
 31
0.0
  0
ARC
  5
239
  8
FUTO
 10
-150.0
 20
-60.0
 30
0.0
 40
20.0
 50
270.0
 51
0.0
  0
LINE
  5
23A
  8
FUTO
 10
-110.0
 20
-130.0
 30
0.0
 11
-110.0000000000001
 21
-95.0
 31
0.0
  0
ARC
  5
23B
  8
FUTO
 10
-57.500000000000057
 20
-99.592921435210542
 30
0.0
 40
18.0
 50
145.51139255315621
 51
334.48860744684367
  0
ARC
  5
23C
  8
FUTO
 10
-115.0
 20
0.0
 30
0.0
 40
18.0
 50
85.511392553156256
 51
274.48860744684367
  0
LINE
  5
23D
  8
CT
 10
190.0
 20
-140.0
 30
0.0
 11
190.0
 21
-70.0
 31
0.0
  0
ARC
  5
23E
  8
FUTO
 10
150.0
 20
-60.0
 30
0.0
 40
20.0
 50
180.0
 51
270.0
  0
LINE
  5
23F
  8
FUTO
 10
222.0000000000004
 20
-80.0
 30
0.0
 11
124.9999999999997
 21
-80.0
 31
0.0
  0
LINE
  5
240
  8
FUTO
 10
110.0
 20
-130.0
 30
0.0
 11
225.0
 21
-130.0
 31
0.0
  0
LINE
  5
241
  8
FUTO
 10
130.0
 20
-60.0
 30
0.0
 11
130.0
 21
-9.9498743710661302
 31
0.0
  0
ARC
  5
242
  8
FUTO
 10
-0.0000000000000568
 20
0.0
 30
0.0
 40
115.0
 50
308.97721489368718
 51
351.02278510631271
  0
LINE
  5
243
  8
FUTO
 10
-0.0000000000000568
 20
-127.0
 30
0.0
 11
110.0
 21
-127.0
 31
0.0
  0
ARC
  5
244
  8
FUTO
 10
57.5
 20
-99.592921435210542
 30
0.0
 40
18.0
 50
205.51139255315621
 51
34.488607446843737
  0
LINE
  5
245
  8
FUTO
 10
109.9999999999997
 20
-95.0
 30
0.0
 11
124.9999999999997
 21
-80.0
 31
0.0
  0
LINE
  5
246
  8
FUTO
 10
109.9999999999997
 20
-95.0
 30
0.0
 11
110.0
 21
-130.0
 31
0.0
  0
ARC
  5
247
  8
FUTO
 10
115.0
 20
0.0
 30
0.0
 40
18.0
 50
265.51139255315621
 51
94.488607446843773
  0
ARC
  5
248
  8
FUTO
 10
222.0000000000004
 20
-83.0
 30
0.0
 40
3.0
 50
0.0
 51
90.0
  0
LINE
  5
249
  8
FUTO
 10
225.0
 20
-130.0
 30
0.0
 11
225.0000000000004
 21
-83.0
 31
0.0
  0
LINE
  5
24A
  8
FUTO
 10
19.227247756821669
 20
132.99999999999989
 30
0.0
 11
-19.227247756821779
 21
132.99999999999989
 31
0.0
  0
ARC
  5
24B
  8
FUTO
 10
-0.0000000000000568
 20
0.0
 30
0.0
 40
115.0
 50
68.977214893687218
 51
111.0227851063126
  0
ARC
  5
24C
  8
FUTO
 10
-0.0000000000000568
 20
0.0
 30
0.0
 40
130.0
 50
98.505358450480756
 51
115.3362040967184
  0
LINE
  5
24D
  8
FUTO
 10
-19.227247756821779
 20
113.3812724558063
 30
0.0
 11
-19.227247756821779
 21
132.99999999999989
 31
0.0
  0
ARC
  5
24E
  8
FUTO
 10
-0.0000000000000568
 20
0.0
 30
0.0
 40
130.0
 50
64.663795903281382
 51
81.494641549519287
  0
LINE
  5
24F
  8
FUTO
 10
19.227247756821669
 20
113.3812724558063
 30
0.0
 11
19.227247756821669
 21
132.99999999999989
 31
0.0
  0
ENDBLK
  5
251
  8
0
  0
BLOCK
  8
0
  2
まっすぐの矢印
 70
     0
 10
0.0
 20
0.0
 30
0.0
  3
まっすぐの矢印
  1

  0
LINE
  5
2CF
  8
SP
 10
0.6962157491662495
 20
-2.216890595009601
 30
0.0
 11
0.6962157491662495
 21
-5.0
 31
0.0
  0
LINE
  5
2D0
  8
SP
 10
0.6962157491662495
 20
-5.0
 30
0.0
 11
-0.6962157491662495
 21
-5.0
 31
0.0
  0
LINE
  5
2D1
  8
SP
 10
-0.6962157491662495
 20
-5.0
 30
0.0
 11
-0.6962157491662495
 21
-2.216890595009601
 31
0.0
  0
LINE
  5
2D2
  8
SP
 10
-0.6962157491662495
 20
-2.216890595009601
 30
0.0
 11
-1.7145256852758151
 21
-2.216890595009601
 31
0.0
  0
LINE
  5
2D3
  8
SP
 10
-1.7145256852758151
 20
-2.216890595009601
 30
0.0
 11
0.0
 21
0.0
 31
0.0
  0
LINE
  5
2D4
  8
SP
 10
0.0
 20
0.0
 30
0.0
 11
1.7145256852758151
 21
-2.216890595009601
 31
0.0
  0
LINE
  5
2D5
  8
SP
 10
1.7145256852758151
 20
-2.216890595009601
 30
0.0
 11
0.6962157491662495
 21
-2.216890595009601
 31
0.0
  0
ENDBLK
  5
2D7
  8
0
  0
BLOCK
  8
0
  2
右回転矢印
 70
     0
 10
0.0
 20
0.0
 30
0.0
  3
右回転矢印
  1

  0
LINE
  5
1E3
  8
SP
 10
-2.7705290305565882
 20
1.567794835092901
 30
0.0
 11
-2.4288000558398148
 21
2.8051227455822878
 31
0.0
  0
LINE
  5
1E4
  8
SP
 10
-2.4288000558398148
 20
2.8051227455822878
 30
0.0
 11
0.0
 21
0.0
 31
0.0
  0
LINE
  5
1E5
  8
SP
 10
0.0
 20
0.0
 30
0.0
 11
-3.3160037613098718
 21
-0.4072531086382499
 31
0.0
  0
LINE
  5
1E6
  8
SP
 10
-3.3160037613098718
 20
-0.4072531086382499
 30
0.0
 11
-3.0391574735299112
 21
0.5951483970269315
 31
0.0
  0
ARC
  5
1E7
  8
SP
 10
-5.9215210782018062
 20
-9.8412769578768184
 30
0.0
 40
10.82714154973578
 50
74.560750721316467
 51
112.11861101078711
  0
LINE
  5
1E8
  8
SP
 10
-9.9982127316752951
 20
0.1890560027239694
 30
0.0
 11
-10.37814929817227
 21
1.1238557349100611
 31
0.0
  0
ARC
  5
1E9
  8
SP
 10
-5.9215210782018062
 20
-9.8412769578768291
 30
0.0
 40
11.83620167374065
 50
74.560750721316396
 51
112.11861101078701
  0
ENDBLK
  5
1EB
  8
0
  0
BLOCK
  8
0
  2
*D6
 70
     1
 10
0.0
 20
0.0
 30
0.0
  3
*D6
  1

  0
LINE
  5
2FB7
  8
SP
 62
     2
 10
19946.283464836579
 20
-378.11548777214369
 30
0.0
 11
19946.283464836579
 21
-1045.736214786029
 31
0.0
  0
LINE
  5
2FB8
  8
SP
 62
     2
 10
17696.28346483659
 20
-378.11548777214369
 30
0.0
 11
17696.28346483659
 21
-1045.736214786029
 31
0.0
  0
LINE
  5
2FB9
  8
SP
 62
     2
 10
19856.283464836579
 20
-1000.736214786029
 30
0.0
 11
17786.283464836579
 21
-1000.736214786029
 31
0.0
  0
INSERT
  5
2FBA
  8
SP
 62
     2
  2
_OPEN
 10
19946.283464836579
 20
-1000.736214786029
 30
0.0
 41
90.0
 42
90.0
 43
90.0
  0
INSERT
  5
2FBB
  8
SP
 62
     2
  2
_OPEN
 10
17696.28346483659
 20
-1000.736214786029
 30
0.0
 41
90.0
 42
90.0
 43
90.0
 50
180.0
  0
TEXT
  5
2FBC
  8
SP
 62
     2
 10
18571.999098250169
 20
-978.23621478602945
 30
0.0
 40
135.0
  1
2250
 51
15.0
  0
POINT
  5
2FBD
  8
DEFPOINTS
 62
     0
 10
19946.283464836579
 20
-333.11548777214369
 30
0.0
  0
POINT
  5
2FBE
  8
DEFPOINTS
 62
     0
 10
17696.28346483659
 20
-333.11548777214369
 30
0.0
  0
POINT
  5
2FBF
  8
DEFPOINTS
 62
     0
 10
17696.28346483659
 20
-1000.736214786029
 30
0.0
  0
ENDBLK
  5
A67
  8
0
  0
BLOCK
  8
0
  2
*D7
 70
     1
 10
0.0
 20
0.0
 30
0.0
  3
*D7
  1

  0
LINE
  5
2FE8
  8
SP
 62
     2
 10
17696.28346483659
 20
-378.11548777214369
 30
0.0
 11
17696.28346483659
 21
-1045.736214786029
 31
0.0
  0
LINE
  5
2FE9
  8
SP
 62
     2
 10
16546.28346483659
 20
-378.11548777214369
 30
0.0
 11
16546.28346483659
 21
-1045.736214786029
 31
0.0
  0
LINE
  5
2FEA
  8
SP
 62
     2
 10
17606.28346483659
 20
-1000.736214786029
 30
0.0
 11
16636.283464836579
 21
-1000.736214786029
 31
0.0
  0
INSERT
  5
2FEB
  8
SP
 62
     2
  2
_OPEN
 10
17696.28346483659
 20
-1000.736214786029
 30
0.0
 41
90.0
 42
90.0
 43
90.0
  0
INSERT
  5
2FEC
  8
SP
 62
     2
  2
_OPEN
 10
16546.28346483659
 20
-1000.736214786029
 30
0.0
 41
90.0
 42
90.0
 43
90.0
 50
180.0
  0
TEXT
  5
2FED
  8
SP
 62
     2
 10
16883.071874520901
 20
-978.23621478602945
 30
0.0
 40
135.0
  1
1150
 51
15.0
  0
POINT
  5
2FEE
  8
DEFPOINTS
 62
     0
 10
17696.28346483659
 20
-333.11548777214369
 30
0.0
  0
POINT
  5
2FEF
  8
DEFPOINTS
 62
     0
 10
16546.28346483659
 20
-333.11548777214369
 30
0.0
  0
POINT
  5
2FF0
  8
DEFPOINTS
 62
     0
 10
16546.28346483659
 20
-1000.736214786029
 30
0.0
  0
ENDBLK
  5
A74
  8
0
  0
BLOCK
  8
0
  2
*D8
 70
     1
 10
0.0
 20
0.0
 30
0.0
  3
*D8
  1

  0
LINE
  5
305F
  8
SP
 10
16546.28346483659
 20
-378.11548777214369
 30
0.0
 11
16546.28346483659
 21
-1341.069111686232
 31
0.0
  0
LINE
  5
3060
  8
SP
 10
19946.283464836579
 20
-378.11548777214369
 30
0.0
 11
19946.283464836579
 21
-1341.069111686232
 31
0.0
  0
LINE
  5
3061
  8
SP
 10
16636.283464836579
 20
-1296.069111686232
 30
0.0
 11
19856.283464836579
 21
-1296.069111686232
 31
0.0
  0
INSERT
  5
3062
  8
SP
  2
_OPEN
 10
16546.28346483659
 20
-1296.069111686232
 30
0.0
 41
90.0
 42
90.0
 43
90.0
 50
180.0
  0
INSERT
  5
3063
  8
SP
  2
_OPEN
 10
19946.283464836579
 20
-1296.069111686232
 30
0.0
 41
90.0
 42
90.0
 43
90.0
  0
TEXT
  8
0
  40
135
  5
30DF
  72
0
  71
0
 10
17976.3
 20
-1445.02
 30
0.000000
  1
3400
  0
POINT
  5
3065
  8
DEFPOINTS
 62
     0
 10
16546.28346483659
 20
-333.11548777214369
 30
0.0
  0
POINT
  5
3066
  8
DEFPOINTS
 62
     0
 10
19946.283464836579
 20
-333.11548777214369
 30
0.0
  0
POINT
  5
3067
  8
DEFPOINTS
 62
     0
 10
19946.283464836579
 20
-1296.069111686232
 30
0.0
  0
ENDBLK
  5
14BE
  8
0
  0
BLOCK
  8
0
  2
*D9
 70
     1
 10
0.0
 20
0.0
 30
0.0
  3
*D9
  1

  0
LINE
  5
3068
  8
SP
 10
16535.25079542274
 20
-153.11548777214369
 30
0.0
 11
15912.17761454117
 21
-153.1154877721435
 31
0.0
  0
LINE
  5
3069
  8
SP
 10
16535.25079542274
 20
-333.11548777214369
 30
0.0
 11
15912.17761454117
 21
-333.11548777214352
 31
0.0
  0
LINE
  5
306A
  8
SP
 10
15957.17761454117
 20
-63.115487772143567
 30
0.0
 11
15957.17761454117
 21
26.884512227856419
 31
0.0
  0
LINE
  5
306B
  8
SP
 10
15957.17761454117
 20
-423.11548777214352
 30
0.0
 11
15957.17761454117
 21
-873.11548777214352
 31
0.0
  0
LINE
  5
306C
  8
SP
 10
15957.17761454117
 20
-153.1154877721435
 30
0.0
 11
15957.17761454117
 21
-333.11548777214352
 31
0.0
  0
INSERT
  5
306D
  8
SP
  2
_DOT
 10
15957.17761454117
 20
-153.1154877721435
 30
0.0
 41
90.0
 42
90.0
 43
90.0
 50
270.0
  0
INSERT
  5
306E
  8
SP
  2
_OPEN
 10
15957.17761454117
 20
-333.11548777214352
 30
0.0
 41
90.0
 42
90.0
 43
90.0
 50
90.0
  0
TEXT
  8
0
  40
135
  5
30E0
  72
0
  71
0
 10
15597.2
 20
-932.065
 30
0.000000
  1
180
  0
POINT
  5
3070
  8
DEFPOINTS
 62
     0
 10
16580.25079542274
 20
-153.11548777214369
 30
0.0
  0
POINT
  5
3071
  8
DEFPOINTS
 62
     0
 10
16580.25079542274
 20
-333.11548777214369
 30
0.0
  0
POINT
  5
3072
  8
DEFPOINTS
 62
     0
 10
15957.17761454117
 20
-333.11548777214352
 30
0.0
  0
ENDBLK
  5
14D8
  8
0
  0
BLOCK
  8
0
  2
*D10
 70
     1
 10
0.0
 20
0.0
 30
0.0
  3
*D10
  1

  0
LINE
  5
3076
  8
SP
 10
24175.023074407462
 20
3216.8845122278558
 30
0.0
 11
24669.212792786489
 21
3216.8845122278558
 31
0.0
  0
LINE
  5
3077
  8
SP
 10
24175.023074407462
 20
1216.884512227856
 30
0.0
 11
24669.212792786489
 21
1216.884512227856
 31
0.0
  0
LINE
  5
3078
  8
SP
 10
24624.212792786489
 20
3126.8845122278558
 30
0.0
 11
24624.212792786489
 21
1306.884512227856
 31
0.0
  0
INSERT
  5
3079
  8
SP
  2
_OPEN
 10
24624.212792786489
 20
3216.8845122278558
 30
0.0
 41
90.0
 42
90.0
 43
90.0
 50
90.0
  0
INSERT
  5
307A
  8
SP
  2
_OPEN
 10
24624.212792786489
 20
1216.884512227856
 30
0.0
 41
90.0
 42
90.0
 43
90.0
 50
270.0
  0
TEXT
  8
0
  40
135
  5
30E1
  72
0
  71
0
 10
24264.2
 20
1977.93
 30
0.000000
  1
%%C2000
  0
POINT
  5
307C
  8
DEFPOINTS
 62
     0
 10
24130.023074407462
 20
3216.8845122278558
 30
0.0
  0
POINT
  5
307D
  8
DEFPOINTS
 62
     0
 10
24130.023074407462
 20
1216.884512227856
 30
0.0
  0
POINT
  5
307E
  8
DEFPOINTS
 62
     0
 10
24624.212792786489
 20
1216.884512227856
 30
0.0
  0
ENDBLK
  5
1561
  8
0
  0
BLOCK
  8
0
  2
*D11
 70
     1
 10
0.0
 20
0.0
 30
0.0
  3
*D11
  1

  0
LINE
  5
307F
  8
SP
 10
23225.023074407462
 20
3920.7552948796028
 30
0.0
 11
23225.023074407462
 21
4036.7149582016132
 31
0.0
  0
LINE
  5
3080
  8
SP
 10
24130.023074407462
 20
3336.8845122278558
 30
0.0
 11
24130.023074407462
 21
4036.7149582016132
 31
0.0
  0
LINE
  5
3081
  8
SP
 10
23315.023074407462
 20
3991.7149582016141
 30
0.0
 11
24040.023074407462
 21
3991.7149582016141
 31
0.0
  0
INSERT
  5
3082
  8
SP
  2
_OPEN
 10
23225.023074407462
 20
3991.7149582016141
 30
0.0
 41
90.0
 42
90.0
 43
90.0
 50
180.0
  0
INSERT
  5
3083
  8
SP
  2
_OPEN
 10
24130.023074407462
 20
3991.7149582016141
 30
0.0
 41
90.0
 42
90.0
 43
90.0
  0
TEXT
  8
0
  40
135
  5
30E2
  72
0
  71
0
 10
23407.5
 20
3842.76
 30
0.000000
  1
905
  0
POINT
  5
3085
  8
DEFPOINTS
 62
     0
 10
23225.023074407462
 20
3875.7552948796042
 30
0.0
  0
POINT
  5
3086
  8
DEFPOINTS
 62
     0
 10
24130.023074407462
 20
3291.8845122278558
 30
0.0
  0
POINT
  5
3087
  8
DEFPOINTS
 62
     0
 10
24130.023074407462
 20
3991.7149582016141
 30
0.0
  0
ENDBLK
  5
1576
  8
0
  0
BLOCK
  8
0
  2
*D12
 70
     1
 10
0.0
 20
0.0
 30
0.0
  3
*D12
  1

  0
LINE
  5
3088
  8
SP
 62
     2
 10
20854.023074407462
 20
-378.11548777214381
 30
0.0
 11
20854.023074407462
 21
-1051.1929080403891
 31
0.0
  0
LINE
  5
3089
  8
SP
 62
     2
 10
23225.023074407462
 20
-378.11548777214392
 30
0.0
 11
23225.023074407462
 21
-1051.1929080403891
 31
0.0
  0
LINE
  5
308A
  8
SP
 62
     2
 10
20944.023074407462
 20
-1006.1929080403891
 30
0.0
 11
23135.023074407462
 21
-1006.1929080403891
 31
0.0
  0
INSERT
  5
308B
  8
SP
 62
     2
  2
_OPEN
 10
20854.023074407462
 20
-1006.1929080403891
 30
0.0
 41
90.0
 42
90.0
 43
90.0
 50
180.0
  0
INSERT
  5
308C
  8
SP
 62
     2
  2
_OPEN
 10
23225.023074407462
 20
-1006.1929080403891
 30
0.0
 41
90.0
 42
90.0
 43
90.0
  0
TEXT
  8
0
  40
135
  5
30E3
  62
2
  72
0
  71
0
 10
21769.5
 20
-1155.14
 30
0.000000
  1
2371
  0
POINT
  5
308E
  8
DEFPOINTS
 62
     0
 10
20854.023074407462
 20
-333.11548777214381
 30
0.0
  0
POINT
  5
308F
  8
DEFPOINTS
 62
     0
 10
23225.023074407462
 20
-333.11548777214392
 30
0.0
  0
POINT
  5
3090
  8
DEFPOINTS
 62
     0
 10
23225.023074407462
 20
-1006.1929080403891
 30
0.0
  0
ENDBLK
  5
1B15
  8
0
  0
BLOCK
  8
0
  2
*D13
 70
     1
 10
0.0
 20
0.0
 30
0.0
  3
*D13
  1

  0
LINE
  5
3091
  8
SP
 62
     2
 10
24054.023074407462
 20
-378.11548777214381
 30
0.0
 11
24054.023074407462
 21
-1051.1929080403891
 31
0.0
  0
LINE
  5
3092
  8
SP
 62
     2
 10
23315.023074407462
 20
-1006.1929080403891
 30
0.0
 11
23964.023074407462
 21
-1006.1929080403891
 31
0.0
  0
INSERT
  5
3093
  8
SP
 62
     2
  2
_OPEN
 10
23225.023074407462
 20
-1006.1929080403891
 30
0.0
 41
90.0
 42
90.0
 43
90.0
 50
180.0
  0
INSERT
  5
3094
  8
SP
 62
     2
  2
_OPEN
 10
24054.023074407462
 20
-1006.1929080403891
 30
0.0
 41
90.0
 42
90.0
 43
90.0
  0
TEXT
  8
0
  40
135
  5
30E4
  62
2
  72
0
  71
0
 10
23369.5
 20
-1155.14
 30
0.000000
  1
829
  0
POINT
  5
3096
  8
DEFPOINTS
 62
     0
 10
23225.023074407462
 20
-333.11548777214392
 30
0.0
  0
POINT
  5
3097
  8
DEFPOINTS
 62
     0
 10
24054.023074407462
 20
-333.11548777214381
 30
0.0
  0
POINT
  5
3098
  8
DEFPOINTS
 62
     0
 10
24054.023074407462
 20
-1006.1929080403891
 30
0.0
  0
ENDBLK
  5
1B21
  8
0
  0
BLOCK
  8
0
  2
*D14
 70
     1
 10
0.0
 20
0.0
 30
0.0
  3
*D14
  1

  0
LINE
  5
3099
  8
SP
 62
     2
 10
24054.023074407462
 20
-1051.1929080403891
 30
0.0
 11
24054.023074407462
 21
-1343.3152082932861
 31
0.0
  0
LINE
  5
309A
  8
SP
 62
     2
 10
20854.023074407462
 20
-1051.1929080403891
 30
0.0
 11
20854.023074407462
 21
-1343.3152082932861
 31
0.0
  0
LINE
  5
309B
  8
SP
 62
     2
 10
23964.023074407462
 20
-1298.3152082932861
 30
0.0
 11
20944.023074407462
 21
-1298.3152082932861
 31
0.0
  0
INSERT
  5
309C
  8
SP
 62
     2
  2
_OPEN
 10
24054.023074407462
 20
-1298.3152082932861
 30
0.0
 41
90.0
 42
90.0
 43
90.0
  0
INSERT
  5
309D
  8
SP
 62
     2
  2
_OPEN
 10
20854.023074407462
 20
-1298.3152082932861
 30
0.0
 41
90.0
 42
90.0
 43
90.0
 50
180.0
  0
TEXT
  8
0
  40
135
  5
30E5
  62
2
  72
0
  71
0
 10
22184.0
 20
-1447.27
 30
0.000000
  1
3200
  0
POINT
  5
309F
  8
DEFPOINTS
 62
     0
 10
24054.023074407462
 20
-1006.1929080403891
 30
0.0
  0
POINT
  5
30A0
  8
DEFPOINTS
 62
     0
 10
20854.023074407462
 20
-1006.1929080403891
 30
0.0
  0
POINT
  5
30A1
  8
DEFPOINTS
 62
     0
 10
20854.023074407462
 20
-1298.3152082932861
 30
0.0
  0
ENDBLK
  5
1B2E
  8
0
  0
BLOCK
  8
0
  2
*D15
 70
     1
 10
0.0
 20
0.0
 30
0.0
  3
*D15
  1

  0
LINE
  5
30A2
  8
SP
 62
     2
 10
20715.023074407462
 20
3991.7149582016141
 30
0.0
 11
23135.023074407462
 21
3991.7149582016141
 31
0.0
  0
INSERT
  5
30A3
  8
SP
 62
     2
  2
_OPEN
 10
20625.023074407462
 20
3991.7149582016141
 30
0.0
 41
90.0
 42
90.0
 43
90.0
 50
180.0
  0
INSERT
  5
30A4
  8
SP
 62
     2
  2
_OPEN
 10
23225.023074407462
 20
3991.7149582016141
 30
0.0
 41
90.0
 42
90.0
 43
90.0
  0
TEXT
  8
0
  40
135
  5
30E6
  62
2
  72
0
  71
0
 10
21655.0
 20
3842.76
 30
0.000000
  1
2600
  0
POINT
  5
30A6
  8
DEFPOINTS
 62
     0
 10
20625.023074407462
 20
3991.7149582016141
 30
0.0
  0
POINT
  5
30A7
  8
DEFPOINTS
 62
     0
 10
23225.023074407462
 20
3991.7149582016141
 30
0.0
  0
POINT
  5
30A8
  8
DEFPOINTS
 62
     0
 10
23225.023074407462
 20
3991.7149582016141
 30
0.0
  0
ENDBLK
  5
1BFE
  8
0
  0
BLOCK
  8
0
  2
*D16
 70
     1
 10
0.0
 20
0.0
 30
0.0
  3
*D16
  1

  0
LINE
  5
2FD2
  8
SP
 10
16535.25079542274
 20
-133.11548777214369
 30
0.0
 11
15912.17761454117
 21
-133.1154877721435
 31
0.0
  0
LINE
  5
2FD3
  8
SP
 10
16535.25079542274
 20
-153.11548777214369
 30
0.0
 11
15912.17761454117
 21
-153.1154877721435
 31
0.0
  0
LINE
  5
2FD4
  8
SP
 10
15957.17761454117
 20
-43.115487772143567
 30
0.0
 11
15957.17761454117
 21
46.884512227856419
 31
0.0
  0
LINE
  5
2FD5
  8
SP
 10
15957.17761454117
 20
-243.1154877721435
 30
0.0
 11
15957.17761454117
 21
-333.11548777214352
 31
0.0
  0
TEXT
  5
2FD6
  8
SP
 10
15780.69322112177
 20
-362.86509301224828
 30
0.0
 40
135.0
  1
(20)
 50
90.0
 51
15.0
  0
LINE
  5
2FD7
  8
SP
 10
15957.17761454117
 20
-133.1154877721435
 30
0.0
 11
15957.17761454117
 21
-153.1154877721435
 31
0.0
  0
INSERT
  5
2FD8
  8
SP
  2
_OPEN
 10
15957.17761454117
 20
-133.1154877721435
 30
0.0
 41
90.0
 42
90.0
 43
90.0
 50
270.0
  0
INSERT
  5
2FD9
  8
SP
  2
_DOT
 10
15957.17761454117
 20
-153.1154877721435
 30
0.0
 41
90.0
 42
90.0
 43
90.0
 50
90.0
  0
POINT
  5
2FDA
  8
DEFPOINTS
 62
     0
 10
16580.25079542274
 20
-133.11548777214369
 30
0.0
  0
POINT
  5
2FDB
  8
DEFPOINTS
 62
     0
 10
16580.25079542274
 20
-153.11548777214369
 30
0.0
  0
POINT
  5
2FDC
  8
DEFPOINTS
 62
     0
 10
15957.17761454117
 20
-153.1154877721435
 30
0.0
  0
ENDBLK
  5
1C46
  8
0
  0
BLOCK
  8
0
  2
*D17
 70
     1
 10
0.0
 20
0.0
 30
0.0
  3
*D17
  1

  0
LINE
  5
30A9
  8
SP
 62
     2
 10
17696.28346483659
 20
8462.6437038676886
 30
0.0
 11
17696.28346483659
 21
8745.9214114964434
 31
0.0
  0
LINE
  5
30AA
  8
SP
 62
     2
 10
16421.283464835211
 20
8133.0253234336469
 30
0.0
 11
16421.283464835211
 21
8745.9214114964434
 31
0.0
  0
LINE
  5
30AB
  8
SP
 62
     2
 10
17606.28346483659
 20
8700.9214114964452
 30
0.0
 11
16511.283464835211
 21
8700.9214114964452
 31
0.0
  0
INSERT
  5
30AC
  8
SP
 62
     2
  2
_OPEN
 10
17696.28346483659
 20
8700.9214114964452
 30
0.0
 41
90.0
 42
90.0
 43
90.0
  0
INSERT
  5
30AD
  8
SP
 62
     2
  2
_OPEN
 10
16421.283464835211
 20
8700.9214114964452
 30
0.0
 41
90.0
 42
90.0
 43
90.0
 50
180.0
  0
TEXT
  8
0
  40
135
  5
30E7
  62
2
  72
0
  71
0
 10
16788.8
 20
8551.97
 30
0.000000
  1
1275
  0
POINT
  5
30AF
  8
DEFPOINTS
 62
     0
 10
17696.28346483659
 20
8417.6437038676886
 30
0.0
  0
POINT
  5
30B0
  8
DEFPOINTS
 62
     0
 10
16421.283464835211
 20
8088.025323433646
 30
0.0
  0
POINT
  5
30B1
  8
DEFPOINTS
 62
     0
 10
16421.283464835211
 20
8700.9214114964452
 30
0.0
  0
ENDBLK
  5
2546
  8
0
  0
BLOCK
  8
0
  2
*D18
 70
     1
 10
0.0
 20
0.0
 30
0.0
  3
*D18
  1

  0
LINE
  5
30B2
  8
SP
 62
     2
 10
16576.283464836579
 20
8164.0253234336442
 30
0.0
 11
15810.28004418246
 21
8164.0253234336442
 31
0.0
  0
LINE
  5
30B3
  8
SP
 62
     2
 10
16155.376753154411
 20
7259.0253234336433
 30
0.0
 11
15810.28004418246
 21
7259.0253234336433
 31
0.0
  0
LINE
  5
30B4
  8
SP
 62
     2
 10
15855.28004418246
 20
8074.0253234336433
 30
0.0
 11
15855.28004418246
 21
7349.0253234336433
 31
0.0
  0
INSERT
  5
30B5
  8
SP
 62
     2
  2
_OPEN
 10
15855.28004418246
 20
8164.0253234336442
 30
0.0
 41
90.0
 42
90.0
 43
90.0
 50
90.0
  0
INSERT
  5
30B6
  8
SP
 62
     2
  2
_OPEN
 10
15855.28004418246
 20
7259.0253234336433
 30
0.0
 41
90.0
 42
90.0
 43
90.0
 50
270.0
  0
TEXT
  8
0
  40
135
  5
30E8
  62
2
  72
0
  71
0
 10
15495.3
 20
7472.58
 30
0.000000
  1
905
  0
POINT
  5
30B8
  8
DEFPOINTS
 62
     0
 10
16621.28346483659
 20
8164.0253234336442
 30
0.0
  0
POINT
  5
30B9
  8
DEFPOINTS
 62
     0
 10
16200.376753154411
 20
7259.0253234336433
 30
0.0
  0
POINT
  5
30BA
  8
DEFPOINTS
 62
     0
 10
15855.28004418246
 20
7259.0253234336433
 30
0.0
  0
ENDBLK
  5
2561
  8
0
  0
BLOCK
  8
0
  2
*D19
 70
     1
 10
0.0
 20
0.0
 30
0.0
  3
*D19
  1

  0
LINE
  5
30BB
  8
SP
 62
     2
 10
16155.376753154411
 20
7259.0253234336433
 30
0.0
 11
15810.28004418246
 21
7259.0253234336433
 31
0.0
  0
LINE
  5
30BC
  8
SP
 62
     2
 10
17171.28346483659
 20
4659.0253234336469
 30
0.0
 11
15810.28004418246
 21
4659.0253234336469
 31
0.0
  0
LINE
  5
30BD
  8
SP
 62
     2
 10
15855.28004418246
 20
7169.0253234336433
 30
0.0
 11
15855.28004418246
 21
4749.0253234336469
 31
0.0
  0
INSERT
  5
30BE
  8
SP
 62
     2
  2
_OPEN
 10
15855.28004418246
 20
7259.0253234336433
 30
0.0
 41
90.0
 42
90.0
 43
90.0
 50
90.0
  0
INSERT
  5
30BF
  8
SP
 62
     2
  2
_OPEN
 10
15855.28004418246
 20
4659.0253234336469
 30
0.0
 41
90.0
 42
90.0
 43
90.0
 50
270.0
  0
TEXT
  8
0
  40
135
  5
30E9
  62
2
  72
0
  71
0
 10
15495.3
 20
5720.08
 30
0.000000
  1
2600
  0
POINT
  5
30C1
  8
DEFPOINTS
 62
     0
 10
16200.376753154411
 20
7259.0253234336433
 30
0.0
  0
POINT
  5
30C2
  8
DEFPOINTS
 62
     0
 10
17216.28346483659
 20
4659.0253234336469
 30
0.0
  0
POINT
  5
30C3
  8
DEFPOINTS
 62
     0
 10
15855.28004418246
 20
4659.0253234336469
 30
0.0
  0
ENDBLK
  5
256E
  8
0
  0
BLOCK
  8
0
  2
*D20
 70
     1
 10
0.0
 20
0.0
 30
0.0
  3
*D20
  1

  0
LINE
  5
30C4
  8
SP
 62
     2
 10
16501.28346483659
 20
-133.11548777214369
 30
0.0
 11
15912.17761454117
 21
-133.1154877721435
 31
0.0
  0
LINE
  5
30C5
  8
SP
 62
     2
 10
16280.000057812251
 20
2216.8845122278558
 30
0.0
 11
15912.17761454117
 21
2216.8845122278558
 31
0.0
  0
LINE
  5
30C6
  8
SP
 62
     2
 10
15957.17761454117
 20
-43.115487772143602
 30
0.0
 11
15957.17761454117
 21
2126.8845122278558
 31
0.0
  0
INSERT
  5
30C7
  8
SP
 62
     2
  2
_OPEN
 10
15957.17761454117
 20
-133.11548777214361
 30
0.0
 41
90.0
 42
90.0
 43
90.0
 50
270.0
  0
INSERT
  5
30C8
  8
SP
 62
     2
  2
_OPEN
 10
15957.17761454117
 20
2216.8845122278558
 30
0.0
 41
90.0
 42
90.0
 43
90.0
 50
90.0
  0
TEXT
  8
0
  40
135
  5
30EA
  62
2
  72
0
  71
0
 10
15597.2
 20
802.935
 30
0.000000
  1
2350
  0
POINT
  5
30CA
  8
DEFPOINTS
 62
     0
 10
16546.28346483659
 20
-133.11548777214369
 30
0.0
  0
POINT
  5
30CB
  8
DEFPOINTS
 62
     0
 10
16325.000057812251
 20
2216.8845122278558
 30
0.0
  0
POINT
  5
30CC
  8
DEFPOINTS
 62
     0
 10
15957.17761454117
 20
2216.8845122278558
 30
0.0
  0
ENDBLK
  5
2751
  8
0
  0
BLOCK
  8
0
  2
*D21
 70
     1
 10
0.0
 20
0.0
 30
0.0
  3
*D21
  1

  0
LINE
  5
30CD
  8
SP
 62
     2
 10
17651.28346483659
 20
3658.8845122278508
 30
0.0
 11
15912.17761454117
 21
3658.8845122278522
 31
0.0
  0
LINE
  5
30CE
  8
SP
 62
     2
 10
16280.000057812251
 20
2216.8845122278558
 30
0.0
 11
15912.17761454117
 21
2216.8845122278558
 31
0.0
  0
LINE
  5
30CF
  8
SP
 62
     2
 10
15957.17761454117
 20
3568.8845122278508
 30
0.0
 11
15957.17761454117
 21
2306.8845122278558
 31
0.0
  0
INSERT
  5
30D0
  8
SP
 62
     2
  2
_OPEN
 10
15957.17761454117
 20
3658.8845122278522
 30
0.0
 41
90.0
 42
90.0
 43
90.0
 50
90.0
  0
INSERT
  5
30D1
  8
SP
 62
     2
  2
_OPEN
 10
15957.17761454117
 20
2216.8845122278558
 30
0.0
 41
90.0
 42
90.0
 43
90.0
 50
270.0
  0
TEXT
  8
0
  40
135
  5
30EB
  62
2
  72
0
  71
0
 10
15597.2
 20
2698.93
 30
0.000000
  1
1442
  0
POINT
  5
30D3
  8
DEFPOINTS
 62
     0
 10
17696.28346483659
 20
3658.8845122278508
 30
0.0
  0
POINT
  5
30D4
  8
DEFPOINTS
 62
     0
 10
16325.000057812251
 20
2216.8845122278558
 30
0.0
  0
POINT
  5
30D5
  8
DEFPOINTS
 62
     0
 10
15957.17761454117
 20
2216.8845122278558
 30
0.0
  0
ENDBLK
  5
275F
  8
0
  0
BLOCK
  8
0
  2
*D22
 70
     1
 10
0.0
 20
0.0
 30
0.0
  3
*D22
  1

  0
LINE
  5
30D6
  8
SP
 62
     2
 10
17696.28346483659
 20
8507.6437038676886
 30
0.0
 11
17696.28346483659
 21
8745.9214114964434
 31
0.0
  0
LINE
  5
30D7
  8
SP
 62
     2
 10
19946.28346483659
 20
6550.0253234336406
 30
0.0
 11
19946.28346483659
 21
8745.9214114964434
 31
0.0
  0
LINE
  5
30D8
  8
SP
 62
     2
 10
17786.283464836579
 20
8700.9214114964452
 30
0.0
 11
19856.28346483659
 21
8700.9214114964452
 31
0.0
  0
INSERT
  5
30D9
  8
SP
 62
     2
  2
_OPEN
 10
17696.28346483659
 20
8700.9214114964452
 30
0.0
 41
90.0
 42
90.0
 43
90.0
 50
180.0
  0
INSERT
  5
30DA
  8
SP
 62
     2
  2
_OPEN
 10
19946.28346483659
 20
8700.9214114964452
 30
0.0
 41
90.0
 42
90.0
 43
90.0
  0
TEXT
  8
0
  40
135
  5
30EC
  62
2
  72
0
  71
0
 10
18551.3
 20
8551.97
 30
0.000000
  1
2250
  0
POINT
  5
30DC
  8
DEFPOINTS
 62
     0
 10
17696.28346483659
 20
8462.6437038676886
 30
0.0
  0
POINT
  5
30DD
  8
DEFPOINTS
 62
     0
 10
19946.28346483659
 20
6505.0253234336406
 30
0.0
  0
POINT
  5
30DE
  8
DEFPOINTS
 62
     0
 10
19946.28346483659
 20
8700.9214114964452
 30
0.0
  0
ENDBLK
  5
27A0
  8
0
  0
ENDSEC
  0
SECTION
  2
ENTITIES
  0
LINE
  5
46
  8
FUTO
 10
21109.023074407462
 20
2056.8845122278558
 30
0.0
 11
22359.023074407462
 21
2056.8845122278558
 31
0.0
  0
LINE
  5
49
  8
FUTO
 10
22167.023074407462
 20
2274.3845122278558
 30
0.0
 11
21105.023074407462
 21
2274.3845122278558
 31
0.0
  0
LINE
  5
4A
  8
FUTO
 10
22167.023074407462
 20
2159.3845122278558
 30
0.0
 11
21105.023074407462
 21
2159.3845122278558
 31
0.0
  0
LINE
  5
4B
  8
FUTO
 10
20854.023074407462
 20
46.884512227856249
 30
0.0
 11
24068.223074407459
 21
46.884512227856249
 31
0.0
  0
LINE
  5
4C
  8
CT
 10
24251.28628640643
 20
2216.8845122278558
 30
0.0
 11
20520.245651409052
 21
2216.8845122278558
 31
0.0
  0
LINE
  5
4F
  8
FUTO
 10
20854.023074407462
 20
-153.11548777214369
 30
0.0
 11
24054.023074407462
 21
-153.11548777214369
 31
0.0
  0
LINE
  5
50
  8
FUTO
 10
20929.023074407462
 20
-133.11548777214369
 30
0.0
 11
23979.023074407462
 21
-133.11548777214369
 31
0.0
  0
LINE
  5
51
  8
FUTO
 10
20929.023074407462
 20
-321.11548777214369
 30
0.0
 11
22442.16815286161
 21
-321.11548777214369
 31
0.0
  0
LINE
  5
52
  8
FUTO
 10
20929.023074407462
 20
-165.11548777214369
 30
0.0
 11
22442.168152861599
 21
-165.11548777214369
 31
0.0
  0
LINE
  5
53
  8
FUTO
 10
20929.023074407462
 20
-121.11548777214369
 30
0.0
 11
22442.16815286161
 21
-121.11548777214369
 31
0.0
  0
LINE
  5
54
  8
FUTO
 10
20944.023074407462
 20
34.884512227856249
 30
0.0
 11
22442.16815286161
 21
34.884512227856249
 31
0.0
  0
DIMENSION
  5
6B
  8
SP
  2
*D8
 10
19946.283464836579
 20
-1296.069111686232
 30
0.0
 11
18246.28346483659
 21
-1206.069111686232
 31
0.0
 70
     0
 13
16546.28346483659
 23
-333.11548777214369
 33
0.0
 14
19946.283464836579
 24
-333.11548777214369
 34
0.0
 50
180.0
1001
ACAD
1000
DSTYLE
1002
{
1070
   287
1070
     0
1070
   287
1070
     0
1070
    40
1040
45.0
1070
   140
1040
3.0
1070
   143
1040
0.03937
1070
   147
1040
0.5
1070
   173
1070
     1
1070
   176
1070
   256
1070
   177
1070
   256
1070
   178
1070
   256
1070
   271
1070
     4
1070
   272
1070
     4
1070
   279
1070
     0
1070
   285
1070
     0
1070
   286
1070
     0
1070
   289
1070
     0
1070
     6
1000
OPEN
1070
     7
1000
OPEN
1002
}
  0
LINE
  5
78
  8
CT
 10
19491.516458075101
 20
2216.8845122278558
 30
0.0
 11
19789.31666497673
 21
2216.8845122278558
 31
0.0
  0
LINE
  5
80
  8
FUTO
 10
19221.516458075101
 20
-133.11548777214369
 30
0.0
 11
19787.050155651272
 21
-133.11548777214369
 31
0.0
  0
ARC
  5
86
  8
KL
 10
17843.28346483659
 20
2069.8845122278558
 30
0.0
 40
1589.0
 50
0.0
 51
90.000000000000028
  0
LINE
  5
89
  8
FUTO
 10
16546.28346483659
 20
-133.11548777214369
 30
0.0
 11
19946.28346483659
 21
-133.11548777214369
 31
0.0
  0
LINE
  5
8A
  8
FUTO
 10
16546.28346483659
 20
46.884512227856249
 30
0.0
 11
19946.28346483659
 21
46.884512227856249
 31
0.0
  0
LINE
  5
8C
  8
FUTO
 10
16546.28346483659
 20
-153.11548777214369
 30
0.0
 11
19946.28346483659
 21
-153.11548777214369
 31
0.0
  0
LINE
  5
8D
  8
FUTO
 10
16546.28346483659
 20
-333.11548777214369
 30
0.0
 11
19946.28346483659
 21
-333.11548777214369
 31
0.0
  0
LINE
  5
8E
  8
FUTO
 10
16546.28346483659
 20
30.884512227856249
 30
0.0
 11
19946.28346483659
 21
30.884512227856249
 31
0.0
  0
LINE
  5
8F
  8
FUTO
 10
16546.28346483659
 20
-117.11548777214369
 30
0.0
 11
19946.28346483659
 21
-117.11548777214369
 31
0.0
  0
LINE
  5
90
  8
FUTO
 10
16546.28346483659
 20
-169.11548777214369
 30
0.0
 11
19946.28346483659
 21
-169.11548777214369
 31
0.0
  0
LINE
  5
91
  8
FUTO
 10
16546.28346483659
 20
-317.11548777214369
 30
0.0
 11
19946.28346483659
 21
-317.11548777214369
 31
0.0
  0
ARC
  5
92
  8
KL
 10
17549.28346483659
 20
2069.8845122278558
 30
0.0
 40
1883.0
 50
275.57161837836708
 51
0.0
  0
ARC
  5
93
  8
FUTO
 10
17549.28346483659
 20
2069.8845122278558
 30
0.0
 40
1903.0
 50
297.31625957685532
 51
311.64437825047548
  0
LINE
  5
A6
  8
FUTO
 10
19946.28346483659
 20
-133.11548777214369
 30
0.0
 11
19946.28346483659
 21
46.884512227856249
 31
0.0
  0
LINE
  5
A7
  8
FUTO
 10
19946.283464836579
 20
-333.11548777214369
 30
0.0
 11
19946.28346483659
 21
-153.11548777214369
 31
0.0
  0
LINE
  5
FF
  8
FUTO
 10
21109.023074407462
 20
2076.8845122278558
 30
0.0
 11
21109.023074407462
 21
2056.8845122278558
 31
0.0
  0
LINE
  5
100
  8
FUTO
 10
20929.023074407462
 20
2076.8845122278558
 30
0.0
 11
20929.023074407462
 21
46.884512227856249
 31
0.0
  0
LINE
  5
101
  8
SL
 10
20872.823074407461
 20
2591.8845122278558
 30
0.0
 11
20872.823074407461
 21
241.88451222785619
 31
0.0
  0
LINE
  5
102
  8
SL
 10
20742.823074407461
 20
2591.8845122278558
 30
0.0
 11
20742.823074407461
 21
241.88451222785619
 31
0.0
  0
LINE
  5
103
  8
FUTO
 10
20625.023074407462
 20
2696.8845122278558
 30
0.0
 11
20625.023074407462
 21
146.88451222785619
 31
0.0
  0
LINE
  5
104
  8
FUTO
 10
16555.283464836579
 20
46.884512227856249
 30
0.0
 11
16555.283464836579
 21
2129.5470693228472
 31
0.0
  0
LINE
  5
105
  8
FUTO
 10
16546.28346483659
 20
-133.11548777214369
 30
0.0
 11
16546.28346483659
 21
2128.9451427383301
 31
0.0
  0
ARC
  5
10A
  8
KL
 10
17818.783464836579
 20
2339.3845122278558
 30
0.0
 40
1319.5
 50
88.936091497372161
 51
180.0
  0
ARC
  5
10B
  8
FUTO
 10
17818.783464836579
 20
2339.3845122278558
 30
0.0
 40
1339.5
 50
95.247147065838774
 51
180.0
  0
LINE
  5
10C
  8
CT
 10
17696.28346483659
 20
536.88451222785625
 30
0.0
 11
17696.28346483659
 21
3813.9876424348472
 31
0.0
  0
LINE
  5
10D
  8
CT
 10
17696.28346483659
 20
-323.11863155437447
 30
0.0
 11
17696.28346483659
 21
3551.9603729415389
 31
0.0
  0
LINE
  5
10E
  8
KL
 10
18855.283464836579
 20
719.80870526233218
 30
0.0
 11
18855.283464836579
 21
1240.0648965148939
 31
0.0
  0
ARC
  5
10F
  8
FUTO
 10
17843.28346483659
 20
2069.8845122278558
 30
0.0
 40
1609.0
 50
5.5638312990269281
 51
95.241914654673977
  0
LINE
  5
110
  8
CT
 10
19546.283464836579
 20
1030.0996009597029
 30
0.0
 11
19546.28346483659
 21
-333.11548777214369
 31
0.0
  0
LINE
  5
111
  8
FUTO
 10
18837.28346483659
 20
46.884512227856249
 30
0.0
 11
18837.28346483659
 21
628.05174698576684
 31
0.0
  0
LINE
  5
112
  8
FUTO
 10
18846.28346483659
 20
-133.11548777214369
 30
0.0
 11
18846.28346483659
 21
620.46990245323366
 31
0.0
  0
LINE
  5
127
  8
KL
 10
18846.28346483659
 20
695.40802212784899
 30
0.0
 11
18881.638803895908
 21
660.05268306852213
 31
0.0
  0
LINE
  5
128
  8
KL
 10
18846.28346483659
 20
728.8087052623323
 30
0.0
 11
18899.638803895908
 21
675.45336620300532
 31
0.0
  0
LINE
  5
129
  8
KL
 10
18846.28346483659
 20
712.05026455388179
 30
0.0
 11
18890.638803895908
 21
667.69492549455572
 31
0.0
  0
LINE
  5
156
  8
KL
 10
18899.638803895908
 20
675.45336620300532
 30
0.0
 11
18881.638803895908
 21
660.05268306852213
 31
0.0
  0
LINE
  5
157
  8
FUTO
 10
18496.28346483659
 20
-133.11548777214281
 30
0.0
 11
18496.28346483659
 21
61.09655870556707
 31
0.0
  0
LINE
  5
15F
  8
CT
 10
16679.81078560977
 20
-45.507099627939162
 30
0.0
 11
16679.81078560977
 21
-236.815493117796
 31
0.0
  0
LINE
  5
160
  8
FUTO
 10
16896.28346483659
 20
-133.11548777214369
 30
0.0
 11
16896.28346483659
 21
61.096558705566167
 31
0.0
  0
LINE
  5
162
  8
SP
 10
16639.81078560977
 20
-133.11548777214369
 30
0.0
 11
16639.81078560977
 21
-153.11548777214369
 31
0.0
  0
LINE
  5
163
  8
SP
 10
16719.81078560977
 20
-133.11548777214369
 30
0.0
 11
16719.81078560977
 21
-153.11548777214369
 31
0.0
  0
DIMENSION
  5
164
  8
SP
  2
*D9
 10
15957.17761454117
 20
-333.11548777214352
 30
0.0
 11
15867.17761454117
 21
-693.11548777214102
 31
0.0
 70
     0
 13
16580.25079542274
 23
-153.11548777214369
 33
0.0
 14
16580.25079542274
 24
-333.11548777214369
 34
0.0
 50
90.0
1001
ACAD
1000
DSTYLE
1002
{
1070
   287
1070
     0
1070
   287
1070
     0
1070
    40
1040
45.0
1070
   140
1040
3.0
1070
   143
1040
0.03937
1070
   147
1040
0.5
1070
   173
1070
     1
1070
   176
1070
   256
1070
   177
1070
   256
1070
   178
1070
   256
1070
   271
1070
     4
1070
   272
1070
     4
1070
   279
1070
     0
1070
   285
1070
     0
1070
   286
1070
     0
1070
   289
1070
     0
1070
     6
1000
DOT
1070
     7
1000
OPEN
1002
}
  0
DIMENSION
  5
17B
  8
SP
  2
*D16
 10
15957.17761454117
 20
-153.1154877721435
 30
0.0
 11
15735.69322112177
 21
-157.31974656557651
 31
0.0
 70
   128
  1
(<>)
 13
16580.25079542274
 23
-133.11548777214369
 33
0.0
 14
16580.25079542274
 24
-153.11548777214369
 34
0.0
 50
90.0
1001
ACAD
1000
DSTYLE
1002
{
1070
   140
1040
3.0
1070
   272
1070
     4
1070
    40
1040
45.0
1070
   173
1070
     1
1070
   147
1040
0.5
1070
   271
1070
     4
1070
   178
1070
   256
1070
   177
1070
   256
1070
   176
1070
   256
1070
     7
1000
_DOT
1070
     6
1000
_OPEN
1070
     5
1000

1070
   285
1070
     0
1070
   286
1070
     0
1070
   143
1040
0.03937
1002
}
  0
LINE
  5
18A
  8
FUTO
 10
16546.28346483659
 20
-333.11548777214369
 30
0.0
 11
16546.28346483659
 21
-153.11548777214369
 31
0.0
  0
ARC
  5
19A
  8
FUTO
 10
20912.023074407462
 20
-110.0401181544584
 30
0.0
 40
10.0
 50
275.0
 51
0.0
  0
LINE
  5
19B
  8
FUTO
 10
20929.023074407462
 20
46.884512227856249
 30
0.0
 11
20929.023074407462
 21
-133.11548777214369
 31
0.0
  0
ARC
  5
1A0
  8
FUTO
 10
20912.023074407462
 20
-176.19085738982901
 30
0.0
 40
10.0
 50
0.0
 51
85.000000000000014
  0
LINE
  5
1A1
  8
FUTO
 10
20854.023074407462
 20
-130.19248047149171
 30
0.0
 11
20854.023074407462
 21
-133.11548777214369
 31
0.0
  0
ARC
  5
1A2
  8
FUTO
 10
20859.523074407462
 20
-130.1924804714908
 30
0.0
 40
5.5
 50
95.000000000000057
 51
180.00000000000051
  0
LINE
  5
1A3
  8
FUTO
 10
20854.023074407462
 20
-156.03849507279659
 30
0.0
 11
20854.023074407462
 21
-153.11548777214369
 31
0.0
  0
ARC
  5
1A4
  8
FUTO
 10
20859.523074407462
 20
-156.03849507279659
 30
0.0
 40
5.5
 50
180.0
 51
265.0
  0
LINE
  5
1A5
  8
FUTO
 10
20929.023074407462
 20
-133.11548777214369
 30
0.0
 11
20854.023074407462
 21
-133.11548777214369
 31
0.0
  0
LINE
  5
1A6
  8
FUTO
 10
20912.894631834941
 20
-120.0020651353761
 30
0.0
 11
20859.043717822351
 21
-124.71340963198691
 31
0.0
  0
LINE
  5
1A7
  8
FUTO
 10
20912.894631834941
 20
-166.2289104089113
 30
0.0
 11
20859.043717822351
 21
-161.51756591230051
 31
0.0
  0
LINE
  5
1A8
  8
FUTO
 10
20929.023074407462
 20
-153.11548777214369
 30
0.0
 11
20854.023074407462
 21
-153.11548777214369
 31
0.0
  0
ARC
  5
1A9
  8
FUTO
 10
20912.023074407462
 20
-310.04011815445841
 30
0.0
 40
10.0
 50
275.0
 51
0.0
  0
LINE
  5
1AA
  8
FUTO
 10
20854.023074407462
 20
-330.19248047149171
 30
0.0
 11
20854.023074407462
 21
-333.11548777214369
 31
0.0
  0
ARC
  5
1AB
  8
FUTO
 10
20859.523074407462
 20
-330.1924804714908
 30
0.0
 40
5.5
 50
95.000000000000057
 51
180.00000000000051
  0
LINE
  5
1AC
  8
FUTO
 10
20929.023074407462
 20
-333.11548777214369
 30
0.0
 11
20854.023074407462
 21
-333.11548777214369
 31
0.0
  0
LINE
  5
1AD
  8
FUTO
 10
20912.894631834941
 20
-320.00206513537609
 30
0.0
 11
20859.043717822351
 21
-324.71340963198679
 31
0.0
  0
LINE
  5
1AE
  8
FUTO
 10
20929.023074407462
 20
-153.11548777214369
 30
0.0
 11
20929.023074407462
 21
-333.11548777214369
 31
0.0
  0
LINE
  5
1AF
  8
FUTO
 10
20922.023074407462
 20
-176.19085738982901
 30
0.0
 11
20922.023074407462
 21
-310.04011815445841
 31
0.0
  0
LINE
  5
1B0
  8
CT
 10
21001.419382414049
 20
396.88451222784619
 30
0.0
 11
20527.215025492791
 21
396.88451222784619
 31
0.0
  0
LINE
  5
1B1
  8
SL
 10
20872.823074407461
 20
241.88451222785619
 30
0.0
 11
20742.823074407461
 21
241.88451222785619
 31
0.0
  0
LINE
  5
1B2
  8
FUTO
 10
20905.77210856997
 20
146.88451222785619
 30
0.0
 11
20625.023074407462
 21
146.88451222785619
 31
0.0
  0
ARC
  5
1B3
  8
FUTO
 10
20912.023074407462
 20
23.809142610170959
 30
0.0
 40
10.0
 50
0.0
 51
85.000000000000014
  0
LINE
  5
1B4
  8
FUTO
 10
20854.023074407462
 20
43.96150492720335
 30
0.0
 11
20854.023074407462
 21
46.884512227856249
 31
0.0
  0
ARC
  5
1B5
  8
FUTO
 10
20859.523074407462
 20
43.96150492720335
 30
0.0
 40
5.5
 50
180.0
 51
265.0
  0
LINE
  5
1B6
  8
FUTO
 10
20912.894631834941
 20
33.771089591088639
 30
0.0
 11
20859.043717822351
 21
38.482434087699403
 31
0.0
  0
LINE
  5
1B7
  8
FUTO
 10
20929.023074407462
 20
46.884512227856249
 30
0.0
 11
20854.023074407462
 21
46.884512227856249
 31
0.0
  0
LINE
  5
1B8
  8
FUTO
 10
20922.023074407462
 20
23.809142610170959
 30
0.0
 11
20922.023074407462
 21
-110.0401181544584
 31
0.0
  0
LINE
  5
1B9
  8
FUTO
 10
20905.77210856997
 20
268.406228187956
 30
0.0
 11
20905.77210856997
 21
146.88451222785619
 31
0.0
  0
LINE
  5
1C7
  8
KL
 10
16421.28346483659
 20
68.884512227858067
 30
0.0
 11
17732.103744998381
 21
195.7805276097242
 31
0.0
  0
LINE
  5
1C8
  8
FUTO
 10
16496.283464836579
 20
56.051508407806978
 30
0.0
 11
16907.142380859801
 21
95.825350876145436
 31
0.0
  0
LINE
  5
1CD
  8
CT
 10
16351.699572416021
 20
2216.8845122278558
 30
0.0
 11
17896.28346483659
 21
2216.8845122278558
 31
0.0
  0
LINE
  5
1CE
  8
FUTO
 10
16435.260689162569
 20
2292.2025318590509
 30
0.0
 11
17216.837013967939
 21
2239.9301354447812
 31
0.0
  0
LINE
  5
1CF
  8
FUTO
 10
16436.461858893541
 20
2310.1624091213648
 30
0.0
 11
17201.19514427126
 21
2259.0164875066021
 31
0.0
  0
LINE
  5
1D0
  8
FUTO
 10
16435.861274028051
 20
2301.1824704902078
 30
0.0
 11
17217.353404508209
 21
2248.9157050540061
 31
0.0
  0
ARC
  5
1D3
  8
KL
 10
17573.783464836579
 20
2339.3845122278558
 30
0.0
 40
1074.5
 50
180.0
 51
213.15191494409041
  0
INSERT
  5
1E1
  8
FUTO
  2
右回転矢印
 10
17907.42761776565
 20
3124.6598025571652
 30
0.0
 41
40.0
 42
40.0
 43
40.0
 50
0.9969545352170786
  0
LINE
  5
1F0
  8
FUTO
 10
18846.28346483659
 20
2225.8845122278558
 30
0.0
 11
18846.283464836579
 21
3328.0069228064149
 31
0.0
  0
LINE
  5
1F1
  8
FUTO
 10
18837.28346483659
 20
2225.8845122278558
 30
0.0
 11
18837.28346483659
 21
3335.1295477842109
 31
0.0
  0
LINE
  5
1F3
  8
KL
 10
17896.28346483659
 20
2216.8845122278558
 30
0.0
 11
18332.757227706359
 21
2216.8845122278558
 31
0.0
  0
LINE
  5
1F4
  8
KL
 10
17896.28346483659
 20
2225.8845122278558
 30
0.0
 11
18324.92029177821
 21
2225.8845122278549
 31
0.0
  0
LINE
  5
1F5
  8
KL
 10
17896.28346483659
 20
2207.8845122278558
 30
0.0
 11
18340.59416363452
 21
2207.8845122278558
 31
0.0
  0
LINE
  5
21D
  8
FUTO
 10
19491.516458075101
 20
2225.8845122278558
 30
0.0
 11
19491.516458075101
 21
2207.8845122278558
 31
0.0
  0
INSERT
  5
226
  8
FUTO
  2
22222F
 10
17696.28346483659
 20
2216.8845122278558
 30
0.0
 41
-1.0
  0
LINE
  5
259
  8
KL
 10
17696.28346483659
 20
2076.8845122278558
 30
0.0
 11
18045.870269314029
 21
2076.8845122278558
 31
0.0
  0
LINE
  5
25C
  8
KL
 10
17896.28346483659
 20
2207.8845122278558
 30
0.0
 11
17896.28346483659
 21
2225.8845122278558
 31
0.0
  0
LINE
  5
25E
  8
KL
 10
17696.28346483659
 20
2076.8845122278558
 30
0.0
 11
17346.696660359139
 21
2076.8845122278558
 31
0.0
  0
LINE
  5
25F
  8
FUTO
 10
17497.329857898589
 20
2239.2107812032418
 30
0.0
 11
17496.12868816761
 21
2221.2509039409279
 31
0.0
  0
CIRCLE
  5
265
  8
KL
 10
16653.674775604712
 20
1738.384512227856
 30
0.0
 40
24.5
  0
LINE
  5
26B
  8
FUTO
 10
17705.28346483659
 20
173.09065169733731
 30
0.0
 11
17734.030867433179
 21
175.8735891429132
 31
0.0
  0
LINE
  5
26C
  8
SP
 10
20625.023074407462
 20
2736.8845122278558
 30
0.0
 11
20625.023074407462
 21
4031.7149582016141
 31
0.0
  0
LINE
  5
289
  8
FUTO
 10
16496.283464836579
 20
2132.8845122278558
 30
0.0
 11
16496.283464836579
 21
56.051508407806978
 31
0.0
  0
LINE
  5
28A
  8
FUTO
 10
16427.28346483659
 20
2132.8845122278558
 30
0.0
 11
16427.28346483659
 21
64.884512227858067
 31
0.0
  0
LINE
  5
28B
  8
FUTO
 10
16421.28346483659
 20
2207.8845122278558
 30
0.0
 11
16421.28346483659
 21
-10.11548777214557
 31
0.0
  0
LINE
  5
28C
  8
FUTO
 10
16546.28346483659
 20
2757.7193063820109
 30
0.0
 11
16546.28346483659
 21
60.891836914404848
 31
0.0
  0
LINE
  5
28D
  8
FUTO
 10
16555.283464836579
 20
2784.1631088352019
 30
0.0
 11
16555.283464836579
 21
61.763096045593556
 31
0.0
  0
LINE
  5
28E
  8
FUTO
 10
16421.283464836131
 20
2207.884512227954
 30
0.0
 11
16421.28346483512
 21
-10.115487772045521
 31
0.0
  0
LINE
  5
28F
  8
FUTO
 10
16421.283464836641
 20
2207.8845122279581
 30
0.0
 11
16421.28346483512
 21
-10.115487772041879
 31
0.0
  0
INSERT
  5
291
  8
FUTO
  2
L-75-6
 10
16339.85386795211
 20
2018.2780508243
 30
0.0
 41
-1.0
 50
270.0
  0
ARC
  5
29E
  8
FUTO
 10
17573.783464836579
 20
2339.3845122278558
 30
0.0
 40
1094.5
 50
182.62900583996429
 51
190.02349966759661
  0
LINE
  5
2A1
  8
CT
 10
16325.000057812251
 20
2216.8845122278558
 30
0.0
 11
16456.998794454688
 21
2216.8845122278558
 31
0.0
  0
LINE
  5
2A2
  8
FUTO
 10
16460.6190167245
 20
2172.652572884419
 30
0.0
 11
16365.922705495879
 21
2172.6525728843781
 31
0.0
  0
ARC
  5
2A3
  8
FUTO
 10
17573.783464836579
 20
2339.3845122278558
 30
0.0
 40
1094.5
 50
180.0
 51
181.68155800307329
  0
LINE
  5
2A4
  8
FUTO
 10
16435.260689162569
 20
2292.2025318590509
 30
0.0
 11
16436.461858893541
 21
2310.1624091213648
 31
0.0
  0
LINE
  5
2A5
  8
KL
 10
16520.10419674786
 20
2128.8845122278558
 30
0.0
 11
16421.28346483659
 21
2128.8845122278558
 31
0.0
  0
LINE
  5
2A6
  8
FUTO
 10
16496.283464836579
 20
2132.8845122278558
 30
0.0
 11
16421.28346483659
 21
2132.8845122278558
 31
0.0
  0
LINE
  5
2A7
  8
FUTO
 10
16495.989421431259
 20
2148.8845122278558
 30
0.0
 11
16495.989421431259
 21
2135.9617302578231
 31
0.0
  0
LINE
  5
2A8
  8
FUTO
 10
20955.023074407462
 20
2331.8845122278558
 30
0.0
 11
20955.023074407462
 21
2136.8845122278558
 31
0.0
  0
LINE
  5
2A9
  8
FUTO
 10
21083.023074407462
 20
2331.8845122278558
 30
0.0
 11
21083.023074407462
 21
2136.8845122278558
 31
0.0
  0
LINE
  5
2AA
  8
CT
 10
21019.023074407462
 20
2380.3761307376858
 30
0.0
 11
21019.023074407462
 21
2065.7273584658169
 31
0.0
  0
LINE
  5
2AB
  8
FUTO
 10
20941.023074407462
 20
2331.8845122278558
 30
0.0
 11
20941.023074407462
 21
2101.8845122278558
 31
0.0
  0
LINE
  5
2AC
  8
FUTO
 10
21097.023074407462
 20
2331.8845122278558
 30
0.0
 11
21097.023074407462
 21
2101.8845122278558
 31
0.0
  0
LINE
  5
2AD
  8
FUTO
 10
21083.023074407462
 20
2331.8845122278558
 30
0.0
 11
21083.023074407462
 21
2136.8845122278558
 31
0.0
  0
LINE
  5
2AE
  8
FUTO
 10
20933.023074407462
 20
2296.8845122278558
 30
0.0
 11
20933.023074407462
 21
2136.8845122278558
 31
0.0
  0
LINE
  5
2AF
  8
FUTO
 10
21105.023074407462
 20
2296.8845122278558
 30
0.0
 11
21105.023074407462
 21
2136.8845122278558
 31
0.0
  0
LINE
  5
2B1
  8
SL
 10
20872.823074407461
 20
521.88451222784624
 30
0.0
 11
20742.823074407461
 21
521.88451222784624
 31
0.0
  0
LINE
  5
2B2
  8
SL
 10
20872.823074407461
 20
1841.884512227856
 30
0.0
 11
20742.823074407461
 21
1841.884512227856
 31
0.0
  0
LINE
  5
2B3
  8
FUTO
 10
20949.023074407462
 20
2086.8845122278558
 30
0.0
 11
21089.023074407462
 21
2086.8845122278558
 31
0.0
  0
LINE
  5
2B4
  8
FUTO
 10
20949.023074407462
 20
2136.8845122278558
 30
0.0
 11
21089.023074407462
 21
2136.8845122278558
 31
0.0
  0
LINE
  5
2B5
  8
FUTO
 10
20929.023074407462
 20
2076.8845122278558
 30
0.0
 11
21109.023074407462
 21
2076.8845122278558
 31
0.0
  0
LINE
  5
2B6
  8
CT
 10
20974.023074407462
 20
2163.6311697052088
 30
0.0
 11
20974.023074407462
 21
2065.7273584658169
 31
0.0
  0
LINE
  5
2B7
  8
FUTO
 10
20949.023074407462
 20
2136.8845122278558
 30
0.0
 11
20949.023074407462
 21
2076.8845122278558
 31
0.0
  0
LINE
  5
2B8
  8
FUTO
 10
20933.023074407462
 20
2136.8845122278558
 30
0.0
 11
20941.023074407462
 21
2116.8845122278558
 31
0.0
  0
LINE
  5
2B9
  8
FUTO
 10
20941.023074407462
 20
2101.8845122278558
 30
0.0
 11
20949.023074407462
 21
2101.8845122278558
 31
0.0
  0
LINE
  5
2BA
  8
FUTO
 10
20933.023074407462
 20
2269.3845122278558
 30
0.0
 11
20872.823074407461
 21
2269.3845122278558
 31
0.0
  0
LINE
  5
2BB
  8
FUTO
 10
20933.023074407462
 20
2164.3845122278558
 30
0.0
 11
20872.823074407461
 21
2164.3845122278558
 31
0.0
  0
LINE
  5
2BC
  8
CT
 10
21064.023074407462
 20
2163.6311697052088
 30
0.0
 11
21064.023074407462
 21
2065.7273584658169
 31
0.0
  0
LINE
  5
2BD
  8
FUTO
 10
21089.023074407462
 20
2136.8845122278558
 30
0.0
 11
21089.023074407462
 21
2076.8845122278558
 31
0.0
  0
LINE
  5
2BE
  8
FUTO
 10
21097.023074407462
 20
2101.8845122278558
 30
0.0
 11
21089.023074407462
 21
2101.8845122278558
 31
0.0
  0
LINE
  5
2BF
  8
FUTO
 10
21105.023074407462
 20
2136.8845122278558
 30
0.0
 11
21097.023074407462
 21
2116.8845122278558
 31
0.0
  0
LINE
  5
2C0
  8
SL
 10
20872.823074407461
 20
2591.8845122278558
 30
0.0
 11
20742.823074407461
 21
2591.8845122278558
 31
0.0
  0
LINE
  5
2C1
  8
FUTO
 10
20905.77210856997
 20
2696.8845122278558
 30
0.0
 11
20625.023074407462
 21
2696.8845122278558
 31
0.0
  0
POINT
  5
2C2
  8
DEFPOINTS
 10
20625.023074407462
 20
2696.8845122278558
 30
0.0
  0
LINE
  5
2C3
  8
FUTO
 10
20905.77210856997
 20
2696.8845122278558
 30
0.0
 11
20905.77210856997
 21
2429.6067587321381
 31
0.0
  0
LINE
  5
2C4
  8
FUTO
 10
20965.023074407462
 20
2349.8845122278558
 30
0.0
 11
21073.023074407462
 21
2349.8845122278558
 31
0.0
  0
LINE
  5
2C5
  8
FUTO
 10
20933.023074407462
 20
2296.8845122278558
 30
0.0
 11
20941.023074407462
 21
2316.8845122278558
 31
0.0
  0
LINE
  5
2C6
  8
FUTO
 10
20941.023074407462
 20
2331.8845122278558
 30
0.0
 11
20955.023074407462
 21
2331.8845122278558
 31
0.0
  0
LINE
  5
2C7
  8
FUTO
 10
20965.023074407462
 20
2349.8845122278558
 30
0.0
 11
20965.023074407462
 21
2331.8845122278558
 31
0.0
  0
LINE
  5
2C8
  8
FUTO
 10
20955.023074407462
 20
2331.8845122278558
 30
0.0
 11
20965.023074407462
 21
2331.8845122278558
 31
0.0
  0
LINE
  5
2C9
  8
FUTO
 10
21073.023074407462
 20
2349.8845122278558
 30
0.0
 11
21073.023074407462
 21
2331.8845122278558
 31
0.0
  0
LINE
  5
2CA
  8
FUTO
 10
21073.023074407462
 20
2331.8845122278558
 30
0.0
 11
21083.023074407462
 21
2331.8845122278558
 31
0.0
  0
LINE
  5
2CB
  8
FUTO
 10
21097.023074407462
 20
2331.8845122278558
 30
0.0
 11
21083.023074407462
 21
2331.8845122278558
 31
0.0
  0
LINE
  5
2CC
  8
FUTO
 10
21105.023074407462
 20
2296.8845122278558
 30
0.0
 11
21097.023074407462
 21
2316.8845122278558
 31
0.0
  0
INSERT
  5
2CD
  8
FUTO
  2
まっすぐの矢印
 10
16048.158795657469
 20
675.31593000618159
 30
0.0
 41
40.0
 42
40.0
 43
40.0
 50
90.0
  0
LINE
  5
2D8
  8
FUTO
 10
16460.6190167245
 20
24.884512227867159
 30
0.0
 11
16365.92270549589
 21
24.88451222790718
 31
0.0
  0
INSERT
  5
2D9
  8
FUTO
  2
L-75-6
 10
16339.85386795211
 20
179.49097363141109
 30
0.0
 50
270.0
  0
LINE
  5
2DA
  8
FUTO
 10
16421.28346483516
 20
64.884512227954474
 30
0.0
 11
16421.28346483512
 21
-10.115487772045521
 31
0.0
  0
LINE
  5
2DB
  8
FUTO
 10
16421.283464835171
 20
64.884512227958112
 30
0.0
 11
16421.28346483512
 21
-10.115487772041879
 31
0.0
  0
LINE
  5
33E
  8
FUTO
 10
16421.283464836331
 20
6505.0253234336406
 30
0.0
 11
19432.28346483659
 21
6505.0253234336406
 31
0.0
  0
LINE
  5
33F
  8
FUTO
 10
16421.283464836379
 20
6430.0253234336406
 30
0.0
 11
19946.28346483659
 21
6430.0253234336406
 31
0.0
  0
LINE
  5
340
  8
FUTO
 10
16896.28346483659
 20
4888.0253234336406
 30
0.0
 11
19946.28346483659
 21
4888.0253234336406
 31
0.0
  0
LINE
  5
341
  8
FUTO
 10
16896.28346483659
 20
4963.0253234336442
 30
0.0
 11
19946.28346483659
 21
4963.0253234336406
 31
0.0
  0
LINE
  5
35D
  8
FUTO
 10
19946.28346483659
 20
4888.0253234336406
 30
0.0
 11
19946.28346483659
 21
4963.0253234336406
 31
0.0
  0
LINE
  5
35E
  8
SL
 10
19771.28346483659
 20
4963.0253234336406
 30
0.0
 11
19771.28346483659
 21
5866.8253234335734
 31
0.0
  0
POINT
  5
388
  8
DEFPOINTS
 10
19946.28346483659
 20
6505.0253234336406
 30
0.0
  0
LINE
  5
3AB
  8
CT
 10
17696.28346483659
 20
4438.2507622028534
 30
0.0
 11
17696.28346483659
 21
8417.6437038676886
 31
0.0
  0
LINE
  5
3AE
  8
FUTO
 10
18846.28346483659
 20
6455.0253234336406
 30
0.0
 11
18846.28346483659
 21
6430.0253234336406
 31
0.0
  0
LINE
  5
44F
  8
FUTO
 10
16896.28346483659
 20
4888.0253234336406
 30
0.0
 11
16896.28346483659
 21
6430.0253234336406
 31
0.0
  0
LINE
  5
450
  8
FUTO
 10
16971.28346483659
 20
4963.0253234336406
 30
0.0
 11
16971.28346483659
 21
6430.0253234336406
 31
0.0
  0
LINE
  5
452
  8
FUTO
 10
18421.28346483659
 20
4963.0253234336406
 30
0.0
 11
18421.28346483659
 21
6430.0253234336406
 31
0.0
  0
LINE
  5
454
  8
FUTO
 10
18496.28346483659
 20
4888.0253234336406
 30
0.0
 11
18496.28346483659
 21
6430.0253234336406
 31
0.0
  0
LINE
  5
546
  8
CT
 10
16200.376753154411
 20
7259.0253234336433
 30
0.0
 11
19635.34845548233
 21
7259.0253234336433
 31
0.0
  0
LINE
  5
547
  8
FUTO
 10
16421.28346483659
 20
8013.025323433646
 30
0.0
 11
19432.28346483659
 21
8013.025323433646
 31
0.0
  0
LINE
  5
548
  8
FUTO
 10
16421.28346483659
 20
8088.025323433646
 30
0.0
 11
18846.28346483659
 21
8088.025323433646
 31
0.0
  0
LINE
  5
568
  8
FUTO
 10
18846.28346483659
 20
8063.0253234336469
 30
0.0
 11
18846.28346483659
 21
8088.025323433646
 31
0.0
  0
DIMENSION
  5
5CF
  8
SP
  2
*D10
 10
24624.212792786489
 20
1216.884512227856
 30
0.0
 11
24624.212792786489
 21
2216.8845122278558
 31
0.0
 70
   128
  1
%%C<>
 13
24130.023074407462
 23
3216.8845122278558
 33
0.0
 14
24130.023074407462
 24
1216.884512227856
 34
0.0
 50
90.0
1001
ACAD
1000
DSTYLE
1002
{
1070
   287
1070
     0
1070
   287
1070
     0
1070
    40
1040
45.0
1070
   140
1040
3.0
1070
   143
1040
0.03937
1070
   147
1040
0.5
1070
   173
1070
     1
1070
   176
1070
   256
1070
   177
1070
   256
1070
   178
1070
   256
1070
   271
1070
     4
1070
   272
1070
     4
1070
   279
1070
     0
1070
   285
1070
     0
1070
   286
1070
     0
1070
   289
1070
     0
1070
     6
1000
OPEN
1070
     7
1000
OPEN
1002
}
  0
LINE
  5
5DE
  8
FUTO
 10
23978.22307440747
 20
46.884512227856249
 30
0.0
 11
23978.223074407459
 21
2216.8845122278558
 31
0.0
  0
LINE
  5
5DF
  8
FUTO
 10
23975.023074407462
 20
46.884512227856249
 30
0.0
 11
23975.023074407462
 21
2216.8845122278558
 31
0.0
  0
LINE
  5
5E0
  8
FUTO
 10
24068.223074407459
 20
46.884512227856249
 30
0.0
 11
24068.223074407459
 21
2207.8845122278558
 31
0.0
  0
LINE
  5
5E5
  8
KL
 10
23987.22307440835
 20
1141.884512227856
 30
0.0
 11
23987.223074408841
 21
3291.8845122278558
 31
0.0
  0
LINE
  5
5E6
  8
FUTO
 10
24130.023074407462
 20
1141.884512227856
 30
0.0
 11
24130.023074407462
 21
3291.8845122278558
 31
0.0
  0
LINE
  5
5E7
  8
FUTO
 10
24124.023074407462
 20
1141.884512227856
 30
0.0
 11
24124.023074407462
 21
3291.8845122278558
 31
0.0
  0
LINE
  5
5EB
  8
FUTO
 10
22471.823074407472
 20
46.884512227856249
 30
0.0
 11
22471.823074407461
 21
2216.8845122278558
 31
0.0
  0
LINE
  5
5EC
  8
FUTO
 10
22475.023074407462
 20
46.884512227856249
 30
0.0
 11
22475.023074407462
 21
2216.8845122278558
 31
0.0
  0
LINE
  5
5ED
  8
FUTO
 10
22381.823074407461
 20
46.884512227856249
 30
0.0
 11
22381.823074407461
 21
2207.8845122278558
 31
0.0
  0
LINE
  5
5EE
  8
FUTO
 10
22359.023074407462
 20
46.884512227856249
 30
0.0
 11
22359.023074407462
 21
2056.8845122278558
 31
0.0
  0
LINE
  5
5F0
  8
CT
 10
23225.023074407462
 20
-360.59184379623179
 30
0.0
 11
23225.023074407462
 21
3924.274729858731
 31
0.0
  0
ARC
  5
614
  8
FUTO
 10
23996.023074407462
 20
-110.0401181544584
 30
0.0
 40
10.0
 50
180.0
 51
265.0
  0
LINE
  5
617
  8
FUTO
 10
23979.023074407462
 20
-133.11548777214369
 30
0.0
 11
23979.023074407462
 21
46.884512227856249
 31
0.0
  0
LINE
  5
618
  8
FUTO
 10
23979.023074407462
 20
-133.11548777214369
 30
0.0
 11
23979.023074407462
 21
46.884512227856249
 31
0.0
  0
LINE
  5
61B
  8
FUTO
 10
23995.15151697999
 20
-120.0020651353761
 30
0.0
 11
24049.002430992579
 21
-124.71340963198691
 31
0.0
  0
LINE
  5
61C
  8
FUTO
 10
23979.023074407462
 20
-133.11548777214369
 30
0.0
 11
24054.023074407462
 21
-133.11548777214369
 31
0.0
  0
LINE
  5
61D
  8
FUTO
 10
23979.023074407462
 20
-153.11548777214369
 30
0.0
 11
24054.023074407462
 21
-153.11548777214369
 31
0.0
  0
LINE
  5
61E
  8
FUTO
 10
23979.023074407462
 20
-153.11548777214369
 30
0.0
 11
24054.023074407462
 21
-153.11548777214369
 31
0.0
  0
LINE
  5
61F
  8
FUTO
 10
23995.15151697999
 20
-166.2289104089113
 30
0.0
 11
24049.002430992579
 21
-161.51756591230051
 31
0.0
  0
LINE
  5
620
  8
FUTO
 10
23995.15151697999
 20
-320.00206513537609
 30
0.0
 11
24049.002430992579
 21
-324.71340963198679
 31
0.0
  0
LINE
  5
621
  8
FUTO
 10
23979.023074407462
 20
-333.11548777214369
 30
0.0
 11
24054.023074407462
 21
-333.11548777214369
 31
0.0
  0
ARC
  5
623
  8
FUTO
 10
23996.023074407462
 20
-176.19085738982901
 30
0.0
 40
10.0
 50
95.0
 51
180.0
  0
ARC
  5
624
  8
FUTO
 10
23996.023074407462
 20
-310.04011815445841
 30
0.0
 40
10.0
 50
180.0
 51
265.0
  0
LINE
  5
625
  8
FUTO
 10
23979.023074407462
 20
-333.11548777214369
 30
0.0
 11
23979.023074407462
 21
-153.11548777214369
 31
0.0
  0
LINE
  5
626
  8
FUTO
 10
23986.023074407462
 20
-310.04011815445841
 30
0.0
 11
23986.023074407462
 21
-176.19085738982901
 31
0.0
  0
LINE
  5
629
  8
FUTO
 10
24054.023074407462
 20
-130.1924804714908
 30
0.0
 11
24054.023074407462
 21
-133.11548777214369
 31
0.0
  0
ARC
  5
62A
  8
FUTO
 10
24048.523074407462
 20
-130.1924804714908
 30
0.0
 40
5.5
 50
0.0
 51
84.999999999999986
  0
LINE
  5
62B
  8
FUTO
 10
24054.023074407462
 20
-156.03849507279571
 30
0.0
 11
24054.023074407462
 21
-153.11548777214369
 31
0.0
  0
ARC
  5
62C
  8
FUTO
 10
24048.523074407462
 20
-156.03849507279659
 30
0.0
 40
5.5
 50
275.0
 51
0.0000000000005598
  0
LINE
  5
62D
  8
FUTO
 10
24054.023074407462
 20
-330.1924804714908
 30
0.0
 11
24054.023074407462
 21
-333.11548777214369
 31
0.0
  0
ARC
  5
62E
  8
FUTO
 10
24048.523074407462
 20
-330.1924804714908
 30
0.0
 40
5.5
 50
0.0
 51
84.999999999999986
  0
LINE
  5
62F
  8
0
 10
23979.023074407462
 20
46.884512227856249
 30
0.0
 11
24054.023074407462
 21
46.884512227856249
 31
0.0
  0
LINE
  5
630
  8
FUTO
 10
23995.15151697999
 20
33.771089591088639
 30
0.0
 11
24049.002430992579
 21
38.482434087699403
 31
0.0
  0
ARC
  5
631
  8
FUTO
 10
23996.023074407462
 20
23.809142610170959
 30
0.0
 40
10.0
 50
95.0
 51
180.0
  0
LINE
  5
632
  8
FUTO
 10
23986.023074407462
 20
-110.0401181544584
 30
0.0
 11
23986.023074407462
 21
23.809142610170959
 31
0.0
  0
LINE
  5
633
  8
FUTO
 10
24054.023074407462
 20
43.961504927204253
 30
0.0
 11
24054.023074407462
 21
46.884512227856249
 31
0.0
  0
ARC
  5
634
  8
FUTO
 10
24048.523074407462
 20
43.96150492720335
 30
0.0
 40
5.5
 50
275.0
 51
0.0000000000005598
  0
LINE
  5
635
  8
KL
 10
23978.223074407459
 20
1216.884512227856
 30
0.0
 11
24130.023074407462
 21
1216.884512227856
 31
0.0
  0
LINE
  5
636
  8
FUTO
 10
23978.223074407459
 20
1210.884512227856
 30
0.0
 11
24068.223074407459
 21
1210.884512227856
 31
0.0
  0
LINE
  5
637
  8
HOSO
 10
23987.223074408372
 20
1216.8845122278669
 30
0.0
 11
23978.223074408372
 21
1216.884512227869
 31
0.0
  0
LINE
  5
638
  8
HOSO
 10
23952.103330800259
 20
1176.884512227856
 30
0.0
 11
24010.30248690549
 21
1176.884512227856
 31
0.0
  0
LINE
  5
639
  8
KL
 10
23978.223074407459
 20
1141.884512227856
 30
0.0
 11
23987.22307440835
 21
1141.884512227856
 31
0.0
  0
LINE
  5
63A
  8
FUTO
 10
24068.223074407459
 20
1210.884512227856
 30
0.0
 11
24124.023074407462
 21
1210.884512227856
 31
0.0
  0
LINE
  5
63B
  8
HOSO
 10
24101.984884967482
 20
1176.884512227856
 30
0.0
 11
24160.184041072702
 21
1176.884512227856
 31
0.0
  0
LINE
  5
63C
  8
FUTO
 10
24124.023074407462
 20
1141.884512227856
 30
0.0
 11
24130.023074407462
 21
1141.884512227856
 31
0.0
  0
LINE
  5
68C
  8
FUTO
 10
23978.223074407459
 20
2216.8845122278558
 30
0.0
 11
23978.223074407459
 21
3658.8845122278558
 31
0.0
  0
LINE
  5
68D
  8
FUTO
 10
23975.023074407462
 20
2216.8845122278558
 30
0.0
 11
23975.023074407462
 21
3658.8845122278549
 31
0.0
  0
LINE
  5
68E
  8
FUTO
 10
24053.223074407459
 20
2207.8845122278558
 30
0.0
 11
24053.223074407459
 21
3658.8845122278449
 31
0.0
  0
LINE
  5
68F
  8
FUTO
 10
22475.023074407462
 20
2216.8845122278558
 30
0.0
 11
22475.023074407462
 21
3658.8845122278549
 31
0.0
  0
LINE
  5
690
  8
FUTO
 10
22471.823074407472
 20
2216.8845122278558
 30
0.0
 11
22471.823074407461
 21
3658.8845122278558
 31
0.0
  0
LINE
  5
691
  8
FUTO
 10
22396.823074407461
 20
2207.8845122278558
 30
0.0
 11
22396.823074407461
 21
3658.8845122278572
 31
0.0
  0
LINE
  5
69A
  8
FUTO
 10
22396.823074407461
 20
2225.8845122278558
 30
0.0
 11
24053.223074407459
 21
2225.8845122278558
 31
0.0
  0
LINE
  5
69B
  8
FUTO
 10
22381.823074407461
 20
2207.8845122278558
 30
0.0
 11
24068.223074407459
 21
2207.8845122278558
 31
0.0
  0
LINE
  5
6A4
  8
FUTO
 10
22204.023074407462
 20
2121.8845122278558
 30
0.0
 11
22204.023074407462
 21
2351.8845122278558
 31
0.0
  0
LINE
  5
6A5
  8
FUTO
 10
22191.023074407462
 20
2121.8845122278558
 30
0.0
 11
22191.023074407462
 21
2351.8845122278558
 31
0.0
  0
LINE
  5
6A6
  8
FUTO
 10
22167.023074407462
 20
2127.8845122278549
 30
0.0
 11
22167.023074407462
 21
2305.8845122278581
 31
0.0
  0
LINE
  5
6A7
  8
CT
 10
22269.023074407462
 20
1986.592803153356
 30
0.0
 11
22269.023074407462
 21
2446.2182139896522
 31
0.0
  0
LINE
  5
6A8
  8
FUTO
 10
22334.023074407462
 20
2121.8845122278558
 30
0.0
 11
22334.023074407462
 21
2351.8845122278558
 31
0.0
  0
LINE
  5
6A9
  8
FUTO
 10
22371.023074407462
 20
2127.8845122278549
 30
0.0
 11
22371.023074407462
 21
2305.8845122278581
 31
0.0
  0
LINE
  5
6AA
  8
FUTO
 10
22347.023074407462
 20
2121.8845122278558
 30
0.0
 11
22347.023074407462
 21
2351.8845122278558
 31
0.0
  0
LINE
  5
6AB
  8
FUTO
 10
22334.023074407462
 20
2121.8845122278558
 30
0.0
 11
22334.023074407462
 21
2351.8845122278558
 31
0.0
  0
LINE
  5
6AF
  8
FUTO
 10
22189.023074407462
 20
2066.8845122278558
 30
0.0
 11
22349.023074407462
 21
2066.8845122278558
 31
0.0
  0
LINE
  5
6B0
  8
FUTO
 10
22189.023074407462
 20
2121.8845122278558
 30
0.0
 11
22349.023074407462
 21
2121.8845122278558
 31
0.0
  0
LINE
  5
6B1
  8
CT
 10
22219.023074407462
 20
2028.5197772947549
 30
0.0
 11
22219.023074407462
 21
2150.5780935585021
 31
0.0
  0
LINE
  5
6B2
  8
FUTO
 10
22189.023074407462
 20
2056.8845122278558
 30
0.0
 11
22189.023074407462
 21
2121.8845122278558
 31
0.0
  0
LINE
  5
6B3
  8
FUTO
 10
22167.023074407462
 20
2127.8845122278558
 30
0.0
 11
22189.023074407462
 21
2104.0511788945219
 31
0.0
  0
LINE
  5
6B6
  8
KL
 10
22371.023074407462
 20
2161.8845122278558
 30
0.0
 11
22464.667114732121
 21
2161.8845122278558
 31
0.0
  0
LINE
  5
6BA
  8
CT
 10
22319.023074407462
 20
2026.5910905817841
 30
0.0
 11
22319.023074407462
 21
2150.5780935585021
 31
0.0
  0
LINE
  5
6BB
  8
FUTO
 10
22349.023074407462
 20
2056.8845122278558
 30
0.0
 11
22349.023074407462
 21
2121.8845122278558
 31
0.0
  0
LINE
  5
6BC
  8
FUTO
 10
22371.023074407462
 20
2127.8845122278558
 30
0.0
 11
22349.023074407462
 21
2104.0511788945219
 31
0.0
  0
LINE
  5
6C2
  8
FUTO
 10
22209.023074407462
 20
2367.8845122278558
 30
0.0
 11
22329.023074407462
 21
2367.8845122278558
 31
0.0
  0
LINE
  5
6C3
  8
FUTO
 10
22209.023074407462
 20
2351.8845122278558
 30
0.0
 11
22209.023074407462
 21
2367.8845122278558
 31
0.0
  0
LINE
  5
6C4
  8
FUTO
 10
22167.023074407462
 20
2305.8845122278558
 30
0.0
 11
22191.023074407462
 21
2331.8845122278558
 31
0.0
  0
LINE
  5
6C5
  8
FUTO
 10
22191.023074407462
 20
2351.8845122278558
 30
0.0
 11
22209.023074407462
 21
2351.8845122278558
 31
0.0
  0
LINE
  5
6C6
  8
KL
 10
22371.023074407462
 20
2271.8845122278558
 30
0.0
 11
22467.11015159931
 21
2271.8845122278558
 31
0.0
  0
LINE
  5
6C7
  8
FUTO
 10
22347.023074407462
 20
2351.8845122278558
 30
0.0
 11
22329.023074407462
 21
2351.8845122278558
 31
0.0
  0
LINE
  5
6C8
  8
FUTO
 10
22329.023074407462
 20
2351.8845122278558
 30
0.0
 11
22329.023074407462
 21
2367.8845122278558
 31
0.0
  0
LINE
  5
6C9
  8
FUTO
 10
22371.023074407462
 20
2305.8845122278558
 30
0.0
 11
22347.023074407462
 21
2331.8845122278558
 31
0.0
  0
LINE
  5
6E2
  8
KL
 10
23978.223074407459
 20
3216.8845122278558
 30
0.0
 11
24130.023074407462
 21
3216.8845122278558
 31
0.0
  0
LINE
  5
6E3
  8
KL
 10
23978.223074407459
 20
3222.8845122278558
 30
0.0
 11
24053.223074407459
 21
3222.8845122278558
 31
0.0
  0
LINE
  5
6E4
  8
HOSO
 10
23987.22307440883
 20
3216.8845122278658
 30
0.0
 11
23978.22307440883
 21
3216.884512227869
 31
0.0
  0
LINE
  5
6E5
  8
HOSO
 10
23944.416700563041
 20
3256.8845122278558
 30
0.0
 11
24015.043827700862
 21
3256.8845122278558
 31
0.0
  0
LINE
  5
6E6
  8
FUTO
 10
24053.223074407459
 20
3222.8845122278558
 30
0.0
 11
24124.023074407462
 21
3222.8845122278558
 31
0.0
  0
LINE
  5
6E7
  8
HOSO
 10
24093.97714696512
 20
3256.8845122278558
 30
0.0
 11
24164.604274102941
 21
3256.8845122278558
 31
0.0
  0
DIMENSION
  5
6F9
  8
SP
  2
*D11
 10
24130.023074407462
 20
3991.7149582016141
 30
0.0
 11
23677.523074407462
 21
4081.7149582016132
 31
0.0
 70
     0
  1
905
 13
23225.023074407462
 23
3875.7552948796042
 33
0.0
 14
24130.023074407462
 24
3291.8845122278558
 34
0.0
1001
ACAD
1000
DSTYLE
1002
{
1070
   287
1070
     0
1070
   287
1070
     0
1070
    40
1040
45.0
1070
   140
1040
3.0
1070
   143
1040
0.03937
1070
   147
1040
0.5
1070
   173
1070
     1
1070
   176
1070
   256
1070
   177
1070
   256
1070
   178
1070
   256
1070
   271
1070
     4
1070
   272
1070
     4
1070
   279
1070
     0
1070
   285
1070
     0
1070
   286
1070
     0
1070
   289
1070
     0
1070
     6
1000
OPEN
1070
     7
1000
OPEN
1002
}
  0
LINE
  5
706
  8
KL
 10
23978.223074407459
 20
3291.8845122278558
 30
0.0
 11
23987.223074408841
 21
3291.8845122278558
 31
0.0
  0
LINE
  5
707
  8
KL
 10
23978.223074407451
 20
3289.8845122278558
 30
0.0
 11
23978.22307440747
 21
3379.8845122278558
 31
0.0
  0
LINE
  5
708
  8
FUTO
 10
24124.023074407462
 20
3291.8845122278558
 30
0.0
 11
24130.023074407462
 21
3291.8845122278558
 31
0.0
  0
INSERT
  5
71C
  8
FUTO
  2
まっすぐの矢印
 10
24296.519362163501
 20
2767.8087633680479
 30
0.0
 41
40.0
 42
40.0
 43
40.0
 50
90.0
  0
DIMENSION
  5
A68
  8
SP
  2
*D6
 10
17696.28346483659
 20
-1000.736214786029
 30
0.0
 11
18821.28346483659
 21
-910.73621478602945
 31
0.0
 70
     0
 13
19946.283464836579
 23
-333.11548777214369
 33
0.0
 14
17696.28346483659
 24
-333.11548777214369
 34
0.0
 50
180.0
1001
ACAD
1000
DSTYLE
1002
{
1070
   140
1040
3.0
1070
    40
1040
45.0
1070
   173
1070
     1
1070
   147
1040
0.5
1070
     7
1000
_OPEN
1070
     6
1000
_OPEN
1002
}
  0
DIMENSION
  5
A75
  8
SP
  2
*D7
 10
16546.28346483659
 20
-1000.736214786029
 30
0.0
 11
17121.283464836579
 21
-910.73621478602945
 31
0.0
 70
     0
 13
17696.28346483659
 23
-333.11548777214369
 33
0.0
 14
16546.28346483659
 24
-333.11548777214369
 34
0.0
 50
180.0
1001
ACAD
1000
DSTYLE
1002
{
1070
   140
1040
3.0
1070
    40
1040
45.0
1070
   173
1070
     1
1070
   147
1040
0.5
1070
     7
1000
_OPEN
1070
     6
1000
_OPEN
1002
}
  0
LINE
  5
AB0
  8
SL
 10
22108.59134018136
 20
2364.087619722186
 30
0.0
 11
21178.412567303141
 21
2364.087619722186
 31
0.0
  0
LINE
  5
AB2
  8
CT
 10
19779.81078560977
 20
-45.507099627939162
 30
0.0
 11
19779.81078560977
 21
-236.815493117796
 31
0.0
  0
LINE
  5
AB3
  8
SP
 10
19819.81078560977
 20
-133.11548777214369
 30
0.0
 11
19819.81078560977
 21
-153.11548777214369
 31
0.0
  0
LINE
  5
AB4
  8
SP
 10
19739.810785609759
 20
-133.11548777214369
 30
0.0
 11
19739.810785609759
 21
-153.11548777214369
 31
0.0
  0
POINT
  5
CAC
  8
DEFPOINTS
  6
BYBLOCK
 62
     0
 10
16896.28346483659
 20
4888.0253234336406
 30
0.0
  0
POINT
  5
CB7
  8
DEFPOINTS
  6
BYBLOCK
 62
     0
 10
16896.28346483659
 20
4888.0253234336406
 30
0.0
  0
LINE
  5
178C
  8
FUTO
 10
19661.283464836579
 20
46.884512227846237
 30
0.0
 11
19896.283464836579
 21
46.884512227846237
 31
0.0
  0
LINE
  5
178D
  8
FUTO
 10
19886.283464836579
 20
116.8845122278462
 30
0.0
 11
19661.283464836579
 21
116.8845122278462
 31
0.0
  0
LINE
  5
178F
  8
FUTO
 10
19196.283464836579
 20
46.884512227846237
 30
0.0
 11
19431.283464836579
 21
46.884512227846237
 31
0.0
  0
LINE
  5
1790
  8
FUTO
 10
19431.283464836579
 20
116.8845122278462
 30
0.0
 11
19206.283464836579
 21
116.8845122278462
 31
0.0
  0
LINE
  5
1791
  8
FUTO
 10
19206.283464836579
 20
116.8845122278462
 30
0.0
 11
19196.283464836579
 21
46.884512227846237
 31
0.0
  0
LINE
  5
1792
  8
FUTO
 10
19661.283464836579
 20
56.884512227846251
 30
0.0
 11
19431.283464836579
 21
56.884512227846251
 31
0.0
  0
LINE
  5
1793
  8
FUTO
 10
19661.283464836579
 20
106.8845122278462
 30
0.0
 11
19431.283464836579
 21
106.8845122278462
 31
0.0
  0
LINE
  5
1794
  8
FUTO
 10
19431.283464836579
 20
116.8845122278462
 30
0.0
 11
19431.283464836579
 21
106.8845122278462
 31
0.0
  0
LINE
  5
1795
  8
FUTO
 10
19431.283464836579
 20
56.884512227846251
 30
0.0
 11
19431.283464836579
 21
46.884512227846237
 31
0.0
  0
LINE
  5
1796
  8
FUTO
 10
19661.283464836579
 20
116.8845122278462
 30
0.0
 11
19661.283464836579
 21
106.8845122278462
 31
0.0
  0
LINE
  5
1797
  8
FUTO
 10
19661.283464836579
 20
56.884512227846251
 30
0.0
 11
19661.283464836579
 21
46.884512227846237
 31
0.0
  0
LINE
  5
1798
  8
FUTO
 10
19789.28346483659
 20
116.8845122278462
 30
0.0
 11
19689.28346483659
 21
116.8845122278462
 31
0.0
  0
LINE
  5
1799
  8
FUTO
 10
19886.283464836579
 20
116.8845122278462
 30
0.0
 11
19896.283464836579
 21
46.884512227846237
 31
0.0
  0
LINE
  5
179B
  8
CT
 10
19647.989879460849
 20
846.88451222784533
 30
0.0
 11
19802.286816980541
 21
846.88451222784533
 31
0.0
  0
LINE
  5
179C
  8
FUTO
 10
19336.28346483659
 20
986.88451222784624
 30
0.0
 11
19726.28346483659
 21
986.88451222784624
 31
0.0
  0
LINE
  5
179D
  8
FUTO
 10
19336.28346483659
 20
721.88451222784533
 30
0.0
 11
19726.28346483659
 21
721.88451222784443
 31
0.0
  0
LINE
  5
179E
  8
FUTO
 10
19390.80433256098
 20
128.69383486037259
 30
0.0
 11
19701.762597112189
 21
128.6938348603735
 31
0.0
  0
LINE
  5
17A0
  8
CT
 10
19208.824500646821
 20
396.88451222784619
 30
0.0
 11
19889.560687029611
 21
396.88451222784619
 31
0.0
  0
ARC
  5
17A1
  8
FUTO
 10
19546.28346483659
 20
396.88451222784619
 30
0.0
 40
310.0
 50
300.10230806831191
 51
239.897691931688
  0
LINE
  5
17A3
  8
FUTO
 10
19376.283464836579
 20
137.65488429153169
 30
0.0
 11
19376.283464836579
 21
116.88451222784531
 31
0.0
  0
LINE
  5
17A4
  8
CT
 10
19317.78346483659
 20
162.0539607174905
 30
0.0
 11
19317.78346483659
 21
70.428397645236146
 31
0.0
  0
LINE
  5
17A5
  8
FUTO
 10
19266.283464836579
 20
263.84316527131517
 30
0.0
 11
19266.28346483659
 21
116.8845122278462
 31
0.0
  0
LINE
  5
17A6
  8
FUTO
 10
19266.28346483659
 20
116.8845122278462
 30
0.0
 11
19376.283464836579
 21
116.8845122278462
 31
0.0
  0
LINE
  5
17A7
  8
FUTO
 10
19266.28346483659
 20
146.88451222784531
 30
0.0
 11
19362.98043703835
 21
146.88451222784531
 31
0.0
  0
LINE
  5
17A8
  8
FUTO
 10
19316.28346483659
 20
966.88451222784624
 30
0.0
 11
19316.28346483659
 21
741.88451222784533
 31
0.0
  0
ARC
  5
17A9
  8
FUTO
 10
19336.28346483659
 20
741.88451222784533
 30
0.0
 40
20.0
 50
180.0
 51
270.0
  0
ARC
  5
17AA
  8
FUTO
 10
19336.28346483659
 20
966.88451222784624
 30
0.0
 40
20.0
 50
90.0
 51
180.0
  0
LINE
  5
17AB
  8
FUTO
 10
19826.28346483659
 20
263.84316527129971
 30
0.0
 11
19826.28346483659
 21
116.88451222784531
 31
0.0
  0
LINE
  5
17AC
  8
FUTO
 10
19716.283464836579
 20
137.65488429153169
 30
0.0
 11
19716.283464836579
 21
116.88451222784531
 31
0.0
  0
LINE
  5
17AD
  8
CT
 10
19774.78346483659
 20
162.0539607174905
 30
0.0
 11
19774.78346483659
 21
74.593195966702297
 31
0.0
  0
LINE
  5
17AE
  8
FUTO
 10
19716.283464836579
 20
116.88451222784531
 30
0.0
 11
19826.28346483659
 21
116.88451222784531
 31
0.0
  0
LINE
  5
17AF
  8
FUTO
 10
19729.586492634819
 20
146.88451222784531
 30
0.0
 11
19826.28346483659
 21
146.88451222784531
 31
0.0
  0
LINE
  5
17B0
  8
FUTO
 10
19746.28346483659
 20
966.88451222784624
 30
0.0
 11
19746.28346483659
 21
741.88451222784443
 31
0.0
  0
ARC
  5
17B1
  8
FUTO
 10
19726.28346483659
 20
741.88451222784443
 30
0.0
 40
20.0
 50
270.0
 51
0.000000000000007
  0
ARC
  5
17B2
  8
FUTO
 10
19726.28346483659
 20
966.88451222784624
 30
0.0
 40
20.0
 50
0.000000000000007
 51
90.0
  0
CIRCLE
  5
17B5
  8
SL
 10
19546.28346483659
 20
396.88451222784619
 30
0.0
 40
177.5
  0
CIRCLE
  5
17B6
  8
SL
 10
17696.28346483659
 20
2216.8845122278558
 30
0.0
 40
315.0
  0
ARC
  5
17B9
  8
FUTO
 10
17696.28346483659
 20
2216.8845122278558
 30
0.0
 40
480.0
 50
41.048392050067427
 51
229.88830282815721
  0
ARC
  5
17BA
  8
FUTO
 10
19546.28346483659
 20
396.88451222784619
 30
0.0
 40
280.0
 50
229.88830282815721
 51
41.048392050067349
  0
DIMENSION
  5
1B16
  8
SP
  2
*D12
 10
23225.023074407462
 20
-1006.1929080403891
 30
0.0
 11
22039.523074407462
 21
-916.19290804038974
 31
0.0
 70
     0
 13
20854.023074407462
 23
-333.11548777214381
 33
0.0
 14
23225.023074407462
 24
-333.11548777214392
 34
0.0
1001
ACAD
1000
DSTYLE
1002
{
1070
   287
1070
     3
1070
    40
1040
45.0
1070
   140
1040
3.0
1070
   147
1040
0.5
1070
   173
1070
     1
1070
   279
1070
     0
1070
     6
1000
OPEN
1070
     7
1000
OPEN
1002
}
  0
DIMENSION
  5
1B22
  8
SP
  2
*D13
 10
24054.023074407462
 20
-1006.1929080403891
 30
0.0
 11
23639.523074407462
 21
-916.19290804038974
 31
0.0
 70
     0
 13
23225.023074407462
 23
-333.11548777214392
 33
0.0
 14
24054.023074407462
 24
-333.11548777214381
 34
0.0
1001
ACAD
1000
DSTYLE
1002
{
1070
   287
1070
     4
1070
    40
1040
45.0
1070
    75
1070
     1
1070
   140
1040
3.0
1070
   147
1040
0.5
1070
   173
1070
     1
1070
   279
1070
     1
1070
     6
1000
OPEN
1070
     7
1000
OPEN
1002
}
  0
DIMENSION
  5
1B2F
  8
SP
  2
*D14
 10
20854.023074407462
 20
-1298.3152082932861
 30
0.0
 11
22454.023074407462
 21
-1208.3152082932861
 31
0.0
 70
     0
 13
24054.023074407462
 23
-1006.1929080403891
 33
0.0
 14
20854.023074407462
 24
-1006.1929080403891
 34
0.0
1001
ACAD
1000
DSTYLE
1002
{
1070
   287
1070
     3
1070
    40
1040
45.0
1070
   140
1040
3.0
1070
   147
1040
0.5
1070
   173
1070
     1
1070
   279
1070
     0
1070
     6
1000
OPEN
1070
     7
1000
OPEN
1002
}
  0
LINE
  5
1BAD
  8
FUTO
 10
22464.023074407462
 20
-310.04011815445841
 30
0.0
 11
22464.023074407462
 21
-176.19085738982901
 31
0.0
  0
LINE
  5
1BAE
  8
FUTO
 10
22471.023074407462
 20
-333.11548777214369
 30
0.0
 11
22471.023074407462
 21
-153.11548777214369
 31
0.0
  0
ARC
  5
1BAF
  8
FUTO
 10
22401.523074407462
 20
-330.1924804714908
 30
0.0
 40
5.5
 50
95.000000000000014
 51
180.0
  0
LINE
  5
1BB0
  8
FUTO
 10
22396.023074407462
 20
-330.1924804714908
 30
0.0
 11
22396.023074407462
 21
-333.11548777214369
 31
0.0
  0
ARC
  5
1BB1
  8
FUTO
 10
22454.023074407462
 20
-310.04011815445841
 30
0.0
 40
10.0
 50
275.0
 51
0.0
  0
LINE
  5
1BB2
  8
FUTO
 10
22471.023074407462
 20
-333.11548777214369
 30
0.0
 11
22396.023074407462
 21
-333.11548777214369
 31
0.0
  0
LINE
  5
1BB3
  8
FUTO
 10
22454.894631834941
 20
-320.00206513537609
 30
0.0
 11
22401.043717822351
 21
-324.71340963198679
 31
0.0
  0
ARC
  5
1BB4
  8
FUTO
 10
22401.523074407462
 20
-156.03849507279659
 30
0.0
 40
5.5
 50
179.9999999999994
 51
264.99999999999989
  0
LINE
  5
1BB5
  8
FUTO
 10
22396.023074407462
 20
-156.03849507279571
 30
0.0
 11
22396.023074407462
 21
-153.11548777214369
 31
0.0
  0
ARC
  5
1BB6
  8
FUTO
 10
22401.523074407462
 20
-130.1924804714908
 30
0.0
 40
5.5
 50
95.000000000000014
 51
180.0
  0
LINE
  5
1BB7
  8
FUTO
 10
22396.023074407462
 20
-130.1924804714908
 30
0.0
 11
22396.023074407462
 21
-133.11548777214369
 31
0.0
  0
ARC
  5
1BB8
  8
FUTO
 10
22454.023074407462
 20
-176.19085738982901
 30
0.0
 40
10.0
 50
0.0
 51
85.0
  0
LINE
  5
1BBA
  8
FUTO
 10
22454.894631834941
 20
-166.2289104089113
 30
0.0
 11
22401.043717822351
 21
-161.51756591230051
 31
0.0
  0
LINE
  5
1BBB
  8
FUTO
 10
22471.023074407462
 20
-153.11548777214369
 30
0.0
 11
22396.023074407462
 21
-153.11548777214369
 31
0.0
  0
LINE
  5
1BBC
  8
FUTO
 10
22471.023074407462
 20
-153.11548777214369
 30
0.0
 11
22396.023074407462
 21
-153.11548777214369
 31
0.0
  0
LINE
  5
1BBD
  8
FUTO
 10
22471.023074407462
 20
-133.11548777214369
 30
0.0
 11
22396.023074407462
 21
-133.11548777214369
 31
0.0
  0
LINE
  5
1BBE
  8
FUTO
 10
22454.894631834941
 20
-120.0020651353761
 30
0.0
 11
22401.043717822351
 21
-124.71340963198691
 31
0.0
  0
ARC
  5
1BBF
  8
FUTO
 10
22454.023074407462
 20
-110.0401181544584
 30
0.0
 40
10.0
 50
275.0
 51
0.0
  0
LINE
  5
1BC0
  8
FUTO
 10
22396.023074407462
 20
43.961504927204253
 30
0.0
 11
22396.023074407462
 21
46.884512227856249
 31
0.0
  0
LINE
  5
1BC1
  8
FUTO
 10
22471.023074407462
 20
-133.11548777214369
 30
0.0
 11
22471.023074407462
 21
46.884512227856249
 31
0.0
  0
LINE
  5
1BC2
  8
FUTO
 10
22471.023074407462
 20
-133.11548777214369
 30
0.0
 11
22471.023074407462
 21
46.884512227856249
 31
0.0
  0
ARC
  5
1BC5
  8
FUTO
 10
22401.523074407462
 20
43.96150492720335
 30
0.0
 40
5.5
 50
179.9999999999994
 51
264.99999999999989
  0
LINE
  5
1BC6
  8
FUTO
 10
22464.023074407462
 20
-110.0401181544584
 30
0.0
 11
22464.023074407462
 21
23.809142610170959
 31
0.0
  0
ARC
  5
1BC7
  8
FUTO
 10
22454.023074407462
 20
23.809142610170959
 30
0.0
 40
10.0
 50
0.0
 51
85.0
  0
LINE
  5
1BC8
  8
FUTO
 10
22454.894631834941
 20
33.771089591088639
 30
0.0
 11
22401.043717822351
 21
38.482434087699403
 31
0.0
  0
LINE
  5
1BC9
  8
0
 10
22471.023074407462
 20
46.884512227856249
 30
0.0
 11
22396.023074407462
 21
46.884512227856249
 31
0.0
  0
LINE
  5
1BCA
  8
FUTO
 10
22471.023074407462
 20
-121.11548777214369
 30
0.0
 11
23979.023074407462
 21
-121.11548777214369
 31
0.0
  0
LINE
  5
1BCB
  8
FUTO
 10
22471.023074407462
 20
34.884512227856249
 30
0.0
 11
23979.023074407462
 21
34.884512227856249
 31
0.0
  0
LINE
  5
1BCC
  8
FUTO
 10
22471.023074407462
 20
-165.11548777214369
 30
0.0
 11
23979.023074407462
 21
-165.11548777214369
 31
0.0
  0
LINE
  5
1BCD
  8
FUTO
 10
22471.023074407462
 20
-321.11548777214369
 30
0.0
 11
23979.023074407462
 21
-321.11548777214369
 31
0.0
  0
LINE
  5
1BCE
  8
FUTO
 10
22471.023074407462
 20
-333.11548777214369
 30
0.0
 11
23979.023074407462
 21
-333.11548777214369
 31
0.0
  0
LINE
  5
1BCF
  8
FUTO
 10
20929.023074407462
 20
-333.11548777214369
 30
0.0
 11
22442.16815286161
 21
-333.11548777214369
 31
0.0
  0
DIMENSION
  5
1BF2
  8
SP
  2
*D15
 10
23225.023074407462
 20
3991.7149582016141
 30
0.0
 11
21925.023074407462
 21
4081.7149582016132
 31
0.0
 70
     0
 13
20625.023074407462
 23
3991.7149582016141
 33
0.0
 14
23225.023074407462
 24
3991.7149582016141
 34
0.0
1001
ACAD
1000
DSTYLE
1002
{
1070
   287
1070
     3
1070
    40
1040
45.0
1070
   140
1040
3.0
1070
   147
1040
0.5
1070
   173
1070
     1
1070
   279
1070
     0
1070
   341
1005
24
1070
     6
1000
OPEN
1070
     7
1000
OPEN
1002
}
  0
LINE
  5
1C10
  8
FUTO
 10
18846.28346483659
 20
-153.11548777214369
 30
0.0
 11
18846.28346483659
 21
-333.11548777214369
 31
0.0
  0
LINE
  5
1C11
  8
FUTO
 10
18496.28346483659
 20
-153.11548777214369
 30
0.0
 11
18496.28346483659
 21
-333.11548777214369
 31
0.0
  0
LINE
  5
1C21
  8
SL
 10
21178.412567303141
 20
2364.087619722186
 30
0.0
 11
21178.412567303141
 21
2056.8845122278558
 31
0.0
  0
LINE
  5
1C22
  8
SL
 10
22108.59134018136
 20
2364.087619722186
 30
0.0
 11
22108.59134018136
 21
2056.8845122278558
 31
0.0
  0
LINE
  5
1C5C
  8
FUTO
 10
17607.283464836579
 20
6201.0253234336433
 30
0.0
 11
17581.283464836579
 21
6225.0253234336433
 31
0.0
  0
LINE
  5
1C5D
  8
FUTO
 10
17785.28346483659
 20
6201.0253234336433
 30
0.0
 11
17809.116798169918
 21
6223.0253234336451
 31
0.0
  0
LINE
  5
1C61
  8
FUTO
 10
17216.28346483659
 20
4659.0253234336469
 30
0.0
 11
19826.28346483659
 21
4659.0253234336442
 31
0.0
  0
LINE
  5
1C62
  8
SL
 10
17321.283464836579
 20
4776.8253234336462
 30
0.0
 11
19723.783464836579
 21
4776.8253234336426
 31
0.0
  0
LINE
  5
1C63
  8
SL
 10
17321.283464836579
 20
4906.8253234336444
 30
0.0
 11
19723.783464836579
 21
4906.8253234336453
 31
0.0
  0
LINE
  5
1C6B
  8
FUTO
 10
17753.783464836579
 20
6201.0253234336433
 30
0.0
 11
17753.783464836579
 21
5139.0253234336433
 31
0.0
  0
LINE
  5
1C6C
  8
FUTO
 10
17638.78346483659
 20
6201.0253234336433
 30
0.0
 11
17638.78346483659
 21
5139.0253234336433
 31
0.0
  0
LINE
  5
1C6D
  8
FUTO
 10
17216.28346483659
 20
4939.7743575961522
 30
0.0
 11
19826.28346483659
 21
4939.7743575961513
 31
0.0
  0
LINE
  5
1C6E
  8
FUTO
 10
17616.28346483659
 20
5139.0253234336433
 30
0.0
 11
17776.28346483659
 21
5139.0253234336433
 31
0.0
  0
LINE
  5
1C6F
  8
FUTO
 10
17616.28346483659
 20
4967.0253234336433
 30
0.0
 11
17776.28346483659
 21
4967.0253234336433
 31
0.0
  0
LINE
  5
1C70
  8
FUTO
 10
17581.283464836579
 20
5117.0253234336442
 30
0.0
 11
17776.28346483659
 21
5117.0253234336442
 31
0.0
  0
LINE
  5
1C71
  8
FUTO
 10
17581.283464836579
 20
5131.0253234336433
 30
0.0
 11
17811.28346483659
 21
5131.0253234336433
 31
0.0
  0
LINE
  5
1C72
  8
FUTO
 10
17581.283464836579
 20
4975.0253234336433
 30
0.0
 11
17811.28346483659
 21
4975.0253234336433
 31
0.0
  0
LINE
  5
1C73
  8
CT
 10
17532.79184632676
 20
5053.0253234336442
 30
0.0
 11
17847.44061859863
 21
5053.0253234336442
 31
0.0
  0
LINE
  5
1C74
  8
FUTO
 10
17581.283464836579
 20
5117.0253234336442
 30
0.0
 11
17811.28346483659
 21
5117.0253234336442
 31
0.0
  0
LINE
  5
1C75
  8
FUTO
 10
17581.283464836579
 20
4989.0253234336442
 30
0.0
 11
17811.28346483659
 21
4989.0253234336442
 31
0.0
  0
LINE
  5
1C76
  8
SL
 10
18071.28346483659
 20
4906.8253234336444
 30
0.0
 11
18071.28346483659
 21
4776.8253234336426
 31
0.0
  0
LINE
  5
1C7A
  8
FUTO
 10
17748.78346483659
 20
4967.0253234336433
 30
0.0
 11
17748.78346483659
 21
4906.8253234336416
 31
0.0
  0
LINE
  5
1C7B
  8
FUTO
 10
17811.28346483659
 20
4975.0253234336433
 30
0.0
 11
17811.28346483659
 21
4983.0253234336433
 31
0.0
  0
LINE
  5
1C7C
  8
FUTO
 10
17776.28346483659
 20
4967.0253234336433
 30
0.0
 11
17796.28346483659
 21
4975.0253234336433
 31
0.0
  0
LINE
  5
1C7F
  8
FUTO
 10
17776.28346483659
 20
5139.0253234336433
 30
0.0
 11
17796.28346483659
 21
5131.0253234336433
 31
0.0
  0
LINE
  5
1C80
  8
FUTO
 10
17811.28346483659
 20
5131.0253234336433
 30
0.0
 11
17811.28346483659
 21
5123.0253234336433
 31
0.0
  0
LINE
  5
1C83
  8
SL
 10
17321.283464836579
 20
4906.8253234336416
 30
0.0
 11
17321.283464836579
 21
4776.8253234336462
 31
0.0
  0
LINE
  5
1C84
  8
FUTO
 10
17563.283464836579
 20
4999.0253234336433
 30
0.0
 11
17563.283464836579
 21
5107.0253234336433
 31
0.0
  0
LINE
  5
1C85
  8
FUTO
 10
17581.283464836579
 20
4989.0253234336442
 30
0.0
 11
17581.283464836579
 21
4999.0253234336433
 31
0.0
  0
LINE
  5
1C86
  8
FUTO
 10
17563.283464836579
 20
4999.0253234336433
 30
0.0
 11
17581.283464836579
 21
4999.0253234336433
 31
0.0
  0
LINE
  5
1C87
  8
FUTO
 10
17581.283464836579
 20
4975.0253234336433
 30
0.0
 11
17581.283464836579
 21
4989.0253234336442
 31
0.0
  0
LINE
  5
1C88
  8
FUTO
 10
17616.28346483659
 20
4967.0253234336433
 30
0.0
 11
17596.28346483659
 21
4975.0253234336433
 31
0.0
  0
LINE
  5
1C89
  8
FUTO
 10
17643.78346483659
 20
4967.0253234336433
 30
0.0
 11
17643.78346483659
 21
4906.8253234336416
 31
0.0
  0
LINE
  5
1C8A
  8
FUTO
 10
17616.28346483659
 20
5139.0253234336433
 30
0.0
 11
17596.28346483659
 21
5131.0253234336433
 31
0.0
  0
LINE
  5
1C8B
  8
FUTO
 10
17581.283464836579
 20
5131.0253234336433
 30
0.0
 11
17581.283464836579
 21
5117.0253234336442
 31
0.0
  0
LINE
  5
1C8C
  8
FUTO
 10
17581.283464836579
 20
5107.0253234336433
 30
0.0
 11
17581.283464836579
 21
5117.0253234336442
 31
0.0
  0
LINE
  5
1C8D
  8
FUTO
 10
17563.283464836579
 20
5107.0253234336433
 30
0.0
 11
17581.283464836579
 21
5107.0253234336433
 31
0.0
  0
LINE
  5
1C8E
  8
FUTO
 10
17216.28346483659
 20
4939.7743575961522
 30
0.0
 11
17216.28346483659
 21
4659.0253234336469
 31
0.0
  0
POINT
  5
1C8F
  8
DEFPOINTS
 10
17216.28346483659
 20
4659.0253234336469
 30
0.0
  0
LINE
  5
1C93
  8
FUTO
 10
17785.28346483659
 20
6201.0253234336433
 30
0.0
 11
17607.283464836579
 21
6201.0253234336451
 31
0.0
  0
LINE
  5
1C9A
  8
FUTO
 10
16621.28346483659
 20
8158.0253234336442
 30
0.0
 11
18771.283464836579
 21
8158.0253234336442
 31
0.0
  0
LINE
  5
1C9B
  8
FUTO
 10
16621.28346483659
 20
8164.0253234336442
 30
0.0
 11
18771.283464836579
 21
8164.025323433646
 31
0.0
  0
LINE
  5
1C9C
  8
KL
 10
16621.28346483659
 20
8021.2253234345353
 30
0.0
 11
18771.283464836579
 21
8021.2253234350273
 31
0.0
  0
LINE
  5
1CA1
  8
HOSO
 10
16656.283464836579
 20
7986.1055798264442
 30
0.0
 11
16656.283464836579
 21
8044.3047359316733
 31
0.0
  0
LINE
  5
1CA2
  8
FUTO
 10
16690.28346483659
 20
8012.2253234336449
 30
0.0
 11
16690.28346483659
 21
8102.225323433644
 31
0.0
  0
LINE
  5
1CA3
  8
KL
 10
16696.283464836579
 20
8012.2253234336449
 30
0.0
 11
16696.283464836579
 21
8164.0253234336442
 31
0.0
  0
LINE
  5
1CA4
  8
KL
 10
16621.28346483659
 20
8012.2253234336449
 30
0.0
 11
16621.28346483659
 21
8021.2253234345326
 31
0.0
  0
LINE
  5
1CA5
  8
HOSO
 10
16696.283464836601
 20
8021.2253234345544
 30
0.0
 11
16696.283464836601
 21
8012.2253234345544
 31
0.0
  0
LINE
  5
1CA6
  8
FUTO
 10
16621.28346483659
 20
8158.025323433646
 30
0.0
 11
16621.28346483659
 21
8164.0253234336442
 31
0.0
  0
LINE
  5
1CA7
  8
HOSO
 10
16656.283464836579
 20
8135.9871339936599
 30
0.0
 11
16656.283464836579
 21
8194.186290098889
 31
0.0
  0
LINE
  5
1CA8
  8
FUTO
 10
16690.28346483659
 20
8102.225323433644
 30
0.0
 11
16690.28346483659
 21
8158.0253234336442
 31
0.0
  0
LINE
  5
1CBE
  8
FUTO
 10
17791.28346483659
 20
6368.0253234336433
 30
0.0
 11
17561.28346483659
 21
6368.0253234336433
 31
0.0
  0
LINE
  5
1CBF
  8
FUTO
 10
17831.28346483659
 20
6381.0253234336433
 30
0.0
 11
17561.28346483659
 21
6381.0253234336433
 31
0.0
  0
LINE
  5
1CC0
  8
FUTO
 10
17785.28346483659
 20
6405.0253234336442
 30
0.0
 11
17607.283464836579
 21
6405.0253234336442
 31
0.0
  0
LINE
  5
1CC1
  8
FUTO
 10
17831.28346483659
 20
6368.0253234336451
 30
0.0
 11
17561.28346483659
 21
6368.0253234336433
 31
0.0
  0
LINE
  5
1CC2
  8
CT
 10
17926.575173911078
 20
6303.0253234336442
 30
0.0
 11
17466.94976307479
 21
6303.0253234336442
 31
0.0
  0
LINE
  5
1CC3
  8
FUTO
 10
17831.28346483659
 20
6225.0253234336451
 30
0.0
 11
17561.28346483659
 21
6225.0253234336433
 31
0.0
  0
LINE
  5
1CC4
  8
FUTO
 10
17831.28346483659
 20
6238.0253234336451
 30
0.0
 11
17561.28346483659
 21
6238.0253234336433
 31
0.0
  0
LINE
  5
1CC5
  8
KL
 10
17751.28346483659
 20
6405.0253234336442
 30
0.0
 11
17751.28346483659
 21
6498.669363758303
 31
0.0
  0
LINE
  5
1CCB
  8
FUTO
 10
17785.28346483659
 20
6405.0253234336451
 30
0.0
 11
17809.116798169918
 21
6383.0253234336433
 31
0.0
  0
LINE
  5
1CCE
  8
KL
 10
17641.28346483659
 20
6405.0253234336442
 30
0.0
 11
17641.28346483659
 21
6501.1124006254913
 31
0.0
  0
LINE
  5
1CCF
  8
FUTO
 10
17545.28346483659
 20
6243.0253234336433
 30
0.0
 11
17545.28346483659
 21
6363.0253234336433
 31
0.0
  0
LINE
  5
1CD0
  8
FUTO
 10
17561.28346483659
 20
6225.0253234336451
 30
0.0
 11
17561.28346483659
 21
6243.0253234336433
 31
0.0
  0
LINE
  5
1CD1
  8
FUTO
 10
17561.28346483659
 20
6243.0253234336433
 30
0.0
 11
17545.28346483659
 21
6243.0253234336433
 31
0.0
  0
LINE
  5
1CD2
  8
FUTO
 10
17607.283464836579
 20
6405.0253234336451
 30
0.0
 11
17581.283464836579
 21
6381.0253234336433
 31
0.0
  0
LINE
  5
1CD3
  8
FUTO
 10
17561.28346483659
 20
6363.0253234336433
 30
0.0
 11
17545.28346483659
 21
6363.0253234336433
 31
0.0
  0
LINE
  5
1CD4
  8
FUTO
 10
17561.28346483659
 20
6381.0253234336433
 30
0.0
 11
17561.28346483659
 21
6363.0253234336433
 31
0.0
  0
LINE
  5
1CE0
  8
HOSO
 10
18736.28346483659
 20
7978.4189495892224
 30
0.0
 11
18736.28346483659
 21
8049.0460767270433
 31
0.0
  0
LINE
  5
1CE1
  8
KL
 10
18702.28346483659
 20
8012.2253234336449
 30
0.0
 11
18702.28346483659
 21
8087.225323433644
 31
0.0
  0
LINE
  5
1CE2
  8
KL
 10
18696.28346483659
 20
8012.2253234336449
 30
0.0
 11
18696.28346483659
 21
8164.0253234336442
 31
0.0
  0
LINE
  5
1CE4
  8
KL
 10
18771.283464836579
 20
8012.2253234336449
 30
0.0
 11
18771.283464836579
 21
8021.2253234350273
 31
0.0
  0
LINE
  5
1CE5
  8
HOSO
 10
18696.283464836601
 20
8021.2253234350092
 30
0.0
 11
18696.283464836601
 21
8012.2253234350119
 31
0.0
  0
LINE
  5
1CE6
  8
FUTO
 10
18771.283464836579
 20
8158.0253234336442
 30
0.0
 11
18771.283464836579
 21
8164.025323433646
 31
0.0
  0
LINE
  5
1CE7
  8
HOSO
 10
18736.28346483659
 20
8127.9793959913013
 30
0.0
 11
18736.28346483659
 21
8198.6065231291232
 31
0.0
  0
LINE
  5
1CE8
  8
FUTO
 10
18702.28346483659
 20
8087.225323433644
 30
0.0
 11
18702.28346483659
 21
8158.0253234336442
 31
0.0
  0
INSERT
  5
1CE9
  8
FUTO
  2
まっすぐの矢印
 10
18247.20771597678
 20
8330.5216111896734
 30
0.0
 41
-40.0
 42
40.0
 43
40.0
 50
180.0
  0
LINE
  5
1D14
  8
FUTO
 10
17829.28346483659
 20
4999.0253234336433
 30
0.0
 11
17829.28346483659
 21
5107.0253234336433
 31
0.0
  0
LINE
  5
1D15
  8
FUTO
 10
17811.28346483659
 20
4975.0253234336433
 30
0.0
 11
17811.28346483659
 21
4989.0253234336442
 31
0.0
  0
LINE
  5
1D16
  8
FUTO
 10
17829.28346483659
 20
4999.0253234336433
 30
0.0
 11
17811.28346483659
 21
4999.0253234336433
 31
0.0
  0
LINE
  5
1D17
  8
FUTO
 10
17811.28346483659
 20
4989.0253234336442
 30
0.0
 11
17811.28346483659
 21
4999.0253234336433
 31
0.0
  0
LINE
  5
1D18
  8
FUTO
 10
17829.28346483659
 20
5107.0253234336433
 30
0.0
 11
17811.28346483659
 21
5107.0253234336433
 31
0.0
  0
LINE
  5
1D19
  8
FUTO
 10
17811.28346483659
 20
5107.0253234336433
 30
0.0
 11
17811.28346483659
 21
5117.0253234336442
 31
0.0
  0
LINE
  5
1D1A
  8
FUTO
 10
17811.28346483659
 20
5131.0253234336433
 30
0.0
 11
17811.28346483659
 21
5117.0253234336442
 31
0.0
  0
LINE
  5
1D1B
  8
FUTO
 10
17847.283464836579
 20
6243.0253234336433
 30
0.0
 11
17847.283464836579
 21
6363.0253234336433
 31
0.0
  0
LINE
  5
1D1C
  8
FUTO
 10
17831.28346483659
 20
6243.0253234336433
 30
0.0
 11
17847.283464836579
 21
6243.0253234336433
 31
0.0
  0
LINE
  5
1D1D
  8
FUTO
 10
17831.28346483659
 20
6225.0253234336451
 30
0.0
 11
17831.28346483659
 21
6243.0253234336433
 31
0.0
  0
LINE
  5
1D1E
  8
FUTO
 10
17831.28346483659
 20
6381.0253234336433
 30
0.0
 11
17831.28346483659
 21
6363.0253234336433
 31
0.0
  0
LINE
  5
1D1F
  8
FUTO
 10
17831.28346483659
 20
6363.0253234336433
 30
0.0
 11
17847.283464836579
 21
6363.0253234336433
 31
0.0
  0
LINE
  5
1D20
  8
FUTO
 10
18045.870269314029
 20
4957.0253234336396
 30
0.0
 11
18045.870269314029
 21
6430.0253234336406
 31
0.0
  0
LINE
  5
1D21
  8
FUTO
 10
17346.696660359139
 20
4957.0253234336396
 30
0.0
 11
17346.696660359139
 21
6430.0253234336406
 31
0.0
  0
LINE
  5
1D22
  8
FUTO
 10
16421.283464836379
 20
6430.0253234336406
 30
0.0
 11
16421.283464835251
 21
8088.0253234336487
 31
0.0
  0
LINE
  5
1D23
  8
FUTO
 10
16421.28346483596
 20
6430.0253234336406
 30
0.0
 11
16421.283464835211
 21
8088.0253234336487
 31
0.0
  0
LINE
  5
1D24
  8
FUTO
 10
16421.28346483659
 20
6430.0253234336406
 30
0.0
 11
16421.28346483659
 21
8088.0253234336487
 31
0.0
  0
LINE
  5
1D25
  8
FUTO
 10
16427.28346483659
 20
6430.0253234336406
 30
0.0
 11
16427.28346483659
 21
8088.0253234336487
 31
0.0
  0
LINE
  5
1D26
  8
FUTO
 10
16496.283464836579
 20
6430.0253234336406
 30
0.0
 11
16496.283464836579
 21
8088.025323433646
 31
0.0
  0
LINE
  5
1D35
  8
CT
 10
19546.283464836579
 20
6026.7391357941988
 30
0.0
 11
19546.28346483659
 21
4663.5240470623521
 31
0.0
  0
LINE
  5
1D3A
  8
SL
 10
19723.783464836579
 20
4906.8253234336462
 30
0.0
 11
19723.783464836579
 21
4776.8253234336426
 31
0.0
  0
LINE
  5
1D3B
  8
FUTO
 10
19826.28346483659
 20
4939.7743575961513
 30
0.0
 11
19826.28346483659
 21
4659.0253234336424
 31
0.0
  0
LINE
  5
2121
  8
CT
 10
20946.323074407461
 20
396.88451222784619
 30
0.0
 11
20578.503074407461
 21
396.88451222784619
 31
0.0
  0
LINE
  5
2132
  8
FUTO
 10
21206.541074407469
 20
121.8845122278444
 30
0.0
 11
21134.970074407462
 21
121.8845122278444
 31
0.0
  0
LINE
  5
2306
  8
FUTO
 10
19833.783464836841
 20
5611.8253234335534
 30
0.0
 11
19833.783464836899
 21
5806.8253234335534
 31
0.0
  0
LINE
  5
2307
  8
FUTO
 10
19276.283464836899
 20
5825.0861934337236
 30
0.0
 11
19276.283464836841
 21
5611.8253234337262
 31
0.0
  0
LINE
  5
2308
  8
FUTO
 10
19833.783464836899
 20
5806.8253234335534
 30
0.0
 11
19276.283464836899
 21
5806.8253234337262
 31
0.0
  0
LINE
  5
2309
  8
FUTO
 10
19316.28346483691
 20
5866.8253234337126
 30
0.0
 11
19776.28346483691
 21
5866.8253234335707
 31
0.0
  0
LINE
  5
230A
  8
FUTO
 10
19276.283464836899
 20
5825.0861934337236
 30
0.0
 11
19316.28346483691
 21
5866.8253234337126
 31
0.0
  0
LINE
  5
230B
  8
FUTO
 10
19833.783464836899
 20
5806.8253234335534
 30
0.0
 11
19776.28346483691
 21
5866.8253234335707
 31
0.0
  0
LINE
  5
230C
  8
CT
 10
19235.96860518364
 20
5346.3253234337408
 30
0.0
 11
19879.04393893262
 21
5346.3253234335407
 31
0.0
  0
LINE
  5
230D
  8
FUTO
 10
19833.783464836841
 20
5611.8253234335534
 30
0.0
 11
19276.283464836841
 21
5611.8253234337262
 31
0.0
  0
LINE
  5
230E
  8
FUTO
 10
19833.78346483667
 20
5063.3253234335534
 30
0.0
 11
19781.7174429759
 21
5063.3253234335698
 31
0.0
  0
LINE
  5
230F
  8
FUTO
 10
19833.783464836641
 20
4963.3253234335534
 30
0.0
 11
19549.283464836641
 21
4963.3253234336398
 31
0.0
  0
LINE
  5
2310
  8
CT
 10
19242.15339986964
 20
5555.8253234337371
 30
0.0
 11
19205.467859869641
 21
5555.8253234337481
 31
0.0
  0
LINE
  5
2311
  8
CT
 10
19242.153399869509
 20
5136.8253234337371
 30
0.0
 11
19205.46785986951
 21
5136.8253234337481
 31
0.0
  0
LINE
  5
2312
  8
FUTO
 10
19503.783464836579
 20
4776.8253234336571
 30
0.0
 11
19503.783464836641
 21
4946.8253234336571
 31
0.0
  0
LINE
  5
2313
  8
FUTO
 10
19588.783464836641
 20
4946.8253234336298
 30
0.0
 11
19588.783464836579
 21
4776.8253234336289
 31
0.0
  0
LINE
  5
2314
  8
FUTO
 10
19593.783464836579
 20
4776.8253234336271
 30
0.0
 11
19593.783464836619
 21
4916.825323433628
 31
0.0
  0
LINE
  5
2315
  8
FUTO
 10
19496.283464836641
 20
4946.8253234336571
 30
0.0
 11
19596.283464836641
 21
4946.825323433628
 31
0.0
  0
LINE
  5
2316
  8
FUTO
 10
19460.783464836641
 20
4956.825323433668
 30
0.0
 11
19631.783464836641
 21
4956.8253234336171
 31
0.0
  0
LINE
  5
2317
  8
FUTO
 10
19458.783464836641
 20
4963.6736984336703
 30
0.0
 11
19458.783464836641
 21
4958.825323433668
 31
0.0
  0
ARC
  5
2318
  8
FUTO
 10
19460.783464836641
 20
4958.825323433668
 30
0.0
 40
2.0
 50
180.0
 51
270.0
  0
LINE
  5
2319
  8
FUTO
 10
19496.283464836641
 20
4946.8253234336571
 30
0.0
 11
19496.283464836641
 21
4956.8253234336571
 31
0.0
  0
LINE
  5
231A
  8
FUTO
 10
19596.283464836641
 20
4946.825323433628
 30
0.0
 11
19596.283464836641
 21
4956.825323433628
 31
0.0
  0
LINE
  5
231B
  8
FUTO
 10
19588.783464836619
 20
4916.8253234336298
 30
0.0
 11
19593.783464836619
 21
4916.825323433628
 31
0.0
  0
LINE
  5
231C
  8
FUTO
 10
19633.78346483663
 20
4963.3253234336171
 30
0.0
 11
19633.78346483663
 21
4958.8253234336171
 31
0.0
  0
ARC
  5
231D
  8
FUTO
 10
19631.783464836641
 20
4958.8253234336171
 30
0.0
 40
2.0
 50
270.0
 51
0.000000000000007
  0
LINE
  5
231E
  8
FUTO
 10
19503.783464836579
 20
4776.8253234336571
 30
0.0
 11
19593.783464836579
 21
4776.8253234336271
 31
0.0
  0
LINE
  5
231F
  8
FUTO
 10
19832.09754183676
 20
5346.3253234335552
 30
0.0
 11
19832.097541836669
 21
5090.8253234335562
 31
0.0
  0
LINE
  5
2320
  8
FUTO
 10
19781.717442975969
 20
5305.8253234335707
 30
0.0
 11
19383.800424777219
 21
5305.8253234336944
 31
0.0
  0
LINE
  5
2321
  8
FUTO
 10
19781.717442975969
 20
5287.4253294335667
 30
0.0
 11
19383.800424777219
 21
5287.4253294336904
 31
0.0
  0
LINE
  5
2322
  8
CT
 10
19598.81933432581
 20
5160.8253234336262
 30
0.0
 11
19455.67452832581
 21
5160.8253234336707
 31
0.0
  0
LINE
  5
2323
  8
FUTO
 10
19836.283464836841
 20
5601.8253234335534
 30
0.0
 11
19836.283464836739
 21
5290.8253234335534
 31
0.0
  0
LINE
  5
2324
  8
FUTO
 10
19832.09754183676
 20
5346.3253234335552
 30
0.0
 11
19832.09754183684
 21
5601.8253234335552
 31
0.0
  0
LINE
  5
2325
  8
FUTO
 10
19832.09754183684
 20
5601.8253234335552
 30
0.0
 11
19825.645679836842
 21
5611.8253234335562
 31
0.0
  0
LINE
  5
2326
  8
FUTO
 10
19836.283464836841
 20
5601.8253234335534
 30
0.0
 11
19829.616798836829
 21
5611.8253234335562
 31
0.0
  0
LINE
  5
2327
  8
FUTO
 10
19836.283464836739
 20
5290.8253234335534
 30
0.0
 11
19832.097541836742
 21
5286.6394004335543
 31
0.0
  0
LINE
  5
2328
  8
FUTO
 10
19383.800424777131
 20
5015.8253234336944
 30
0.0
 11
19781.717442975882
 21
5015.8253234335707
 31
0.0
  0
LINE
  5
2329
  8
FUTO
 10
19383.800424777139
 20
5034.2253474336894
 30
0.0
 11
19781.717442975882
 21
5034.2253474335666
 31
0.0
  0
LINE
  5
232A
  8
FUTO
 10
19833.783464836641
 20
4963.3253234335534
 30
0.0
 11
19833.78346483667
 21
5063.3253234335534
 31
0.0
  0
LINE
  5
232B
  8
FUTO
 10
19828.798512836671
 20
5079.5978954335551
 30
0.0
 11
19817.950131836671
 21
5063.3253234335589
 31
0.0
  0
LINE
  5
232C
  8
FUTO
 10
19832.097541836669
 20
5090.8253234335562
 30
0.0
 11
19814.354921836672
 21
5063.3253234335589
 31
0.0
  0
LINE
  5
232D
  8
FUTO
 10
19822.512069836681
 20
5075.9684154335573
 30
0.0
 11
19830.924480836678
 21
5080.8253234335552
 31
0.0
  0
LINE
  5
232E
  8
FUTO
 10
19383.800424777131
 20
5015.8253234336898
 30
0.0
 11
19383.800424777219
 21
5305.8253234336944
 31
0.0
  0
LINE
  5
232F
  8
FUTO
 10
19781.717442975882
 20
5015.8253234335698
 30
0.0
 11
19781.717442975969
 21
5305.8253234335707
 31
0.0
  0
LINE
  5
2330
  8
FUTO
 10
19258.78346483667
 20
5063.3253234337317
 30
0.0
 11
19383.800424777139
 21
5063.3253234336898
 31
0.0
  0
LINE
  5
2331
  8
FUTO
 10
19258.783464836641
 20
4963.3253234337317
 30
0.0
 11
19543.283464836641
 21
4963.3253234336426
 31
0.0
  0
LINE
  5
2332
  8
FUTO
 10
19258.783464836641
 20
4963.3253234337317
 30
0.0
 11
19258.78346483667
 21
5063.3253234337317
 31
0.0
  0
LINE
  5
2333
  8
FUTO
 10
19260.469387836762
 20
5346.3253234337299
 30
0.0
 11
19260.469387836842
 21
5601.8253234337299
 31
0.0
  0
LINE
  5
2334
  8
FUTO
 10
19256.283464836841
 20
5601.8253234337317
 30
0.0
 11
19256.283464836739
 21
5290.8253234337317
 31
0.0
  0
LINE
  5
2335
  8
FUTO
 10
19260.469387836762
 20
5346.3253234337299
 30
0.0
 11
19260.469387836682
 21
5090.8253234337299
 31
0.0
  0
LINE
  5
2336
  8
FUTO
 10
19260.469387836682
 20
5090.8253234337299
 30
0.0
 11
19278.212007836672
 21
5063.3253234337262
 31
0.0
  0
LINE
  5
2337
  8
FUTO
 10
19270.054859836669
 20
5075.9684154337283
 30
0.0
 11
19261.642448836668
 21
5080.8253234337299
 31
0.0
  0
LINE
  5
2338
  8
FUTO
 10
19263.76841683668
 20
5079.5978954337324
 30
0.0
 11
19274.616797836668
 21
5063.3253234337262
 31
0.0
  0
LINE
  5
2339
  8
FUTO
 10
19256.283464836841
 20
5601.8253234337317
 30
0.0
 11
19262.950130836842
 21
5611.8253234337299
 31
0.0
  0
LINE
  5
233A
  8
FUTO
 10
19260.469387836842
 20
5601.8253234337299
 30
0.0
 11
19266.92124983684
 21
5611.8253234337299
 31
0.0
  0
LINE
  5
233B
  8
FUTO
 10
19196.283464836692
 20
5042.2463898951792
 30
0.0
 11
19196.283464836892
 21
5650.4042569723197
 31
0.0
  0
LINE
  5
233C
  8
FUTO
 10
19196.283464836692
 20
5042.2463898951792
 30
0.0
 11
19258.78346483667
 21
5042.2463898951619
 31
0.0
  0
LINE
  5
233D
  8
FUTO
 10
19196.283464836892
 20
5650.4042569723197
 30
0.0
 11
19276.283464836859
 21
5650.4042569722942
 31
0.0
  0
LINE
  5
233E
  8
FUTO
 10
19896.28346483663
 20
5042.2463898949636
 30
0.0
 11
19896.283464836819
 21
5650.404256972105
 31
0.0
  0
LINE
  5
233F
  8
FUTO
 10
19896.283464836812
 20
5650.404256972105
 30
0.0
 11
19816.283464836852
 21
5650.4042569721269
 31
0.0
  0
LINE
  5
2340
  8
FUTO
 10
19896.28346483663
 20
5042.2463898949636
 30
0.0
 11
19833.78346483667
 21
5042.2463898949836
 31
0.0
  0
LINE
  5
2370
  8
FUTO
 10
20922.823074407439
 20
294.35402922780759
 30
0.0
 11
20922.823074407421
 21
209.50121522780771
 31
0.0
  0
LINE
  5
2371
  8
FUTO
 10
21006.823074407461
 20
396.8845122277898
 30
0.0
 11
21006.823074407399
 21
138.8845122277898
 31
0.0
  0
LINE
  5
2372
  8
FUTO
 10
21006.823074407461
 20
399.8845122277898
 30
0.0
 11
21006.82307440741
 21
166.8845122277898
 31
0.0
  0
LINE
  5
2373
  8
FUTO
 10
21171.823074407432
 20
242.8906172277556
 30
0.0
 11
21171.823074407399
 21
166.88451222775521
 31
0.0
  0
LINE
  5
2374
  8
FUTO
 10
21452.823074407432
 20
246.35654922769291
 30
0.0
 11
21452.82307440741
 21
166.88451222769339
 31
0.0
  0
LINE
  5
2375
  8
FUTO
 10
21577.823074407519
 20
684.38451222766798
 30
0.0
 11
21577.823074407399
 21
126.8845122276679
 31
0.0
  0
LINE
  5
2376
  8
CT
 10
21312.323074407399
 20
97.934396227724392
 30
0.0
 11
21312.32307440753
 21
729.64498632358209
 31
0.0
  0
LINE
  5
2377
  8
FUTO
 10
21832.82307440741
 20
166.88451222761159
 30
0.0
 11
21832.823074407501
 21
626.88451222761159
 31
0.0
  0
LINE
  5
2378
  8
FUTO
 10
21772.823074407519
 20
684.38451222762433
 30
0.0
 11
21772.823074407399
 21
126.8845122276243
 31
0.0
  0
LINE
  5
2379
  8
FUTO
 10
21567.823074407399
 20
126.8355722276692
 30
0.0
 11
21557.323074407399
 21
126.83557222767099
 31
0.0
  0
LINE
  5
237C
  8
FUTO
 10
21187.323074407399
 20
116.8845122277516
 30
0.0
 11
21616.323074407399
 21
116.8845122276588
 31
0.0
  0
ARC
  5
237D
  8
KL
 10
20955.157775407399
 20
169.69194722779949
 30
0.0
 40
10.0
 50
183.0000000000033
 51
225.0000000001105
  0
LINE
  5
237E
  8
FUTO
 10
20945.1714794074
 20
169.16858822780239
 30
0.0
 11
20943.057736407409
 21
209.50121522780219
 31
0.0
  0
LINE
  5
237F
  8
FUTO
 10
20922.823074407421
 20
209.50121522780771
 30
0.0
 11
20976.823074407421
 21
209.50121522779489
 31
0.0
  0
LINE
  5
2380
  8
FUTO
 10
21151.823074407399
 20
146.8845122277589
 30
0.0
 11
21071.823074407399
 21
146.8845122277753
 31
0.0
  0
LINE
  5
2381
  8
FUTO
 10
21067.323074407399
 20
116.88451222777709
 30
0.0
 11
21187.323074407399
 21
116.8845122277516
 31
0.0
  0
LINE
  5
2383
  8
FUTO
 10
21006.823074407421
 20
210.30577122778871
 30
0.0
 11
21171.823074407421
 21
210.30577122775409
 31
0.0
  0
LINE
  5
2384
  8
FUTO
 10
21187.323074407399
 20
116.8845122277516
 30
0.0
 11
21008.323074407399
 21
116.8845122277898
 31
0.0
  0
ARC
  5
238A
  8
FUTO
 10
20975.023244407399
 20
149.82647822779739
 30
0.0
 40
10.0
 50
225.0000000001105
 51
267.99999999999602
  0
LINE
  5
238B
  8
FUTO
 10
21016.82307440741
 20
166.88451222778801
 30
0.0
 11
21016.82307440741
 21
165.0200802277877
 31
0.0
  0
LINE
  5
238C
  8
FUTO
 10
21016.82307440741
 20
166.88451222778801
 30
0.0
 11
21006.82307440741
 21
166.8845122277898
 31
0.0
  0
ARC
  5
238D
  8
FUTO
 10
21072.323074407399
 20
141.8845122277753
 30
0.0
 40
5.0
 50
90.0
 51
180.0
  0
LINE
  5
238E
  8
FUTO
 10
21056.823074407399
 20
126.8355722277783
 30
0.0
 11
21067.323074407399
 21
126.8355722277765
 31
0.0
  0
LINE
  5
238F
  8
FUTO
 10
21026.823074407399
 20
130.65568122778399
 30
0.0
 11
21056.823074407399
 21
126.8355722277783
 31
0.0
  0
LINE
  5
2390
  8
FUTO
 10
21016.82307440741
 20
165.0200802277877
 30
0.0
 11
21026.823074407399
 21
130.65568122778399
 31
0.0
  0
LINE
  5
2391
  8
FUTO
 10
20974.674249407399
 20
139.83257022779699
 30
0.0
 11
21006.823074407399
 21
138.8845122277898
 31
0.0
  0
LINE
  5
2393
  8
FUTO
 10
21067.323074407399
 20
141.88451222777709
 30
0.0
 11
21067.323074407399
 21
116.88451222777709
 31
0.0
  0
LINE
  5
2394
  8
FUTO
 10
21008.323074407399
 20
116.8845122277898
 30
0.0
 11
21008.323074407381
 21
53.644743095829647
 31
0.0
  0
ARC
  5
2398
  8
FUTO
 10
21151.82307440741
 20
166.8845122277589
 30
0.0
 40
20.0
 50
270.0
 51
0.0
  0
LINE
  5
2399
  8
FUTO
 10
21192.323074407399
 20
126.88451222774979
 30
0.0
 11
21312.323074407399
 21
126.8845122277243
 31
0.0
  0
ARC
  5
239B
  8
FUTO
 10
21192.323074407399
 20
121.88451222774979
 30
0.0
 40
5.0
 50
90.0
 51
180.0
  0
LINE
  5
239C
  8
KL
 10
21102.823074407399
 20
150.64488422776679
 30
0.0
 11
21102.823074407399
 21
113.9593442277682
 31
0.0
  0
ARC
  5
239D
  8
FUTO
 10
21472.82307440741
 20
166.88451222768981
 30
0.0
 40
20.0
 50
180.0
 51
270.0
  0
ARC
  5
239E
  8
FUTO
 10
21552.323074407399
 20
141.88451222767159
 30
0.0
 40
5.0
 50
0.0
 51
90.0
  0
LINE
  5
239F
  8
FUTO
 10
21472.823074407399
 20
146.88451222768981
 30
0.0
 11
21552.823074407399
 21
146.88451222767159
 31
0.0
  0
LINE
  5
23A0
  8
FUTO
 10
21437.323074407399
 20
121.884512227697
 30
0.0
 11
21437.323074407399
 21
116.884512227697
 31
0.0
  0
LINE
  5
23A1
  8
FUTO
 10
21557.823074407399
 20
116.88451222767161
 30
0.0
 11
21437.323074407399
 21
116.884512227697
 31
0.0
  0
LINE
  5
23A2
  8
FUTO
 10
21557.323074407399
 20
141.88451222767159
 30
0.0
 11
21557.323074407399
 21
116.88451222767161
 31
0.0
  0
LINE
  5
23A3
  8
FUTO
 10
21521.823074407399
 20
150.64488422767769
 30
0.0
 11
21521.823074407392
 21
113.9593442276791
 31
0.0
  0
ARC
  5
23A4
  8
FUTO
 10
21432.323074407399
 20
121.88451222769891
 30
0.0
 40
5.0
 50
0.0
 51
90.0
  0
LINE
  5
23A5
  8
FUTO
 10
21432.323074407399
 20
126.88451222769881
 30
0.0
 11
21312.323074407399
 21
126.8845122277243
 31
0.0
  0
LINE
  5
23A6
  8
FUTO
 10
20967.952176407391
 20
142.7554112277966
 30
0.0
 11
20948.086707407401
 21
162.62087922780211
 31
0.0
  0
LINE
  5
23A7
  8
FUTO
 10
21791.083944407401
 20
126.8845122276206
 30
0.0
 11
21577.823074407399
 21
126.8845122276679
 31
0.0
  0
LINE
  5
23A8
  8
FUTO
 10
21616.323074407399
 20
116.8845122276588
 30
0.0
 11
21616.323074407381
 21
53.700812880787453
 31
0.0
  0
LINE
  5
23A9
  8
FUTO
 10
21791.083944407401
 20
126.8845122276206
 30
0.0
 11
21832.82307440741
 21
166.88451222761159
 31
0.0
  0
LINE
  5
23AA
  8
FUTO
 10
21577.823074407399
 20
128.10894222766629
 30
0.0
 11
21567.823074407399
 21
126.8355722276692
 31
0.0
  0
LINE
  5
23AB
  8
FUTO
 10
21312.323074407519
 20
682.69858922772335
 30
0.0
 11
21567.823074407519
 21
682.69858922766878
 31
0.0
  0
LINE
  5
23AC
  8
FUTO
 10
21567.823074407519
 20
686.8845122276698
 30
0.0
 11
21256.823074407519
 21
686.88451222773699
 31
0.0
  0
CIRCLE
  5
23AE
  8
FUTO
 10
21126.823074407552
 20
821.88451222776428
 30
0.0
 40
59.0
  0
LINE
  5
23AF
  8
FUTO
 10
21000.223098407529
 20
713.48446122779114
 30
0.0
 11
21000.223098407569
 21
908.35587122779089
 31
0.0
  0
LINE
  5
23B0
  8
FUTO
 10
20981.82307440753
 20
732.82644522779526
 30
0.0
 11
20981.82307440757
 21
917.54976522779452
 31
0.0
  0
LINE
  5
23B1
  8
CT
 10
21126.82307440757
 20
891.46616222776447
 30
0.0
 11
21126.823074407541
 21
748.32135622776423
 31
0.0
  0
LINE
  5
23B2
  8
FUTO
 10
21253.423080407571
 20
908.35587122773643
 30
0.0
 11
21253.42308040752
 21
713.48450322773624
 31
0.0
  0
LINE
  5
23B3
  8
FUTO
 10
21271.82307440757
 20
917.54976522773268
 30
0.0
 11
21271.82307440753
 21
732.82644522773353
 31
0.0
  0
LINE
  5
23B4
  8
FUTO
 10
20929.323074407519
 20
684.38451222780623
 30
0.0
 11
20929.32307440745
 21
399.88451222780623
 31
0.0
  0
LINE
  5
23B5
  8
FUTO
 10
21029.323074407519
 20
684.38451222778428
 30
0.0
 11
21029.323074407461
 21
399.8845122277844
 31
0.0
  0
LINE
  5
23B6
  8
CT
 10
20530.118062200949
 20
396.88451222791173
 30
0.0
 11
21891.494431347481
 21
396.884512227497
 31
0.0
  0
LINE
  5
23B7
  8
KL
 10
20929.32307440745
 20
399.88451222780623
 30
0.0
 11
21029.323074407461
 21
399.8845122277844
 31
0.0
  0
LINE
  5
23B8
  8
FUTO
 10
21006.823074407432
 20
287.28296122779011
 30
0.0
 11
20922.823074407432
 21
287.2829612278083
 31
0.0
  0
LINE
  5
23B9
  8
FUTO
 10
20742.82307440745
 20
354.38451222784619
 30
0.0
 11
20742.823074407472
 21
444.38451222784619
 31
0.0
  0
ARC
  5
23BA
  8
FUTO
 10
20924.823074407479
 20
482.38451222780799
 30
0.0
 40
2.0
 50
90.0
 51
180.0
  0
LINE
  5
23BB
  8
FUTO
 10
20929.323074407479
 20
484.38451222780623
 30
0.0
 11
20924.823074407479
 21
484.38451222780799
 31
0.0
  0
LINE
  5
23BC
  8
FUTO
 10
20882.823074407472
 20
439.38451222781708
 30
0.0
 11
20882.823074407472
 21
444.38451222781708
 31
0.0
  0
LINE
  5
23BD
  8
FUTO
 10
20912.823074407472
 20
446.88451222780981
 30
0.0
 11
20922.823074407472
 21
446.88451222780799
 31
0.0
  0
LINE
  5
23BE
  8
FUTO
 10
20912.823074407439
 20
346.88451222780981
 30
0.0
 11
20922.82307440745
 21
346.88451222780799
 31
0.0
  0
ARC
  5
23BF
  8
FUTO
 10
20924.823074407439
 20
311.38451222780799
 30
0.0
 40
2.0
 50
180.0
 51
270.0
  0
LINE
  5
23C0
  8
FUTO
 10
20929.671449407429
 20
309.38451222780623
 30
0.0
 11
20924.823074407439
 21
309.38451222780799
 31
0.0
  0
LINE
  5
23C1
  8
KL
 10
20927.823074407439
 20
294.35402922780571
 30
0.0
 11
20922.823074407439
 21
294.35402922780759
 31
0.0
  0
LINE
  5
23C3
  8
FUTO
 10
20922.823074407439
 20
311.38451222780799
 30
0.0
 11
20922.823074407479
 21
482.38451222780799
 31
0.0
  0
LINE
  5
23C4
  8
FUTO
 10
20912.823074407439
 20
346.88451222780981
 30
0.0
 11
20912.823074407472
 21
446.88451222780981
 31
0.0
  0
LINE
  5
23C6
  8
FUTO
 10
20742.823074407472
 20
444.38451222784619
 30
0.0
 11
20882.823074407472
 21
444.38451222781708
 31
0.0
  0
LINE
  5
23C7
  8
FUTO
 10
20912.823074407472
 20
439.38451222780981
 30
0.0
 11
20742.823074407472
 21
439.38451222784619
 31
0.0
  0
LINE
  5
23C8
  8
FUTO
 10
20742.82307440745
 20
354.38451222784619
 30
0.0
 11
20912.82307440745
 21
354.38451222780981
 31
0.0
  0
ARC
  5
23CD
  8
FUTO
 10
21457.823074407432
 20
246.35654922769291
 30
0.0
 40
5.0
 50
90.0
 51
180.0
  0
LINE
  5
23CE
  8
FUTO
 10
20929.323074407519
 20
684.38451222780623
 30
0.0
 11
21029.323074407519
 21
684.38451222778428
 31
0.0
  0
LINE
  5
23CF
  8
FUTO
 10
21241.82307440753
 20
731.88451222773892
 30
0.0
 11
21011.82307440753
 21
731.88451222778804
 31
0.0
  0
LINE
  5
23D0
  8
CT
 10
21033.342033407542
 20
821.8845122277844
 30
0.0
 11
21213.265401407549
 21
821.8845122277462
 31
0.0
  0
LINE
  5
23D1
  8
FUTO
 10
21241.82307440753
 20
701.88451222773892
 30
0.0
 11
21011.823074407519
 21
701.88451222778804
 31
0.0
  0
LINE
  5
23D2
  8
FUTO
 10
21312.323074407519
 20
682.69858922772335
 30
0.0
 11
21056.823074407519
 21
682.69858922777803
 31
0.0
  0
LINE
  5
23D3
  8
FUTO
 10
21046.82307440753
 20
691.88451222778065
 30
0.0
 11
21206.82307440753
 21
691.8845122277462
 31
0.0
  0
LINE
  5
23D4
  8
FUTO
 10
21000.223098407529
 20
732.82644522779174
 30
0.0
 11
20981.82307440753
 21
732.82644522779526
 31
0.0
  0
ARC
  5
23D5
  8
FUTO
 10
21011.822952407529
 20
743.48440022778675
 30
0.0
 40
11.599888
 50
179.99945399997631
 51
270.0006100000092
  0
LINE
  5
23D6
  8
FUTO
 10
21041.966166407521
 20
673.11311722778271
 30
0.0
 11
21046.823074407519
 21
681.52552822778034
 31
0.0
  0
LINE
  5
23D7
  8
FUTO
 10
21056.823074407519
 20
682.69858922777803
 30
0.0
 11
21029.323074407519
 21
664.95596922778429
 31
0.0
  0
LINE
  5
23D8
  8
FUTO
 10
21045.595646407521
 20
679.39956022778176
 30
0.0
 11
21029.323074407519
 21
668.55117922778379
 31
0.0
  0
LINE
  5
23D9
  8
FUTO
 10
21046.823074407519
 20
681.52552822778034
 30
0.0
 11
21046.82307440753
 21
701.88451222778076
 31
0.0
  0
ARC
  5
23DA
  8
FUTO
 10
21011.82307440753
 20
713.48446122778739
 30
0.0
 40
11.599949000000001
 50
179.9997550000013
 51
270.0
  0
LINE
  5
23DB
  8
FUTO
 10
21206.82307440753
 20
701.88451222774609
 30
0.0
 11
21206.823074407519
 21
682.69858922774529
 31
0.0
  0
ARC
  5
23DC
  8
FUTO
 10
21241.82310540753
 20
743.48448822773844
 30
0.0
 40
11.599976
 50
269.99984700005228
 51
0.0001069999742915
  0
LINE
  5
23DD
  8
FUTO
 10
21253.423080407531
 20
732.82644522773705
 30
0.0
 11
21271.82307440753
 21
732.82644522773353
 31
0.0
  0
ARC
  5
23DE
  8
FUTO
 10
21241.82307440753
 20
713.48450922773816
 30
0.0
 40
11.600006
 50
270.0
 51
0.0000150000275647
  0
LINE
  5
23DF
  8
KL
 10
21256.823074407519
 20
686.88451222773699
 30
0.0
 11
21252.637151407522
 21
682.69858922773608
 31
0.0
  0
LINE
  5
23E0
  8
FUTO
 10
20981.82307440757
 20
917.54976522779452
 30
0.0
 11
21271.82307440757
 21
917.54976522773268
 31
0.0
  0
LINE
  5
23E1
  8
FUTO
 10
21000.223098407569
 20
908.35587122779089
 30
0.0
 11
21253.423080407571
 21
908.35587122773643
 31
0.0
  0
LINE
  5
23E2
  8
FUTO
 10
21241.823074407581
 20
949.94266322773819
 30
0.0
 11
21011.823074407581
 21
949.94266322778719
 31
0.0
  0
ARC
  5
23E3
  8
FUTO
 10
21011.823074407581
 20
938.34271822778726
 30
0.0
 40
11.599976
 50
90.0
 51
180.0003050000046
  0
LINE
  5
23E4
  8
FUTO
 10
21000.223098407569
 20
917.54976522779089
 30
0.0
 11
21000.223098407569
 21
938.34265722779026
 31
0.0
  0
ARC
  5
23E5
  8
FUTO
 10
21241.82307440757
 20
938.34267322773758
 30
0.0
 40
11.599990999999999
 50
359.99992399997137
 51
90.0
  0
LINE
  5
23E6
  8
FUTO
 10
21253.423080407571
 20
938.34265722773569
 30
0.0
 11
21253.423080407571
 21
917.5497652277362
 31
0.0
  0
LINE
  5
23E8
  8
FUTO
 10
21577.823074407519
 20
684.38451222766798
 30
0.0
 11
21772.823074407519
 21
684.38451222762433
 31
0.0
  0
LINE
  5
23E9
  8
FUTO
 10
21772.823074407519
 20
684.38451222762433
 30
0.0
 11
21832.823074407501
 21
626.88451222761159
 31
0.0
  0
LINE
  5
23EA
  8
FUTO
 10
21567.823074407519
 20
686.8845122276698
 30
0.0
 11
21577.823074407519
 21
680.21784622766688
 31
0.0
  0
LINE
  5
23EB
  8
FUTO
 10
21567.823074407519
 20
682.69858922766878
 30
0.0
 11
21577.823074407519
 21
676.24672722766525
 31
0.0
  0
LINE
  5
2519
  8
SL
 10
19846.28346483659
 20
4963.0253234336406
 30
0.0
 11
19846.28346483659
 21
5650.4042569721187
 31
0.0
  0
LINE
  5
251A
  8
FUTO
 10
19946.28346483659
 20
6430.0253234336406
 30
0.0
 11
19946.28346483659
 21
6505.0253234336406
 31
0.0
  0
LINE
  5
251B
  8
FUTO
 10
19771.28346483659
 20
5866.8253234335734
 30
0.0
 11
19771.28346483659
 21
6430.0253234336406
 31
0.0
  0
LINE
  5
251C
  8
FUTO
 10
19846.28346483659
 20
5650.4042569721187
 30
0.0
 11
19846.28346483659
 21
6430.0253234336406
 31
0.0
  0
LINE
  5
251D
  8
SL
 10
19321.283464836579
 20
4963.0253234336396
 30
0.0
 11
19321.283464836579
 21
5866.8253234335734
 31
0.0
  0
LINE
  5
251E
  8
SL
 10
19246.28346483659
 20
4963.0253234336396
 30
0.0
 11
19246.283464836579
 21
5650.4042569721169
 31
0.0
  0
LINE
  5
251F
  8
FUTO
 10
19246.283464836579
 20
5650.4042569721169
 30
0.0
 11
19246.283464836579
 21
6430.0253234336406
 31
0.0
  0
LINE
  5
2520
  8
FUTO
 10
19321.283464836579
 20
5866.8253234335734
 30
0.0
 11
19321.283464836579
 21
6430.0253234336406
 31
0.0
  0
LINE
  5
2521
  8
FUTO
 10
19432.28346483659
 20
6505.0253234336406
 30
0.0
 11
19432.28346483659
 21
8013.025323433646
 31
0.0
  0
LINE
  5
2522
  8
FUTO
 10
19482.28346483659
 20
6455.0253234336406
 30
0.0
 11
19482.28346483659
 21
8063.0253234336487
 31
0.0
  0
LINE
  5
2523
  8
FUTO
 10
16496.283464836579
 20
8063.0253234336469
 30
0.0
 11
19482.28346483659
 21
8063.0253234336469
 31
0.0
  0
LINE
  5
2524
  8
FUTO
 10
16496.283464836579
 20
6455.0253234336442
 30
0.0
 11
19482.28346483659
 21
6455.0253234336406
 31
0.0
  0
LINE
  5
2525
  8
FUTO
 10
19482.28346483659
 20
6505.0253234336406
 30
0.0
 11
19946.28346483659
 21
6505.0253234336406
 31
0.0
  0
DIMENSION
  5
253A
  8
SP
  2
*D17
 10
16421.283464835211
 20
8700.9214114964452
 30
0.0
 11
17058.783464835891
 21
8790.9214114964452
 31
0.0
 70
     0
 13
17696.28346483659
 23
8417.6437038676886
 33
0.0
 14
16421.283464835211
 24
8088.025323433646
 34
0.0
 50
180.0
1001
ACAD
1000
DSTYLE
1002
{
1070
   287
1070
     3
1070
    40
1040
45.0
1070
   140
1040
3.0
1070
   147
1040
0.5
1070
   173
1070
     1
1070
   279
1070
     0
1070
   341
1005
24
1070
     6
1000
OPEN
1070
     7
1000
OPEN
1002
}
  0
DIMENSION
  5
2555
  8
SP
  2
*D18
 10
15855.28004418246
 20
7259.0253234336433
 30
0.0
 11
15765.28004418246
 21
7711.525323433646
 31
0.0
 70
     0
 13
16621.28346483659
 23
8164.0253234336442
 33
0.0
 14
16200.376753154411
 24
7259.0253234336433
 34
0.0
 50
90.0
1001
ACAD
1000
DSTYLE
1002
{
1070
   287
1070
     3
1070
    40
1040
45.0
1070
   140
1040
3.0
1070
   147
1040
0.5
1070
   173
1070
     1
1070
   279
1070
     0
1070
   341
1005
24
1070
     6
1000
OPEN
1070
     7
1000
OPEN
1002
}
  0
DIMENSION
  5
2562
  8
SP
  2
*D19
 10
15855.28004418246
 20
4659.0253234336469
 30
0.0
 11
15765.28004418246
 21
5959.0253234336478
 31
0.0
 70
     0
 13
16200.376753154411
 23
7259.0253234336433
 33
0.0
 14
17216.28346483659
 24
4659.0253234336469
 34
0.0
 50
90.0
1001
ACAD
1000
DSTYLE
1002
{
1070
   287
1070
     3
1070
    40
1040
45.0
1070
   140
1040
3.0
1070
   147
1040
0.5
1070
   173
1070
     1
1070
   279
1070
     0
1070
   341
1005
24
1070
     6
1000
OPEN
1070
     7
1000
OPEN
1002
}
  0
LINE
  5
259B
  8
KL
 10
18837.28346483659
 20
1247.214316483552
 30
0.0
 11
18837.28346483659
 21
1637.482539849829
 31
0.0
  0
LINE
  5
259C
  8
KL
 10
18846.28346483659
 20
1307.6314423605029
 30
0.0
 11
18846.28346483659
 21
1627.1468677526491
 31
0.0
  0
LINE
  5
259D
  8
KL
 10
18855.283464836579
 20
1240.0648965148939
 30
0.0
 11
18855.283464836579
 21
1616.8111956554681
 31
0.0
  0
LINE
  5
259E
  8
FUTO
 10
18855.283464836579
 20
1616.811195655466
 30
0.0
 11
18855.283464836579
 21
2207.8845122278558
 31
0.0
  0
LINE
  5
259F
  8
FUTO
 10
18846.28346483659
 20
1627.1468677526491
 30
0.0
 11
18846.28346483659
 21
2207.8845122278558
 31
0.0
  0
LINE
  5
25A0
  8
FUTO
 10
18837.28346483659
 20
1637.482539849826
 30
0.0
 11
18837.28346483659
 21
2207.8845122278558
 31
0.0
  0
LINE
  5
25A1
  8
FUTO
 10
18324.92029177821
 20
2225.8845122278558
 30
0.0
 11
19491.516458075101
 21
2225.8845122278558
 31
0.0
  0
LINE
  5
25A2
  8
FUTO
 10
18332.757227706359
 20
2216.8845122278558
 30
0.0
 11
19491.516458075101
 21
2216.8845122278558
 31
0.0
  0
LINE
  5
25A3
  8
FUTO
 10
18340.59416363452
 20
2207.8845122278558
 30
0.0
 11
19491.516458075101
 21
2207.8845122278558
 31
0.0
  0
LINE
  5
25A5
  8
KL
 10
17216.837013967939
 20
2239.9301354447812
 30
0.0
 11
17496.12868816761
 21
2221.2509039409279
 31
0.0
  0
LINE
  5
25A6
  8
KL
 10
17217.353404508209
 20
2248.9157050540061
 30
0.0
 11
17496.729273033099
 21
2230.2308425720862
 31
0.0
  0
LINE
  5
25A7
  8
KL
 10
17218.038183698922
 20
2257.890012707096
 30
0.0
 11
17497.329857898589
 21
2239.2107812032418
 31
0.0
  0
INSERT
  5
2632
  8
FUTO
  2
まっすぐの矢印
 10
16048.158795657469
 20
6933.5663064800801
 30
0.0
 41
-40.0
 42
40.0
 43
40.0
 50
90.0
  0
LINE
  5
2731
  8
FUTO
 10
22471.823074407472
 20
62.88451222785806
 30
0.0
 11
23978.223074407459
 21
62.88451222785806
 31
0.0
  0
LINE
  5
2732
  8
KL
 10
22396.823074407461
 20
-6.1154877721419316
 30
0.0
 11
24053.223074407459
 21
-6.1154877721419316
 31
0.0
  0
LINE
  5
2733
  8
KL
 10
22475.023074407462
 20
68.884512227858067
 30
0.0
 11
23975.023074407462
 21
68.884512227858067
 31
0.0
  0
LINE
  5
2734
  8
FUTO
 10
16896.28346483659
 20
46.884512227856249
 30
0.0
 11
17313.50025633907
 21
1927.2692237979361
 31
0.0
  0
LINE
  5
2735
  8
FUTO
 10
18496.28346483659
 20
46.884512227856249
 30
0.0
 11
18259.300493790961
 21
1114.9603057545
 31
0.0
  0
LINE
  5
2736
  8
FUTO
 10
18058.277962396322
 20
2532.0986993078059
 30
0.0
 11
19757.446921746428
 21
580.75945469115049
 31
0.0
  0
LINE
  5
2737
  8
SL
 10
17928.781128387709
 20
2429.4164779254202
 30
0.0
 11
19677.29405302809
 21
516.64458813679084
 31
0.0
  0
LINE
  5
2738
  8
SL
 10
17487.580698017409
 20
1980.943512988591
 30
0.0
 11
19428.681112105151
 21
263.9336317041334
 31
0.0
  0
LINE
  5
2739
  8
FUTO
 10
17387.029171288781
 20
1849.7853676875129
 30
0.0
 11
19365.885126933699
 21
182.74334457931209
 31
0.0
  0
ARC
  5
273A
  8
FUTO
 10
17549.28346483659
 20
2069.8845122278558
 30
0.0
 40
1903.0
 50
332.22332148101083
 51
4.1585727740168483
  0
LINE
  5
273B
  8
KL
 10
18846.28346483659
 20
620.46990245323366
 30
0.0
 11
18846.28346483659
 21
1243.639606499223
 31
0.0
  0
LINE
  5
273C
  8
KL
 10
18837.28346483659
 20
628.05174698576684
 30
0.0
 11
18837.28346483659
 21
1247.214316483552
 31
0.0
  0
LINE
  5
273D
  8
KL
 10
17313.50025633907
 20
1927.2692237979361
 30
0.0
 11
17346.696660359139
 21
2076.8845122278558
 31
0.0
  0
LINE
  5
273E
  8
KL
 10
18259.300493790961
 20
1114.9603057545
 30
0.0
 11
18045.870269314029
 21
2076.8845122278558
 31
0.0
  0
LINE
  5
273F
  8
KL
 10
22396.823074407461
 20
-6.1154877721419316
 30
0.0
 11
22396.823074407461
 21
337.06413076657913
 31
0.0
  0
LINE
  5
2740
  8
KL
 10
24053.223074407459
 20
-6.1154877721419316
 30
0.0
 11
24053.223074407459
 21
391.2701235625463
 31
0.0
  0
LINE
  5
2742
  8
FUTO
 10
24053.223074407459
 20
3658.8845122278449
 30
0.0
 11
22396.823074407461
 21
3658.8845122278572
 31
0.0
  0
LINE
  5
2743
  8
FUTO
 10
22396.823074407461
 20
3309.5961722520728
 30
0.0
 11
22475.023074407462
 21
3309.5961722520742
 31
0.0
  0
LINE
  5
2744
  8
FUTO
 10
23978.22307440747
 20
3309.5961722520728
 30
0.0
 11
24053.223074407459
 21
3309.5961722520742
 31
0.0
  0
DIMENSION
  5
2745
  8
SP
  2
*D20
 10
15957.17761454117
 20
2216.8845122278558
 30
0.0
 11
15867.17761454117
 21
1041.884512227859
 31
0.0
 70
     0
 13
16546.28346483659
 23
-133.11548777214369
 33
0.0
 14
16325.000057812251
 24
2216.8845122278558
 34
0.0
 50
90.0
1001
ACAD
1000
DSTYLE
1002
{
1070
   287
1070
     3
1070
    40
1040
45.0
1070
   140
1040
3.0
1070
   147
1040
0.5
1070
   173
1070
     1
1070
   279
1070
     0
1070
   341
1005
24
1070
     6
1000
OPEN
1070
     7
1000
OPEN
1002
}
  0
LINE
  5
2752
  8
FUTO
 10
17843.283464836601
 20
3658.8845122278499
 30
0.0
 11
17696.28346483659
 21
3658.8845122278508
 31
0.0
  0
DIMENSION
  5
2753
  8
SP
  2
*D21
 10
15957.17761454117
 20
2216.8845122278558
 30
0.0
 11
15867.17761454117
 21
2937.8845122278558
 31
0.0
 70
     0
 13
17696.28346483659
 23
3658.8845122278508
 33
0.0
 14
16325.000057812251
 24
2216.8845122278558
 34
0.0
 50
90.0
1001
ACAD
1000
DSTYLE
1002
{
1070
   287
1070
     3
1070
    40
1040
45.0
1070
   140
1040
3.0
1070
   147
1040
0.5
1070
   173
1070
     1
1070
   279
1070
     0
1070
   341
1005
24
1070
     6
1000
OPEN
1070
     7
1000
OPEN
1002
}
  0
DIMENSION
  5
2794
  8
SP
  2
*D22
 10
19946.28346483659
 20
8700.9214114964452
 30
0.0
 11
18821.28346483659
 21
8790.9214114964452
 31
0.0
 70
     0
 13
17696.28346483659
 23
8462.6437038676886
 33
0.0
 14
19946.28346483659
 24
6505.0253234336406
 34
0.0
1001
ACAD
1000
DSTYLE
1002
{
1070
   287
1070
     3
1070
    40
1040
45.0
1070
   140
1040
3.0
1070
   147
1040
0.5
1070
   173
1070
     1
1070
   279
1070
     0
1070
   341
1005
24
1070
     6
1000
OPEN
1070
     7
1000
OPEN
1002
}
  0
LINE
  5
2E13
  8
4
 10
24743.689750749771
 20
-1998.8336815270809
 30
0.0
 11
24743.689750749771
 21
-3198.8336815270809
 31
0.0
  0
LINE
  5
2E14
  8
4
 10
20543.68975074976
 20
-1998.8336815270809
 30
0.0
 11
20543.68975074976
 21
-3198.8336815270809
 31
0.0
  0
LINE
  5
2E15
  8
4
 10
17543.689750749771
 20
-1998.8336815270809
 30
0.0
 11
17543.689750749771
 21
-3198.8336815270809
 31
0.0
  0
LINE
  5
2E18
  8
4
 10
17543.689750749771
 20
-3198.8336815270809
 30
0.0
 11
24743.689750749771
 21
-3198.8336815270809
 31
0.0
  0
LINE
  5
2E19
  8
4
 10
17543.689750749771
 20
-2598.8336815270809
 30
0.0
 11
24743.689750749771
 21
-2598.8336815270809
 31
0.0
  0
TEXT
  5
2E1A
  8
4
 10
17774.702235831181
 20
-2409.5755263274041
 30
0.0
 40
300.0
  1
機器名称
  0
TEXT
  5
2E1B
  8
4
 10
17761.238386898549
 20
-3068.9627411350152
 30
0.0
 40
300.0
  1
機器型番
  0
TEXT
  5
2E1C
  8
4
 10
20572.448120956022
 20
-2465.7098673854011
 30
0.0
 40
270.0
  1
ミツヤリミットロードファン
  0
TEXT
  5
2E1D
  8
4
 10
20763.616724262662
 20
-3095.8761758474211
 30
0.0
 40
300.0
  1
LL#12-1
  0
TEXT
  5
2E1F
  8
4
 10
15540.69531072644
 20
10204.452175668701
 30
0.0
 40
432.0
  1
遠心式片吸込片持リミットロードファン
  0
LINE
  5
2E20
  8
4
 10
15143.689750749771
 20
9817.618844061748
 30
0.0
 11
24743.689750749771
 21
9817.618844061748
 31
0.0
  0
LINE
  5
2E21
  8
4
 10
15143.689750749771
 20
11017.618844061741
 30
0.0
 11
24743.689750749771
 21
11017.618844061741
 31
0.0
  0
LINE
  5
2E22
  8
4
 10
17543.689750749771
 20
-1998.8336815270809
 30
0.0
 11
24743.689750749771
 21
-1998.8336815270809
 31
0.0
  0
LINE
  5
2E23
  8
4
 10
15143.689750749771
 20
11017.618844061741
 30
0.0
 11
15143.689750749771
 21
9817.618844061748
 31
0.0
  0
TEXT
  5
2E24
  8
4
 10
22457.50710624551
 20
11237.53280744477
 30
0.0
 40
336.00000000000011
  1
No.
  0
TEXT
  5
2E25
  8
4
 10
22542.760721631439
 20
8653.9674221153273
 30
0.0
 40
323.99999999999989
  1
縮尺：1/60
  0
LINE
  5
2E26
  8
4
 10
24743.689750749771
 20
11017.618844061741
 30
0.0
 11
24743.689750749771
 21
9817.618844061748
 31
0.0
  0
LINE
  5
2E27
  8
4
 10
26243.689750749771
 20
12701.16631847291
 30
0.0
 11
26243.689750749771
 21
12701.16631847291
 31
0.0
  0
LINE
  5
2E28
  8
4
 10
22287.394284908962
 20
11088.74781722532
 30
0.0
 11
22287.394284908962
 21
11721.07988777143
 31
0.0
  0
LINE
  5
2E29
  8
4
 10
22287.394284908962
 20
11721.07988777143
 30
0.0
 11
24743.689750749771
 21
11721.07988777143
 31
0.0
  0
LINE
  5
2E2A
  8
4
 10
24743.689750749771
 20
11721.07988777143
 30
0.0
 11
24743.689750749771
 21
11088.74781722532
 31
0.0
  0
LINE
  5
2E2B
  8
4
 10
24743.689750749771
 20
11088.74781722532
 30
0.0
 11
22287.394284908962
 21
11088.74781722532
 31
0.0
  0
LINE
  5
2E2C
  8
4
 10
13643.689750749771
 20
-4998.8336815270814
 30
0.0
 11
13643.689750749771
 21
12701.16631847291
 31
0.0
  0
LINE
  5
2E2D
  8
4
 10
13643.689750749771
 20
12701.16631847291
 30
0.0
 11
26243.689750749771
 21
12701.16631847291
 31
0.0
  0
LINE
  5
2E2E
  8
4
 10
26243.689750749771
 20
12701.16631847291
 30
0.0
 11
26243.689750749771
 21
-4998.8336815270814
 31
0.0
  0
LINE
  5
2E2F
  8
4
 10
26243.689750749771
 20
-4998.8336815270814
 30
0.0
 11
13643.689750749771
 21
-4998.8336815270814
 31
0.0
  0
TEXT
  5
2E30
  8
4
 10
18592.506826796569
 20
9261.728845730242
 30
0.0
 40
323.99999999999989
  1
床置防振ベット
  0
TEXT
  5
2E31
  8
4
 10
15424.400376002381
 20
9280.2379830802201
 30
0.0
 40
323.99999999999989
  1
右回転左横向
  0
ENDSEC
  0
EOF
