  0
SECTION
  2
HEADER
  9
$ACADVER
  1
AC1009
  9
$INSBASE
 10
0.0
 20
0.0
 30
0.0
  9
$EXTMIN
 10
15059.60998930403
 20
-5332.2740260457913
 30
0.0
  9
$EXTMAX
 10
27659.60998930403
 20
12367.72597395421
 30
0.0
  9
$LIMMIN
 10
0.0
 20
0.0
  9
$LIMMAX
 10
297.0
 20
210.0
  9
$ORTHOMODE
 70
     0
  9
$REGENMODE
 70
     1
  9
$FILLMODE
 70
     1
  9
$QTEXTMODE
 70
     0
  9
$MIRRTEXT
 70
     0
  9
$DRAGMODE
 70
     2
  9
$LTSCALE
 40
225.0
  9
$OSMODE
 70
    37
  9
$ATTMODE
 70
     1
  9
$TEXTSIZE
 40
120.0
  9
$TRACEWID
 40
0.05
  9
$TEXTSTYLE
  7
STANDARD
  9
$CLAYER
  8
FUTO
  9
$CELTYPE
  6
BYLAYER
  9
$CECOLOR
 62
   256
  9
$DIMSCALE
 40
45.0
  9
$DIMASZ
 40
2.0
  9
$DIMEXO
 40
1.0
  9
$DIMDLI
 40
10.0
  9
$DIMRND
 40
0.0
  9
$DIMDLE
 40
0.0
  9
$DIMEXE
 40
1.0
  9
$DIMTP
 40
0.0
  9
$DIMTM
 40
0.0
  9
$DIMTXT
 40
3.0
  9
$DIMCEN
 40
0.0
  9
$DIMTSZ
 40
0.0
  9
$DIMTOL
 70
     0
  9
$DIMLIM
 70
     0
  9
$DIMTIH
 70
     0
  9
$DIMTOH
 70
     0
  9
$DIMSE1
 70
     0
  9
$DIMSE2
 70
     0
  9
$DIMTAD
 70
     1
  9
$DIMZIN
 70
     8
  9
$DIMBLK
  1

  9
$DIMASO
 70
     1
  9
$DIMSHO
 70
     1
  9
$DIMPOST
  1

  9
$DIMAPOST
  1

  9
$DIMALT
 70
     0
  9
$DIMALTD
 70
     2
  9
$DIMALTF
 40
25.399999999999999
  9
$DIMLFAC
 40
1.0
  9
$DIMTOFL
 70
     1
  9
$DIMTVP
 40
0.0
  9
$DIMTIX
 70
     0
  9
$DIMSOXD
 70
     0
  9
$DIMSAH
 70
     1
  9
$DIMBLK1
  1
OPEN
  9
$DIMBLK2
  1
OPEN
  9
$DIMSTYLE
  2
DIA1
  9
$DIMCLRD
 70
     2
  9
$DIMCLRE
 70
     2
  9
$DIMCLRT
 70
     2
  9
$DIMTFAC
 40
1.0
  9
$DIMGAP
 40
0.5
  9
$LUNITS
 70
     2
  9
$LUPREC
 70
     3
  9
$SKETCHINC
 40
0.1
  9
$FILLETRAD
 40
10.0
  9
$AUNITS
 70
     0
  9
$AUPREC
 70
     2
  9
$MENU
  1
acad
  9
$ELEVATION
 40
0.0
  9
$PELEVATION
 40
0.0
  9
$THICKNESS
 40
0.0
  9
$LIMCHECK
 70
     0
  9
$BLIPMODE
 70
     0
  9
$CHAMFERA
 40
10.0
  9
$CHAMFERB
 40
10.0
  9
$SKPOLY
 70
     0
  9
$TDCREATE
 40
2451270.426261805
  9
$TDUPDATE
 40
2454953.63725169
  9
$TDINDWG
 40
0.8477710301
  9
$TDUSRTIMER
 40
0.8477710301
  9
$USRTIMER
 70
     1
  9
$ANGBASE
 50
0.0
  9
$ANGDIR
 70
     0
  9
$PDMODE
 70
     0
  9
$PDSIZE
 40
1.0
  9
$PLINEWID
 40
0.0
  9
$COORDS
 70
     1
  9
$SPLFRAME
 70
     0
  9
$SPLINETYPE
 70
     6
  9
$SPLINESEGS
 70
     8
  9
$ATTDIA
 70
     0
  9
$ATTREQ
 70
     1
  9
$HANDLING
 70
 10241
  9
$HANDSEED
  5
311D
  9
$SURFTAB1
 70
     6
  9
$SURFTAB2
 70
     6
  9
$SURFTYPE
 70
     6
  9
$SURFU
 70
     6
  9
$SURFV
 70
     6
  9
$UCSNAME
  2

  9
$UCSORG
 10
0.0
 20
0.0
 30
0.0
  9
$UCSXDIR
 10
1.0
 20
0.0
 30
0.0
  9
$UCSYDIR
 10
0.0
 20
1.0
 30
0.0
  9
$PUCSNAME
  2

  9
$PUCSORG
 10
0.0
 20
0.0
 30
0.0
  9
$PUCSXDIR
 10
1.0
 20
0.0
 30
0.0
  9
$PUCSYDIR
 10
0.0
 20
1.0
 30
0.0
  9
$USERI1
 70
     0
  9
$USERI2
 70
     0
  9
$USERI3
 70
     0
  9
$USERI4
 70
     0
  9
$USERI5
 70
     0
  9
$USERR1
 40
0.0
  9
$USERR2
 40
0.0
  9
$USERR3
 40
0.0
  9
$USERR4
 40
0.0
  9
$USERR5
 40
0.0
  9
$WORLDVIEW
 70
     1
  9
$SHADEDGE
 70
     3
  9
$SHADEDIF
 70
    70
  9
$TILEMODE
 70
     1
  9
$MAXACTVP
 70
    16
  9
$PLIMCHECK
 70
     0
  9
$PEXTMIN
 10
1.0000000000000000E+020
 20
1.0000000000000000E+020
 30
1.0000000000000000E+020
  9
$PEXTMAX
 10
-1.0000000000000000E+020
 20
-1.0000000000000000E+020
 30
-1.0000000000000000E+020
  9
$PLIMMIN
 10
0.0
 20
0.0
  9
$PLIMMAX
 10
12.0
 20
9.0
  9
$UNITMODE
 70
     0
  9
$VISRETAIN
 70
     0
  9
$PLINEGEN
 70
     0
  9
$PSLTSCALE
 70
     0
  0
ENDSEC
  0
SECTION
  2
TABLES
  0
TABLE
  2
VPORT
 70
     2
  0
VPORT
  2
*ACTIVE
 70
     0
 10
0.0
 20
0.0
 11
1.0
 21
1.0
 12
26911.502541912349
 22
-3228.2626103487919
 13
0.0
 23
0.0
 14
5.0
 24
5.0
 15
0.0
 25
0.0
 16
0.0
 26
0.0
 36
1.0
 17
0.0
 27
0.0
 37
0.0
 40
5380.8487971815666
 41
3.1666666666666661
 42
50.0
 43
0.0
 44
0.0
 50
0.0
 51
0.0
 71
     0
 72
   100
 73
     1
 74
     0
 75
     0
 76
     0
 77
     0
 78
     0
  0
ENDTAB
  0
TABLE
  2
LTYPE
 70
     4
  0
LTYPE
  2
CONTINUOUS
 70
     0
  3
Solid line
 72
    65
 73
     0
 40
0.0
  0
LTYPE
  2
CENTER
 70
     0
  3
____ _ ____ _ ____ _ ____ _ ____ _ ____ _ ____ 
 72
    65
 73
     4
 40
2.0
 49
1.25
 49
-0.25
 49
0.25
 49
-0.25
  0
LTYPE
  2
HIDDEN
 70
     0
  3
__ __ __ __ __ __ __ __ __ __ __ __ __ __ __ __
 72
    65
 73
     2
 40
0.375
 49
0.25
 49
-0.125
  0
LTYPE
  2
PHANTOM
 70
     0
  3
______  __  __  ______  __  __  ______  __  __ 
 72
    65
 73
     6
 40
2.5
 49
1.25
 49
-0.25
 49
0.25
 49
-0.25
 49
0.25
 49
-0.25
  0
ENDTAB
  0
TABLE
  2
LAYER
 70
     9
  0
LAYER
  2
0
 70
     0
 62
     7
  6
CONTINUOUS
  0
LAYER
  2
CT
 70
     0
 62
     3
  6
CENTER
  0
LAYER
  2
FUTO
 70
     0
 62
     4
  6
CONTINUOUS
  0
LAYER
  2
HOSO
 70
     0
 62
     7
  6
CONTINUOUS
  0
LAYER
  2
KL
 70
     0
 62
     7
  6
HIDDEN
  0
LAYER
  2
SL
 70
     0
 62
     1
  6
PHANTOM
  0
LAYER
  2
SP
 70
     0
 62
     2
  6
CONTINUOUS
  0
LAYER
  2
DEFPOINTS
 70
     0
 62
     7
  6
CONTINUOUS
  0
LAYER
  2
4
 70
     0
 62
     7
  6
CONTINUOUS
  0
ENDTAB
  0
TABLE
  2
STYLE
 70
     1
  0
STYLE
  2
STANDARD
 70
     0
 40
0.0
 41
1.0
 50
15.0
 71
     0
 42
120.0
  3
C:\Program Files\AutoCAD LT\simplex.shx
  4
C:\Program Files\AutoCAD LT\extfont.shx
  0
ENDTAB
  0
TABLE
  2
VIEW
 70
     0
  0
ENDTAB
  0
TABLE
  2
UCS
 70
     0
  0
ENDTAB
  0
TABLE
  2
APPID
 70
     2
  0
APPID
  2
ACAD
 70
     0
  0
APPID
  2
CONTENTBLOCKICON
 70
     0
  0
ENDTAB
  0
TABLE
  2
DIMSTYLE
 70
     2
  0
DIMSTYLE
  2
DIA1
 70
     0
  3

  4

  5

  6

  7

 40
1.0
 41
2.0
 42
1.0
 43
10.0
 44
1.0
 45
0.0
 46
0.0
 47
0.0
 48
0.0
140
2.5
141
0.0
142
0.0
143
25.399999999999999
144
1.0
145
0.0
146
1.0
147
0.09
 71
     0
 72
     0
 73
     0
 74
     0
 75
     0
 76
     0
 77
     1
 78
     8
170
     0
171
     2
172
     1
173
     0
174
     0
175
     0
176
     2
177
     2
178
     2
  0
DIMSTYLE
  2
STANDARD
 70
     0
  3

  4

  5

  6

  7

 40
1.0
 41
0.18
 42
0.0625
 43
0.38
 44
0.18
 45
0.0
 46
0.0
 47
0.0
 48
0.0
140
0.18
141
0.09
142
0.0
143
25.399999999999999
144
1.0
145
0.0
146
1.0
147
0.09
 71
     0
 72
     0
 73
     1
 74
     1
 75
     0
 76
     0
 77
     0
 78
     0
170
     0
171
     2
172
     0
173
     0
174
     0
175
     0
176
     0
177
     0
178
     0
  0
ENDTAB
  0
ENDSEC
  0
SECTION
  2
BLOCKS
  0
BLOCK
  8
0
  2
$MODEL_SPACE
 70
     0
 10
0.0
 20
0.0
 30
0.0
  3
$MODEL_SPACE
  1

  0
ENDBLK
  5
7
  8
0
  0
BLOCK
 67
     1
  8
0
  2
$PAPER_SPACE
 70
     0
 10
0.0
 20
0.0
 30
0.0
  3
$PAPER_SPACE
  1

  0
ENDBLK
  5
A
 67
     1
  8
0
  0
BLOCK
  8
0
  2
_OPEN
 70
     0
 10
0.0
 20
0.0
 30
0.0
  3
_OPEN
  1

  0
LINE
  5
25
  8
0
  6
BYBLOCK
 62
     0
 10
-1.0
 20
0.1666666666666666
 30
0.0
 11
0.0
 21
0.0
 31
0.0
  0
LINE
  5
26
  8
0
  6
BYBLOCK
 62
     0
 10
0.0
 20
0.0
 30
0.0
 11
-1.0
 21
-0.1666666666666666
 31
0.0
  0
LINE
  5
27
  8
0
  6
BYBLOCK
 62
     0
 10
0.0
 20
0.0
 30
0.0
 11
-1.0
 21
0.0
 31
0.0
  0
ENDBLK
  5
29
  8
0
  0
BLOCK
  8
0
  2
_DOT
 70
     0
 10
0.0
 20
0.0
 30
0.0
  3
_DOT
  1

  0
POLYLINE
  5
16D
  8
0
  6
BYBLOCK
 62
     0
 66
     1
 10
0.0
 20
0.0
 30
0.0
 70
     1
 40
0.25
 41
0.25
  0
VERTEX
  5
3099
  8
0
  6
BYBLOCK
 62
     0
 10
-0.125
 20
0.0
 30
0.0
 42
1.0
  0
VERTEX
  5
309A
  8
0
  6
BYBLOCK
 62
     0
 10
0.125
 20
0.0
 30
0.0
 42
1.0
  0
SEQEND
  5
309B
  8
0
  6
BYBLOCK
 62
     0
  0
LINE
  5
171
  8
0
  6
BYBLOCK
 62
     0
 10
-0.25
 20
0.0
 30
0.0
 11
-1.0
 21
0.0
 31
0.0
  0
ENDBLK
  5
173
  8
0
  0
BLOCK
  8
0
  2
L-75-6
 70
     0
 10
0.0
 20
0.0
 30
0.0
  3
L-75-6
  1

  0
LINE
  5
293
  8
0
 10
114.6064614035558
 20
81.429596884474719
 30
0.0
 11
189.60646140355581
 21
81.429596884474719
 31
0.0
  0
LINE
  5
294
  8
0
 10
114.6064614035558
 20
81.429596884474719
 30
0.0
 11
114.6064614035558
 21
156.42959688447471
 31
0.0
  0
LINE
  5
295
  8
0
 10
189.60646140355581
 20
81.429596884474719
 30
0.0
 11
189.60646140355581
 21
83.429596884474705
 31
0.0
  0
LINE
  5
296
  8
0
 10
114.6064614035558
 20
156.42959688447471
 30
0.0
 11
116.6064614035558
 21
156.42959688447471
 31
0.0
  0
LINE
  5
297
  8
0
 10
120.6064614035558
 20
95.929596884474705
 30
0.0
 11
120.6064614035558
 21
152.42959688447471
 31
0.0
  0
LINE
  5
298
  8
0
 10
129.10646140355581
 20
87.429596884474719
 30
0.0
 11
185.60646140355581
 21
87.429596884474719
 31
0.0
  0
ARC
  5
299
  8
0
 10
185.60646140355581
 20
83.429596884474705
 30
0.0
 40
4.0
 50
0.0
 51
90.0
  0
ARC
  5
29A
  8
0
 10
116.6064614035558
 20
152.42959688447471
 30
0.0
 40
4.0
 50
0.0
 51
90.0
  0
ARC
  5
29B
  8
0
 10
129.10646140355581
 20
95.929596884474705
 30
0.0
 40
8.5
 50
180.0
 51
270.0
  0
ENDBLK
  5
29D
  8
0
  0
BLOCK
  8
0
  2
22222F
 70
     0
 10
0.0
 20
0.0
 30
0.0
  3
22222F
  1

  0
ARC
  5
228
  8
FUTO
 10
-0.0000000000000568
 20
0.0
 30
0.0
 40
130.0
 50
124.6637959032814
 51
175.3362040967184
  0
ARC
  5
229
  8
FUTO
 10
-0.0000000000000568
 20
0.0
 30
0.0
 40
130.0
 50
4.6637959032815717
 51
55.336204096718511
  0
ARC
  5
22A
  8
FUTO
 10
-0.0000000000000568
 20
0.0
 30
0.0
 40
115.0
 50
8.9772148936872895
 51
51.022785106312661
  0
ARC
  5
22B
  8
FUTO
 10
-0.0000000000000568
 20
0.0
 30
0.0
 40
115.0
 50
128.9772148936872
 51
171.02278510631271
  0
ARC
  5
22C
  8
FUTO
 10
-57.499999999999829
 20
99.592921435210386
 30
0.0
 40
18.0
 50
25.51139255315622
 51
214.4886074468437
  0
ARC
  5
22D
  8
FUTO
 10
57.5
 20
99.592921435210243
 30
0.0
 40
18.0
 50
325.51139255315621
 51
154.4886074468437
  0
LINE
  5
22E
  8
FUTO
 10
-110.0
 20
-127.0
 30
0.0
 11
-0.0000000000000568
 21
-127.0
 31
0.0
  0
ARC
  5
22F
  8
FUTO
 10
-0.0000000000000568
 20
0.0
 30
0.0
 40
115.0
 50
248.9772148936872
 51
291.0227851063126
  0
CIRCLE
  5
230
  8
FUTO
 10
-0.0000000000000568
 20
0.0
 30
0.0
 40
54.0
  0
LINE
  5
231
  8
CT
 10
-190.0
 20
-140.0
 30
0.0
 11
-190.0
 21
-70.0
 31
0.0
  0
LINE
  5
232
  8
FUTO
 10
-225.0
 20
-130.0
 30
0.0
 11
-110.0
 21
-130.0
 31
0.0
  0
LINE
  5
233
  8
FUTO
 10
-125.0000000000001
 20
-80.0
 30
0.0
 11
-222.0
 21
-80.0
 31
0.0
  0
ARC
  5
234
  8
FUTO
 10
-222.0
 20
-83.0
 30
0.0
 40
3.0
 50
90.0
 51
180.0
  0
LINE
  5
235
  8
FUTO
 10
-225.0
 20
-83.0
 30
0.0
 11
-225.0
 21
-130.0
 31
0.0
  0
LINE
  5
236
  8
FUTO
 10
-129.99999999999929
 20
-9.9498743710669828
 30
0.0
 11
-130.0
 21
-60.0
 31
0.0
  0
ARC
  5
237
  8
FUTO
 10
-0.0000000000000568
 20
0.0
 30
0.0
 40
115.0
 50
188.9772148936872
 51
231.02278510631271
  0
LINE
  5
238
  8
FUTO
 10
-125.0000000000001
 20
-80.0
 30
0.0
 11
-110.0000000000001
 21
-95.0
 31
0.0
  0
ARC
  5
239
  8
FUTO
 10
-150.0
 20
-60.0
 30
0.0
 40
20.0
 50
270.0
 51
0.0
  0
LINE
  5
23A
  8
FUTO
 10
-110.0
 20
-130.0
 30
0.0
 11
-110.0000000000001
 21
-95.0
 31
0.0
  0
ARC
  5
23B
  8
FUTO
 10
-57.500000000000057
 20
-99.592921435210542
 30
0.0
 40
18.0
 50
145.51139255315621
 51
334.48860744684367
  0
ARC
  5
23C
  8
FUTO
 10
-115.0
 20
0.0
 30
0.0
 40
18.0
 50
85.511392553156256
 51
274.48860744684367
  0
LINE
  5
23D
  8
CT
 10
190.0
 20
-140.0
 30
0.0
 11
190.0
 21
-70.0
 31
0.0
  0
ARC
  5
23E
  8
FUTO
 10
150.0
 20
-60.0
 30
0.0
 40
20.0
 50
180.0
 51
270.0
  0
LINE
  5
23F
  8
FUTO
 10
222.0000000000004
 20
-80.0
 30
0.0
 11
124.9999999999997
 21
-80.0
 31
0.0
  0
LINE
  5
240
  8
FUTO
 10
110.0
 20
-130.0
 30
0.0
 11
225.0
 21
-130.0
 31
0.0
  0
LINE
  5
241
  8
FUTO
 10
130.0
 20
-60.0
 30
0.0
 11
130.0
 21
-9.9498743710661302
 31
0.0
  0
ARC
  5
242
  8
FUTO
 10
-0.0000000000000568
 20
0.0
 30
0.0
 40
115.0
 50
308.97721489368718
 51
351.02278510631271
  0
LINE
  5
243
  8
FUTO
 10
-0.0000000000000568
 20
-127.0
 30
0.0
 11
110.0
 21
-127.0
 31
0.0
  0
ARC
  5
244
  8
FUTO
 10
57.5
 20
-99.592921435210542
 30
0.0
 40
18.0
 50
205.51139255315621
 51
34.488607446843737
  0
LINE
  5
245
  8
FUTO
 10
109.9999999999997
 20
-95.0
 30
0.0
 11
124.9999999999997
 21
-80.0
 31
0.0
  0
LINE
  5
246
  8
FUTO
 10
109.9999999999997
 20
-95.0
 30
0.0
 11
110.0
 21
-130.0
 31
0.0
  0
ARC
  5
247
  8
FUTO
 10
115.0
 20
0.0
 30
0.0
 40
18.0
 50
265.51139255315621
 51
94.488607446843773
  0
ARC
  5
248
  8
FUTO
 10
222.0000000000004
 20
-83.0
 30
0.0
 40
3.0
 50
0.0
 51
90.0
  0
LINE
  5
249
  8
FUTO
 10
225.0
 20
-130.0
 30
0.0
 11
225.0000000000004
 21
-83.0
 31
0.0
  0
LINE
  5
24A
  8
FUTO
 10
19.227247756821669
 20
132.99999999999989
 30
0.0
 11
-19.227247756821779
 21
132.99999999999989
 31
0.0
  0
ARC
  5
24B
  8
FUTO
 10
-0.0000000000000568
 20
0.0
 30
0.0
 40
115.0
 50
68.977214893687218
 51
111.0227851063126
  0
ARC
  5
24C
  8
FUTO
 10
-0.0000000000000568
 20
0.0
 30
0.0
 40
130.0
 50
98.505358450480756
 51
115.3362040967184
  0
LINE
  5
24D
  8
FUTO
 10
-19.227247756821779
 20
113.3812724558063
 30
0.0
 11
-19.227247756821779
 21
132.99999999999989
 31
0.0
  0
ARC
  5
24E
  8
FUTO
 10
-0.0000000000000568
 20
0.0
 30
0.0
 40
130.0
 50
64.663795903281382
 51
81.494641549519287
  0
LINE
  5
24F
  8
FUTO
 10
19.227247756821669
 20
113.3812724558063
 30
0.0
 11
19.227247756821669
 21
132.99999999999989
 31
0.0
  0
ENDBLK
  5
251
  8
0
  0
BLOCK
  8
0
  2
まっすぐの矢印
 70
     0
 10
0.0
 20
0.0
 30
0.0
  3
まっすぐの矢印
  1

  0
LINE
  5
2CF
  8
SP
 10
0.6962157491662495
 20
-2.216890595009601
 30
0.0
 11
0.6962157491662495
 21
-5.0
 31
0.0
  0
LINE
  5
2D0
  8
SP
 10
0.6962157491662495
 20
-5.0
 30
0.0
 11
-0.6962157491662495
 21
-5.0
 31
0.0
  0
LINE
  5
2D1
  8
SP
 10
-0.6962157491662495
 20
-5.0
 30
0.0
 11
-0.6962157491662495
 21
-2.216890595009601
 31
0.0
  0
LINE
  5
2D2
  8
SP
 10
-0.6962157491662495
 20
-2.216890595009601
 30
0.0
 11
-1.7145256852758151
 21
-2.216890595009601
 31
0.0
  0
LINE
  5
2D3
  8
SP
 10
-1.7145256852758151
 20
-2.216890595009601
 30
0.0
 11
0.0
 21
0.0
 31
0.0
  0
LINE
  5
2D4
  8
SP
 10
0.0
 20
0.0
 30
0.0
 11
1.7145256852758151
 21
-2.216890595009601
 31
0.0
  0
LINE
  5
2D5
  8
SP
 10
1.7145256852758151
 20
-2.216890595009601
 30
0.0
 11
0.6962157491662495
 21
-2.216890595009601
 31
0.0
  0
ENDBLK
  5
2D7
  8
0
  0
BLOCK
  8
0
  2
右回転矢印
 70
     0
 10
0.0
 20
0.0
 30
0.0
  3
右回転矢印
  1

  0
LINE
  5
1E3
  8
SP
 10
-2.7705290305565882
 20
1.567794835092901
 30
0.0
 11
-2.4288000558398148
 21
2.8051227455822878
 31
0.0
  0
LINE
  5
1E4
  8
SP
 10
-2.4288000558398148
 20
2.8051227455822878
 30
0.0
 11
0.0
 21
0.0
 31
0.0
  0
LINE
  5
1E5
  8
SP
 10
0.0
 20
0.0
 30
0.0
 11
-3.3160037613098718
 21
-0.4072531086382499
 31
0.0
  0
LINE
  5
1E6
  8
SP
 10
-3.3160037613098718
 20
-0.4072531086382499
 30
0.0
 11
-3.0391574735299112
 21
0.5951483970269315
 31
0.0
  0
ARC
  5
1E7
  8
SP
 10
-5.9215210782018062
 20
-9.8412769578768184
 30
0.0
 40
10.82714154973578
 50
74.560750721316467
 51
112.11861101078711
  0
LINE
  5
1E8
  8
SP
 10
-9.9982127316752951
 20
0.1890560027239694
 30
0.0
 11
-10.37814929817227
 21
1.1238557349100611
 31
0.0
  0
ARC
  5
1E9
  8
SP
 10
-5.9215210782018062
 20
-9.8412769578768291
 30
0.0
 40
11.83620167374065
 50
74.560750721316396
 51
112.11861101078701
  0
ENDBLK
  5
1EB
  8
0
  0
BLOCK
  8
0
  2
*D6
 70
     1
 10
0.0
 20
0.0
 30
0.0
  3
*D6
  1

  0
LINE
  5
3005
  8
SP
 62
     2
 10
17428.976423297761
 20
-447.5313497395091
 30
0.0
 11
17428.976423297761
 21
-1115.1520767533941
 31
0.0
  0
LINE
  5
3006
  8
SP
 62
     2
 10
19678.976423297761
 20
-447.53134973950898
 30
0.0
 11
19678.976423297761
 21
-1115.1520767533941
 31
0.0
  0
LINE
  5
3007
  8
SP
 62
     2
 10
17518.976423297761
 20
-1070.1520767533941
 30
0.0
 11
19588.976423297761
 21
-1070.1520767533941
 31
0.0
  0
INSERT
  5
3008
  8
SP
 62
     2
  2
_OPEN
 10
17428.976423297761
 20
-1070.1520767533941
 30
0.0
 41
90.0
 42
90.0
 43
90.0
 50
180.0
  0
INSERT
  5
3009
  8
SP
 62
     2
  2
_OPEN
 10
19678.976423297761
 20
-1070.1520767533941
 30
0.0
 41
90.0
 42
90.0
 43
90.0
  0
TEXT
  5
300A
  8
FUTO
 62
     2
 10
18304.692056711341
 20
-1047.6520767533941
 30
0.0
 40
135.0
  1
2250
 51
15.0
  0
POINT
  5
300B
  8
DEFPOINTS
 62
     0
 10
17428.976423297761
 20
-402.5313497395091
 30
0.0
  0
POINT
  5
300C
  8
DEFPOINTS
 62
     0
 10
19678.976423297761
 20
-402.53134973950898
 30
0.0
  0
POINT
  5
300D
  8
DEFPOINTS
 62
     0
 10
19678.976423297761
 20
-1070.1520767533941
 30
0.0
  0
ENDBLK
  5
A67
  8
0
  0
BLOCK
  8
0
  2
*D7
 70
     1
 10
0.0
 20
0.0
 30
0.0
  3
*D7
  1

  0
LINE
  5
2FEA
  8
SP
 62
     2
 10
19678.976423297761
 20
-447.53134973950898
 30
0.0
 11
19678.976423297761
 21
-1115.1520767533941
 31
0.0
  0
LINE
  5
2FEB
  8
SP
 62
     2
 10
20828.976423297761
 20
-447.5313497395091
 30
0.0
 11
20828.976423297761
 21
-1115.1520767533941
 31
0.0
  0
LINE
  5
2FEC
  8
SP
 62
     2
 10
19768.976423297761
 20
-1070.1520767533941
 30
0.0
 11
20738.976423297761
 21
-1070.1520767533941
 31
0.0
  0
INSERT
  5
2FED
  8
SP
 62
     2
  2
_OPEN
 10
19678.976423297761
 20
-1070.1520767533941
 30
0.0
 41
90.0
 42
90.0
 43
90.0
 50
180.0
  0
INSERT
  5
2FEE
  8
SP
 62
     2
  2
_OPEN
 10
20828.976423297761
 20
-1070.1520767533941
 30
0.0
 41
90.0
 42
90.0
 43
90.0
  0
TEXT
  5
2FEF
  8
FUTO
 62
     2
 10
20015.764832982069
 20
-1047.6520767533941
 30
0.0
 40
135.0
  1
1150
 51
15.0
  0
POINT
  5
2FF0
  8
DEFPOINTS
 62
     0
 10
19678.976423297761
 20
-402.53134973950898
 30
0.0
  0
POINT
  5
2FF1
  8
DEFPOINTS
 62
     0
 10
20828.976423297761
 20
-402.5313497395091
 30
0.0
  0
POINT
  5
2FF2
  8
DEFPOINTS
 62
     0
 10
20828.976423297761
 20
-1070.1520767533941
 30
0.0
  0
ENDBLK
  5
A74
  8
0
  0
BLOCK
  8
0
  2
*D8
 70
     1
 10
0.0
 20
0.0
 30
0.0
  3
*D8
  1

  0
LINE
  5
3085
  8
SP
 10
20828.976423297761
 20
-447.5313497395091
 30
0.0
 11
20828.976423297761
 21
-1410.484973653598
 31
0.0
  0
LINE
  5
3086
  8
SP
 10
17428.976423297761
 20
-447.5313497395091
 30
0.0
 11
17428.976423297761
 21
-1410.484973653598
 31
0.0
  0
LINE
  5
3087
  8
SP
 10
20738.976423297761
 20
-1365.484973653598
 30
0.0
 11
17518.976423297761
 21
-1365.484973653598
 31
0.0
  0
INSERT
  5
3088
  8
SP
  2
_OPEN
 10
20828.976423297761
 20
-1365.484973653598
 30
0.0
 41
90.0
 42
90.0
 43
90.0
  0
INSERT
  5
3089
  8
SP
  2
_OPEN
 10
17428.976423297761
 20
-1365.484973653598
 30
0.0
 41
90.0
 42
90.0
 43
90.0
 50
180.0
  0
TEXT
  8
0
  40
135
  5
310E
  72
0
  71
0
 10
18859.0
 20
-1514.43
 30
0.000000
  1
3400
  0
POINT
  5
308B
  8
DEFPOINTS
 62
     0
 10
20828.976423297761
 20
-402.5313497395091
 30
0.0
  0
POINT
  5
308C
  8
DEFPOINTS
 62
     0
 10
17428.976423297761
 20
-402.5313497395091
 30
0.0
  0
POINT
  5
308D
  8
DEFPOINTS
 62
     0
 10
17428.976423297761
 20
-1365.484973653598
 30
0.0
  0
ENDBLK
  5
14BE
  8
0
  0
BLOCK
  8
0
  2
*D9
 70
     1
 10
0.0
 20
0.0
 30
0.0
  3
*D9
  1

  0
LINE
  5
308E
  8
SP
 10
20840.009092711611
 20
-222.5313497395091
 30
0.0
 11
21463.082273593169
 21
-222.53134973950921
 31
0.0
  0
LINE
  5
308F
  8
SP
 10
20840.009092711611
 20
-402.5313497395091
 30
0.0
 11
21463.082273593169
 21
-402.53134973950932
 31
0.0
  0
LINE
  5
3090
  8
SP
 10
21418.082273593169
 20
-132.53134973950921
 30
0.0
 11
21418.082273593169
 21
-42.531349739509267
 31
0.0
  0
LINE
  5
3091
  8
SP
 10
21418.082273593169
 20
-492.53134973950932
 30
0.0
 11
21418.082273593169
 21
-942.53134973950932
 31
0.0
  0
LINE
  5
3092
  8
SP
 10
21418.082273593169
 20
-222.53134973950921
 30
0.0
 11
21418.082273593169
 21
-402.53134973950932
 31
0.0
  0
INSERT
  5
3093
  8
SP
  2
_DOT
 10
21418.082273593169
 20
-222.53134973950921
 30
0.0
 41
90.0
 42
90.0
 43
90.0
 50
270.0
  0
INSERT
  5
3094
  8
SP
  2
_OPEN
 10
21418.082273593169
 20
-402.53134973950932
 30
0.0
 41
90.0
 42
90.0
 43
90.0
 50
90.0
  0
TEXT
  8
0
  40
135
  5
310F
  72
0
  71
0
 10
21058.1
 20
-1001.48
 30
0.000000
  1
180
  0
POINT
  5
3096
  8
DEFPOINTS
 62
     0
 10
20795.009092711611
 20
-222.5313497395091
 30
0.0
  0
POINT
  5
3097
  8
DEFPOINTS
 62
     0
 10
20795.009092711611
 20
-402.5313497395091
 30
0.0
  0
POINT
  5
3098
  8
DEFPOINTS
 62
     0
 10
21418.082273593169
 20
-402.53134973950932
 30
0.0
  0
ENDBLK
  5
14D8
  8
0
  0
BLOCK
  8
0
  2
*D10
 70
     1
 10
0.0
 20
0.0
 30
0.0
  3
*D10
  1

  0
LINE
  5
309C
  8
SP
 10
26157.71603286863
 20
2567.4686502604909
 30
0.0
 11
26651.905751247661
 21
2567.4686502604909
 31
0.0
  0
LINE
  5
309D
  8
SP
 10
26157.71603286863
 20
567.4686502604909
 30
0.0
 11
26651.905751247661
 21
567.46865026049079
 31
0.0
  0
LINE
  5
309E
  8
SP
 10
26606.905751247661
 20
2477.46865026049
 30
0.0
 11
26606.905751247661
 21
657.46865026049068
 31
0.0
  0
INSERT
  5
309F
  8
SP
  2
_OPEN
 10
26606.905751247661
 20
2567.4686502604909
 30
0.0
 41
90.0
 42
90.0
 43
90.0
 50
90.0
  0
INSERT
  5
30A0
  8
SP
  2
_OPEN
 10
26606.905751247661
 20
567.46865026049079
 30
0.0
 41
90.0
 42
90.0
 43
90.0
 50
270.0
  0
TEXT
  8
0
  40
135
  5
3110
  72
0
  71
0
 10
26246.9
 20
1328.52
 30
0.000000
  1
%%C2000
  0
POINT
  5
30A2
  8
DEFPOINTS
 62
     0
 10
26112.71603286863
 20
2567.4686502604909
 30
0.0
  0
POINT
  5
30A3
  8
DEFPOINTS
 62
     0
 10
26112.71603286863
 20
567.4686502604909
 30
0.0
  0
POINT
  5
30A4
  8
DEFPOINTS
 62
     0
 10
26606.905751247661
 20
567.46865026049079
 30
0.0
  0
ENDBLK
  5
1561
  8
0
  0
BLOCK
  8
0
  2
*D11
 70
     1
 10
0.0
 20
0.0
 30
0.0
  3
*D11
  1

  0
LINE
  5
30A5
  8
SP
 62
     2
 10
22836.71603286863
 20
-447.5313497395091
 30
0.0
 11
22836.71603286863
 21
-1120.6087700077551
 31
0.0
  0
LINE
  5
30A6
  8
SP
 62
     2
 10
25207.71603286863
 20
-447.5313497395091
 30
0.0
 11
25207.71603286863
 21
-1120.6087700077551
 31
0.0
  0
LINE
  5
30A7
  8
SP
 62
     2
 10
22926.71603286863
 20
-1075.6087700077551
 30
0.0
 11
25117.71603286863
 21
-1075.6087700077551
 31
0.0
  0
INSERT
  5
30A8
  8
SP
 62
     2
  2
_OPEN
 10
22836.71603286863
 20
-1075.6087700077551
 30
0.0
 41
90.0
 42
90.0
 43
90.0
 50
180.0
  0
INSERT
  5
30A9
  8
SP
 62
     2
  2
_OPEN
 10
25207.71603286863
 20
-1075.6087700077551
 30
0.0
 41
90.0
 42
90.0
 43
90.0
  0
TEXT
  8
0
  40
135
  5
3111
  62
2
  72
0
  71
0
 10
23752.2
 20
-1224.56
 30
0.000000
  1
2371
  0
POINT
  5
30AB
  8
DEFPOINTS
 62
     0
 10
22836.71603286863
 20
-402.5313497395091
 30
0.0
  0
POINT
  5
30AC
  8
DEFPOINTS
 62
     0
 10
25207.71603286863
 20
-402.5313497395091
 30
0.0
  0
POINT
  5
30AD
  8
DEFPOINTS
 62
     0
 10
25207.71603286863
 20
-1075.6087700077551
 30
0.0
  0
ENDBLK
  5
1B15
  8
0
  0
BLOCK
  8
0
  2
*D12
 70
     1
 10
0.0
 20
0.0
 30
0.0
  3
*D12
  1

  0
LINE
  5
30AE
  8
SP
 62
     2
 10
26036.71603286863
 20
-447.5313497395091
 30
0.0
 11
26036.71603286863
 21
-1120.6087700077551
 31
0.0
  0
LINE
  5
30AF
  8
SP
 62
     2
 10
25297.71603286863
 20
-1075.6087700077551
 30
0.0
 11
25946.71603286863
 21
-1075.6087700077551
 31
0.0
  0
INSERT
  5
30B0
  8
SP
 62
     2
  2
_OPEN
 10
25207.71603286863
 20
-1075.6087700077551
 30
0.0
 41
90.0
 42
90.0
 43
90.0
 50
180.0
  0
INSERT
  5
30B1
  8
SP
 62
     2
  2
_OPEN
 10
26036.71603286863
 20
-1075.6087700077551
 30
0.0
 41
90.0
 42
90.0
 43
90.0
  0
TEXT
  8
0
  40
135
  5
3112
  62
2
  72
0
  71
0
 10
25352.2
 20
-1224.56
 30
0.000000
  1
829
  0
POINT
  5
30B3
  8
DEFPOINTS
 62
     0
 10
25207.71603286863
 20
-402.5313497395091
 30
0.0
  0
POINT
  5
30B4
  8
DEFPOINTS
 62
     0
 10
26036.71603286863
 20
-402.5313497395091
 30
0.0
  0
POINT
  5
30B5
  8
DEFPOINTS
 62
     0
 10
26036.71603286863
 20
-1075.6087700077551
 30
0.0
  0
ENDBLK
  5
1B21
  8
0
  0
BLOCK
  8
0
  2
*D13
 70
     1
 10
0.0
 20
0.0
 30
0.0
  3
*D13
  1

  0
LINE
  5
30B6
  8
SP
 62
     2
 10
26036.71603286863
 20
-1120.6087700077551
 30
0.0
 11
26036.71603286863
 21
-1412.7310702606519
 31
0.0
  0
LINE
  5
30B7
  8
SP
 62
     2
 10
22836.71603286863
 20
-1120.6087700077551
 30
0.0
 11
22836.71603286863
 21
-1412.7310702606519
 31
0.0
  0
LINE
  5
30B8
  8
SP
 62
     2
 10
25946.71603286863
 20
-1367.731070260651
 30
0.0
 11
22926.71603286863
 21
-1367.731070260651
 31
0.0
  0
INSERT
  5
30B9
  8
SP
 62
     2
  2
_OPEN
 10
26036.71603286863
 20
-1367.731070260651
 30
0.0
 41
90.0
 42
90.0
 43
90.0
  0
INSERT
  5
30BA
  8
SP
 62
     2
  2
_OPEN
 10
22836.71603286863
 20
-1367.731070260651
 30
0.0
 41
90.0
 42
90.0
 43
90.0
 50
180.0
  0
TEXT
  8
0
  40
135
  5
3113
  62
2
  72
0
  71
0
 10
24166.7
 20
-1516.68
 30
0.000000
  1
3200
  0
POINT
  5
30BC
  8
DEFPOINTS
 62
     0
 10
26036.71603286863
 20
-1075.6087700077551
 30
0.0
  0
POINT
  5
30BD
  8
DEFPOINTS
 62
     0
 10
22836.71603286863
 20
-1075.6087700077551
 30
0.0
  0
POINT
  5
30BE
  8
DEFPOINTS
 62
     0
 10
22836.71603286863
 20
-1367.731070260651
 30
0.0
  0
ENDBLK
  5
1B2E
  8
0
  0
BLOCK
  8
0
  2
*D14
 70
     1
 10
0.0
 20
0.0
 30
0.0
  3
*D14
  1

  0
LINE
  5
30BF
  8
SP
 62
     2
 10
22697.71603286864
 20
3318.6006556738762
 30
0.0
 11
25117.71603286863
 21
3318.6006556738762
 31
0.0
  0
INSERT
  5
30C0
  8
SP
 62
     2
  2
_OPEN
 10
22607.71603286864
 20
3318.6006556738762
 30
0.0
 41
90.0
 42
90.0
 43
90.0
 50
180.0
  0
INSERT
  5
30C1
  8
SP
 62
     2
  2
_OPEN
 10
25207.71603286863
 20
3318.6006556738762
 30
0.0
 41
90.0
 42
90.0
 43
90.0
  0
TEXT
  8
0
  40
135
  5
3114
  62
2
  72
0
  71
0
 10
23637.7
 20
3169.65
 30
0.000000
  1
2600
  0
POINT
  5
30C3
  8
DEFPOINTS
 62
     0
 10
22607.71603286864
 20
3318.6006556738762
 30
0.0
  0
POINT
  5
30C4
  8
DEFPOINTS
 62
     0
 10
25207.71603286863
 20
3318.6006556738762
 30
0.0
  0
POINT
  5
30C5
  8
DEFPOINTS
 62
     0
 10
25207.71603286863
 20
3318.6006556738762
 30
0.0
  0
ENDBLK
  5
1BFE
  8
0
  0
BLOCK
  8
0
  2
*D15
 70
     1
 10
0.0
 20
0.0
 30
0.0
  3
*D15
  1

  0
LINE
  5
30C6
  8
SP
 62
     2
 10
19678.976423297761
 20
2955.8102160896869
 30
0.0
 11
19678.976423297761
 21
3351.574500555907
 31
0.0
  0
LINE
  5
30C7
  8
SP
 62
     2
 10
17451.97642329775
 20
2887.4686502619511
 30
0.0
 11
17451.97642329775
 21
3351.574500555907
 31
0.0
  0
LINE
  5
30C8
  8
SP
 62
     2
 10
19588.976423297761
 20
3306.574500555907
 30
0.0
 11
17541.97642329775
 21
3306.574500555907
 31
0.0
  0
INSERT
  5
30C9
  8
SP
 62
     2
  2
_OPEN
 10
19678.976423297761
 20
3306.574500555907
 30
0.0
 41
90.0
 42
90.0
 43
90.0
  0
INSERT
  5
30CA
  8
SP
 62
     2
  2
_OPEN
 10
17451.97642329775
 20
3306.574500555907
 30
0.0
 41
90.0
 42
90.0
 43
90.0
 50
180.0
  0
TEXT
  8
0
  40
135
  5
3115
  62
2
  72
0
  71
0
 10
18295.5
 20
3157.62
 30
0.000000
  1
2227
  0
POINT
  5
30CC
  8
DEFPOINTS
 62
     0
 10
19678.976423297761
 20
2910.8102160896869
 30
0.0
  0
POINT
  5
30CD
  8
DEFPOINTS
 62
     0
 10
17451.97642329775
 20
2842.4686502619511
 30
0.0
  0
POINT
  5
30CE
  8
DEFPOINTS
 62
     0
 10
17451.97642329775
 20
3306.574500555907
 30
0.0
  0
ENDBLK
  5
1C2F
  8
0
  0
BLOCK
  8
0
  2
*D16
 70
     1
 10
0.0
 20
0.0
 30
0.0
  3
*D16
  1

  0
LINE
  5
3042
  8
SP
 10
20840.009092711611
 20
-202.5313497395091
 30
0.0
 11
21463.082273593169
 21
-202.53134973950921
 31
0.0
  0
LINE
  5
3043
  8
SP
 10
20840.009092711611
 20
-222.5313497395091
 30
0.0
 11
21463.082273593169
 21
-222.53134973950921
 31
0.0
  0
LINE
  5
3044
  8
SP
 10
21418.082273593169
 20
-112.5313497395092
 30
0.0
 11
21418.082273593169
 21
-22.53134973950927
 31
0.0
  0
LINE
  5
3045
  8
SP
 10
21418.082273593169
 20
-312.53134973950932
 30
0.0
 11
21418.082273593169
 21
-402.53134973950932
 31
0.0
  0
TEXT
  5
3046
  8
FUTO
 10
21684.566667012568
 20
-432.28095497961368
 30
0.0
 40
135.0
  1
(20)
 50
90.0
 51
15.0
  0
LINE
  5
3047
  8
SP
 10
21418.082273593169
 20
-202.53134973950921
 30
0.0
 11
21418.082273593169
 21
-222.53134973950921
 31
0.0
  0
INSERT
  5
3048
  8
SP
  2
_OPEN
 10
21418.082273593169
 20
-202.53134973950921
 30
0.0
 41
90.0
 42
90.0
 43
90.0
 50
270.0
  0
INSERT
  5
3049
  8
SP
  2
_DOT
 10
21418.082273593169
 20
-222.53134973950921
 30
0.0
 41
90.0
 42
90.0
 43
90.0
 50
90.0
  0
POINT
  5
304A
  8
DEFPOINTS
 62
     0
 10
20795.009092711611
 20
-202.5313497395091
 30
0.0
  0
POINT
  5
304B
  8
DEFPOINTS
 62
     0
 10
20795.009092711611
 20
-222.5313497395091
 30
0.0
  0
POINT
  5
304C
  8
DEFPOINTS
 62
     0
 10
21418.082273593169
 20
-222.53134973950921
 30
0.0
  0
ENDBLK
  5
1C46
  8
0
  0
BLOCK
  8
0
  2
*D17
 70
     1
 10
0.0
 20
0.0
 30
0.0
  3
*D17
  1

  0
LINE
  5
30CF
  8
SP
 62
     2
 10
20798.976423297761
 20
7624.7761277753443
 30
0.0
 11
21563.243731779359
 21
7624.7761277753443
 31
0.0
  0
LINE
  5
30D0
  8
SP
 62
     2
 10
21219.883134979929
 20
6719.7761277753434
 30
0.0
 11
21563.243731779359
 21
6719.7761277753434
 31
0.0
  0
LINE
  5
30D1
  8
SP
 62
     2
 10
21518.243731779359
 20
7534.7761277753443
 30
0.0
 11
21518.243731779359
 21
6809.7761277753434
 31
0.0
  0
INSERT
  5
30D2
  8
SP
 62
     2
  2
_OPEN
 10
21518.243731779359
 20
7624.7761277753443
 30
0.0
 41
90.0
 42
90.0
 43
90.0
 50
90.0
  0
INSERT
  5
30D3
  8
SP
 62
     2
  2
_OPEN
 10
21518.243731779359
 20
6719.7761277753434
 30
0.0
 41
90.0
 42
90.0
 43
90.0
 50
270.0
  0
TEXT
  8
0
  40
135
  5
3116
  62
2
  72
0
  71
0
 10
21158.2
 20
6916.61
 30
0.000000
  1
905
  0
POINT
  5
30D5
  8
DEFPOINTS
 62
     0
 10
20753.976423297761
 20
7624.7761277753443
 30
0.0
  0
POINT
  5
30D6
  8
DEFPOINTS
 62
     0
 10
21174.883134979929
 20
6719.7761277753434
 30
0.0
  0
POINT
  5
30D7
  8
DEFPOINTS
 62
     0
 10
21518.243731779359
 20
6719.7761277753434
 30
0.0
  0
ENDBLK
  5
2561
  8
0
  0
BLOCK
  8
0
  2
*D18
 70
     1
 10
0.0
 20
0.0
 30
0.0
  3
*D18
  1

  0
LINE
  5
30D8
  8
SP
 62
     2
 10
21219.883134979929
 20
6719.7761277753434
 30
0.0
 11
21563.243731779359
 21
6719.7761277753434
 31
0.0
  0
LINE
  5
30D9
  8
SP
 62
     2
 10
20203.976423297761
 20
4119.776127775347
 30
0.0
 11
21563.243731779359
 21
4119.776127775347
 31
0.0
  0
LINE
  5
30DA
  8
SP
 62
     2
 10
21518.243731779359
 20
6629.7761277753434
 30
0.0
 11
21518.243731779359
 21
4209.776127775347
 31
0.0
  0
INSERT
  5
30DB
  8
SP
 62
     2
  2
_OPEN
 10
21518.243731779359
 20
6719.7761277753434
 30
0.0
 41
90.0
 42
90.0
 43
90.0
 50
90.0
  0
INSERT
  5
30DC
  8
SP
 62
     2
  2
_OPEN
 10
21518.243731779359
 20
4119.776127775347
 30
0.0
 41
90.0
 42
90.0
 43
90.0
 50
270.0
  0
TEXT
  8
0
  40
135
  5
3117
  62
2
  72
0
  71
0
 10
21158.2
 20
5180.83
 30
0.000000
  1
2600
  0
POINT
  5
30DE
  8
DEFPOINTS
 62
     0
 10
21174.883134979929
 20
6719.7761277753434
 30
0.0
  0
POINT
  5
30DF
  8
DEFPOINTS
 62
     0
 10
20158.976423297761
 20
4119.776127775347
 30
0.0
  0
POINT
  5
30E0
  8
DEFPOINTS
 62
     0
 10
21518.243731779359
 20
4119.776127775347
 30
0.0
  0
ENDBLK
  5
256E
  8
0
  0
BLOCK
  8
0
  2
*D19
 70
     1
 10
0.0
 20
0.0
 30
0.0
  3
*D19
  1

  0
LINE
  5
30E1
  8
FUTO
 62
     2
 10
17428.976423297761
 20
6010.7761277753416
 30
0.0
 11
17428.976423297761
 21
8099.7419172812479
 31
0.0
  0
LINE
  5
30E2
  8
FUTO
 62
     2
 10
19678.976423297761
 20
7923.3945082093878
 30
0.0
 11
19678.976423297761
 21
8099.7419172812479
 31
0.0
  0
LINE
  5
30E3
  8
FUTO
 62
     2
 10
17518.976423297761
 20
8054.7419172812479
 30
0.0
 11
19588.976423297761
 21
8054.7419172812479
 31
0.0
  0
INSERT
  5
30E4
  8
FUTO
 62
     2
  2
_OPEN
 10
17428.976423297761
 20
8054.7419172812479
 30
0.0
 41
90.0
 42
90.0
 43
90.0
 50
180.0
  0
INSERT
  5
30E5
  8
FUTO
 62
     2
  2
_OPEN
 10
19678.976423297761
 20
8054.7419172812479
 30
0.0
 41
90.0
 42
90.0
 43
90.0
  0
TEXT
  8
0
  40
135
  5
3118
  62
2
  72
0
  71
0
 10
18284.0
 20
7905.79
 30
0.000000
  1
2250
  0
POINT
  5
30E7
  8
DEFPOINTS
 62
     0
 10
17428.976423297761
 20
5965.7761277753416
 30
0.0
  0
POINT
  5
30E8
  8
DEFPOINTS
 62
     0
 10
19678.976423297761
 20
7878.3945082093887
 30
0.0
  0
POINT
  5
30E9
  8
DEFPOINTS
 62
     0
 10
19678.976423297761
 20
8054.7419172812479
 30
0.0
  0
ENDBLK
  5
2703
  8
0
  0
BLOCK
  8
0
  2
*D20
 70
     1
 10
0.0
 20
0.0
 30
0.0
  3
*D20
  1

  0
LINE
  5
30EA
  8
FUTO
 62
     2
 10
19678.976423297761
 20
7923.3945082093878
 30
0.0
 11
19678.976423297761
 21
8099.7419172812479
 31
0.0
  0
LINE
  5
30EB
  8
FUTO
 62
     2
 10
21170.976423297761
 20
7568.776127775347
 30
0.0
 11
21170.976423297761
 21
8099.7419172812479
 31
0.0
  0
LINE
  5
30EC
  8
FUTO
 62
     2
 10
19768.976423297761
 20
8054.7419172812479
 30
0.0
 11
21080.976423297761
 21
8054.7419172812479
 31
0.0
  0
INSERT
  5
30ED
  8
FUTO
 62
     2
  2
_OPEN
 10
19678.976423297761
 20
8054.7419172812479
 30
0.0
 41
90.0
 42
90.0
 43
90.0
 50
180.0
  0
INSERT
  5
30EE
  8
FUTO
 62
     2
  2
_OPEN
 10
21170.976423297761
 20
8054.7419172812479
 30
0.0
 41
90.0
 42
90.0
 43
90.0
  0
TEXT
  8
0
  40
135
  5
3119
  62
2
  72
0
  71
0
 10
20155.0
 20
7905.79
 30
0.000000
  1
1492
  0
POINT
  5
30F0
  8
DEFPOINTS
 62
     0
 10
19678.976423297761
 20
7878.3945082093887
 30
0.0
  0
POINT
  5
30F1
  8
DEFPOINTS
 62
     0
 10
21170.976423297761
 20
7523.776127775348
 30
0.0
  0
POINT
  5
30F2
  8
DEFPOINTS
 62
     0
 10
21170.976423297761
 20
8054.7419172812479
 30
0.0
  0
ENDBLK
  5
2710
  8
0
  0
BLOCK
  8
0
  2
*D21
 70
     1
 10
0.0
 20
0.0
 30
0.0
  3
*D21
  1

  0
LINE
  5
30F3
  8
FUTO
 62
     2
 10
20873.976423297761
 20
-202.5313497395091
 30
0.0
 11
21463.082273593169
 21
-202.53134973950921
 31
0.0
  0
LINE
  5
30F4
  8
FUTO
 62
     2
 10
21287.820001131939
 20
1567.4686502604909
 30
0.0
 11
21463.082273593169
 21
1567.4686502604909
 31
0.0
  0
LINE
  5
30F5
  8
FUTO
 62
     2
 10
21418.082273593169
 20
-112.5313497395092
 30
0.0
 11
21418.082273593169
 21
1477.46865026049
 31
0.0
  0
INSERT
  5
30F6
  8
FUTO
 62
     2
  2
_OPEN
 10
21418.082273593169
 20
-202.53134973950921
 30
0.0
 41
90.0
 42
90.0
 43
90.0
 50
270.0
  0
INSERT
  5
30F7
  8
FUTO
 62
     2
  2
_OPEN
 10
21418.082273593169
 20
1567.4686502604909
 30
0.0
 41
90.0
 42
90.0
 43
90.0
 50
90.0
  0
TEXT
  8
0
  40
135
  5
311A
  62
2
  72
0
  71
0
 10
21058.1
 20
443.519
 30
0.000000
  1
1770
  0
POINT
  5
30F9
  8
DEFPOINTS
 62
     0
 10
20828.976423297761
 20
-202.5313497395091
 30
0.0
  0
POINT
  5
30FA
  8
DEFPOINTS
 62
     0
 10
21242.820001131931
 20
1567.4686502604909
 30
0.0
  0
POINT
  5
30FB
  8
DEFPOINTS
 62
     0
 10
21418.082273593169
 20
1567.4686502604909
 30
0.0
  0
ENDBLK
  5
271D
  8
0
  0
BLOCK
  8
0
  2
*D22
 70
     1
 10
0.0
 20
0.0
 30
0.0
  3
*D22
  1

  0
LINE
  5
30FC
  8
FUTO
 62
     2
 10
21287.820001131939
 20
1567.4686502604909
 30
0.0
 11
21463.082273593169
 21
1567.4686502604909
 31
0.0
  0
LINE
  5
30FD
  8
FUTO
 62
     2
 10
19714.976423297761
 20
2842.4686502609461
 30
0.0
 11
21463.082273593169
 21
2842.4686502609461
 31
0.0
  0
LINE
  5
30FE
  8
FUTO
 62
     2
 10
21418.082273593169
 20
1657.46865026049
 30
0.0
 11
21418.082273593169
 21
2752.4686502609461
 31
0.0
  0
INSERT
  5
30FF
  8
FUTO
 62
     2
  2
_OPEN
 10
21418.082273593169
 20
1567.4686502604909
 30
0.0
 41
90.0
 42
90.0
 43
90.0
 50
270.0
  0
INSERT
  5
3100
  8
FUTO
 62
     2
  2
_OPEN
 10
21418.082273593169
 20
2842.4686502609461
 30
0.0
 41
90.0
 42
90.0
 43
90.0
 50
90.0
  0
TEXT
  8
0
  40
135
  5
311B
  62
2
  72
0
  71
0
 10
21058.1
 20
1966.02
 30
0.000000
  1
1275
  0
POINT
  5
3102
  8
DEFPOINTS
 62
     0
 10
21242.820001131931
 20
1567.4686502604909
 30
0.0
  0
POINT
  5
3103
  8
DEFPOINTS
 62
     0
 10
19669.976423297761
 20
2842.4686502609461
 30
0.0
  0
POINT
  5
3104
  8
DEFPOINTS
 62
     0
 10
21418.082273593169
 20
2842.4686502609461
 30
0.0
  0
ENDBLK
  5
272A
  8
0
  0
BLOCK
  8
0
  2
*D23
 70
     1
 10
0.0
 20
0.0
 30
0.0
  3
*D23
  1

  0
LINE
  5
3105
  8
FUTO
 62
     2
 10
25207.71603286863
 20
3296.1604273309931
 30
0.0
 11
25207.71603286863
 21
3363.6006556738762
 31
0.0
  0
LINE
  5
3106
  8
FUTO
 62
     2
 10
26112.71603286863
 20
2687.4686502604909
 30
0.0
 11
26112.71603286863
 21
3363.6006556738762
 31
0.0
  0
LINE
  5
3107
  8
FUTO
 62
     2
 10
25297.71603286863
 20
3318.6006556738762
 30
0.0
 11
26022.71603286864
 21
3318.6006556738762
 31
0.0
  0
INSERT
  5
3108
  8
FUTO
 62
     2
  2
_OPEN
 10
25207.71603286863
 20
3318.6006556738762
 30
0.0
 41
90.0
 42
90.0
 43
90.0
 50
180.0
  0
INSERT
  5
3109
  8
FUTO
 62
     2
  2
_OPEN
 10
26112.71603286863
 20
3318.6006556738762
 30
0.0
 41
90.0
 42
90.0
 43
90.0
  0
TEXT
  8
0
  40
135
  5
311C
  62
2
  72
0
  71
0
 10
25390.2
 20
3169.65
 30
0.000000
  1
905
  0
POINT
  5
310B
  8
DEFPOINTS
 62
     0
 10
25207.71603286863
 20
3251.1604273309931
 30
0.0
  0
POINT
  5
310C
  8
DEFPOINTS
 62
     0
 10
26112.71603286863
 20
2642.4686502604909
 30
0.0
  0
POINT
  5
310D
  8
DEFPOINTS
 62
     0
 10
26112.71603286863
 20
3318.6006556738762
 30
0.0
  0
ENDBLK
  5
279C
  8
0
  0
ENDSEC
  0
SECTION
  2
ENTITIES
  0
LINE
  5
46
  8
FUTO
 10
23091.71603286863
 20
1407.46865026049
 30
0.0
 11
24341.71603286863
 21
1407.46865026049
 31
0.0
  0
LINE
  5
49
  8
FUTO
 10
24149.71603286863
 20
1624.96865026049
 30
0.0
 11
23087.71603286863
 21
1624.96865026049
 31
0.0
  0
LINE
  5
4A
  8
FUTO
 10
24149.71603286863
 20
1509.96865026049
 30
0.0
 11
23087.71603286863
 21
1509.96865026049
 31
0.0
  0
LINE
  5
4B
  8
FUTO
 10
22836.71603286863
 20
-22.531349739509089
 30
0.0
 11
26050.91603286863
 21
-22.531349739509089
 31
0.0
  0
LINE
  5
4C
  8
CT
 10
26234.979244867602
 20
1567.4686502604909
 30
0.0
 11
22502.938609870231
 21
1567.4686502604909
 31
0.0
  0
LINE
  5
4F
  8
FUTO
 10
22836.71603286863
 20
-222.5313497395091
 30
0.0
 11
26036.71603286863
 21
-222.5313497395091
 31
0.0
  0
LINE
  5
50
  8
FUTO
 10
22911.71603286863
 20
-202.5313497395091
 30
0.0
 11
25961.71603286864
 21
-202.5313497395091
 31
0.0
  0
LINE
  5
51
  8
FUTO
 10
22911.71603286863
 20
-390.53134973950898
 30
0.0
 11
24424.861111322782
 21
-390.53134973950898
 31
0.0
  0
LINE
  5
52
  8
FUTO
 10
22911.71603286863
 20
-234.53134973950901
 30
0.0
 11
24424.861111322771
 21
-234.53134973950901
 31
0.0
  0
LINE
  5
53
  8
FUTO
 10
22911.71603286863
 20
-190.53134973950901
 30
0.0
 11
24424.861111322782
 21
-190.53134973950901
 31
0.0
  0
LINE
  5
54
  8
FUTO
 10
22911.71603286863
 20
-34.531349739509089
 30
0.0
 11
24424.861111322782
 21
-34.531349739509089
 31
0.0
  0
DIMENSION
  5
6B
  8
SP
  2
*D8
 10
17428.976423297761
 20
-1365.484973653598
 30
0.0
 11
19128.976423297761
 21
-1275.484973653598
 31
0.0
 70
     0
 13
20828.976423297761
 23
-402.5313497395091
 33
0.0
 14
17428.976423297761
 24
-402.5313497395091
 34
0.0
1001
ACAD
1000
DSTYLE
1002
{
1070
   287
1070
     0
1070
   287
1070
     0
1070
    40
1040
45.0
1070
   140
1040
3.0
1070
   143
1040
0.03937
1070
   147
1040
0.5
1070
   173
1070
     1
1070
   176
1070
   256
1070
   177
1070
   256
1070
   178
1070
   256
1070
   271
1070
     4
1070
   272
1070
     4
1070
   279
1070
     0
1070
   285
1070
     0
1070
   286
1070
     0
1070
   289
1070
     0
1070
     6
1000
OPEN
1070
     7
1000
OPEN
1002
}
  0
LINE
  5
78
  8
CT
 10
17567.34979093431
 20
1567.4686502604909
 30
0.0
 11
17585.94322315761
 21
1567.4686502604909
 31
0.0
  0
LINE
  5
80
  8
FUTO
 10
18153.743430059239
 20
-202.5313497395091
 30
0.0
 11
17588.209732483068
 21
-202.5313497395091
 31
0.0
  0
ARC
  5
86
  8
KL
 10
19531.976423297761
 20
1420.4686502604909
 30
0.0
 40
1589.0
 50
270.0
 51
0.0
  0
LINE
  5
89
  8
FUTO
 10
20828.976423297761
 20
-202.5313497395091
 30
0.0
 11
17428.976423297761
 21
-202.5313497395091
 31
0.0
  0
LINE
  5
8A
  8
FUTO
 10
20828.976423297761
 20
-22.531349739509089
 30
0.0
 11
17428.976423297761
 21
-22.531349739509089
 31
0.0
  0
LINE
  5
8C
  8
FUTO
 10
20828.976423297761
 20
-222.5313497395091
 30
0.0
 11
17428.976423297761
 21
-222.5313497395091
 31
0.0
  0
LINE
  5
8D
  8
FUTO
 10
20828.976423297761
 20
-402.5313497395091
 30
0.0
 11
17428.976423297761
 21
-402.5313497395091
 31
0.0
  0
LINE
  5
8E
  8
FUTO
 10
20828.976423297761
 20
-38.531349739509089
 30
0.0
 11
17428.976423297761
 21
-38.531349739509089
 31
0.0
  0
LINE
  5
8F
  8
FUTO
 10
20828.976423297761
 20
-186.53134973950901
 30
0.0
 11
17428.976423297761
 21
-186.53134973950901
 31
0.0
  0
LINE
  5
90
  8
FUTO
 10
20828.976423297761
 20
-238.53134973950901
 30
0.0
 11
17428.976423297761
 21
-238.53134973950901
 31
0.0
  0
LINE
  5
91
  8
FUTO
 10
20828.976423297761
 20
-386.53134973950898
 30
0.0
 11
17428.976423297761
 21
-386.53134973950898
 31
0.0
  0
ARC
  5
92
  8
KL
 10
19531.976423297761
 20
1714.46865026049
 30
0.0
 40
1883.0
 50
185.57161837836699
 51
270.0
  0
ARC
  5
93
  8
FUTO
 10
19531.976423297761
 20
1714.46865026049
 30
0.0
 40
1903.0
 50
185.48736012707101
 51
204.75963211347539
  0
LINE
  5
A6
  8
FUTO
 10
17428.976423297761
 20
-202.5313497395091
 30
0.0
 11
17428.97642329775
 21
-22.531349739509089
 31
0.0
  0
LINE
  5
A7
  8
FUTO
 10
17428.976423297761
 20
-402.5313497395091
 30
0.0
 11
17428.976423297761
 21
-222.5313497395091
 31
0.0
  0
LINE
  5
FF
  8
FUTO
 10
23091.71603286863
 20
1427.46865026049
 30
0.0
 11
23091.71603286863
 21
1407.46865026049
 31
0.0
  0
LINE
  5
100
  8
FUTO
 10
22911.71603286863
 20
1427.46865026049
 30
0.0
 11
22911.71603286863
 21
-22.531349739509089
 31
0.0
  0
LINE
  5
101
  8
SL
 10
22855.516032868629
 20
1942.4686502604909
 30
0.0
 11
22855.516032868629
 21
172.46865026049079
 31
0.0
  0
LINE
  5
102
  8
SL
 10
22725.51603286864
 20
1942.4686502604909
 30
0.0
 11
22725.51603286864
 21
172.46865026049079
 31
0.0
  0
LINE
  5
103
  8
FUTO
 10
22607.71603286864
 20
2047.4686502604909
 30
0.0
 11
22607.71603286863
 21
77.468650260490904
 31
0.0
  0
LINE
  5
104
  8
FUTO
 10
20819.97642329775
 20
-22.531349739509089
 30
0.0
 11
20819.976423297761
 21
2314.978995026574
 31
0.0
  0
LINE
  5
105
  8
FUTO
 10
20828.976423297761
 20
-202.5313497395091
 30
0.0
 11
20828.976423297761
 21
2304.3312047158238
 31
0.0
  0
ARC
  5
10A
  8
KL
 10
19801.476423297761
 20
1444.9686502604909
 30
0.0
 40
1319.5
 50
358.9360914973721
 51
90.0
  0
ARC
  5
10B
  8
FUTO
 10
19801.476423297761
 20
1444.9686502604909
 30
0.0
 40
1339.5
 50
5.2471470658387798
 51
90.0
  0
LINE
  5
10D
  8
CT
 10
19678.976423297761
 20
-464.86136865866132
 30
0.0
 11
19678.976423297761
 21
2987.0860483910292
 31
0.0
  0
LINE
  5
10E
  8
FUTO
 10
18519.976423297761
 20
132.50634224885101
 30
0.0
 11
18519.976423297761
 21
386.31778465327938
 31
0.0
  0
LINE
  5
110
  8
CT
 10
17828.976423297761
 20
1003.752127521067
 30
0.0
 11
17828.976423297761
 21
-359.46296121078012
 31
0.0
  0
LINE
  5
111
  8
FUTO
 10
18537.976423297761
 20
-22.531349739509089
 30
0.0
 11
18537.976423297761
 21
396.16456442135899
 31
0.0
  0
LINE
  5
112
  8
FUTO
 10
18528.976423297761
 20
-22.531349739509089
 30
0.0
 11
18528.976423297761
 21
391.24117453731918
 31
0.0
  0
LINE
  5
127
  8
FUTO
 10
18528.976423297761
 20
108.1056591143678
 30
0.0
 11
18493.621084238432
 21
72.750320055040902
 31
0.0
  0
LINE
  5
128
  8
FUTO
 10
18528.976423297761
 20
141.50634224885101
 30
0.0
 11
18475.621084238432
 21
88.151003189524076
 31
0.0
  0
LINE
  5
129
  8
FUTO
 10
18528.976423297761
 20
124.74790154040051
 30
0.0
 11
18484.621084238432
 21
80.392562481074492
 31
0.0
  0
LINE
  5
156
  8
FUTO
 10
18475.621084238432
 20
88.151003189524076
 30
0.0
 11
18493.621084238432
 21
72.750320055040902
 31
0.0
  0
LINE
  5
157
  8
FUTO
 10
18878.976423297761
 20
-202.5313497395081
 30
0.0
 11
18878.976423297761
 21
-8.3193032617982681
 31
0.0
  0
LINE
  5
15F
  8
CT
 10
20695.449102524581
 20
-114.9229615953045
 30
0.0
 11
20695.449102524581
 21
-306.23135508516128
 31
0.0
  0
LINE
  5
160
  8
FUTO
 10
20478.976423297761
 20
-202.5313497395091
 30
0.0
 11
20478.976423297761
 21
-8.3193032617991776
 31
0.0
  0
LINE
  5
162
  8
SP
 10
20735.449102524581
 20
-202.5313497395091
 30
0.0
 11
20735.449102524581
 21
-222.5313497395091
 31
0.0
  0
LINE
  5
163
  8
SP
 10
20655.449102524581
 20
-202.5313497395091
 30
0.0
 11
20655.449102524581
 21
-222.5313497395091
 31
0.0
  0
DIMENSION
  5
164
  8
SP
  2
*D9
 10
21418.082273593169
 20
-402.53134973950932
 30
0.0
 11
21328.082273593169
 21
-762.53134973950569
 31
0.0
 70
     0
 13
20795.009092711611
 23
-222.5313497395091
 33
0.0
 14
20795.009092711611
 24
-402.5313497395091
 34
0.0
 50
90.0
1001
ACAD
1000
DSTYLE
1002
{
1070
   287
1070
     0
1070
   287
1070
     0
1070
    40
1040
45.0
1070
   140
1040
3.0
1070
   143
1040
0.03937
1070
   147
1040
0.5
1070
   173
1070
     1
1070
   176
1070
   256
1070
   177
1070
   256
1070
   178
1070
   256
1070
   271
1070
     4
1070
   272
1070
     4
1070
   279
1070
     0
1070
   285
1070
     0
1070
   286
1070
     0
1070
   289
1070
     0
1070
     6
1000
DOT
1070
     7
1000
OPEN
1002
}
  0
DIMENSION
  5
17B
  8
SP
  2
*D16
 10
21418.082273593169
 20
-222.53134973950921
 30
0.0
 11
21639.566667012568
 21
-226.73560853294191
 31
0.0
 70
   128
  1
(<>)
 13
20795.009092711611
 23
-202.5313497395091
 33
0.0
 14
20795.009092711611
 24
-222.5313497395091
 34
0.0
 50
90.0
1001
ACAD
1000
DSTYLE
1002
{
1070
   140
1040
3.0
1070
   272
1070
     4
1070
    40
1040
45.0
1070
   173
1070
     1
1070
   147
1040
0.5
1070
   271
1070
     4
1070
   178
1070
   256
1070
   177
1070
   256
1070
   176
1070
   256
1070
     7
1000
_DOT
1070
     6
1000
_OPEN
1070
     5
1000

1070
   285
1070
     0
1070
   286
1070
     0
1070
   143
1040
0.03937
1002
}
  0
LINE
  5
18A
  8
FUTO
 10
20828.976423297761
 20
-402.5313497395091
 30
0.0
 11
20828.976423297761
 21
-222.5313497395091
 31
0.0
  0
ARC
  5
19A
  8
FUTO
 10
22894.71603286863
 20
-179.45598012182381
 30
0.0
 40
10.0
 50
275.0
 51
0.0
  0
LINE
  5
19B
  8
FUTO
 10
22911.71603286863
 20
-22.531349739509089
 30
0.0
 11
22911.71603286863
 21
-202.5313497395091
 31
0.0
  0
ARC
  5
1A0
  8
FUTO
 10
22894.71603286863
 20
-245.60671935719429
 30
0.0
 40
10.0
 50
0.0
 51
85.000000000000014
  0
LINE
  5
1A1
  8
FUTO
 10
22836.71603286863
 20
-199.60834243885711
 30
0.0
 11
22836.71603286863
 21
-202.5313497395091
 31
0.0
  0
ARC
  5
1A2
  8
FUTO
 10
22842.21603286863
 20
-199.6083424388562
 30
0.0
 40
5.5
 50
95.000000000000057
 51
180.00000000000051
  0
LINE
  5
1A3
  8
FUTO
 10
22836.71603286863
 20
-225.45435704016199
 30
0.0
 11
22836.71603286863
 21
-222.5313497395091
 31
0.0
  0
ARC
  5
1A4
  8
FUTO
 10
22842.21603286863
 20
-225.45435704016199
 30
0.0
 40
5.5
 50
180.0
 51
265.0
  0
LINE
  5
1A5
  8
FUTO
 10
22911.71603286863
 20
-202.5313497395091
 30
0.0
 11
22836.71603286863
 21
-202.5313497395091
 31
0.0
  0
LINE
  5
1A6
  8
FUTO
 10
22895.587590296109
 20
-189.41792710274149
 30
0.0
 11
22841.736676283519
 21
-194.12927159935219
 31
0.0
  0
LINE
  5
1A7
  8
FUTO
 10
22895.587590296109
 20
-235.64477237627671
 30
0.0
 11
22841.736676283519
 21
-230.93342787966591
 31
0.0
  0
LINE
  5
1A8
  8
FUTO
 10
22911.71603286863
 20
-222.5313497395091
 30
0.0
 11
22836.71603286863
 21
-222.5313497395091
 31
0.0
  0
ARC
  5
1A9
  8
FUTO
 10
22894.71603286863
 20
-379.4559801218237
 30
0.0
 40
10.0
 50
275.0
 51
0.0
  0
LINE
  5
1AA
  8
FUTO
 10
22836.71603286863
 20
-399.60834243885711
 30
0.0
 11
22836.71603286863
 21
-402.5313497395091
 31
0.0
  0
ARC
  5
1AB
  8
FUTO
 10
22842.21603286863
 20
-399.6083424388562
 30
0.0
 40
5.5
 50
95.000000000000057
 51
180.00000000000051
  0
LINE
  5
1AC
  8
FUTO
 10
22911.71603286863
 20
-402.5313497395091
 30
0.0
 11
22836.71603286863
 21
-402.5313497395091
 31
0.0
  0
LINE
  5
1AD
  8
FUTO
 10
22895.587590296109
 20
-389.41792710274149
 30
0.0
 11
22841.736676283519
 21
-394.12927159935219
 31
0.0
  0
LINE
  5
1AE
  8
FUTO
 10
22911.71603286863
 20
-222.5313497395091
 30
0.0
 11
22911.71603286863
 21
-402.5313497395091
 31
0.0
  0
LINE
  5
1AF
  8
FUTO
 10
22904.71603286863
 20
-245.60671935719429
 30
0.0
 11
22904.71603286863
 21
-379.4559801218237
 31
0.0
  0
LINE
  5
1B0
  8
CT
 10
22984.112340875221
 20
327.46865026048079
 30
0.0
 11
22509.907983953959
 21
327.46865026048079
 31
0.0
  0
LINE
  5
1B1
  8
SL
 10
22855.516032868629
 20
172.46865026049079
 30
0.0
 11
22725.51603286864
 21
172.46865026049079
 31
0.0
  0
LINE
  5
1B2
  8
FUTO
 10
22888.465067031138
 20
77.468650260490904
 30
0.0
 11
22607.71603286863
 21
77.468650260490904
 31
0.0
  0
ARC
  5
1B3
  8
FUTO
 10
22894.71603286863
 20
-45.606719357194379
 30
0.0
 40
10.0
 50
0.0
 51
85.000000000000014
  0
LINE
  5
1B4
  8
FUTO
 10
22836.71603286863
 20
-25.454357040161991
 30
0.0
 11
22836.71603286863
 21
-22.531349739509089
 31
0.0
  0
ARC
  5
1B5
  8
FUTO
 10
22842.21603286863
 20
-25.454357040161991
 30
0.0
 40
5.5
 50
180.0
 51
265.0
  0
LINE
  5
1B6
  8
FUTO
 10
22895.587590296109
 20
-35.644772376276698
 30
0.0
 11
22841.736676283519
 21
-30.933427879665938
 31
0.0
  0
LINE
  5
1B7
  8
FUTO
 10
22911.71603286863
 20
-22.531349739509089
 30
0.0
 11
22836.71603286863
 21
-22.531349739509089
 31
0.0
  0
LINE
  5
1B8
  8
FUTO
 10
22904.71603286863
 20
-45.606719357194379
 30
0.0
 11
22904.71603286863
 21
-179.45598012182381
 31
0.0
  0
LINE
  5
1B9
  8
FUTO
 10
22888.465067031138
 20
198.9903662205906
 30
0.0
 11
22888.465067031138
 21
77.468650260490904
 31
0.0
  0
LINE
  5
1C7
  8
KL
 10
17530.976423297761
 20
2842.4686502604909
 30
0.0
 11
17657.87243867962
 21
1531.648370098698
 31
0.0
  0
LINE
  5
1C8
  8
FUTO
 10
17518.14341947771
 20
2767.4686502604909
 30
0.0
 11
17637.96620870649
 21
1529.713929011139
 31
0.0
  0
LINE
  5
1CD
  8
CT
 10
21023.560315718321
 20
1567.4686502604909
 30
0.0
 11
19478.976423297761
 21
1567.4686502604909
 31
0.0
  0
ARC
  5
1D3
  8
KL
 10
19801.476423297761
 20
1689.96865026049
 30
0.0
 40
1074.5
 50
90.0
 51
123.15191494409029
  0
INSERT
  5
1E1
  8
FUTO
  2
右回転矢印
 10
19890.120576226829
 20
2385.7310640664791
 30
0.0
 41
40.0
 42
40.0
 43
40.0
 50
0.996954535217047
  0
LINE
  5
1F0
  8
FUTO
 10
18528.976423297761
 20
1576.46865026049
 30
0.0
 11
18528.976423297761
 21
2767.4686502604909
 31
0.0
  0
LINE
  5
1F1
  8
FUTO
 10
18537.976423297761
 20
1576.46865026049
 30
0.0
 11
18537.976423297761
 21
2767.4686502604909
 31
0.0
  0
LINE
  5
1F3
  8
KL
 10
19478.976423297761
 20
1567.4686502604909
 30
0.0
 11
18916.00174214194
 21
1567.4686502604909
 31
0.0
  0
LINE
  5
1F4
  8
KL
 10
19478.976423297761
 20
1576.46865026049
 30
0.0
 11
18927.121778388439
 21
1576.46865026049
 31
0.0
  0
LINE
  5
1F5
  8
KL
 10
19478.976423297761
 20
1558.4686502604909
 30
0.0
 11
18904.88170589543
 21
1558.4686502604909
 31
0.0
  0
INSERT
  5
226
  8
FUTO
  2
22222F
 10
19678.976423297761
 20
1567.4686502604909
 30
0.0
  0
LINE
  5
259
  8
KL
 10
19678.976423297761
 20
1427.46865026049
 30
0.0
 11
19329.389618820311
 21
1427.46865026049
 31
0.0
  0
LINE
  5
25C
  8
KL
 10
19478.976423297761
 20
1558.4686502604909
 30
0.0
 11
19478.976423297761
 21
1576.46865026049
 31
0.0
  0
LINE
  5
25E
  8
KL
 10
19678.976423297761
 20
1427.46865026049
 30
0.0
 11
20028.563227775201
 21
1427.46865026049
 31
0.0
  0
CIRCLE
  5
265
  8
KL
 10
19200.476423297761
 20
2610.0773394923658
 30
0.0
 40
24.5
  0
LINE
  5
26C
  8
SP
 10
22607.71603286864
 20
2087.4686502604909
 30
0.0
 11
22607.71603286864
 21
3358.6006556738762
 31
0.0
  0
LINE
  5
289
  8
FUTO
 10
19594.976423297761
 20
2767.4686502604909
 30
0.0
 11
17518.14341947771
 21
2767.4686502604909
 31
0.0
  0
LINE
  5
28A
  8
FUTO
 10
19594.976423297761
 20
2836.4686502604909
 30
0.0
 11
17526.976423297761
 21
2836.4686502604909
 31
0.0
  0
LINE
  5
28B
  8
FUTO
 10
19669.976423297761
 20
2842.4686502604909
 30
0.0
 11
17451.97642329775
 21
2842.4686502604909
 31
0.0
  0
LINE
  5
28E
  8
FUTO
 10
19669.976423297849
 20
2842.4686502609461
 30
0.0
 11
17451.976423297849
 21
2842.4686502619511
 31
0.0
  0
LINE
  5
28F
  8
FUTO
 10
19669.97642329786
 20
2842.4686502604368
 30
0.0
 11
17451.97642329786
 21
2842.4686502619511
 31
0.0
  0
INSERT
  5
291
  8
FUTO
  2
L-75-6
 10
19480.369961894201
 20
2923.8982471449649
 30
0.0
 41
-1.0
 50
180.0
  0
ARC
  5
29E
  8
FUTO
 10
19801.476423297761
 20
1689.96865026049
 30
0.0
 40
1094.5
 50
92.629005839964307
 51
100.0234996675966
  0
LINE
  5
2A1
  8
CT
 10
19678.976423297761
 20
2938.752057284828
 30
0.0
 11
19678.976423297761
 21
2806.7533206423859
 31
0.0
  0
LINE
  5
2A2
  8
FUTO
 10
19634.74448395432
 20
2803.133098372572
 30
0.0
 11
19634.74448395428
 21
2897.8294096011932
 31
0.0
  0
ARC
  5
2A3
  8
FUTO
 10
19801.476423297761
 20
1689.96865026049
 30
0.0
 40
1094.5
 50
90.0
 51
91.681558003073349
  0
LINE
  5
2A5
  8
KL
 10
19590.976423297761
 20
2743.6479183492202
 30
0.0
 11
19590.976423297761
 21
2842.4686502604909
 31
0.0
  0
LINE
  5
2A6
  8
FUTO
 10
19594.976423297761
 20
2767.4686502604909
 30
0.0
 11
19594.976423297761
 21
2842.4686502604909
 31
0.0
  0
LINE
  5
2A7
  8
FUTO
 10
19610.976423297761
 20
2767.7626936658162
 30
0.0
 11
19598.05364132773
 21
2767.7626936658162
 31
0.0
  0
LINE
  5
2A8
  8
FUTO
 10
22937.71603286863
 20
1682.46865026049
 30
0.0
 11
22937.71603286863
 21
1487.4686502604909
 31
0.0
  0
LINE
  5
2A9
  8
FUTO
 10
23065.71603286863
 20
1682.46865026049
 30
0.0
 11
23065.71603286863
 21
1487.4686502604909
 31
0.0
  0
LINE
  5
2AA
  8
CT
 10
23001.71603286863
 20
1730.96026877032
 30
0.0
 11
23001.71603286863
 21
1416.3114964984511
 31
0.0
  0
LINE
  5
2AB
  8
FUTO
 10
22923.71603286863
 20
1682.46865026049
 30
0.0
 11
22923.71603286863
 21
1452.4686502604909
 31
0.0
  0
LINE
  5
2AC
  8
FUTO
 10
23079.71603286863
 20
1682.46865026049
 30
0.0
 11
23079.71603286863
 21
1452.4686502604909
 31
0.0
  0
LINE
  5
2AD
  8
FUTO
 10
23065.71603286863
 20
1682.46865026049
 30
0.0
 11
23065.71603286863
 21
1487.4686502604909
 31
0.0
  0
LINE
  5
2AE
  8
FUTO
 10
22915.71603286863
 20
1647.4686502604909
 30
0.0
 11
22915.71603286863
 21
1487.4686502604909
 31
0.0
  0
LINE
  5
2AF
  8
FUTO
 10
23087.71603286863
 20
1647.4686502604909
 30
0.0
 11
23087.71603286863
 21
1487.4686502604909
 31
0.0
  0
LINE
  5
2B1
  8
SL
 10
22855.516032868629
 20
452.4686502604809
 30
0.0
 11
22725.51603286864
 21
452.4686502604809
 31
0.0
  0
LINE
  5
2B2
  8
SL
 10
22855.516032868629
 20
1192.4686502604909
 30
0.0
 11
22725.51603286864
 21
1192.4686502604909
 31
0.0
  0
LINE
  5
2B3
  8
FUTO
 10
22931.71603286863
 20
1437.46865026049
 30
0.0
 11
23071.71603286863
 21
1437.46865026049
 31
0.0
  0
LINE
  5
2B4
  8
FUTO
 10
22931.71603286863
 20
1487.4686502604909
 30
0.0
 11
23071.71603286863
 21
1487.4686502604909
 31
0.0
  0
LINE
  5
2B5
  8
FUTO
 10
22911.71603286863
 20
1427.46865026049
 30
0.0
 11
23091.71603286863
 21
1427.46865026049
 31
0.0
  0
LINE
  5
2B6
  8
CT
 10
22956.71603286863
 20
1514.2153077378439
 30
0.0
 11
22956.71603286863
 21
1416.3114964984511
 31
0.0
  0
LINE
  5
2B7
  8
FUTO
 10
22931.71603286863
 20
1487.4686502604909
 30
0.0
 11
22931.71603286863
 21
1427.46865026049
 31
0.0
  0
LINE
  5
2B8
  8
FUTO
 10
22915.71603286863
 20
1487.4686502604909
 30
0.0
 11
22923.71603286863
 21
1467.4686502604909
 31
0.0
  0
LINE
  5
2B9
  8
FUTO
 10
22923.71603286863
 20
1452.4686502604909
 30
0.0
 11
22931.71603286863
 21
1452.4686502604909
 31
0.0
  0
LINE
  5
2BA
  8
FUTO
 10
22915.71603286863
 20
1619.96865026049
 30
0.0
 11
22855.516032868629
 21
1619.96865026049
 31
0.0
  0
LINE
  5
2BB
  8
FUTO
 10
22915.71603286863
 20
1514.9686502604909
 30
0.0
 11
22855.516032868629
 21
1514.9686502604909
 31
0.0
  0
LINE
  5
2BC
  8
CT
 10
23046.71603286863
 20
1514.2153077378439
 30
0.0
 11
23046.71603286863
 21
1416.3114964984511
 31
0.0
  0
LINE
  5
2BD
  8
FUTO
 10
23071.71603286863
 20
1487.4686502604909
 30
0.0
 11
23071.71603286863
 21
1427.46865026049
 31
0.0
  0
LINE
  5
2BE
  8
FUTO
 10
23079.71603286863
 20
1452.4686502604909
 30
0.0
 11
23071.71603286863
 21
1452.4686502604909
 31
0.0
  0
LINE
  5
2BF
  8
FUTO
 10
23087.71603286863
 20
1487.4686502604909
 30
0.0
 11
23079.71603286863
 21
1467.4686502604909
 31
0.0
  0
LINE
  5
2C0
  8
SL
 10
22855.516032868629
 20
1942.4686502604909
 30
0.0
 11
22725.51603286864
 21
1942.4686502604909
 31
0.0
  0
LINE
  5
2C1
  8
FUTO
 10
22888.465067031138
 20
2047.4686502604909
 30
0.0
 11
22607.71603286864
 21
2047.4686502604909
 31
0.0
  0
POINT
  5
2C2
  8
DEFPOINTS
 10
22607.71603286864
 20
2047.4686502604909
 30
0.0
  0
LINE
  5
2C3
  8
FUTO
 10
22888.465067031138
 20
2047.4686502604909
 30
0.0
 11
22888.465067031138
 21
1780.1908967647721
 31
0.0
  0
LINE
  5
2C4
  8
FUTO
 10
22947.71603286863
 20
1700.46865026049
 30
0.0
 11
23055.71603286863
 21
1700.46865026049
 31
0.0
  0
LINE
  5
2C5
  8
FUTO
 10
22915.71603286863
 20
1647.4686502604909
 30
0.0
 11
22923.71603286863
 21
1667.4686502604909
 31
0.0
  0
LINE
  5
2C6
  8
FUTO
 10
22923.71603286863
 20
1682.46865026049
 30
0.0
 11
22937.71603286863
 21
1682.46865026049
 31
0.0
  0
LINE
  5
2C7
  8
FUTO
 10
22947.71603286863
 20
1700.46865026049
 30
0.0
 11
22947.71603286863
 21
1682.46865026049
 31
0.0
  0
LINE
  5
2C8
  8
FUTO
 10
22937.71603286863
 20
1682.46865026049
 30
0.0
 11
22947.71603286863
 21
1682.46865026049
 31
0.0
  0
LINE
  5
2C9
  8
FUTO
 10
23055.71603286863
 20
1700.46865026049
 30
0.0
 11
23055.71603286863
 21
1682.46865026049
 31
0.0
  0
LINE
  5
2CA
  8
FUTO
 10
23055.71603286863
 20
1682.46865026049
 30
0.0
 11
23065.71603286863
 21
1682.46865026049
 31
0.0
  0
LINE
  5
2CB
  8
FUTO
 10
23079.71603286863
 20
1682.46865026049
 30
0.0
 11
23065.71603286863
 21
1682.46865026049
 31
0.0
  0
LINE
  5
2CC
  8
FUTO
 10
23087.71603286863
 20
1647.4686502604909
 30
0.0
 11
23079.71603286863
 21
1667.4686502604909
 31
0.0
  0
INSERT
  5
2CD
  8
FUTO
  2
まっすぐの矢印
 10
18137.407841076081
 20
3215.5933194396011
 30
0.0
 41
40.0
 42
40.0
 43
40.0
  0
LINE
  5
2D8
  8
FUTO
 10
17486.976423297761
 20
2803.1330983725729
 30
0.0
 11
17486.976423297809
 21
2897.8294096011909
 31
0.0
  0
INSERT
  5
2D9
  8
FUTO
  2
L-75-6
 10
17641.582884701311
 20
2923.8982471449658
 30
0.0
 50
180.0
  0
LINE
  5
2DA
  8
FUTO
 10
17526.976423297849
 20
2842.4686502619138
 30
0.0
 11
17451.976423297849
 21
2842.4686502619511
 31
0.0
  0
LINE
  5
2DB
  8
FUTO
 10
17526.97642329786
 20
2842.4686502618988
 30
0.0
 11
17451.97642329786
 21
2842.4686502619511
 31
0.0
  0
LINE
  5
33E
  8
FUTO
 10
21120.976423297761
 20
5965.7761277753407
 30
0.0
 11
19669.976423297761
 21
5965.7761277753416
 31
0.0
  0
LINE
  5
33F
  8
FUTO
 10
20828.976423297761
 20
5890.7761277753407
 30
0.0
 11
17428.976423297761
 21
5890.7761277753416
 31
0.0
  0
LINE
  5
340
  8
FUTO
 10
20478.976423297761
 20
4348.7761277753407
 30
0.0
 11
17428.976423297761
 21
4348.7761277753407
 31
0.0
  0
LINE
  5
341
  8
FUTO
 10
20478.976423297761
 20
4423.7761277753434
 30
0.0
 11
17428.976423297761
 21
4423.7761277753407
 31
0.0
  0
LINE
  5
35D
  8
FUTO
 10
17428.976423297761
 20
4348.7761277753407
 30
0.0
 11
17428.976423297761
 21
4423.7761277753407
 31
0.0
  0
LINE
  5
35E
  8
SL
 10
17603.976423297761
 20
4423.7761277753407
 30
0.0
 11
17603.976423297761
 21
5327.5761277752727
 31
0.0
  0
POINT
  5
388
  8
DEFPOINTS
 10
17428.976423297761
 20
5965.7761277753416
 30
0.0
  0
LINE
  5
3AB
  8
CT
 10
19678.976423297761
 20
3899.001566544553
 30
0.0
 11
19678.976423297761
 21
7878.3945082093887
 31
0.0
  0
LINE
  5
3AE
  8
FUTO
 10
18528.97642329775
 20
5965.7761277753407
 30
0.0
 11
18528.976423297761
 21
5890.7761277753416
 31
0.0
  0
LINE
  5
44F
  8
FUTO
 10
20478.976423297761
 20
4348.7761277753407
 30
0.0
 11
20478.976423297761
 21
5890.7761277753416
 31
0.0
  0
LINE
  5
450
  8
FUTO
 10
20403.976423297761
 20
4423.7761277753407
 30
0.0
 11
20403.976423297761
 21
5890.7761277753416
 31
0.0
  0
LINE
  5
452
  8
FUTO
 10
18953.976423297761
 20
4423.7761277753407
 30
0.0
 11
18953.976423297761
 21
5890.7761277753416
 31
0.0
  0
LINE
  5
454
  8
FUTO
 10
18878.976423297761
 20
4348.7761277753407
 30
0.0
 11
18878.976423297761
 21
5890.7761277753416
 31
0.0
  0
LINE
  5
546
  8
CT
 10
21174.883134979929
 20
6719.7761277753434
 30
0.0
 11
17261.590992827831
 21
6719.7761277753434
 31
0.0
  0
LINE
  5
547
  8
FUTO
 10
21120.976423297761
 20
7473.7761277753443
 30
0.0
 11
19669.97642329775
 21
7473.7761277753443
 31
0.0
  0
LINE
  5
548
  8
FUTO
 10
20828.976423297761
 20
7548.776127775347
 30
0.0
 11
17451.976423297761
 21
7548.7761277753416
 31
0.0
  0
LINE
  5
568
  8
FUTO
 10
18528.976423297761
 20
7473.776127775348
 30
0.0
 11
18528.976423297761
 21
7548.7761277753452
 31
0.0
  0
DIMENSION
  5
5CF
  8
SP
  2
*D10
 10
26606.905751247661
 20
567.46865026049079
 30
0.0
 11
26606.905751247661
 21
1567.4686502604909
 31
0.0
 70
   128
  1
%%C<>
 13
26112.71603286863
 23
2567.4686502604909
 33
0.0
 14
26112.71603286863
 24
567.4686502604909
 34
0.0
 50
90.0
1001
ACAD
1000
DSTYLE
1002
{
1070
   287
1070
     0
1070
   287
1070
     0
1070
    40
1040
45.0
1070
   140
1040
3.0
1070
   143
1040
0.03937
1070
   147
1040
0.5
1070
   173
1070
     1
1070
   176
1070
   256
1070
   177
1070
   256
1070
   178
1070
   256
1070
   271
1070
     4
1070
   272
1070
     4
1070
   279
1070
     0
1070
   285
1070
     0
1070
   286
1070
     0
1070
   289
1070
     0
1070
     6
1000
OPEN
1070
     7
1000
OPEN
1002
}
  0
LINE
  5
5DE
  8
FUTO
 10
25960.91603286863
 20
-22.531349739509089
 30
0.0
 11
25960.91603286863
 21
1580.46865026049
 31
0.0
  0
LINE
  5
5DF
  8
FUTO
 10
25957.71603286863
 20
-22.531349739509089
 30
0.0
 11
25957.71603286863
 21
1580.46865026049
 31
0.0
  0
LINE
  5
5E0
  8
FUTO
 10
26050.91603286863
 20
-22.531349739509089
 30
0.0
 11
26050.91603286863
 21
1558.4686502604909
 31
0.0
  0
LINE
  5
5E5
  8
KL
 10
25969.916032869522
 20
492.4686502604909
 30
0.0
 11
25969.91603287002
 21
2642.4686502604909
 31
0.0
  0
LINE
  5
5E6
  8
FUTO
 10
26112.71603286863
 20
492.4686502604909
 30
0.0
 11
26112.71603286863
 21
2642.4686502604909
 31
0.0
  0
LINE
  5
5E7
  8
FUTO
 10
26106.71603286863
 20
492.4686502604909
 30
0.0
 11
26106.71603286863
 21
2642.4686502604909
 31
0.0
  0
LINE
  5
5EB
  8
FUTO
 10
24454.51603286864
 20
-22.531349739509089
 30
0.0
 11
24454.516032868629
 21
1478.4686502604909
 31
0.0
  0
LINE
  5
5EC
  8
FUTO
 10
24457.71603286863
 20
-22.531349739509089
 30
0.0
 11
24457.71603286863
 21
1478.4686502604909
 31
0.0
  0
LINE
  5
5ED
  8
FUTO
 10
24364.516032868629
 20
-22.531349739509089
 30
0.0
 11
24364.516032868629
 21
1558.4686502604909
 31
0.0
  0
LINE
  5
5EE
  8
FUTO
 10
24341.71603286863
 20
-22.531349739509089
 30
0.0
 11
24341.71603286863
 21
1407.46865026049
 31
0.0
  0
LINE
  5
5F0
  8
CT
 10
25207.71603286863
 20
-439.51920274087752
 30
0.0
 11
25207.71603286863
 21
3251.1604273309931
 31
0.0
  0
LINE
  5
603
  8
KL
 10
24457.71603286863
 20
-164.53134973950901
 30
0.0
 11
25960.91603286863
 21
-164.53134973950901
 31
0.0
  0
LINE
  5
604
  8
KL
 10
24457.71603286863
 20
-184.5313497395091
 30
0.0
 11
24457.71603286863
 21
-22.531349739509089
 31
0.0
  0
LINE
  5
605
  8
KL
 10
24454.516032868629
 20
-184.5313497395091
 30
0.0
 11
24454.51603286864
 21
-22.531349739509089
 31
0.0
  0
LINE
  5
606
  8
KL
 10
24454.51603286864
 20
-184.5313497395091
 30
0.0
 11
24457.71603286863
 21
-184.5313497395091
 31
0.0
  0
ARC
  5
614
  8
FUTO
 10
25978.71603286863
 20
-179.45598012182381
 30
0.0
 40
10.0
 50
180.0
 51
265.0
  0
LINE
  5
615
  8
KL
 10
25957.71603286863
 20
-184.5313497395091
 30
0.0
 11
25957.71603286863
 21
-22.531349739509089
 31
0.0
  0
LINE
  5
616
  8
KL
 10
25960.91603286863
 20
-184.5313497395091
 30
0.0
 11
25960.91603286863
 21
-22.531349739509089
 31
0.0
  0
LINE
  5
617
  8
FUTO
 10
25961.71603286864
 20
-202.5313497395091
 30
0.0
 11
25961.71603286864
 21
-22.531349739509089
 31
0.0
  0
LINE
  5
618
  8
FUTO
 10
25961.71603286864
 20
-202.5313497395091
 30
0.0
 11
25961.71603286864
 21
-22.531349739509089
 31
0.0
  0
LINE
  5
61B
  8
FUTO
 10
25977.844475441161
 20
-189.41792710274149
 30
0.0
 11
26031.695389453751
 21
-194.12927159935219
 31
0.0
  0
LINE
  5
61C
  8
FUTO
 10
25961.71603286864
 20
-202.5313497395091
 30
0.0
 11
26036.71603286863
 21
-202.5313497395091
 31
0.0
  0
LINE
  5
61D
  8
FUTO
 10
25961.71603286864
 20
-222.5313497395091
 30
0.0
 11
26036.71603286863
 21
-222.5313497395091
 31
0.0
  0
LINE
  5
61E
  8
FUTO
 10
25961.71603286864
 20
-222.5313497395091
 30
0.0
 11
26036.71603286863
 21
-222.5313497395091
 31
0.0
  0
LINE
  5
61F
  8
FUTO
 10
25977.844475441161
 20
-235.64477237627671
 30
0.0
 11
26031.695389453751
 21
-230.93342787966591
 31
0.0
  0
LINE
  5
620
  8
FUTO
 10
25977.844475441161
 20
-389.41792710274149
 30
0.0
 11
26031.695389453751
 21
-394.12927159935219
 31
0.0
  0
LINE
  5
621
  8
FUTO
 10
25961.71603286864
 20
-402.5313497395091
 30
0.0
 11
26036.71603286863
 21
-402.5313497395091
 31
0.0
  0
LINE
  5
622
  8
KL
 10
25957.71603286863
 20
-184.5313497395091
 30
0.0
 11
25960.91603286863
 21
-184.5313497395091
 31
0.0
  0
ARC
  5
623
  8
FUTO
 10
25978.71603286863
 20
-245.60671935719429
 30
0.0
 40
10.0
 50
95.0
 51
180.0
  0
ARC
  5
624
  8
FUTO
 10
25978.71603286863
 20
-379.4559801218237
 30
0.0
 40
10.0
 50
180.0
 51
265.0
  0
LINE
  5
625
  8
FUTO
 10
25961.71603286864
 20
-402.5313497395091
 30
0.0
 11
25961.71603286864
 21
-222.5313497395091
 31
0.0
  0
LINE
  5
626
  8
FUTO
 10
25968.71603286863
 20
-379.4559801218237
 30
0.0
 11
25968.71603286863
 21
-245.60671935719429
 31
0.0
  0
LINE
  5
629
  8
FUTO
 10
26036.71603286863
 20
-199.6083424388562
 30
0.0
 11
26036.71603286863
 21
-202.5313497395091
 31
0.0
  0
ARC
  5
62A
  8
FUTO
 10
26031.21603286863
 20
-199.6083424388562
 30
0.0
 40
5.5
 50
0.0
 51
84.999999999999986
  0
LINE
  5
62B
  8
FUTO
 10
26036.71603286863
 20
-225.454357040161
 30
0.0
 11
26036.71603286863
 21
-222.5313497395091
 31
0.0
  0
ARC
  5
62C
  8
FUTO
 10
26031.21603286863
 20
-225.45435704016199
 30
0.0
 40
5.5
 50
275.0
 51
0.0000000000005598
  0
LINE
  5
62D
  8
FUTO
 10
26036.71603286863
 20
-399.6083424388562
 30
0.0
 11
26036.71603286863
 21
-402.5313497395091
 31
0.0
  0
ARC
  5
62E
  8
FUTO
 10
26031.21603286863
 20
-399.6083424388562
 30
0.0
 40
5.5
 50
0.0
 51
84.999999999999986
  0
LINE
  5
62F
  8
0
 10
25961.71603286864
 20
-22.531349739509089
 30
0.0
 11
26036.71603286863
 21
-22.531349739509089
 31
0.0
  0
LINE
  5
630
  8
FUTO
 10
25977.844475441161
 20
-35.644772376276698
 30
0.0
 11
26031.695389453751
 21
-30.933427879665938
 31
0.0
  0
ARC
  5
631
  8
FUTO
 10
25978.71603286863
 20
-45.606719357194379
 30
0.0
 40
10.0
 50
95.0
 51
180.0
  0
LINE
  5
632
  8
FUTO
 10
25968.71603286863
 20
-179.45598012182381
 30
0.0
 11
25968.71603286863
 21
-45.606719357194379
 31
0.0
  0
LINE
  5
633
  8
FUTO
 10
26036.71603286863
 20
-25.454357040161081
 30
0.0
 11
26036.71603286863
 21
-22.531349739509089
 31
0.0
  0
ARC
  5
634
  8
FUTO
 10
26031.21603286863
 20
-25.454357040161991
 30
0.0
 40
5.5
 50
275.0
 51
0.0000000000005598
  0
LINE
  5
635
  8
KL
 10
25960.91603286863
 20
567.4686502604909
 30
0.0
 11
26112.71603286863
 21
567.4686502604909
 31
0.0
  0
LINE
  5
636
  8
FUTO
 10
25960.91603286863
 20
561.4686502604909
 30
0.0
 11
26050.91603286863
 21
561.4686502604909
 31
0.0
  0
LINE
  5
637
  8
HOSO
 10
25969.91603286954
 20
567.46865026050182
 30
0.0
 11
25960.91603286954
 21
567.46865026050364
 31
0.0
  0
LINE
  5
638
  8
HOSO
 10
25934.796289261431
 20
527.46865026049079
 30
0.0
 11
25992.995445366661
 21
527.46865026049079
 31
0.0
  0
LINE
  5
639
  8
KL
 10
25960.91603286863
 20
492.4686502604909
 30
0.0
 11
25969.916032869522
 21
492.4686502604909
 31
0.0
  0
LINE
  5
63A
  8
FUTO
 10
26050.91603286863
 20
561.4686502604909
 30
0.0
 11
26106.71603286863
 21
561.4686502604909
 31
0.0
  0
LINE
  5
63B
  8
HOSO
 10
26084.67784342865
 20
527.46865026049079
 30
0.0
 11
26142.876999533881
 21
527.46865026049079
 31
0.0
  0
LINE
  5
63C
  8
FUTO
 10
26106.71603286863
 20
492.4686502604909
 30
0.0
 11
26112.71603286863
 21
492.4686502604909
 31
0.0
  0
LINE
  5
68C
  8
FUTO
 10
25960.91603286863
 20
1567.4686502604909
 30
0.0
 11
25960.91603286863
 21
2842.4686502606842
 31
0.0
  0
LINE
  5
68D
  8
FUTO
 10
25957.71603286863
 20
1567.4686502604909
 30
0.0
 11
25957.71603286863
 21
2842.4686502606869
 31
0.0
  0
LINE
  5
68E
  8
FUTO
 10
26035.91603286863
 20
1558.4686502604909
 30
0.0
 11
26035.91603286863
 21
2842.4686502606328
 31
0.0
  0
LINE
  5
68F
  8
FUTO
 10
24457.71603286863
 20
1576.46865026049
 30
0.0
 11
24457.71603286863
 21
2842.4686502604909
 31
0.0
  0
LINE
  5
690
  8
FUTO
 10
24454.51603286864
 20
1576.46865026049
 30
0.0
 11
24454.516032868629
 21
2842.4686502604909
 31
0.0
  0
LINE
  5
691
  8
FUTO
 10
24379.516032868629
 20
1558.4686502604909
 30
0.0
 11
24379.516032868629
 21
2842.4686502604909
 31
0.0
  0
LINE
  5
69A
  8
FUTO
 10
24379.516032868629
 20
1576.46865026049
 30
0.0
 11
26035.91603286863
 21
1576.46865026049
 31
0.0
  0
LINE
  5
69B
  8
FUTO
 10
24364.516032868629
 20
1558.4686502604909
 30
0.0
 11
26050.91603286863
 21
1558.4686502604909
 31
0.0
  0
LINE
  5
6A4
  8
FUTO
 10
24186.71603286863
 20
1472.46865026049
 30
0.0
 11
24186.71603286863
 21
1702.46865026049
 31
0.0
  0
LINE
  5
6A5
  8
FUTO
 10
24173.71603286863
 20
1472.46865026049
 30
0.0
 11
24173.71603286863
 21
1702.46865026049
 31
0.0
  0
LINE
  5
6A6
  8
FUTO
 10
24149.71603286863
 20
1478.46865026049
 30
0.0
 11
24149.71603286863
 21
1656.468650260492
 31
0.0
  0
LINE
  5
6A7
  8
CT
 10
24251.71603286863
 20
1337.1769411859909
 30
0.0
 11
24251.71603286863
 21
1796.802352022286
 31
0.0
  0
LINE
  5
6A8
  8
FUTO
 10
24316.71603286863
 20
1472.46865026049
 30
0.0
 11
24316.71603286863
 21
1702.46865026049
 31
0.0
  0
LINE
  5
6A9
  8
FUTO
 10
24353.71603286863
 20
1478.46865026049
 30
0.0
 11
24353.71603286863
 21
1656.468650260492
 31
0.0
  0
LINE
  5
6AA
  8
FUTO
 10
24329.71603286863
 20
1472.46865026049
 30
0.0
 11
24329.71603286863
 21
1702.46865026049
 31
0.0
  0
LINE
  5
6AB
  8
FUTO
 10
24316.71603286863
 20
1472.46865026049
 30
0.0
 11
24316.71603286863
 21
1702.46865026049
 31
0.0
  0
LINE
  5
6AF
  8
FUTO
 10
24171.71603286863
 20
1417.4686502604909
 30
0.0
 11
24331.71603286863
 21
1417.4686502604909
 31
0.0
  0
LINE
  5
6B0
  8
FUTO
 10
24171.71603286863
 20
1472.46865026049
 30
0.0
 11
24331.71603286863
 21
1472.46865026049
 31
0.0
  0
LINE
  5
6B1
  8
CT
 10
24201.71603286863
 20
1379.10391532739
 30
0.0
 11
24201.71603286863
 21
1501.1622315911361
 31
0.0
  0
LINE
  5
6B2
  8
FUTO
 10
24171.71603286863
 20
1407.46865026049
 30
0.0
 11
24171.71603286863
 21
1472.46865026049
 31
0.0
  0
LINE
  5
6B3
  8
FUTO
 10
24149.71603286863
 20
1478.4686502604909
 30
0.0
 11
24171.71603286863
 21
1454.635316927157
 31
0.0
  0
LINE
  5
6B6
  8
KL
 10
24353.71603286863
 20
1512.46865026049
 30
0.0
 11
24447.360073193289
 21
1512.46865026049
 31
0.0
  0
LINE
  5
6B7
  8
FUTO
 10
24457.71603286863
 20
1496.46865026049
 30
0.0
 11
24457.71603286863
 21
1580.46865026049
 31
0.0
  0
LINE
  5
6B8
  8
FUTO
 10
24454.51603286864
 20
1496.46865026049
 30
0.0
 11
24454.51603286864
 21
1580.46865026049
 31
0.0
  0
LINE
  5
6BA
  8
CT
 10
24301.71603286863
 20
1377.175228614419
 30
0.0
 11
24301.71603286863
 21
1501.1622315911361
 31
0.0
  0
LINE
  5
6BB
  8
FUTO
 10
24331.71603286863
 20
1407.46865026049
 30
0.0
 11
24331.71603286863
 21
1472.46865026049
 31
0.0
  0
LINE
  5
6BC
  8
FUTO
 10
24353.71603286863
 20
1478.4686502604909
 30
0.0
 11
24331.71603286863
 21
1454.635316927157
 31
0.0
  0
LINE
  5
6C2
  8
FUTO
 10
24191.71603286863
 20
1718.46865026049
 30
0.0
 11
24311.71603286863
 21
1718.46865026049
 31
0.0
  0
LINE
  5
6C3
  8
FUTO
 10
24191.71603286863
 20
1702.46865026049
 30
0.0
 11
24191.71603286863
 21
1718.46865026049
 31
0.0
  0
LINE
  5
6C4
  8
FUTO
 10
24149.71603286863
 20
1656.4686502604909
 30
0.0
 11
24173.71603286863
 21
1682.46865026049
 31
0.0
  0
LINE
  5
6C5
  8
FUTO
 10
24173.71603286863
 20
1702.46865026049
 30
0.0
 11
24191.71603286863
 21
1702.46865026049
 31
0.0
  0
LINE
  5
6C6
  8
KL
 10
24353.71603286863
 20
1622.4686502604909
 30
0.0
 11
24449.803110060479
 21
1622.4686502604909
 31
0.0
  0
LINE
  5
6C7
  8
FUTO
 10
24329.71603286863
 20
1702.46865026049
 30
0.0
 11
24311.71603286863
 21
1702.46865026049
 31
0.0
  0
LINE
  5
6C8
  8
FUTO
 10
24311.71603286863
 20
1702.46865026049
 30
0.0
 11
24311.71603286863
 21
1718.46865026049
 31
0.0
  0
LINE
  5
6C9
  8
FUTO
 10
24353.71603286863
 20
1656.4686502604909
 30
0.0
 11
24329.71603286863
 21
1682.46865026049
 31
0.0
  0
LINE
  5
6E2
  8
KL
 10
25960.91603286863
 20
2567.4686502604909
 30
0.0
 11
26111.71603286863
 21
2567.4686502604909
 31
0.0
  0
LINE
  5
6E3
  8
KL
 10
25960.91603286863
 20
2573.46865026049
 30
0.0
 11
26035.91603286863
 21
2573.46865026049
 31
0.0
  0
LINE
  5
6E4
  8
HOSO
 10
25969.916032870002
 20
2567.4686502605009
 30
0.0
 11
25960.916032870002
 21
2567.4686502605032
 31
0.0
  0
LINE
  5
6E5
  8
HOSO
 10
25927.109659024209
 20
2607.4686502604909
 30
0.0
 11
25997.736786162041
 21
2607.4686502604909
 31
0.0
  0
LINE
  5
6E6
  8
FUTO
 10
26035.91603286863
 20
2573.46865026049
 30
0.0
 11
26105.71603286863
 21
2573.46865026049
 31
0.0
  0
LINE
  5
6E7
  8
HOSO
 10
26075.670105426289
 20
2607.4686502604909
 30
0.0
 11
26146.297232564109
 21
2607.4686502604909
 31
0.0
  0
LINE
  5
706
  8
KL
 10
25960.91603286863
 20
2642.4686502604909
 30
0.0
 11
25969.91603287002
 21
2642.4686502604909
 31
0.0
  0
LINE
  5
707
  8
KL
 10
25960.916032868619
 20
2640.4686502604909
 30
0.0
 11
25960.916032868641
 21
2730.46865026049
 31
0.0
  0
LINE
  5
708
  8
FUTO
 10
26106.71603286863
 20
2642.4686502604909
 30
0.0
 11
26112.71603286863
 21
2642.4686502604909
 31
0.0
  0
INSERT
  5
71C
  8
FUTO
  2
まっすぐの矢印
 10
26280.212320624662
 20
2118.3929014006821
 30
0.0
 41
40.0
 42
40.0
 43
40.0
 50
90.0
  0
DIMENSION
  5
A68
  8
SP
  2
*D6
 10
19678.976423297761
 20
-1070.1520767533941
 30
0.0
 11
18553.976423297761
 21
-980.15207675339468
 31
0.0
 70
     0
 13
17428.976423297761
 23
-402.5313497395091
 33
0.0
 14
19678.976423297761
 24
-402.53134973950898
 34
0.0
1001
ACAD
1000
DSTYLE
1002
{
1070
   140
1040
3.0
1070
    40
1040
45.0
1070
   173
1070
     1
1070
   147
1040
0.5
1070
     7
1000
_OPEN
1070
     6
1000
_OPEN
1002
}
  0
DIMENSION
  5
A75
  8
SP
  2
*D7
 10
20828.976423297761
 20
-1070.1520767533941
 30
0.0
 11
20253.976423297761
 21
-980.15207675339468
 31
0.0
 70
     0
 13
19678.976423297761
 23
-402.53134973950898
 33
0.0
 14
20828.976423297761
 24
-402.5313497395091
 34
0.0
1001
ACAD
1000
DSTYLE
1002
{
1070
   140
1040
3.0
1070
    40
1040
45.0
1070
   173
1070
     1
1070
   147
1040
0.5
1070
     7
1000
_OPEN
1070
     6
1000
_OPEN
1002
}
  0
LINE
  5
AB0
  8
SL
 10
24091.284298642531
 20
1714.67175775482
 30
0.0
 11
23161.105525764309
 21
1714.67175775482
 31
0.0
  0
LINE
  5
AB2
  8
CT
 10
17595.449102524581
 20
-114.9229615953045
 30
0.0
 11
17595.449102524581
 21
-306.23135508516128
 31
0.0
  0
LINE
  5
AB3
  8
SP
 10
17555.449102524581
 20
-202.5313497395091
 30
0.0
 11
17555.449102524581
 21
-222.5313497395091
 31
0.0
  0
LINE
  5
AB4
  8
SP
 10
17635.449102524581
 20
-202.5313497395091
 30
0.0
 11
17635.449102524581
 21
-222.5313497395091
 31
0.0
  0
POINT
  5
CAC
  8
DEFPOINTS
  6
BYBLOCK
 62
     0
 10
20478.976423297761
 20
4348.7761277753407
 30
0.0
  0
POINT
  5
CB7
  8
DEFPOINTS
  6
BYBLOCK
 62
     0
 10
20478.976423297761
 20
4348.7761277753407
 30
0.0
  0
LINE
  5
178C
  8
FUTO
 10
17713.976423297761
 20
-22.53134973951909
 30
0.0
 11
17478.976423297761
 21
-22.53134973951909
 31
0.0
  0
LINE
  5
178D
  8
FUTO
 10
17488.976423297761
 20
47.468650260480899
 30
0.0
 11
17713.976423297761
 21
47.468650260480899
 31
0.0
  0
LINE
  5
178F
  8
FUTO
 10
18178.976423297761
 20
-22.53134973951909
 30
0.0
 11
17943.976423297761
 21
-22.53134973951909
 31
0.0
  0
LINE
  5
1790
  8
FUTO
 10
17943.976423297761
 20
47.468650260480899
 30
0.0
 11
18168.976423297761
 21
47.468650260480899
 31
0.0
  0
LINE
  5
1791
  8
FUTO
 10
18168.976423297761
 20
47.468650260480899
 30
0.0
 11
18178.976423297761
 21
-22.53134973951909
 31
0.0
  0
LINE
  5
1792
  8
FUTO
 10
17713.976423297761
 20
-12.531349739519101
 30
0.0
 11
17943.976423297761
 21
-12.531349739519101
 31
0.0
  0
LINE
  5
1793
  8
FUTO
 10
17713.976423297761
 20
37.468650260480899
 30
0.0
 11
17943.976423297761
 21
37.468650260480899
 31
0.0
  0
LINE
  5
1794
  8
FUTO
 10
17943.976423297761
 20
47.468650260480899
 30
0.0
 11
17943.976423297761
 21
37.468650260480899
 31
0.0
  0
LINE
  5
1795
  8
FUTO
 10
17943.976423297761
 20
-12.531349739519101
 30
0.0
 11
17943.976423297761
 21
-22.53134973951909
 31
0.0
  0
LINE
  5
1796
  8
FUTO
 10
17713.976423297761
 20
47.468650260480899
 30
0.0
 11
17713.976423297761
 21
37.468650260480899
 31
0.0
  0
LINE
  5
1797
  8
FUTO
 10
17713.976423297761
 20
-12.531349739519101
 30
0.0
 11
17713.976423297761
 21
-22.53134973951909
 31
0.0
  0
LINE
  5
1798
  8
FUTO
 10
17585.976423297761
 20
47.468650260480899
 30
0.0
 11
17685.976423297761
 21
47.468650260480899
 31
0.0
  0
LINE
  5
1799
  8
FUTO
 10
17488.976423297761
 20
47.468650260480899
 30
0.0
 11
17478.976423297761
 21
-22.53134973951909
 31
0.0
  0
LINE
  5
179B
  8
CT
 10
17727.270008673491
 20
777.46865026047999
 30
0.0
 11
17572.9730711538
 21
777.46865026047999
 31
0.0
  0
LINE
  5
179C
  8
FUTO
 10
18038.976423297761
 20
917.46865026048079
 30
0.0
 11
17648.976423297761
 21
917.46865026048079
 31
0.0
  0
LINE
  5
179D
  8
FUTO
 10
18038.976423297761
 20
652.46865026047999
 30
0.0
 11
17648.976423297761
 21
652.46865026047897
 31
0.0
  0
LINE
  5
179E
  8
FUTO
 10
17984.45555557336
 20
59.277972893007238
 30
0.0
 11
17673.497291022151
 21
59.277972893008162
 31
0.0
  0
LINE
  5
17A0
  8
CT
 10
18166.43538748752
 20
327.46865026048079
 30
0.0
 11
17485.69920110473
 21
327.46865026048079
 31
0.0
  0
ARC
  5
17A1
  8
FUTO
 10
17828.976423297761
 20
327.46865026048079
 30
0.0
 40
310.0
 50
300.10230806831191
 51
0.0
  0
LINE
  5
17A3
  8
FUTO
 10
17998.976423297761
 20
68.239022324166399
 30
0.0
 11
17998.976423297761
 21
47.468650260479983
 31
0.0
  0
LINE
  5
17A4
  8
CT
 10
18057.476423297761
 20
92.638098750125209
 30
0.0
 11
18057.476423297761
 21
1.012535677870801
 31
0.0
  0
LINE
  5
17A5
  8
FUTO
 10
18108.976423297761
 20
194.4273033039498
 30
0.0
 11
18108.976423297761
 21
47.468650260480899
 31
0.0
  0
LINE
  5
17A6
  8
FUTO
 10
18108.976423297761
 20
47.468650260480899
 30
0.0
 11
17998.976423297761
 21
47.468650260480899
 31
0.0
  0
LINE
  5
17A7
  8
FUTO
 10
18108.976423297761
 20
77.468650260479976
 30
0.0
 11
18012.27945109599
 21
77.468650260479976
 31
0.0
  0
LINE
  5
17A8
  8
FUTO
 10
18058.976423297761
 20
897.4686502604809
 30
0.0
 11
18058.976423297761
 21
672.46865026047988
 31
0.0
  0
ARC
  5
17A9
  8
FUTO
 10
18038.976423297761
 20
672.46865026047988
 30
0.0
 40
20.0
 50
270.0
 51
0.0
  0
ARC
  5
17AA
  8
FUTO
 10
18038.976423297761
 20
897.4686502604809
 30
0.0
 40
20.0
 50
0.0
 51
90.0
  0
LINE
  5
17AB
  8
FUTO
 10
17548.976423297761
 20
194.42730330393439
 30
0.0
 11
17548.976423297761
 21
47.468650260479983
 31
0.0
  0
LINE
  5
17AC
  8
FUTO
 10
17658.976423297761
 20
68.239022324166399
 30
0.0
 11
17658.976423297761
 21
47.468650260479983
 31
0.0
  0
LINE
  5
17AD
  8
CT
 10
17600.476423297761
 20
92.638098750125209
 30
0.0
 11
17600.476423297761
 21
5.1773339993369509
 31
0.0
  0
LINE
  5
17AE
  8
FUTO
 10
17658.976423297761
 20
47.468650260479983
 30
0.0
 11
17548.976423297761
 21
47.468650260479983
 31
0.0
  0
LINE
  5
17AF
  8
FUTO
 10
17645.673395499529
 20
77.468650260479976
 30
0.0
 11
17548.976423297761
 21
77.468650260479976
 31
0.0
  0
LINE
  5
17B0
  8
FUTO
 10
17628.976423297761
 20
897.4686502604809
 30
0.0
 11
17628.976423297761
 21
672.46865026047897
 31
0.0
  0
ARC
  5
17B1
  8
FUTO
 10
17648.976423297761
 20
672.46865026047897
 30
0.0
 40
20.0
 50
180.0
 51
270.0
  0
ARC
  5
17B2
  8
FUTO
 10
17648.976423297761
 20
897.4686502604809
 30
0.0
 40
20.0
 50
90.0
 51
180.0
  0
CIRCLE
  5
17B5
  8
SL
 10
17828.976423297761
 20
327.46865026048079
 30
0.0
 40
177.5
  0
CIRCLE
  5
17B6
  8
SL
 10
19678.976423297761
 20
1567.4686502604909
 30
0.0
 40
315.0
  0
ARC
  5
17B9
  8
FUTO
 10
19678.976423297761
 20
1567.4686502604909
 30
0.0
 40
480.0
 50
298.68056976234618
 51
128.98497331470739
  0
ARC
  5
17BA
  8
FUTO
 10
17828.976423297761
 20
327.46865026048079
 30
0.0
 40
280.0
 50
128.9849733147073
 51
298.68056976234629
  0
ARC
  5
17BE
  8
FUTO
 10
19531.976423297761
 20
1420.4686502604909
 30
0.0
 40
1609.0
 50
304.47559625067748
 51
5.2419146546739741
  0
DIMENSION
  5
1B16
  8
SP
  2
*D11
 10
25207.71603286863
 20
-1075.6087700077551
 30
0.0
 11
24022.21603286863
 21
-985.60877000775497
 31
0.0
 70
     0
 13
22836.71603286863
 23
-402.5313497395091
 33
0.0
 14
25207.71603286863
 24
-402.5313497395091
 34
0.0
1001
ACAD
1000
DSTYLE
1002
{
1070
   287
1070
     3
1070
    40
1040
45.0
1070
   140
1040
3.0
1070
   147
1040
0.5
1070
   173
1070
     1
1070
   279
1070
     0
1070
     6
1000
OPEN
1070
     7
1000
OPEN
1002
}
  0
DIMENSION
  5
1B22
  8
SP
  2
*D12
 10
26036.71603286863
 20
-1075.6087700077551
 30
0.0
 11
25622.21603286863
 21
-985.60877000775497
 31
0.0
 70
     0
 13
25207.71603286863
 23
-402.5313497395091
 33
0.0
 14
26036.71603286863
 24
-402.5313497395091
 34
0.0
1001
ACAD
1000
DSTYLE
1002
{
1070
   287
1070
     4
1070
    40
1040
45.0
1070
    75
1070
     1
1070
   140
1040
3.0
1070
   147
1040
0.5
1070
   173
1070
     1
1070
   279
1070
     1
1070
     6
1000
OPEN
1070
     7
1000
OPEN
1002
}
  0
DIMENSION
  5
1B2F
  8
SP
  2
*D13
 10
22836.71603286863
 20
-1367.731070260651
 30
0.0
 11
24436.71603286863
 21
-1277.731070260651
 31
0.0
 70
     0
 13
26036.71603286863
 23
-1075.6087700077551
 33
0.0
 14
22836.71603286863
 24
-1075.6087700077551
 34
0.0
1001
ACAD
1000
DSTYLE
1002
{
1070
   287
1070
     3
1070
    40
1040
45.0
1070
   140
1040
3.0
1070
   147
1040
0.5
1070
   173
1070
     1
1070
   279
1070
     0
1070
     6
1000
OPEN
1070
     7
1000
OPEN
1002
}
  0
LINE
  5
1BAD
  8
FUTO
 10
24446.71603286863
 20
-379.4559801218237
 30
0.0
 11
24446.71603286863
 21
-245.60671935719429
 31
0.0
  0
LINE
  5
1BAE
  8
FUTO
 10
24453.71603286863
 20
-402.5313497395091
 30
0.0
 11
24453.71603286863
 21
-222.5313497395091
 31
0.0
  0
ARC
  5
1BAF
  8
FUTO
 10
24384.21603286863
 20
-399.6083424388562
 30
0.0
 40
5.5
 50
95.000000000000014
 51
180.0
  0
LINE
  5
1BB0
  8
FUTO
 10
24378.71603286863
 20
-399.6083424388562
 30
0.0
 11
24378.71603286863
 21
-402.5313497395091
 31
0.0
  0
ARC
  5
1BB1
  8
FUTO
 10
24436.71603286863
 20
-379.4559801218237
 30
0.0
 40
10.0
 50
275.0
 51
0.0
  0
LINE
  5
1BB2
  8
FUTO
 10
24453.71603286863
 20
-402.5313497395091
 30
0.0
 11
24378.71603286863
 21
-402.5313497395091
 31
0.0
  0
LINE
  5
1BB3
  8
FUTO
 10
24437.587590296109
 20
-389.41792710274149
 30
0.0
 11
24383.736676283519
 21
-394.12927159935219
 31
0.0
  0
ARC
  5
1BB4
  8
FUTO
 10
24384.21603286863
 20
-225.45435704016199
 30
0.0
 40
5.5
 50
179.9999999999994
 51
264.99999999999989
  0
LINE
  5
1BB5
  8
FUTO
 10
24378.71603286863
 20
-225.454357040161
 30
0.0
 11
24378.71603286863
 21
-222.5313497395091
 31
0.0
  0
ARC
  5
1BB6
  8
FUTO
 10
24384.21603286863
 20
-199.6083424388562
 30
0.0
 40
5.5
 50
95.000000000000014
 51
180.0
  0
LINE
  5
1BB7
  8
FUTO
 10
24378.71603286863
 20
-199.6083424388562
 30
0.0
 11
24378.71603286863
 21
-202.5313497395091
 31
0.0
  0
ARC
  5
1BB8
  8
FUTO
 10
24436.71603286863
 20
-245.60671935719429
 30
0.0
 40
10.0
 50
0.0
 51
85.0
  0
LINE
  5
1BB9
  8
KL
 10
24457.71603286863
 20
-184.5313497395091
 30
0.0
 11
24454.516032868629
 21
-184.5313497395091
 31
0.0
  0
LINE
  5
1BBA
  8
FUTO
 10
24437.587590296109
 20
-235.64477237627671
 30
0.0
 11
24383.736676283519
 21
-230.93342787966591
 31
0.0
  0
LINE
  5
1BBB
  8
FUTO
 10
24453.71603286863
 20
-222.5313497395091
 30
0.0
 11
24378.71603286863
 21
-222.5313497395091
 31
0.0
  0
LINE
  5
1BBC
  8
FUTO
 10
24453.71603286863
 20
-222.5313497395091
 30
0.0
 11
24378.71603286863
 21
-222.5313497395091
 31
0.0
  0
LINE
  5
1BBD
  8
FUTO
 10
24453.71603286863
 20
-202.5313497395091
 30
0.0
 11
24378.71603286863
 21
-202.5313497395091
 31
0.0
  0
LINE
  5
1BBE
  8
FUTO
 10
24437.587590296109
 20
-189.41792710274149
 30
0.0
 11
24383.736676283519
 21
-194.12927159935219
 31
0.0
  0
ARC
  5
1BBF
  8
FUTO
 10
24436.71603286863
 20
-179.45598012182381
 30
0.0
 40
10.0
 50
275.0
 51
0.0
  0
LINE
  5
1BC0
  8
FUTO
 10
24378.71603286863
 20
-25.454357040161081
 30
0.0
 11
24378.71603286863
 21
-22.531349739509089
 31
0.0
  0
LINE
  5
1BC1
  8
FUTO
 10
24453.71603286863
 20
-202.5313497395091
 30
0.0
 11
24453.71603286863
 21
-22.531349739509089
 31
0.0
  0
LINE
  5
1BC2
  8
FUTO
 10
24453.71603286863
 20
-202.5313497395091
 30
0.0
 11
24453.71603286863
 21
-22.531349739509089
 31
0.0
  0
LINE
  5
1BC3
  8
KL
 10
24454.516032868629
 20
-184.5313497395091
 30
0.0
 11
24454.516032868629
 21
-22.531349739509089
 31
0.0
  0
LINE
  5
1BC4
  8
KL
 10
24457.71603286863
 20
-184.5313497395091
 30
0.0
 11
24457.71603286863
 21
-22.531349739509089
 31
0.0
  0
ARC
  5
1BC5
  8
FUTO
 10
24384.21603286863
 20
-25.454357040161991
 30
0.0
 40
5.5
 50
179.9999999999994
 51
264.99999999999989
  0
LINE
  5
1BC6
  8
FUTO
 10
24446.71603286863
 20
-179.45598012182381
 30
0.0
 11
24446.71603286863
 21
-45.606719357194379
 31
0.0
  0
ARC
  5
1BC7
  8
FUTO
 10
24436.71603286863
 20
-45.606719357194379
 30
0.0
 40
10.0
 50
0.0
 51
85.0
  0
LINE
  5
1BC8
  8
FUTO
 10
24437.587590296109
 20
-35.644772376276698
 30
0.0
 11
24383.736676283519
 21
-30.933427879665938
 31
0.0
  0
LINE
  5
1BC9
  8
0
 10
24453.71603286863
 20
-22.531349739509089
 30
0.0
 11
24378.71603286863
 21
-22.531349739509089
 31
0.0
  0
LINE
  5
1BCA
  8
FUTO
 10
24453.71603286863
 20
-190.53134973950901
 30
0.0
 11
25961.71603286864
 21
-190.53134973950901
 31
0.0
  0
LINE
  5
1BCB
  8
FUTO
 10
24453.71603286863
 20
-34.531349739509089
 30
0.0
 11
25961.71603286864
 21
-34.531349739509089
 31
0.0
  0
LINE
  5
1BCC
  8
FUTO
 10
24453.71603286863
 20
-234.53134973950901
 30
0.0
 11
25961.71603286864
 21
-234.53134973950901
 31
0.0
  0
LINE
  5
1BCD
  8
FUTO
 10
24453.71603286863
 20
-390.53134973950898
 30
0.0
 11
25961.71603286864
 21
-390.53134973950898
 31
0.0
  0
LINE
  5
1BCE
  8
FUTO
 10
24453.71603286863
 20
-402.5313497395091
 30
0.0
 11
25961.71603286864
 21
-402.5313497395091
 31
0.0
  0
LINE
  5
1BCF
  8
FUTO
 10
22911.71603286863
 20
-402.5313497395091
 30
0.0
 11
24424.861111322782
 21
-402.5313497395091
 31
0.0
  0
DIMENSION
  5
1BF2
  8
SP
  2
*D14
 10
25207.71603286863
 20
3318.6006556738762
 30
0.0
 11
23907.71603286863
 21
3408.6006556738748
 31
0.0
 70
     0
 13
22607.71603286864
 23
3318.6006556738762
 33
0.0
 14
25207.71603286863
 24
3318.6006556738762
 34
0.0
1001
ACAD
1000
DSTYLE
1002
{
1070
   287
1070
     3
1070
    40
1040
45.0
1070
   140
1040
3.0
1070
   147
1040
0.5
1070
   173
1070
     1
1070
   279
1070
     0
1070
   341
1005
24
1070
     6
1000
OPEN
1070
     7
1000
OPEN
1002
}
  0
LINE
  5
1C10
  8
FUTO
 10
18528.976423297761
 20
-222.5313497395091
 30
0.0
 11
18528.976423297761
 21
-402.5313497395091
 31
0.0
  0
LINE
  5
1C11
  8
FUTO
 10
18878.976423297761
 20
-222.5313497395091
 30
0.0
 11
18878.976423297761
 21
-402.5313497395091
 31
0.0
  0
LINE
  5
1C21
  8
SL
 10
23161.105525764309
 20
1714.67175775482
 30
0.0
 11
23161.105525764309
 21
1407.46865026049
 31
0.0
  0
LINE
  5
1C22
  8
SL
 10
24091.284298642531
 20
1714.67175775482
 30
0.0
 11
24091.284298642531
 21
1407.46865026049
 31
0.0
  0
DIMENSION
  5
1C23
  8
SP
  2
*D15
 10
17451.97642329775
 20
3306.574500555907
 30
0.0
 11
18565.476423297761
 21
3396.574500555907
 31
0.0
 70
     0
 13
19678.976423297761
 23
2910.8102160896869
 33
0.0
 14
17451.97642329775
 24
2842.4686502619511
 34
0.0
 50
180.0
1001
ACAD
1000
DSTYLE
1002
{
1070
   287
1070
     3
1070
    40
1040
45.0
1070
   140
1040
3.0
1070
   147
1040
0.5
1070
   173
1070
     1
1070
   279
1070
     0
1070
   341
1005
24
1070
     6
1000
OPEN
1070
     7
1000
OPEN
1002
}
  0
LINE
  5
1C5C
  8
FUTO
 10
19767.976423297761
 20
5661.7761277753434
 30
0.0
 11
19793.976423297761
 21
5685.7761277753434
 31
0.0
  0
LINE
  5
1C5D
  8
FUTO
 10
19589.976423297761
 20
5661.7761277753434
 30
0.0
 11
19566.143089964418
 21
5683.7761277753452
 31
0.0
  0
LINE
  5
1C61
  8
FUTO
 10
20158.976423297761
 20
4119.776127775347
 30
0.0
 11
17548.976423297761
 21
4119.7761277753434
 31
0.0
  0
LINE
  5
1C62
  8
SL
 10
20053.976423297761
 20
4237.5761277753463
 30
0.0
 11
17651.476423297761
 21
4237.5761277753418
 31
0.0
  0
LINE
  5
1C63
  8
SL
 10
20053.976423297761
 20
4367.5761277753436
 30
0.0
 11
17651.476423297761
 21
4367.5761277753454
 31
0.0
  0
LINE
  5
1C6B
  8
FUTO
 10
19621.476423297761
 20
5661.7761277753434
 30
0.0
 11
19621.476423297761
 21
4599.7761277753434
 31
0.0
  0
LINE
  5
1C6C
  8
FUTO
 10
19736.476423297761
 20
5661.7761277753434
 30
0.0
 11
19736.476423297761
 21
4599.7761277753434
 31
0.0
  0
LINE
  5
1C6D
  8
FUTO
 10
20158.976423297761
 20
4400.5251619378523
 30
0.0
 11
17548.976423297761
 21
4400.5251619378514
 31
0.0
  0
LINE
  5
1C6E
  8
FUTO
 10
19758.976423297761
 20
4599.7761277753434
 30
0.0
 11
19598.976423297761
 21
4599.7761277753434
 31
0.0
  0
LINE
  5
1C6F
  8
FUTO
 10
19758.976423297761
 20
4427.7761277753434
 30
0.0
 11
19598.976423297761
 21
4427.7761277753434
 31
0.0
  0
LINE
  5
1C70
  8
FUTO
 10
19793.976423297761
 20
4577.7761277753434
 30
0.0
 11
19598.976423297761
 21
4577.7761277753434
 31
0.0
  0
LINE
  5
1C71
  8
FUTO
 10
19793.976423297761
 20
4591.7761277753434
 30
0.0
 11
19563.976423297761
 21
4591.7761277753434
 31
0.0
  0
LINE
  5
1C72
  8
FUTO
 10
19793.976423297761
 20
4435.7761277753434
 30
0.0
 11
19563.976423297761
 21
4435.7761277753434
 31
0.0
  0
LINE
  5
1C73
  8
CT
 10
19842.468041807591
 20
4513.7761277753434
 30
0.0
 11
19527.819269535721
 21
4513.7761277753434
 31
0.0
  0
LINE
  5
1C74
  8
FUTO
 10
19793.976423297761
 20
4577.7761277753434
 30
0.0
 11
19563.976423297761
 21
4577.7761277753434
 31
0.0
  0
LINE
  5
1C75
  8
FUTO
 10
19793.976423297761
 20
4449.7761277753434
 30
0.0
 11
19563.976423297761
 21
4449.7761277753434
 31
0.0
  0
LINE
  5
1C76
  8
SL
 10
19303.976423297761
 20
4367.5761277753436
 30
0.0
 11
19303.976423297761
 21
4237.5761277753436
 31
0.0
  0
LINE
  5
1C7A
  8
FUTO
 10
19626.476423297761
 20
4427.7761277753434
 30
0.0
 11
19626.476423297761
 21
4367.5761277753418
 31
0.0
  0
LINE
  5
1C7B
  8
FUTO
 10
19563.976423297761
 20
4435.7761277753434
 30
0.0
 11
19563.976423297761
 21
4443.7761277753434
 31
0.0
  0
LINE
  5
1C7C
  8
FUTO
 10
19598.976423297761
 20
4427.7761277753434
 30
0.0
 11
19578.976423297761
 21
4435.7761277753434
 31
0.0
  0
LINE
  5
1C7F
  8
FUTO
 10
19598.976423297761
 20
4599.7761277753434
 30
0.0
 11
19578.976423297761
 21
4591.7761277753434
 31
0.0
  0
LINE
  5
1C80
  8
FUTO
 10
19563.976423297761
 20
4591.7761277753434
 30
0.0
 11
19563.976423297761
 21
4583.7761277753434
 31
0.0
  0
LINE
  5
1C83
  8
SL
 10
20053.976423297761
 20
4367.5761277753418
 30
0.0
 11
20053.976423297761
 21
4237.5761277753463
 31
0.0
  0
LINE
  5
1C84
  8
FUTO
 10
19811.976423297761
 20
4459.7761277753434
 30
0.0
 11
19811.976423297761
 21
4567.7761277753434
 31
0.0
  0
LINE
  5
1C85
  8
FUTO
 10
19793.976423297761
 20
4449.7761277753434
 30
0.0
 11
19793.976423297761
 21
4459.7761277753434
 31
0.0
  0
LINE
  5
1C86
  8
FUTO
 10
19811.976423297761
 20
4459.7761277753434
 30
0.0
 11
19793.976423297761
 21
4459.7761277753434
 31
0.0
  0
LINE
  5
1C87
  8
FUTO
 10
19793.976423297761
 20
4435.7761277753434
 30
0.0
 11
19793.976423297761
 21
4449.7761277753434
 31
0.0
  0
LINE
  5
1C88
  8
FUTO
 10
19758.976423297761
 20
4427.7761277753434
 30
0.0
 11
19778.976423297761
 21
4435.7761277753434
 31
0.0
  0
LINE
  5
1C89
  8
FUTO
 10
19731.476423297761
 20
4427.7761277753434
 30
0.0
 11
19731.476423297761
 21
4367.5761277753418
 31
0.0
  0
LINE
  5
1C8A
  8
FUTO
 10
19758.976423297761
 20
4599.7761277753434
 30
0.0
 11
19778.976423297761
 21
4591.7761277753434
 31
0.0
  0
LINE
  5
1C8B
  8
FUTO
 10
19793.976423297761
 20
4591.7761277753434
 30
0.0
 11
19793.976423297761
 21
4577.7761277753434
 31
0.0
  0
LINE
  5
1C8C
  8
FUTO
 10
19793.976423297761
 20
4567.7761277753434
 30
0.0
 11
19793.976423297761
 21
4577.7761277753434
 31
0.0
  0
LINE
  5
1C8D
  8
FUTO
 10
19811.976423297761
 20
4567.7761277753434
 30
0.0
 11
19793.976423297761
 21
4567.7761277753434
 31
0.0
  0
LINE
  5
1C8E
  8
FUTO
 10
20158.976423297761
 20
4400.5251619378523
 30
0.0
 11
20158.976423297761
 21
4119.776127775347
 31
0.0
  0
POINT
  5
1C8F
  8
DEFPOINTS
 10
20158.976423297761
 20
4119.776127775347
 30
0.0
  0
LINE
  5
1C93
  8
FUTO
 10
19589.976423297761
 20
5661.7761277753434
 30
0.0
 11
19767.976423297761
 21
5661.7761277753452
 31
0.0
  0
LINE
  5
1C9A
  8
FUTO
 10
20753.976423297761
 20
7618.7761277753443
 30
0.0
 11
18603.976423297761
 21
7618.7761277753443
 31
0.0
  0
LINE
  5
1C9B
  8
FUTO
 10
20753.976423297761
 20
7624.7761277753443
 30
0.0
 11
18603.976423297761
 21
7624.7761277753452
 31
0.0
  0
LINE
  5
1C9C
  8
KL
 10
20753.976423297761
 20
7481.9761277762354
 30
0.0
 11
18603.976423297761
 21
7481.9761277767266
 31
0.0
  0
LINE
  5
1CA1
  8
HOSO
 10
20718.976423297761
 20
7446.8563841681444
 30
0.0
 11
20718.976423297761
 21
7505.0555402733717
 31
0.0
  0
LINE
  5
1CA2
  8
FUTO
 10
20684.976423297761
 20
7472.9761277753441
 30
0.0
 11
20684.976423297761
 21
7562.9761277753441
 31
0.0
  0
LINE
  5
1CA3
  8
KL
 10
20678.976423297761
 20
7472.9761277753441
 30
0.0
 11
20678.976423297761
 21
7624.7761277753443
 31
0.0
  0
LINE
  5
1CA4
  8
KL
 10
20753.976423297761
 20
7472.9761277753441
 30
0.0
 11
20753.976423297761
 21
7481.9761277762336
 31
0.0
  0
LINE
  5
1CA5
  8
HOSO
 10
20678.97642329775
 20
7481.9761277762527
 30
0.0
 11
20678.97642329774
 21
7472.9761277762527
 31
0.0
  0
LINE
  5
1CA6
  8
FUTO
 10
20753.976423297761
 20
7618.7761277753452
 30
0.0
 11
20753.976423297761
 21
7624.7761277753443
 31
0.0
  0
LINE
  5
1CA7
  8
HOSO
 10
20718.976423297761
 20
7596.73793833536
 30
0.0
 11
20718.976423297761
 21
7654.9370944405882
 31
0.0
  0
LINE
  5
1CA8
  8
FUTO
 10
20684.976423297761
 20
7562.9761277753441
 30
0.0
 11
20684.976423297761
 21
7618.7761277753443
 31
0.0
  0
LINE
  5
1CBE
  8
FUTO
 10
19583.976423297761
 20
5828.7761277753434
 30
0.0
 11
19813.976423297761
 21
5828.7761277753434
 31
0.0
  0
LINE
  5
1CBF
  8
FUTO
 10
19543.976423297761
 20
5841.7761277753434
 30
0.0
 11
19813.976423297761
 21
5841.7761277753434
 31
0.0
  0
LINE
  5
1CC0
  8
FUTO
 10
19589.976423297761
 20
5865.7761277753443
 30
0.0
 11
19767.976423297761
 21
5865.7761277753443
 31
0.0
  0
LINE
  5
1CC1
  8
FUTO
 10
19543.976423297761
 20
5828.7761277753452
 30
0.0
 11
19813.976423297761
 21
5828.7761277753434
 31
0.0
  0
LINE
  5
1CC2
  8
CT
 10
19448.684714223258
 20
5763.7761277753443
 30
0.0
 11
19908.31012505955
 21
5763.7761277753443
 31
0.0
  0
LINE
  5
1CC3
  8
FUTO
 10
19543.976423297761
 20
5685.7761277753452
 30
0.0
 11
19813.976423297761
 21
5685.7761277753434
 31
0.0
  0
LINE
  5
1CC4
  8
FUTO
 10
19543.976423297761
 20
5698.7761277753461
 30
0.0
 11
19813.976423297761
 21
5698.7761277753434
 31
0.0
  0
LINE
  5
1CC5
  8
KL
 10
19623.976423297761
 20
5865.7761277753443
 30
0.0
 11
19623.976423297761
 21
5959.4201681000022
 31
0.0
  0
LINE
  5
1CCB
  8
FUTO
 10
19589.976423297761
 20
5865.7761277753452
 30
0.0
 11
19566.143089964418
 21
5843.7761277753443
 31
0.0
  0
LINE
  5
1CCE
  8
KL
 10
19733.976423297761
 20
5865.7761277753443
 30
0.0
 11
19733.976423297761
 21
5961.8632049671924
 31
0.0
  0
LINE
  5
1CCF
  8
FUTO
 10
19829.976423297761
 20
5703.7761277753434
 30
0.0
 11
19829.976423297761
 21
5823.7761277753434
 31
0.0
  0
LINE
  5
1CD0
  8
FUTO
 10
19813.976423297761
 20
5685.7761277753452
 30
0.0
 11
19813.976423297761
 21
5703.7761277753434
 31
0.0
  0
LINE
  5
1CD1
  8
FUTO
 10
19813.976423297761
 20
5703.7761277753434
 30
0.0
 11
19829.976423297761
 21
5703.7761277753434
 31
0.0
  0
LINE
  5
1CD2
  8
FUTO
 10
19767.976423297761
 20
5865.7761277753452
 30
0.0
 11
19793.976423297761
 21
5841.7761277753434
 31
0.0
  0
LINE
  5
1CD3
  8
FUTO
 10
19813.976423297761
 20
5823.7761277753434
 30
0.0
 11
19829.976423297761
 21
5823.7761277753434
 31
0.0
  0
LINE
  5
1CD4
  8
FUTO
 10
19813.976423297761
 20
5841.7761277753434
 30
0.0
 11
19813.976423297761
 21
5823.7761277753434
 31
0.0
  0
LINE
  5
1CE0
  8
HOSO
 10
18638.976423297761
 20
7439.1697539309216
 30
0.0
 11
18638.976423297761
 21
7509.7968810687426
 31
0.0
  0
LINE
  5
1CE1
  8
KL
 10
18672.976423297761
 20
7472.9761277753441
 30
0.0
 11
18672.976423297761
 21
7547.9761277753441
 31
0.0
  0
LINE
  5
1CE2
  8
KL
 10
18678.976423297761
 20
7472.9761277753441
 30
0.0
 11
18678.976423297761
 21
7624.7761277753443
 31
0.0
  0
LINE
  5
1CE4
  8
KL
 10
18603.976423297761
 20
7472.9761277753441
 30
0.0
 11
18603.976423297761
 21
7481.9761277767266
 31
0.0
  0
LINE
  5
1CE5
  8
HOSO
 10
18678.97642329775
 20
7481.9761277767084
 30
0.0
 11
18678.97642329774
 21
7472.976127776712
 31
0.0
  0
LINE
  5
1CE6
  8
FUTO
 10
18603.976423297761
 20
7618.7761277753443
 30
0.0
 11
18603.976423297761
 21
7624.7761277753452
 31
0.0
  0
LINE
  5
1CE7
  8
HOSO
 10
18638.976423297761
 20
7588.7302003330024
 30
0.0
 11
18638.976423297761
 21
7659.3573274708233
 31
0.0
  0
LINE
  5
1CE8
  8
FUTO
 10
18672.976423297761
 20
7547.9761277753441
 30
0.0
 11
18672.976423297761
 21
7618.7761277753443
 31
0.0
  0
INSERT
  5
1CE9
  8
FUTO
  2
まっすぐの矢印
 10
19128.052172157561
 20
7791.2724155313726
 30
0.0
 41
40.0
 42
40.0
 43
40.0
 50
180.0
  0
LINE
  5
1D14
  8
FUTO
 10
19545.976423297761
 20
4459.7761277753434
 30
0.0
 11
19545.976423297761
 21
4567.7761277753434
 31
0.0
  0
LINE
  5
1D15
  8
FUTO
 10
19563.976423297761
 20
4435.7761277753434
 30
0.0
 11
19563.976423297761
 21
4449.7761277753434
 31
0.0
  0
LINE
  5
1D16
  8
FUTO
 10
19545.976423297761
 20
4459.7761277753434
 30
0.0
 11
19563.976423297761
 21
4459.7761277753434
 31
0.0
  0
LINE
  5
1D17
  8
FUTO
 10
19563.976423297761
 20
4449.7761277753434
 30
0.0
 11
19563.976423297761
 21
4459.7761277753434
 31
0.0
  0
LINE
  5
1D18
  8
FUTO
 10
19545.976423297761
 20
4567.7761277753434
 30
0.0
 11
19563.976423297761
 21
4567.7761277753434
 31
0.0
  0
LINE
  5
1D19
  8
FUTO
 10
19563.976423297761
 20
4567.7761277753434
 30
0.0
 11
19563.976423297761
 21
4577.7761277753434
 31
0.0
  0
LINE
  5
1D1A
  8
FUTO
 10
19563.976423297761
 20
4591.7761277753434
 30
0.0
 11
19563.976423297761
 21
4577.7761277753434
 31
0.0
  0
LINE
  5
1D1B
  8
FUTO
 10
19527.976423297761
 20
5703.7761277753434
 30
0.0
 11
19527.976423297761
 21
5823.7761277753434
 31
0.0
  0
LINE
  5
1D1C
  8
FUTO
 10
19543.976423297761
 20
5703.7761277753434
 30
0.0
 11
19527.976423297761
 21
5703.7761277753434
 31
0.0
  0
LINE
  5
1D1D
  8
FUTO
 10
19543.976423297761
 20
5685.7761277753452
 30
0.0
 11
19543.976423297761
 21
5703.7761277753434
 31
0.0
  0
LINE
  5
1D1E
  8
FUTO
 10
19543.976423297761
 20
5841.7761277753434
 30
0.0
 11
19543.976423297761
 21
5823.7761277753434
 31
0.0
  0
LINE
  5
1D1F
  8
FUTO
 10
19543.976423297761
 20
5823.7761277753434
 30
0.0
 11
19527.976423297761
 21
5823.7761277753434
 31
0.0
  0
LINE
  5
1D20
  8
FUTO
 10
19329.389618820311
 20
4417.7761277753398
 30
0.0
 11
19329.389618820311
 21
5890.7761277753416
 31
0.0
  0
LINE
  5
1D21
  8
FUTO
 10
20028.563227775201
 20
4417.7761277753398
 30
0.0
 11
20028.563227775201
 21
5890.7761277753416
 31
0.0
  0
LINE
  5
1D22
  8
FUTO
 10
17526.976423298009
 20
5965.7761277753416
 30
0.0
 11
17526.976423299038
 21
7473.776127775348
 31
0.0
  0
LINE
  5
1D23
  8
FUTO
 10
17526.97642329842
 20
5965.7761277753416
 30
0.0
 11
17526.9764232991
 21
7473.776127775348
 31
0.0
  0
LINE
  5
1D24
  8
FUTO
 10
17526.97642329775
 20
5965.7761277753416
 30
0.0
 11
17526.97642329775
 21
7473.776127775348
 31
0.0
  0
LINE
  5
1D26
  8
FUTO
 10
17451.976423297761
 20
5890.7761277753416
 30
0.0
 11
17451.976423297761
 21
7548.7761277753416
 31
0.0
  0
LINE
  5
1D35
  8
CT
 10
17828.976423297761
 20
5487.4899401358998
 30
0.0
 11
17828.976423297761
 21
4124.2748514040513
 31
0.0
  0
LINE
  5
1D3A
  8
SL
 10
17651.476423297761
 20
4367.5761277753463
 30
0.0
 11
17651.476423297761
 21
4237.5761277753418
 31
0.0
  0
LINE
  5
1D3B
  8
FUTO
 10
17548.976423297761
 20
4400.5251619378514
 30
0.0
 11
17548.976423297761
 21
4119.7761277753434
 31
0.0
  0
LINE
  5
2121
  8
CT
 10
22929.016032868629
 20
327.46865026048079
 30
0.0
 11
22561.196032868629
 21
327.46865026048079
 31
0.0
  0
LINE
  5
2132
  8
KL
 10
23189.23403286864
 20
52.46865026047908
 30
0.0
 11
23117.663032868641
 21
52.46865026047908
 31
0.0
  0
LINE
  5
2306
  8
FUTO
 10
17541.476423297499
 20
5072.5761277752536
 30
0.0
 11
17541.476423297441
 21
5267.5761277752526
 31
0.0
  0
LINE
  5
2307
  8
FUTO
 10
18098.976423297441
 20
5285.8369977754246
 30
0.0
 11
18098.976423297499
 21
5072.5761277754273
 31
0.0
  0
LINE
  5
2308
  8
FUTO
 10
17541.476423297441
 20
5267.5761277752526
 30
0.0
 11
18098.976423297448
 21
5267.5761277754264
 31
0.0
  0
LINE
  5
2309
  8
FUTO
 10
18058.97642329743
 20
5327.5761277754127
 30
0.0
 11
17598.97642329743
 21
5327.5761277752717
 31
0.0
  0
LINE
  5
230A
  8
FUTO
 10
18098.976423297441
 20
5285.8369977754246
 30
0.0
 11
18058.97642329743
 21
5327.5761277754127
 31
0.0
  0
LINE
  5
230B
  8
FUTO
 10
17541.476423297441
 20
5267.5761277752526
 30
0.0
 11
17598.97642329743
 21
5327.5761277752717
 31
0.0
  0
LINE
  5
230C
  8
CT
 10
18139.2912829507
 20
4807.0761277754409
 30
0.0
 11
17496.215949201731
 21
4807.0761277752408
 31
0.0
  0
LINE
  5
230D
  8
FUTO
 10
17541.476423297499
 20
5072.5761277752536
 30
0.0
 11
18098.976423297499
 21
5072.5761277754273
 31
0.0
  0
LINE
  5
230E
  8
FUTO
 10
17541.476423297681
 20
4524.0761277752526
 30
0.0
 11
17593.54244515844
 21
4524.0761277752699
 31
0.0
  0
LINE
  5
230F
  8
FUTO
 10
17541.47642329771
 20
4424.0761277752526
 30
0.0
 11
17825.97642329771
 21
4424.07612777534
 31
0.0
  0
LINE
  5
2310
  8
CT
 10
18133.106488264701
 20
5016.5761277754373
 30
0.0
 11
18169.792028264699
 21
5016.5761277754482
 31
0.0
  0
LINE
  5
2311
  8
CT
 10
18133.106488264832
 20
4597.5761277754373
 30
0.0
 11
18169.79202826483
 21
4597.5761277754482
 31
0.0
  0
LINE
  5
2312
  8
FUTO
 10
17871.476423297761
 20
4237.5761277753581
 30
0.0
 11
17871.47642329771
 21
4407.5761277753572
 31
0.0
  0
LINE
  5
2313
  8
FUTO
 10
17786.47642329771
 20
4407.57612777533
 30
0.0
 11
17786.476423297769
 21
4237.576127775329
 31
0.0
  0
LINE
  5
2314
  8
FUTO
 10
17781.476423297761
 20
4237.5761277753281
 30
0.0
 11
17781.476423297721
 21
4377.5761277753281
 31
0.0
  0
LINE
  5
2315
  8
FUTO
 10
17878.97642329771
 20
4407.5761277753572
 30
0.0
 11
17778.97642329771
 21
4407.5761277753272
 31
0.0
  0
LINE
  5
2316
  8
FUTO
 10
17914.47642329771
 20
4417.5761277753681
 30
0.0
 11
17743.47642329771
 21
4417.5761277753172
 31
0.0
  0
LINE
  5
2317
  8
FUTO
 10
17916.47642329771
 20
4424.4245027753686
 30
0.0
 11
17916.47642329771
 21
4419.5761277753681
 31
0.0
  0
ARC
  5
2318
  8
FUTO
 10
17914.47642329771
 20
4419.5761277753681
 30
0.0
 40
2.0
 50
270.0
 51
0.0
  0
LINE
  5
2319
  8
FUTO
 10
17878.97642329771
 20
4407.5761277753572
 30
0.0
 11
17878.97642329771
 21
4417.5761277753572
 31
0.0
  0
LINE
  5
231A
  8
FUTO
 10
17778.97642329771
 20
4407.5761277753272
 30
0.0
 11
17778.97642329771
 21
4417.5761277753281
 31
0.0
  0
LINE
  5
231B
  8
FUTO
 10
17786.476423297721
 20
4377.57612777533
 30
0.0
 11
17781.476423297721
 21
4377.5761277753281
 31
0.0
  0
LINE
  5
231C
  8
FUTO
 10
17741.47642329771
 20
4424.0761277753172
 30
0.0
 11
17741.47642329771
 21
4419.5761277753172
 31
0.0
  0
ARC
  5
231D
  8
FUTO
 10
17743.47642329771
 20
4419.5761277753172
 30
0.0
 40
2.0
 50
180.0
 51
270.0
  0
LINE
  5
231E
  8
FUTO
 10
17871.476423297761
 20
4237.5761277753581
 30
0.0
 11
17781.476423297761
 21
4237.5761277753281
 31
0.0
  0
LINE
  5
231F
  8
FUTO
 10
17543.162346297591
 20
4807.0761277752554
 30
0.0
 11
17543.162346297671
 21
4551.5761277752554
 31
0.0
  0
LINE
  5
2320
  8
FUTO
 10
17593.542445158371
 20
4766.5761277752708
 30
0.0
 11
17991.459463357121
 21
4766.5761277753927
 31
0.0
  0
LINE
  5
2321
  8
FUTO
 10
17593.542445158379
 20
4748.1761337752669
 30
0.0
 11
17991.459463357129
 21
4748.1761337753896
 31
0.0
  0
LINE
  5
2322
  8
CT
 10
17776.44055380853
 20
4621.5761277753263
 30
0.0
 11
17919.58535980853
 21
4621.5761277753718
 31
0.0
  0
LINE
  5
2323
  8
FUTO
 10
17538.976423297499
 20
5062.5761277752536
 30
0.0
 11
17538.976423297609
 21
4751.5761277752536
 31
0.0
  0
LINE
  5
2324
  8
FUTO
 10
17543.162346297591
 20
4807.0761277752554
 30
0.0
 11
17543.162346297511
 21
5062.5761277752554
 31
0.0
  0
LINE
  5
2325
  8
FUTO
 10
17543.162346297511
 20
5062.5761277752554
 30
0.0
 11
17549.614208297498
 21
5072.5761277752572
 31
0.0
  0
LINE
  5
2326
  8
FUTO
 10
17538.976423297499
 20
5062.5761277752536
 30
0.0
 11
17545.643089297511
 21
5072.5761277752554
 31
0.0
  0
LINE
  5
2327
  8
FUTO
 10
17538.976423297609
 20
4751.5761277752536
 30
0.0
 11
17543.162346297599
 21
4747.3902047752536
 31
0.0
  0
LINE
  5
2328
  8
FUTO
 10
17991.45946335722
 20
4476.5761277753936
 30
0.0
 11
17593.542445158459
 21
4476.5761277752708
 31
0.0
  0
LINE
  5
2329
  8
FUTO
 10
17991.459463357209
 20
4494.9761517753886
 30
0.0
 11
17593.542445158459
 21
4494.9761517752668
 31
0.0
  0
LINE
  5
232A
  8
FUTO
 10
17541.47642329771
 20
4424.0761277752526
 30
0.0
 11
17541.476423297681
 21
4524.0761277752526
 31
0.0
  0
LINE
  5
232B
  8
FUTO
 10
17546.461375297669
 20
4540.3486997752552
 30
0.0
 11
17557.309756297669
 21
4524.0761277752581
 31
0.0
  0
LINE
  5
232C
  8
FUTO
 10
17543.162346297671
 20
4551.5761277752554
 30
0.0
 11
17560.904966297669
 21
4524.0761277752581
 31
0.0
  0
LINE
  5
232D
  8
FUTO
 10
17552.74781829767
 20
4536.7192197752574
 30
0.0
 11
17544.335407297669
 21
4541.5761277752554
 31
0.0
  0
LINE
  5
232E
  8
FUTO
 10
17991.45946335722
 20
4476.57612777539
 30
0.0
 11
17991.459463357121
 21
4766.5761277753927
 31
0.0
  0
LINE
  5
232F
  8
FUTO
 10
17593.542445158459
 20
4476.5761277752699
 30
0.0
 11
17593.542445158371
 21
4766.5761277752708
 31
0.0
  0
LINE
  5
2330
  8
FUTO
 10
18116.476423297681
 20
4524.0761277754309
 30
0.0
 11
17991.459463357201
 21
4524.07612777539
 31
0.0
  0
LINE
  5
2331
  8
FUTO
 10
18116.47642329771
 20
4424.0761277754309
 30
0.0
 11
17831.97642329771
 21
4424.0761277753418
 31
0.0
  0
LINE
  5
2332
  8
FUTO
 10
18116.47642329771
 20
4424.0761277754309
 30
0.0
 11
18116.476423297681
 21
4524.0761277754309
 31
0.0
  0
LINE
  5
2333
  8
FUTO
 10
18114.790500297589
 20
4807.07612777543
 30
0.0
 11
18114.790500297509
 21
5062.57612777543
 31
0.0
  0
LINE
  5
2334
  8
FUTO
 10
18118.976423297499
 20
5062.5761277754318
 30
0.0
 11
18118.976423297609
 21
4751.5761277754318
 31
0.0
  0
LINE
  5
2335
  8
FUTO
 10
18114.790500297589
 20
4807.07612777543
 30
0.0
 11
18114.790500297669
 21
4551.57612777543
 31
0.0
  0
LINE
  5
2336
  8
FUTO
 10
18114.790500297669
 20
4551.57612777543
 30
0.0
 11
18097.047880297669
 21
4524.0761277754264
 31
0.0
  0
LINE
  5
2337
  8
FUTO
 10
18105.205028297671
 20
4536.7192197754284
 30
0.0
 11
18113.617439297672
 21
4541.57612777543
 31
0.0
  0
LINE
  5
2338
  8
FUTO
 10
18111.491471297661
 20
4540.3486997754317
 30
0.0
 11
18100.643090297672
 21
4524.0761277754264
 31
0.0
  0
LINE
  5
2339
  8
FUTO
 10
18118.976423297499
 20
5062.5761277754318
 30
0.0
 11
18112.309757297498
 21
5072.57612777543
 31
0.0
  0
LINE
  5
233A
  8
FUTO
 10
18114.790500297509
 20
5062.57612777543
 30
0.0
 11
18108.3386382975
 21
5072.57612777543
 31
0.0
  0
LINE
  5
233B
  8
FUTO
 10
18178.976423297649
 20
4502.9971942368793
 30
0.0
 11
18178.976423297459
 21
5111.1550613140207
 31
0.0
  0
LINE
  5
233C
  8
FUTO
 10
18178.976423297649
 20
4502.9971942368793
 30
0.0
 11
18116.476423297681
 21
4502.9971942368629
 31
0.0
  0
LINE
  5
233D
  8
FUTO
 10
18178.976423297459
 20
5111.1550613140207
 30
0.0
 11
18098.976423297489
 21
5111.1550613139934
 31
0.0
  0
LINE
  5
233E
  8
FUTO
 10
17478.97642329771
 20
4502.9971942366647
 30
0.0
 11
17478.976423297521
 21
5111.1550613138061
 31
0.0
  0
LINE
  5
233F
  8
FUTO
 10
17478.976423297529
 20
5111.1550613138061
 30
0.0
 11
17558.976423297489
 21
5111.155061313827
 31
0.0
  0
LINE
  5
2340
  8
FUTO
 10
17478.97642329771
 20
4502.9971942366647
 30
0.0
 11
17541.476423297681
 21
4502.9971942366847
 31
0.0
  0
LINE
  5
2370
  8
KL
 10
22905.516032868611
 20
224.93816726044221
 30
0.0
 11
22905.516032868589
 21
140.08535326044239
 31
0.0
  0
LINE
  5
2371
  8
KL
 10
22989.516032868629
 20
327.46865026042451
 30
0.0
 11
22989.516032868571
 21
69.468650260424511
 31
0.0
  0
LINE
  5
2372
  8
KL
 10
22989.516032868629
 20
330.46865026042451
 30
0.0
 11
22989.516032868582
 21
97.468650260424511
 31
0.0
  0
LINE
  5
2373
  8
KL
 10
23154.5160328686
 20
173.47475526039031
 30
0.0
 11
23154.516032868582
 21
97.468650260389964
 31
0.0
  0
LINE
  5
2374
  8
KL
 10
23435.5160328686
 20
176.94068726032759
 30
0.0
 11
23435.516032868582
 21
97.468650260328104
 31
0.0
  0
LINE
  5
2375
  8
KL
 10
23560.516032868691
 20
614.96865026030264
 30
0.0
 11
23560.516032868571
 21
57.468650260302631
 31
0.0
  0
LINE
  5
2376
  8
CT
 10
23295.01603286856
 20
28.518534260359051
 30
0.0
 11
23295.016032868709
 21
660.22912435621674
 31
0.0
  0
LINE
  5
2377
  8
KL
 10
23815.516032868582
 20
97.46865026024625
 30
0.0
 11
23815.516032868669
 21
557.46865026024625
 31
0.0
  0
LINE
  5
2378
  8
KL
 10
23755.516032868691
 20
614.96865026025887
 30
0.0
 11
23755.516032868571
 21
57.468650260258983
 31
0.0
  0
LINE
  5
2379
  8
KL
 10
23550.516032868571
 20
57.41971026030388
 30
0.0
 11
23540.016032868571
 21
57.419710260305692
 31
0.0
  0
LINE
  5
237C
  8
KL
 10
23170.016032868571
 20
47.468650260386312
 30
0.0
 11
23599.016032868571
 21
47.468650260293543
 31
0.0
  0
ARC
  5
237D
  8
KL
 10
22937.850733868581
 20
100.2760852604342
 30
0.0
 40
10.0
 50
183.0000000000033
 51
225.0000000001105
  0
LINE
  5
237E
  8
KL
 10
22927.864437868571
 20
99.752726260437157
 30
0.0
 11
22925.750694868591
 21
140.0853532604369
 31
0.0
  0
LINE
  5
237F
  8
KL
 10
22905.516032868589
 20
140.08535326044239
 30
0.0
 11
22959.516032868589
 21
140.0853532604296
 31
0.0
  0
LINE
  5
2380
  8
KL
 10
23134.516032868571
 20
77.468650260393574
 30
0.0
 11
23054.516032868571
 21
77.468650260409959
 31
0.0
  0
LINE
  5
2381
  8
KL
 10
23050.016032868571
 20
47.468650260411771
 30
0.0
 11
23170.016032868571
 21
47.468650260386312
 31
0.0
  0
LINE
  5
2383
  8
KL
 10
22989.516032868589
 20
140.88990926042331
 30
0.0
 11
23154.516032868589
 21
140.88990926038869
 31
0.0
  0
LINE
  5
2384
  8
KL
 10
23170.016032868571
 20
47.468650260386312
 30
0.0
 11
22991.016032868571
 21
47.468650260424511
 31
0.0
  0
ARC
  5
238A
  8
KL
 10
22957.716202868571
 20
80.410616260432107
 30
0.0
 40
10.0
 50
225.0000000001105
 51
267.99999999999602
  0
LINE
  5
238B
  8
KL
 10
22999.516032868582
 20
97.468650260422706
 30
0.0
 11
22999.516032868582
 21
95.604218260422385
 31
0.0
  0
LINE
  5
238C
  8
KL
 10
22999.516032868582
 20
97.468650260422706
 30
0.0
 11
22989.516032868582
 21
97.468650260424511
 31
0.0
  0
ARC
  5
238D
  8
KL
 10
23055.016032868571
 20
72.468650260409959
 30
0.0
 40
5.0
 50
90.0
 51
180.0
  0
LINE
  5
238E
  8
KL
 10
23039.516032868571
 20
57.419710260413012
 30
0.0
 11
23050.016032868571
 21
57.419710260411193
 31
0.0
  0
LINE
  5
238F
  8
KL
 10
23009.516032868571
 20
61.239819260418699
 30
0.0
 11
23039.516032868571
 21
57.419710260413012
 31
0.0
  0
LINE
  5
2390
  8
KL
 10
22999.516032868582
 20
95.604218260422385
 30
0.0
 11
23009.516032868571
 21
61.239819260418699
 31
0.0
  0
LINE
  5
2391
  8
KL
 10
22957.36720786857
 20
70.416708260431733
 30
0.0
 11
22989.516032868571
 21
69.468650260424511
 31
0.0
  0
LINE
  5
2393
  8
KL
 10
23050.016032868582
 20
72.468650260411763
 30
0.0
 11
23050.016032868571
 21
47.468650260411771
 31
0.0
  0
LINE
  5
2394
  8
KL
 10
22991.016032868571
 20
47.468650260424511
 30
0.0
 11
22991.016032868549
 21
-15.771118871535689
 31
0.0
  0
ARC
  5
2398
  8
KL
 10
23134.516032868582
 20
97.468650260393574
 30
0.0
 40
20.0
 50
270.0
 51
0.0
  0
LINE
  5
2399
  8
KL
 10
23175.016032868571
 20
57.468650260384493
 30
0.0
 11
23295.016032868571
 21
57.46865026035902
 31
0.0
  0
ARC
  5
239B
  8
KL
 10
23175.016032868571
 20
52.468650260384493
 30
0.0
 40
5.0
 50
90.0
 51
180.0
  0
LINE
  5
239C
  8
KL
 10
23085.516032868571
 20
81.229022260401507
 30
0.0
 11
23085.516032868571
 21
44.543482260402918
 31
0.0
  0
ARC
  5
239D
  8
KL
 10
23455.516032868582
 20
97.468650260324466
 30
0.0
 40
20.0
 50
180.0
 51
270.0
  0
ARC
  5
239E
  8
KL
 10
23535.016032868571
 20
72.468650260306276
 30
0.0
 40
5.0
 50
0.0
 51
90.0
  0
LINE
  5
239F
  8
KL
 10
23455.516032868571
 20
77.468650260324466
 30
0.0
 11
23535.516032868571
 21
77.468650260306276
 31
0.0
  0
LINE
  5
23A0
  8
KL
 10
23420.016032868571
 20
52.468650260331742
 30
0.0
 11
23420.016032868571
 21
47.468650260331742
 31
0.0
  0
LINE
  5
23A1
  8
KL
 10
23540.516032868571
 20
47.468650260306269
 30
0.0
 11
23420.016032868571
 21
47.468650260331742
 31
0.0
  0
LINE
  5
23A2
  8
KL
 10
23540.016032868582
 20
72.468650260306276
 30
0.0
 11
23540.016032868571
 21
47.468650260306269
 31
0.0
  0
LINE
  5
23A3
  8
KL
 10
23504.516032868571
 20
81.229022260312377
 30
0.0
 11
23504.51603286856
 21
44.543482260313787
 31
0.0
  0
ARC
  5
23A4
  8
KL
 10
23415.016032868571
 20
52.468650260333561
 30
0.0
 40
5.0
 50
0.0
 51
90.0
  0
LINE
  5
23A5
  8
KL
 10
23415.016032868571
 20
57.468650260333561
 30
0.0
 11
23295.016032868571
 21
57.46865026035902
 31
0.0
  0
LINE
  5
23A6
  8
KL
 10
22950.64513486857
 20
73.33954926043134
 30
0.0
 11
22930.779665868569
 21
93.205017260436762
 31
0.0
  0
LINE
  5
23A7
  8
KL
 10
23773.776902868569
 20
57.468650260255352
 30
0.0
 11
23560.516032868571
 21
57.468650260302631
 31
0.0
  0
LINE
  5
23A8
  8
KL
 10
23599.016032868571
 20
47.468650260293543
 30
0.0
 11
23599.016032868549
 21
-15.71504908657789
 31
0.0
  0
LINE
  5
23A9
  8
KL
 10
23773.776902868569
 20
57.468650260255352
 30
0.0
 11
23815.516032868582
 21
97.46865026024625
 31
0.0
  0
LINE
  5
23AA
  8
KL
 10
23560.516032868571
 20
58.693080260301031
 30
0.0
 11
23550.516032868571
 21
57.41971026030388
 31
0.0
  0
LINE
  5
23AB
  8
KL
 10
23295.016032868691
 20
613.28272726035812
 30
0.0
 11
23550.516032868691
 21
613.28272726030355
 31
0.0
  0
LINE
  5
23AC
  8
KL
 10
23550.516032868691
 20
617.46865026030434
 30
0.0
 11
23239.516032868691
 21
617.46865026037176
 31
0.0
  0
CIRCLE
  5
23AE
  8
KL
 10
23109.51603286872
 20
752.46865026039904
 30
0.0
 40
59.0
  0
LINE
  5
23AF
  8
KL
 10
22982.9160568687
 20
644.0685992604258
 30
0.0
 11
22982.91605686874
 21
838.94000926042554
 31
0.0
  0
LINE
  5
23B0
  8
KL
 10
22964.516032868702
 20
663.41058326043003
 30
0.0
 11
22964.516032868742
 21
848.13390326042918
 31
0.0
  0
LINE
  5
23B1
  8
CT
 10
23109.516032868742
 20
822.05030026039901
 30
0.0
 11
23109.516032868709
 21
678.90549426039877
 31
0.0
  0
LINE
  5
23B2
  8
KL
 10
23236.116038868739
 20
838.94000926037086
 30
0.0
 11
23236.116038868691
 21
644.06864126037078
 31
0.0
  0
LINE
  5
23B3
  8
KL
 10
23254.516032868742
 20
848.13390326036722
 30
0.0
 11
23254.516032868702
 21
663.41058326036807
 31
0.0
  0
LINE
  5
23B4
  8
FUTO
 10
22912.016032868691
 20
614.96865026044077
 30
0.0
 11
22912.016032868629
 21
330.46865026044082
 31
0.0
  0
LINE
  5
23B5
  8
KL
 10
23012.016032868702
 20
614.96865026041905
 30
0.0
 11
23012.016032868629
 21
330.468650260419
 31
0.0
  0
LINE
  5
23B6
  8
CT
 10
22512.81102066212
 20
327.46865026054633
 30
0.0
 11
23874.187389808649
 21
327.4686502601316
 31
0.0
  0
LINE
  5
23B7
  8
KL
 10
22912.016032868629
 20
330.46865026044082
 30
0.0
 11
23012.016032868629
 21
330.468650260419
 31
0.0
  0
LINE
  5
23B8
  8
KL
 10
22989.516032868611
 20
217.86709926042471
 30
0.0
 11
22905.516032868611
 21
217.8670992604429
 31
0.0
  0
LINE
  5
23B9
  8
FUTO
 10
22725.516032868622
 20
284.9686502604809
 30
0.0
 11
22725.51603286864
 21
374.96865026048079
 31
0.0
  0
ARC
  5
23BA
  8
FUTO
 10
22907.516032868651
 20
412.96865026044259
 30
0.0
 40
2.0
 50
90.0
 51
180.0
  0
LINE
  5
23BB
  8
FUTO
 10
22912.016032868651
 20
414.96865026044082
 30
0.0
 11
22907.516032868651
 21
414.9686502604427
 31
0.0
  0
LINE
  5
23BC
  8
FUTO
 10
22865.51603286864
 20
369.96865026045168
 30
0.0
 11
22865.51603286864
 21
374.9686502604518
 31
0.0
  0
LINE
  5
23BD
  8
FUTO
 10
22895.51603286864
 20
377.46865026044452
 30
0.0
 11
22905.51603286864
 21
377.46865026044259
 31
0.0
  0
LINE
  5
23BE
  8
FUTO
 10
22895.516032868622
 20
277.46865026044452
 30
0.0
 11
22905.516032868622
 21
277.46865026044259
 31
0.0
  0
ARC
  5
23BF
  8
FUTO
 10
22907.516032868611
 20
241.96865026044259
 30
0.0
 40
2.0
 50
180.0
 51
270.0
  0
LINE
  5
23C0
  8
FUTO
 10
22912.364407868601
 20
239.9686502604408
 30
0.0
 11
22907.516032868611
 21
239.96865026044259
 31
0.0
  0
LINE
  5
23C1
  8
KL
 10
22910.516032868611
 20
224.93816726044039
 30
0.0
 11
22905.516032868611
 21
224.93816726044221
 31
0.0
  0
LINE
  5
23C3
  8
FUTO
 10
22905.516032868611
 20
241.96865026044259
 30
0.0
 11
22905.516032868651
 21
412.96865026044259
 31
0.0
  0
LINE
  5
23C4
  8
FUTO
 10
22895.516032868622
 20
277.46865026044452
 30
0.0
 11
22895.51603286864
 21
377.46865026044452
 31
0.0
  0
LINE
  5
23C6
  8
FUTO
 10
22725.51603286864
 20
374.96865026048079
 30
0.0
 11
22865.51603286864
 21
374.9686502604518
 31
0.0
  0
LINE
  5
23C7
  8
FUTO
 10
22895.51603286864
 20
369.96865026044452
 30
0.0
 11
22725.51603286864
 21
369.9686502604809
 31
0.0
  0
LINE
  5
23C8
  8
FUTO
 10
22725.516032868622
 20
284.9686502604809
 30
0.0
 11
22895.516032868622
 21
284.96865026044452
 31
0.0
  0
ARC
  5
23CD
  8
KL
 10
23440.5160328686
 20
176.94068726032759
 30
0.0
 40
5.0
 50
90.0
 51
180.0
  0
LINE
  5
23CE
  8
KL
 10
22912.016032868691
 20
614.96865026044077
 30
0.0
 11
23012.016032868702
 21
614.96865026041905
 31
0.0
  0
LINE
  5
23CF
  8
KL
 10
23224.516032868709
 20
662.46865026037358
 30
0.0
 11
22994.516032868709
 21
662.46865026042269
 31
0.0
  0
LINE
  5
23D0
  8
CT
 10
23016.03499186871
 20
752.46865026041905
 30
0.0
 11
23195.95835986872
 21
752.46865026038085
 31
0.0
  0
LINE
  5
23D1
  8
KL
 10
23224.516032868702
 20
632.46865026037358
 30
0.0
 11
22994.516032868702
 21
632.46865026042269
 31
0.0
  0
LINE
  5
23D2
  8
KL
 10
23295.016032868691
 20
613.28272726035812
 30
0.0
 11
23039.516032868691
 21
613.28272726041257
 31
0.0
  0
LINE
  5
23D3
  8
KL
 10
23029.516032868702
 20
622.46865026041542
 30
0.0
 11
23189.516032868702
 21
622.46865026038085
 31
0.0
  0
LINE
  5
23D4
  8
KL
 10
22982.9160568687
 20
663.41058326042628
 30
0.0
 11
22964.516032868702
 21
663.41058326043003
 31
0.0
  0
ARC
  5
23D5
  8
KL
 10
22994.5159108687
 20
674.06853826042152
 30
0.0
 40
11.599888
 50
179.99945399997631
 51
270.0006100000092
  0
LINE
  5
23D6
  8
KL
 10
23024.659124868689
 20
603.69725526041748
 30
0.0
 11
23029.516032868691
 21
612.10966626041488
 31
0.0
  0
LINE
  5
23D7
  8
KL
 10
23039.516032868691
 20
613.28272726041257
 30
0.0
 11
23012.016032868691
 21
595.54010726041895
 31
0.0
  0
LINE
  5
23D8
  8
KL
 10
23028.288604868689
 20
609.98369826041653
 30
0.0
 11
23012.016032868702
 21
599.13531726041845
 31
0.0
  0
LINE
  5
23D9
  8
KL
 10
23029.516032868691
 20
612.10966626041488
 30
0.0
 11
23029.516032868702
 21
632.46865026041542
 31
0.0
  0
ARC
  5
23DA
  8
KL
 10
22994.516032868702
 20
644.06859926042216
 30
0.0
 40
11.599949000000001
 50
179.9997550000013
 51
270.0
  0
LINE
  5
23DB
  8
KL
 10
23189.516032868702
 20
632.46865026038085
 30
0.0
 11
23189.516032868702
 21
613.28272726037994
 31
0.0
  0
ARC
  5
23DC
  8
KL
 10
23224.516063868701
 20
674.06862626037298
 30
0.0
 40
11.599976
 50
269.99984700005228
 51
0.0001069999742915
  0
LINE
  5
23DD
  8
KL
 10
23236.116038868699
 20
663.41058326037182
 30
0.0
 11
23254.516032868702
 21
663.41058326036807
 31
0.0
  0
ARC
  5
23DE
  8
KL
 10
23224.516032868702
 20
644.06864726037293
 30
0.0
 40
11.600006
 50
270.0
 51
0.0000150000275647
  0
LINE
  5
23DF
  8
KL
 10
23239.516032868691
 20
617.46865026037176
 30
0.0
 11
23235.33010986869
 21
613.28272726037085
 31
0.0
  0
LINE
  5
23E0
  8
KL
 10
22964.516032868742
 20
848.13390326042918
 30
0.0
 11
23254.516032868742
 21
848.13390326036722
 31
0.0
  0
LINE
  5
23E1
  8
KL
 10
22982.91605686874
 20
838.94000926042554
 30
0.0
 11
23236.116038868739
 21
838.94000926037086
 31
0.0
  0
LINE
  5
23E2
  8
KL
 10
23224.516032868749
 20
880.52680126037285
 30
0.0
 11
22994.516032868749
 21
880.52680126042185
 31
0.0
  0
ARC
  5
23E3
  8
KL
 10
22994.516032868749
 20
868.92685626042214
 30
0.0
 40
11.599976
 50
90.0
 51
180.0003050000046
  0
LINE
  5
23E4
  8
KL
 10
22982.91605686874
 20
848.13390326042554
 30
0.0
 11
22982.91605686874
 21
868.92679526042502
 31
0.0
  0
ARC
  5
23E5
  8
KL
 10
23224.516032868749
 20
868.92681126037223
 30
0.0
 40
11.599990999999999
 50
359.99992399997137
 51
90.0
  0
LINE
  5
23E6
  8
KL
 10
23236.116038868739
 20
868.92679526037045
 30
0.0
 11
23236.116038868739
 21
848.13390326037097
 31
0.0
  0
LINE
  5
23E8
  8
KL
 10
23560.516032868691
 20
614.96865026030264
 30
0.0
 11
23755.516032868691
 21
614.96865026025887
 31
0.0
  0
LINE
  5
23E9
  8
KL
 10
23755.516032868691
 20
614.96865026025887
 30
0.0
 11
23815.516032868669
 21
557.46865026024625
 31
0.0
  0
LINE
  5
23EA
  8
KL
 10
23550.516032868691
 20
617.46865026030434
 30
0.0
 11
23560.516032868691
 21
610.80198426030165
 31
0.0
  0
LINE
  5
23EB
  8
KL
 10
23550.516032868691
 20
613.28272726030355
 30
0.0
 11
23560.516032868691
 21
606.83086526030002
 31
0.0
  0
LINE
  5
2519
  8
SL
 10
17528.976423297761
 20
4423.7761277753407
 30
0.0
 11
17528.976423297761
 21
5111.1550613138188
 31
0.0
  0
LINE
  5
251A
  8
FUTO
 10
17428.976423297761
 20
5890.7761277753416
 30
0.0
 11
17428.976423297761
 21
5965.7761277753416
 31
0.0
  0
LINE
  5
251B
  8
FUTO
 10
17603.976423297761
 20
5327.5761277752727
 30
0.0
 11
17603.976423297761
 21
5890.7761277753416
 31
0.0
  0
LINE
  5
251C
  8
FUTO
 10
17528.976423297761
 20
5111.1550613138188
 30
0.0
 11
17528.976423297761
 21
5890.7761277753416
 31
0.0
  0
LINE
  5
251D
  8
SL
 10
18053.976423297761
 20
4423.7761277753398
 30
0.0
 11
18053.976423297761
 21
5327.5761277752727
 31
0.0
  0
LINE
  5
251E
  8
SL
 10
18128.976423297761
 20
4423.7761277753389
 30
0.0
 11
18128.976423297761
 21
5111.155061313817
 31
0.0
  0
LINE
  5
251F
  8
FUTO
 10
18128.976423297761
 20
5111.155061313817
 30
0.0
 11
18128.976423297761
 21
5890.7761277753416
 31
0.0
  0
LINE
  5
2520
  8
FUTO
 10
18053.976423297761
 20
5327.5761277752727
 30
0.0
 11
18053.976423297761
 21
5890.7761277753416
 31
0.0
  0
LINE
  5
2523
  8
FUTO
 10
21170.976423297761
 20
7523.776127775348
 30
0.0
 11
19669.976423297761
 21
7523.776127775348
 31
0.0
  0
LINE
  5
2524
  8
FUTO
 10
21170.976423297761
 20
5915.7761277753452
 30
0.0
 11
19669.976423297761
 21
5915.7761277753416
 31
0.0
  0
LINE
  5
2525
  8
FUTO
 10
17451.976423297761
 20
5965.7761277753407
 30
0.0
 11
17428.976423297761
 21
5965.7761277753416
 31
0.0
  0
DIMENSION
  5
2555
  8
SP
  2
*D17
 10
21518.243731779359
 20
6719.7761277753434
 30
0.0
 11
21518.243731779359
 21
7155.56293651549
 31
0.0
 70
   128
 13
20753.976423297761
 23
7624.7761277753443
 33
0.0
 14
21174.883134979929
 24
6719.7761277753434
 34
0.0
 50
90.0
1001
ACAD
1000
DSTYLE
1002
{
1070
   287
1070
     3
1070
    40
1040
45.0
1070
   140
1040
3.0
1070
   147
1040
0.5
1070
   173
1070
     1
1070
   279
1070
     0
1070
   341
1005
24
1070
     6
1000
OPEN
1070
     7
1000
OPEN
1002
}
  0
DIMENSION
  5
2562
  8
SP
  2
*D18
 10
21518.243731779359
 20
4119.776127775347
 30
0.0
 11
21518.243731779359
 21
5419.776127775347
 31
0.0
 70
   128
 13
21174.883134979929
 23
6719.7761277753434
 33
0.0
 14
20158.976423297761
 24
4119.776127775347
 34
0.0
 50
90.0
1001
ACAD
1000
DSTYLE
1002
{
1070
   287
1070
     3
1070
    40
1040
45.0
1070
   140
1040
3.0
1070
   147
1040
0.5
1070
   173
1070
     1
1070
   279
1070
     0
1070
   341
1005
24
1070
     6
1000
OPEN
1070
     7
1000
OPEN
1002
}
  0
LINE
  5
259B
  8
KL
 10
18537.976423297761
 20
396.1645644213595
 30
0.0
 11
18537.976423297761
 21
1261.513903874923
 31
0.0
  0
LINE
  5
259C
  8
KL
 10
18528.976423297761
 20
391.24117453731918
 30
0.0
 11
18528.976423297761
 21
1254.2297549563029
 31
0.0
  0
LINE
  5
259D
  8
KL
 10
18519.976423297761
 20
386.31778465327938
 30
0.0
 11
18519.976423297761
 21
1246.945606037682
 31
0.0
  0
LINE
  5
259E
  8
FUTO
 10
18519.976423297761
 20
1246.945606037681
 30
0.0
 11
18519.976423297761
 21
1558.4686502604909
 31
0.0
  0
LINE
  5
259F
  8
FUTO
 10
18528.976423297761
 20
1254.2297549563029
 30
0.0
 11
18528.976423297761
 21
1558.4686502604909
 31
0.0
  0
LINE
  5
25A0
  8
FUTO
 10
18537.976423297761
 20
1261.513903874923
 30
0.0
 11
18537.976423297761
 21
1558.4686502604909
 31
0.0
  0
LINE
  5
25A1
  8
FUTO
 10
18927.121778388439
 20
1576.4686502604909
 30
0.0
 11
17604.404800215991
 21
1576.46865026049
 31
0.0
  0
LINE
  5
25A2
  8
FUTO
 10
18916.001742141929
 20
1567.4686502604909
 30
0.0
 11
17567.34979093431
 21
1567.4686502604909
 31
0.0
  0
LINE
  5
25A3
  8
FUTO
 10
18904.88170589543
 20
1558.46865026049
 30
0.0
 11
17604.404800215991
 21
1558.4686502604909
 31
0.0
  0
LINE
  5
26BF
  8
SP
 10
17604.404800215991
 20
1576.46865026049
 30
0.0
 11
17604.404800215991
 21
1558.4686502604909
 31
0.0
  0
LINE
  5
26C0
  8
FUTO
 10
18878.976423297761
 20
-22.531349739509089
 30
0.0
 11
19105.468636648638
 21
706.60738914171668
 31
0.0
  0
LINE
  5
26C1
  8
FUTO
 10
20478.976423297761
 20
-22.531349739509089
 30
0.0
 11
20071.07853213881
 21
1290.600565710462
 31
0.0
  0
LINE
  5
26C3
  8
KL
 10
19878.976423297761
 20
1558.4686502604909
 30
0.0
 11
20158.892040880681
 21
1558.4686502604909
 31
0.0
  0
LINE
  5
26C4
  8
KL
 10
19878.976423297761
 20
1576.46865026049
 30
0.0
 11
20158.892040880681
 21
1576.46865026049
 31
0.0
  0
LINE
  5
26C5
  8
KL
 10
19878.976423297761
 20
1567.4686502604909
 30
0.0
 11
20158.976423297761
 21
1567.4686502604909
 31
0.0
  0
LINE
  5
26C6
  8
KL
 10
19878.976423297761
 20
1558.4686502604909
 30
0.0
 11
19878.976423297761
 21
1576.46865026049
 31
0.0
  0
LINE
  5
26C7
  8
FUTO
 10
20158.892040880681
 20
1576.46865026049
 30
0.0
 11
21170.976423297761
 21
1576.46865026049
 31
0.0
  0
LINE
  5
26C8
  8
FUTO
 10
20158.892040880681
 20
1558.4686502604909
 30
0.0
 11
21170.976423297761
 21
1558.46865026049
 31
0.0
  0
LINE
  5
26C9
  8
CT
 10
20567.476150171358
 20
1567.4686502604909
 30
0.0
 11
21242.820001131931
 21
1567.4686502604909
 31
0.0
  0
LINE
  5
26CD
  8
FUTO
 10
21170.976423297761
 20
1558.46865026049
 30
0.0
 11
21170.976423297761
 21
1576.46865026049
 31
0.0
  0
LINE
  5
26CE
  8
FUTO
 10
21170.976423297761
 20
5915.7761277753407
 30
0.0
 11
21170.976423297761
 21
7523.7761277753489
 31
0.0
  0
LINE
  5
26CF
  8
FUTO
 10
21120.976423297761
 20
5965.7761277753416
 30
0.0
 11
21120.976423297761
 21
7473.776127775348
 31
0.0
  0
LINE
  5
26EE
  8
FUTO
 10
19594.976423297761
 20
5965.7761277753407
 30
0.0
 11
19594.976423297761
 21
7473.776127775348
 31
0.0
  0
LINE
  5
26EF
  8
FUTO
 10
19669.976423297761
 20
5890.7761277753407
 30
0.0
 11
19669.976423297761
 21
7548.7761277753452
 31
0.0
  0
LINE
  5
26F0
  8
FUTO
 10
20828.976423297761
 20
5890.7761277753407
 30
0.0
 11
20828.976423297761
 21
5965.7761277753416
 31
0.0
  0
LINE
  5
26F1
  8
FUTO
 10
20828.976423297761
 20
7473.776127775348
 30
0.0
 11
20828.976423297761
 21
7548.776127775347
 31
0.0
  0
LINE
  5
26F2
  8
FUTO
 10
19594.97642329775
 20
5965.7761277753416
 30
0.0
 11
17526.976423298009
 21
5965.7761277753416
 31
0.0
  0
LINE
  5
26F3
  8
FUTO
 10
19594.976423297761
 20
7473.7761277753443
 30
0.0
 11
17526.976423299038
 21
7473.776127775348
 31
0.0
  0
LINE
  5
26F5
  8
SL
 10
17526.9764232991
 20
7473.776127775348
 30
0.0
 11
19594.976423297761
 21
5965.7761277753416
 31
0.0
  0
LINE
  5
26F6
  8
SL
 10
19594.976423297761
 20
7473.7761277753443
 30
0.0
 11
17526.97642329842
 21
5965.7761277753416
 31
0.0
  0
DIMENSION
  5
26F7
  8
FUTO
  2
*D19
 10
19678.976423297761
 20
8054.7419172812479
 30
0.0
 11
18553.976423297761
 21
8144.7419172812479
 31
0.0
 70
     0
 13
17428.976423297761
 23
5965.7761277753416
 33
0.0
 14
19678.976423297761
 24
7878.3945082093887
 34
0.0
1001
ACAD
1000
DSTYLE
1002
{
1070
   287
1070
     3
1070
    40
1040
45.0
1070
   140
1040
3.0
1070
   147
1040
0.5
1070
   173
1070
     1
1070
   279
1070
     0
1070
   341
1005
24
1070
     6
1000
OPEN
1070
     7
1000
OPEN
1002
}
  0
DIMENSION
  5
2704
  8
FUTO
  2
*D20
 10
21170.976423297761
 20
8054.7419172812479
 30
0.0
 11
20424.976423297761
 21
8144.7419172812479
 31
0.0
 70
     0
 13
19678.976423297761
 23
7878.3945082093887
 33
0.0
 14
21170.976423297761
 24
7523.776127775348
 34
0.0
1001
ACAD
1000
DSTYLE
1002
{
1070
   287
1070
     3
1070
    40
1040
45.0
1070
   140
1040
3.0
1070
   147
1040
0.5
1070
   173
1070
     1
1070
   279
1070
     0
1070
   341
1005
24
1070
     6
1000
OPEN
1070
     7
1000
OPEN
1002
}
  0
DIMENSION
  5
2711
  8
FUTO
  2
*D21
 10
21418.082273593169
 20
1567.4686502604909
 30
0.0
 11
21328.082273593169
 21
682.46865026049431
 31
0.0
 70
     0
 13
20828.976423297761
 23
-202.5313497395091
 33
0.0
 14
21242.820001131931
 24
1567.4686502604909
 34
0.0
 50
90.0
1001
ACAD
1000
DSTYLE
1002
{
1070
   287
1070
     3
1070
    40
1040
45.0
1070
   140
1040
3.0
1070
   147
1040
0.5
1070
   173
1070
     1
1070
   279
1070
     0
1070
   341
1005
24
1070
     6
1000
OPEN
1070
     7
1000
OPEN
1002
}
  0
DIMENSION
  5
271E
  8
FUTO
  2
*D22
 10
21418.082273593169
 20
2842.4686502609461
 30
0.0
 11
21328.082273593169
 21
2204.9686502607219
 31
0.0
 70
     0
 13
21242.820001131931
 23
1567.4686502604909
 33
0.0
 14
19669.976423297761
 24
2842.4686502609461
 34
0.0
 50
90.0
1001
ACAD
1000
DSTYLE
1002
{
1070
   287
1070
     3
1070
    40
1040
45.0
1070
   140
1040
3.0
1070
   147
1040
0.5
1070
   173
1070
     1
1070
   279
1070
     0
1070
   341
1005
24
1070
     6
1000
OPEN
1070
     7
1000
OPEN
1002
}
  0
LINE
  5
272B
  8
SL
 10
17721.235175311122
 20
468.52918153086279
 30
0.0
 11
19487.77364518063
 21
1817.8014240642669
 31
0.0
  0
LINE
  5
272C
  8
SL
 10
17918.51176313738
 20
174.2052400158845
 30
0.0
 11
19837.870124984969
 21
1295.4800630658549
 31
0.0
  0
LINE
  5
272D
  8
FUTO
 10
17652.823788984391
 20
545.11572564735786
 30
0.0
 11
19377.00047876055
 21
1940.57792235228
 31
0.0
  0
LINE
  5
272E
  8
FUTO
 10
17963.355706267401
 20
81.822139378351494
 30
0.0
 11
19909.340908388571
 21
1146.3603458911259
 31
0.0
  0
ARC
  5
272F
  8
FUTO
 10
17828.976423297761
 20
327.46865026048079
 30
0.0
 40
310.0
 50
0.0
 51
239.897691931688
  0
ARC
  5
2730
  8
FUTO
 10
19531.976423297761
 20
1714.46865026049
 30
0.0
 40
1903.0
 50
229.60123389991489
 51
245.89089985454851
  0
LINE
  5
2731
  8
KL
 10
20071.07853213881
 20
1290.600565710462
 30
0.0
 11
20028.563227775201
 21
1427.46865026049
 31
0.0
  0
LINE
  5
2732
  8
KL
 10
19105.468636648638
 20
706.60738914171668
 30
0.0
 11
19329.389618820311
 21
1427.46865026049
 31
0.0
  0
LINE
  5
2733
  8
FUTO
 10
26035.91603286863
 20
2767.4686502604909
 30
0.0
 11
24379.516032868629
 21
2767.4686502604918
 31
0.0
  0
LINE
  5
2734
  8
FUTO
 10
26035.91603286863
 20
2836.4686502604909
 30
0.0
 11
24379.516032868629
 21
2836.4686502604909
 31
0.0
  0
LINE
  5
2735
  8
FUTO
 10
26035.91603286863
 20
2842.4686502604909
 30
0.0
 11
24379.516032868629
 21
2842.4686502604909
 31
0.0
  0
LINE
  5
2736
  8
FUTO
 10
26035.91603286863
 20
2842.4686502610771
 30
0.0
 11
24379.516032868629
 21
2842.468650261826
 31
0.0
  0
LINE
  5
2737
  8
FUTO
 10
26035.91603286863
 20
2842.4686502606328
 30
0.0
 11
24379.516032868629
 21
2842.4686502617642
 31
0.0
  0
DIMENSION
  5
2790
  8
FUTO
  2
*D23
 10
26112.71603286863
 20
3318.6006556738762
 30
0.0
 11
25660.21603286863
 21
3408.6006556738748
 31
0.0
 70
     0
 13
25207.71603286863
 23
3251.1604273309931
 33
0.0
 14
26112.71603286863
 24
2642.4686502604909
 34
0.0
1001
ACAD
1000
DSTYLE
1002
{
1070
   287
1070
     3
1070
    40
1040
45.0
1070
   140
1040
3.0
1070
   147
1040
0.5
1070
   173
1070
     1
1070
   279
1070
     0
1070
   341
1005
24
1070
     6
1000
OPEN
1070
     7
1000
OPEN
1002
}
  0
LINE
  5
2E34
  8
4
 10
26159.609989304041
 20
-2332.2740260457899
 30
0.0
 11
26159.609989304041
 21
-3532.2740260457899
 31
0.0
  0
LINE
  5
2E35
  8
4
 10
21959.60998930403
 20
-2332.2740260457899
 30
0.0
 11
21959.60998930403
 21
-3532.2740260457899
 31
0.0
  0
LINE
  5
2E36
  8
4
 10
18959.60998930403
 20
-2332.2740260457899
 30
0.0
 11
18959.60998930403
 21
-3532.2740260457899
 31
0.0
  0
LINE
  5
2E39
  8
4
 10
18959.60998930403
 20
-3532.2740260457899
 30
0.0
 11
26159.609989304041
 21
-3532.2740260457899
 31
0.0
  0
LINE
  5
2E3A
  8
4
 10
18959.60998930403
 20
-2932.2740260457899
 30
0.0
 11
26159.609989304041
 21
-2932.2740260457899
 31
0.0
  0
TEXT
  5
2E3B
  8
4
 10
19190.622474385451
 20
-2743.0158708461131
 30
0.0
 40
300.0
  1
機器名称
  0
TEXT
  5
2E3C
  8
4
 10
19177.158625452819
 20
-3402.4030856537238
 30
0.0
 40
300.0
  1
機器型番
  0
TEXT
  5
2E3D
  8
4
 10
21988.368359510288
 20
-2799.1502119041111
 30
0.0
 40
270.0
  1
ミツヤリミットロードファン
  0
TEXT
  5
2E3E
  8
4
 10
22179.536962816921
 20
-3429.3165203661301
 30
0.0
 40
300.0
  1
LL#12-1
  0
TEXT
  5
2E40
  8
4
 10
16956.615549280708
 20
9871.0118311499973
 30
0.0
 40
432.0
  1
遠心式片吸込片持リミットロードファン
  0
LINE
  5
2E41
  8
4
 10
16559.60998930403
 20
9484.1784995430389
 30
0.0
 11
26159.609989304041
 21
9484.1784995430389
 31
0.0
  0
LINE
  5
2E42
  8
4
 10
16559.60998930403
 20
10684.17849954303
 30
0.0
 11
26159.609989304041
 21
10684.17849954303
 31
0.0
  0
LINE
  5
2E43
  8
4
 10
18959.60998930403
 20
-2332.2740260457899
 30
0.0
 11
26159.609989304041
 21
-2332.2740260457899
 31
0.0
  0
LINE
  5
2E44
  8
4
 10
16559.60998930403
 20
10684.17849954303
 30
0.0
 11
16559.60998930403
 21
9484.1784995430389
 31
0.0
  0
TEXT
  5
2E45
  8
4
 10
23873.42734479978
 20
10904.092462926061
 30
0.0
 40
336.00000000000011
  1
No.
  0
TEXT
  5
2E46
  8
4
 10
23958.680960185698
 20
8320.5270775966164
 30
0.0
 40
323.99999999999989
  1
縮尺：1/60
  0
LINE
  5
2E47
  8
4
 10
26159.609989304041
 20
10684.17849954303
 30
0.0
 11
26159.609989304041
 21
9484.1784995430389
 31
0.0
  0
LINE
  5
2E48
  8
4
 10
27659.60998930403
 20
12367.72597395421
 30
0.0
 11
27659.60998930403
 21
12367.72597395421
 31
0.0
  0
LINE
  5
2E49
  8
4
 10
23703.314523463221
 20
10755.30747270661
 30
0.0
 11
23703.314523463221
 21
11387.639543252721
 31
0.0
  0
LINE
  5
2E4A
  8
4
 10
23703.314523463221
 20
11387.639543252721
 30
0.0
 11
26159.609989304041
 21
11387.639543252721
 31
0.0
  0
LINE
  5
2E4B
  8
4
 10
26159.609989304041
 20
11387.639543252721
 30
0.0
 11
26159.609989304041
 21
10755.30747270661
 31
0.0
  0
LINE
  5
2E4C
  8
4
 10
26159.609989304041
 20
10755.30747270661
 30
0.0
 11
23703.314523463221
 21
10755.30747270661
 31
0.0
  0
LINE
  5
2E4D
  8
4
 10
15059.60998930403
 20
-5332.2740260457913
 30
0.0
 11
15059.60998930403
 21
12367.72597395421
 31
0.0
  0
LINE
  5
2E4E
  8
4
 10
15059.60998930403
 20
12367.72597395421
 30
0.0
 11
27659.60998930403
 21
12367.72597395421
 31
0.0
  0
LINE
  5
2E4F
  8
4
 10
27659.60998930403
 20
12367.72597395421
 30
0.0
 11
27659.60998930403
 21
-5332.2740260457913
 31
0.0
  0
LINE
  5
2E50
  8
4
 10
27659.60998930403
 20
-5332.2740260457913
 30
0.0
 11
15059.60998930403
 21
-5332.2740260457913
 31
0.0
  0
TEXT
  5
2E51
  8
4
 10
20008.427065350839
 20
8928.2885012115312
 30
0.0
 40
323.99999999999989
  1
床置防振ベット
  0
TEXT
  5
2E52
  8
4
 10
16840.320614556651
 20
8946.7976385615111
 30
0.0
 40
323.99999999999989
  1
右回転上向
  0
ENDSEC
  0
EOF
