  0
SECTION
  2
HEADER
  9
$ACADVER
  1
AC1009
  9
$INSBASE
 10
0.0
 20
0.0
 30
0.0
  9
$EXTMIN
 10
15355.16085578172
 20
-4551.4934105388666
 30
0.0
  9
$EXTMAX
 10
27955.16085578172
 20
13148.506589461131
 30
0.0
  9
$LIMMIN
 10
0.0
 20
0.0
  9
$LIMMAX
 10
297.0
 20
210.0
  9
$ORTHOMODE
 70
     0
  9
$REGENMODE
 70
     1
  9
$FILLMODE
 70
     1
  9
$QTEXTMODE
 70
     0
  9
$MIRRTEXT
 70
     0
  9
$DRAGMODE
 70
     2
  9
$LTSCALE
 40
225.0
  9
$OSMODE
 70
    37
  9
$ATTMODE
 70
     1
  9
$TEXTSIZE
 40
120.0
  9
$TRACEWID
 40
0.05
  9
$TEXTSTYLE
  7
STANDARD
  9
$CLAYER
  8
SP
  9
$CELTYPE
  6
BYLAYER
  9
$CECOLOR
 62
   256
  9
$DIMSCALE
 40
45.0
  9
$DIMASZ
 40
2.0
  9
$DIMEXO
 40
1.0
  9
$DIMDLI
 40
10.0
  9
$DIMRND
 40
0.0
  9
$DIMDLE
 40
0.0
  9
$DIMEXE
 40
1.0
  9
$DIMTP
 40
0.0
  9
$DIMTM
 40
0.0
  9
$DIMTXT
 40
3.0
  9
$DIMCEN
 40
0.0
  9
$DIMTSZ
 40
0.0
  9
$DIMTOL
 70
     0
  9
$DIMLIM
 70
     0
  9
$DIMTIH
 70
     0
  9
$DIMTOH
 70
     0
  9
$DIMSE1
 70
     0
  9
$DIMSE2
 70
     0
  9
$DIMTAD
 70
     1
  9
$DIMZIN
 70
     8
  9
$DIMBLK
  1

  9
$DIMASO
 70
     1
  9
$DIMSHO
 70
     1
  9
$DIMPOST
  1

  9
$DIMAPOST
  1

  9
$DIMALT
 70
     0
  9
$DIMALTD
 70
     2
  9
$DIMALTF
 40
25.399999999999999
  9
$DIMLFAC
 40
1.0
  9
$DIMTOFL
 70
     1
  9
$DIMTVP
 40
0.0
  9
$DIMTIX
 70
     0
  9
$DIMSOXD
 70
     0
  9
$DIMSAH
 70
     1
  9
$DIMBLK1
  1
OPEN
  9
$DIMBLK2
  1
OPEN
  9
$DIMSTYLE
  2
DIA1
  9
$DIMCLRD
 70
     2
  9
$DIMCLRE
 70
     2
  9
$DIMCLRT
 70
     2
  9
$DIMTFAC
 40
1.0
  9
$DIMGAP
 40
0.5
  9
$LUNITS
 70
     2
  9
$LUPREC
 70
     3
  9
$SKETCHINC
 40
0.1
  9
$FILLETRAD
 40
10.0
  9
$AUNITS
 70
     0
  9
$AUPREC
 70
     2
  9
$MENU
  1
acad
  9
$ELEVATION
 40
0.0
  9
$PELEVATION
 40
0.0
  9
$THICKNESS
 40
0.0
  9
$LIMCHECK
 70
     0
  9
$BLIPMODE
 70
     0
  9
$CHAMFERA
 40
10.0
  9
$CHAMFERB
 40
10.0
  9
$SKPOLY
 70
     0
  9
$TDCREATE
 40
2451270.426261805
  9
$TDUPDATE
 40
2454953.637196539
  9
$TDINDWG
 40
0.83029125
  9
$TDUSRTIMER
 40
0.83029125
  9
$USRTIMER
 70
     1
  9
$ANGBASE
 50
0.0
  9
$ANGDIR
 70
     0
  9
$PDMODE
 70
     0
  9
$PDSIZE
 40
1.0
  9
$PLINEWID
 40
0.0
  9
$COORDS
 70
     1
  9
$SPLFRAME
 70
     0
  9
$SPLINETYPE
 70
     6
  9
$SPLINESEGS
 70
     8
  9
$ATTDIA
 70
     0
  9
$ATTREQ
 70
     1
  9
$HANDLING
 70
 10241
  9
$HANDSEED
  5
2F87
  9
$SURFTAB1
 70
     6
  9
$SURFTAB2
 70
     6
  9
$SURFTYPE
 70
     6
  9
$SURFU
 70
     6
  9
$SURFV
 70
     6
  9
$UCSNAME
  2

  9
$UCSORG
 10
0.0
 20
0.0
 30
0.0
  9
$UCSXDIR
 10
1.0
 20
0.0
 30
0.0
  9
$UCSYDIR
 10
0.0
 20
1.0
 30
0.0
  9
$PUCSNAME
  2

  9
$PUCSORG
 10
0.0
 20
0.0
 30
0.0
  9
$PUCSXDIR
 10
1.0
 20
0.0
 30
0.0
  9
$PUCSYDIR
 10
0.0
 20
1.0
 30
0.0
  9
$USERI1
 70
     0
  9
$USERI2
 70
     0
  9
$USERI3
 70
     0
  9
$USERI4
 70
     0
  9
$USERI5
 70
     0
  9
$USERR1
 40
0.0
  9
$USERR2
 40
0.0
  9
$USERR3
 40
0.0
  9
$USERR4
 40
0.0
  9
$USERR5
 40
0.0
  9
$WORLDVIEW
 70
     1
  9
$SHADEDGE
 70
     3
  9
$SHADEDIF
 70
    70
  9
$TILEMODE
 70
     1
  9
$MAXACTVP
 70
    16
  9
$PLIMCHECK
 70
     0
  9
$PEXTMIN
 10
1.0000000000000000E+020
 20
1.0000000000000000E+020
 30
1.0000000000000000E+020
  9
$PEXTMAX
 10
-1.0000000000000000E+020
 20
-1.0000000000000000E+020
 30
-1.0000000000000000E+020
  9
$PLIMMIN
 10
0.0
 20
0.0
  9
$PLIMMAX
 10
12.0
 20
9.0
  9
$UNITMODE
 70
     0
  9
$VISRETAIN
 70
     0
  9
$PLINEGEN
 70
     0
  9
$PSLTSCALE
 70
     0
  0
ENDSEC
  0
SECTION
  2
TABLES
  0
TABLE
  2
VPORT
 70
     2
  0
VPORT
  2
*ACTIVE
 70
     0
 10
0.0
 20
0.0
 11
1.0
 21
1.0
 12
27285.873950143101
 22
-2487.7312812679052
 13
0.0
 23
0.0
 14
5.0
 24
5.0
 15
0.0
 25
0.0
 16
0.0
 26
0.0
 36
1.0
 17
0.0
 27
0.0
 37
0.0
 40
5363.4573936296238
 41
3.1666666666666661
 42
50.0
 43
0.0
 44
0.0
 50
0.0
 51
0.0
 71
     0
 72
   100
 73
     1
 74
     0
 75
     0
 76
     0
 77
     0
 78
     0
  0
ENDTAB
  0
TABLE
  2
LTYPE
 70
     4
  0
LTYPE
  2
CONTINUOUS
 70
     0
  3
Solid line
 72
    65
 73
     0
 40
0.0
  0
LTYPE
  2
CENTER
 70
     0
  3
____ _ ____ _ ____ _ ____ _ ____ _ ____ _ ____ 
 72
    65
 73
     4
 40
2.0
 49
1.25
 49
-0.25
 49
0.25
 49
-0.25
  0
LTYPE
  2
HIDDEN
 70
     0
  3
__ __ __ __ __ __ __ __ __ __ __ __ __ __ __ __
 72
    65
 73
     2
 40
0.375
 49
0.25
 49
-0.125
  0
LTYPE
  2
PHANTOM
 70
     0
  3
______  __  __  ______  __  __  ______  __  __ 
 72
    65
 73
     6
 40
2.5
 49
1.25
 49
-0.25
 49
0.25
 49
-0.25
 49
0.25
 49
-0.25
  0
ENDTAB
  0
TABLE
  2
LAYER
 70
     9
  0
LAYER
  2
0
 70
     0
 62
     7
  6
CONTINUOUS
  0
LAYER
  2
CT
 70
     0
 62
     3
  6
CENTER
  0
LAYER
  2
FUTO
 70
     0
 62
     4
  6
CONTINUOUS
  0
LAYER
  2
HOSO
 70
     0
 62
     7
  6
CONTINUOUS
  0
LAYER
  2
KL
 70
     0
 62
     7
  6
HIDDEN
  0
LAYER
  2
SL
 70
     0
 62
     1
  6
PHANTOM
  0
LAYER
  2
SP
 70
     0
 62
     2
  6
CONTINUOUS
  0
LAYER
  2
DEFPOINTS
 70
     0
 62
     7
  6
CONTINUOUS
  0
LAYER
  2
4
 70
     0
 62
     7
  6
CONTINUOUS
  0
ENDTAB
  0
TABLE
  2
STYLE
 70
     1
  0
STYLE
  2
STANDARD
 70
     0
 40
0.0
 41
1.0
 50
15.0
 71
     0
 42
120.0
  3
C:\Program Files\AutoCAD LT\simplex.shx
  4
C:\Program Files\AutoCAD LT\extfont.shx
  0
ENDTAB
  0
TABLE
  2
VIEW
 70
     0
  0
ENDTAB
  0
TABLE
  2
UCS
 70
     0
  0
ENDTAB
  0
TABLE
  2
APPID
 70
     2
  0
APPID
  2
ACAD
 70
     0
  0
APPID
  2
CONTENTBLOCKICON
 70
     0
  0
ENDTAB
  0
TABLE
  2
DIMSTYLE
 70
     2
  0
DIMSTYLE
  2
DIA1
 70
     0
  3

  4

  5

  6

  7

 40
1.0
 41
2.0
 42
1.0
 43
10.0
 44
1.0
 45
0.0
 46
0.0
 47
0.0
 48
0.0
140
2.5
141
0.0
142
0.0
143
25.399999999999999
144
1.0
145
0.0
146
1.0
147
0.09
 71
     0
 72
     0
 73
     0
 74
     0
 75
     0
 76
     0
 77
     1
 78
     8
170
     0
171
     2
172
     1
173
     0
174
     0
175
     0
176
     2
177
     2
178
     2
  0
DIMSTYLE
  2
STANDARD
 70
     0
  3

  4

  5

  6

  7

 40
1.0
 41
0.18
 42
0.0625
 43
0.38
 44
0.18
 45
0.0
 46
0.0
 47
0.0
 48
0.0
140
0.18
141
0.09
142
0.0
143
25.399999999999999
144
1.0
145
0.0
146
1.0
147
0.09
 71
     0
 72
     0
 73
     1
 74
     1
 75
     0
 76
     0
 77
     0
 78
     0
170
     0
171
     2
172
     0
173
     0
174
     0
175
     0
176
     0
177
     0
178
     0
  0
ENDTAB
  0
ENDSEC
  0
SECTION
  2
BLOCKS
  0
BLOCK
  8
0
  2
$MODEL_SPACE
 70
     0
 10
0.0
 20
0.0
 30
0.0
  3
$MODEL_SPACE
  1

  0
ENDBLK
  5
7
  8
0
  0
BLOCK
 67
     1
  8
0
  2
$PAPER_SPACE
 70
     0
 10
0.0
 20
0.0
 30
0.0
  3
$PAPER_SPACE
  1

  0
ENDBLK
  5
A
 67
     1
  8
0
  0
BLOCK
  8
0
  2
_OPEN
 70
     0
 10
0.0
 20
0.0
 30
0.0
  3
_OPEN
  1

  0
LINE
  5
25
  8
0
  6
BYBLOCK
 62
     0
 10
-1.0
 20
0.1666666666666666
 30
0.0
 11
0.0
 21
0.0
 31
0.0
  0
LINE
  5
26
  8
0
  6
BYBLOCK
 62
     0
 10
0.0
 20
0.0
 30
0.0
 11
-1.0
 21
-0.1666666666666666
 31
0.0
  0
LINE
  5
27
  8
0
  6
BYBLOCK
 62
     0
 10
0.0
 20
0.0
 30
0.0
 11
-1.0
 21
0.0
 31
0.0
  0
ENDBLK
  5
29
  8
0
  0
BLOCK
  8
0
  2
_DOT
 70
     0
 10
0.0
 20
0.0
 30
0.0
  3
_DOT
  1

  0
POLYLINE
  5
16D
  8
0
  6
BYBLOCK
 62
     0
 66
     1
 10
0.0
 20
0.0
 30
0.0
 70
     1
 40
0.25
 41
0.25
  0
VERTEX
  5
2F0C
  8
0
  6
BYBLOCK
 62
     0
 10
-0.125
 20
0.0
 30
0.0
 42
1.0
  0
VERTEX
  5
2F0D
  8
0
  6
BYBLOCK
 62
     0
 10
0.125
 20
0.0
 30
0.0
 42
1.0
  0
SEQEND
  5
2F0E
  8
0
  6
BYBLOCK
 62
     0
  0
LINE
  5
171
  8
0
  6
BYBLOCK
 62
     0
 10
-0.25
 20
0.0
 30
0.0
 11
-1.0
 21
0.0
 31
0.0
  0
ENDBLK
  5
173
  8
0
  0
BLOCK
  8
0
  2
L-75-6
 70
     0
 10
0.0
 20
0.0
 30
0.0
  3
L-75-6
  1

  0
LINE
  5
293
  8
0
 10
114.6064614035558
 20
81.429596884474719
 30
0.0
 11
189.60646140355581
 21
81.429596884474719
 31
0.0
  0
LINE
  5
294
  8
0
 10
114.6064614035558
 20
81.429596884474719
 30
0.0
 11
114.6064614035558
 21
156.42959688447471
 31
0.0
  0
LINE
  5
295
  8
0
 10
189.60646140355581
 20
81.429596884474719
 30
0.0
 11
189.60646140355581
 21
83.429596884474705
 31
0.0
  0
LINE
  5
296
  8
0
 10
114.6064614035558
 20
156.42959688447471
 30
0.0
 11
116.6064614035558
 21
156.42959688447471
 31
0.0
  0
LINE
  5
297
  8
0
 10
120.6064614035558
 20
95.929596884474705
 30
0.0
 11
120.6064614035558
 21
152.42959688447471
 31
0.0
  0
LINE
  5
298
  8
0
 10
129.10646140355581
 20
87.429596884474719
 30
0.0
 11
185.60646140355581
 21
87.429596884474719
 31
0.0
  0
ARC
  5
299
  8
0
 10
185.60646140355581
 20
83.429596884474705
 30
0.0
 40
4.0
 50
0.0
 51
90.0
  0
ARC
  5
29A
  8
0
 10
116.6064614035558
 20
152.42959688447471
 30
0.0
 40
4.0
 50
0.0
 51
90.0
  0
ARC
  5
29B
  8
0
 10
129.10646140355581
 20
95.929596884474705
 30
0.0
 40
8.5
 50
180.0
 51
270.0
  0
ENDBLK
  5
29D
  8
0
  0
BLOCK
  8
0
  2
22222F
 70
     0
 10
0.0
 20
0.0
 30
0.0
  3
22222F
  1

  0
ARC
  5
228
  8
FUTO
 10
-0.0000000000000568
 20
0.0
 30
0.0
 40
130.0
 50
124.6637959032814
 51
175.3362040967184
  0
ARC
  5
229
  8
FUTO
 10
-0.0000000000000568
 20
0.0
 30
0.0
 40
130.0
 50
4.6637959032815717
 51
55.336204096718511
  0
ARC
  5
22A
  8
FUTO
 10
-0.0000000000000568
 20
0.0
 30
0.0
 40
115.0
 50
8.9772148936872895
 51
51.022785106312661
  0
ARC
  5
22B
  8
FUTO
 10
-0.0000000000000568
 20
0.0
 30
0.0
 40
115.0
 50
128.9772148936872
 51
171.02278510631271
  0
ARC
  5
22C
  8
FUTO
 10
-57.499999999999829
 20
99.592921435210386
 30
0.0
 40
18.0
 50
25.51139255315622
 51
214.4886074468437
  0
ARC
  5
22D
  8
FUTO
 10
57.5
 20
99.592921435210243
 30
0.0
 40
18.0
 50
325.51139255315621
 51
154.4886074468437
  0
LINE
  5
22E
  8
FUTO
 10
-110.0
 20
-127.0
 30
0.0
 11
-0.0000000000000568
 21
-127.0
 31
0.0
  0
ARC
  5
22F
  8
FUTO
 10
-0.0000000000000568
 20
0.0
 30
0.0
 40
115.0
 50
248.9772148936872
 51
291.0227851063126
  0
CIRCLE
  5
230
  8
FUTO
 10
-0.0000000000000568
 20
0.0
 30
0.0
 40
54.0
  0
LINE
  5
231
  8
CT
 10
-190.0
 20
-140.0
 30
0.0
 11
-190.0
 21
-70.0
 31
0.0
  0
LINE
  5
232
  8
FUTO
 10
-225.0
 20
-130.0
 30
0.0
 11
-110.0
 21
-130.0
 31
0.0
  0
LINE
  5
233
  8
FUTO
 10
-125.0000000000001
 20
-80.0
 30
0.0
 11
-222.0
 21
-80.0
 31
0.0
  0
ARC
  5
234
  8
FUTO
 10
-222.0
 20
-83.0
 30
0.0
 40
3.0
 50
90.0
 51
180.0
  0
LINE
  5
235
  8
FUTO
 10
-225.0
 20
-83.0
 30
0.0
 11
-225.0
 21
-130.0
 31
0.0
  0
LINE
  5
236
  8
FUTO
 10
-129.99999999999929
 20
-9.9498743710669828
 30
0.0
 11
-130.0
 21
-60.0
 31
0.0
  0
ARC
  5
237
  8
FUTO
 10
-0.0000000000000568
 20
0.0
 30
0.0
 40
115.0
 50
188.9772148936872
 51
231.02278510631271
  0
LINE
  5
238
  8
FUTO
 10
-125.0000000000001
 20
-80.0
 30
0.0
 11
-110.0000000000001
 21
-95.0
 31
0.0
  0
ARC
  5
239
  8
FUTO
 10
-150.0
 20
-60.0
 30
0.0
 40
20.0
 50
270.0
 51
0.0
  0
LINE
  5
23A
  8
FUTO
 10
-110.0
 20
-130.0
 30
0.0
 11
-110.0000000000001
 21
-95.0
 31
0.0
  0
ARC
  5
23B
  8
FUTO
 10
-57.500000000000057
 20
-99.592921435210542
 30
0.0
 40
18.0
 50
145.51139255315621
 51
334.48860744684367
  0
ARC
  5
23C
  8
FUTO
 10
-115.0
 20
0.0
 30
0.0
 40
18.0
 50
85.511392553156256
 51
274.48860744684367
  0
LINE
  5
23D
  8
CT
 10
190.0
 20
-140.0
 30
0.0
 11
190.0
 21
-70.0
 31
0.0
  0
ARC
  5
23E
  8
FUTO
 10
150.0
 20
-60.0
 30
0.0
 40
20.0
 50
180.0
 51
270.0
  0
LINE
  5
23F
  8
FUTO
 10
222.0000000000004
 20
-80.0
 30
0.0
 11
124.9999999999997
 21
-80.0
 31
0.0
  0
LINE
  5
240
  8
FUTO
 10
110.0
 20
-130.0
 30
0.0
 11
225.0
 21
-130.0
 31
0.0
  0
LINE
  5
241
  8
FUTO
 10
130.0
 20
-60.0
 30
0.0
 11
130.0
 21
-9.9498743710661302
 31
0.0
  0
ARC
  5
242
  8
FUTO
 10
-0.0000000000000568
 20
0.0
 30
0.0
 40
115.0
 50
308.97721489368718
 51
351.02278510631271
  0
LINE
  5
243
  8
FUTO
 10
-0.0000000000000568
 20
-127.0
 30
0.0
 11
110.0
 21
-127.0
 31
0.0
  0
ARC
  5
244
  8
FUTO
 10
57.5
 20
-99.592921435210542
 30
0.0
 40
18.0
 50
205.51139255315621
 51
34.488607446843737
  0
LINE
  5
245
  8
FUTO
 10
109.9999999999997
 20
-95.0
 30
0.0
 11
124.9999999999997
 21
-80.0
 31
0.0
  0
LINE
  5
246
  8
FUTO
 10
109.9999999999997
 20
-95.0
 30
0.0
 11
110.0
 21
-130.0
 31
0.0
  0
ARC
  5
247
  8
FUTO
 10
115.0
 20
0.0
 30
0.0
 40
18.0
 50
265.51139255315621
 51
94.488607446843773
  0
ARC
  5
248
  8
FUTO
 10
222.0000000000004
 20
-83.0
 30
0.0
 40
3.0
 50
0.0
 51
90.0
  0
LINE
  5
249
  8
FUTO
 10
225.0
 20
-130.0
 30
0.0
 11
225.0000000000004
 21
-83.0
 31
0.0
  0
LINE
  5
24A
  8
FUTO
 10
19.227247756821669
 20
132.99999999999989
 30
0.0
 11
-19.227247756821779
 21
132.99999999999989
 31
0.0
  0
ARC
  5
24B
  8
FUTO
 10
-0.0000000000000568
 20
0.0
 30
0.0
 40
115.0
 50
68.977214893687218
 51
111.0227851063126
  0
ARC
  5
24C
  8
FUTO
 10
-0.0000000000000568
 20
0.0
 30
0.0
 40
130.0
 50
98.505358450480756
 51
115.3362040967184
  0
LINE
  5
24D
  8
FUTO
 10
-19.227247756821779
 20
113.3812724558063
 30
0.0
 11
-19.227247756821779
 21
132.99999999999989
 31
0.0
  0
ARC
  5
24E
  8
FUTO
 10
-0.0000000000000568
 20
0.0
 30
0.0
 40
130.0
 50
64.663795903281382
 51
81.494641549519287
  0
LINE
  5
24F
  8
FUTO
 10
19.227247756821669
 20
113.3812724558063
 30
0.0
 11
19.227247756821669
 21
132.99999999999989
 31
0.0
  0
ENDBLK
  5
251
  8
0
  0
BLOCK
  8
0
  2
まっすぐの矢印
 70
     0
 10
0.0
 20
0.0
 30
0.0
  3
まっすぐの矢印
  1

  0
LINE
  5
2CF
  8
SP
 10
0.6962157491662495
 20
-2.216890595009601
 30
0.0
 11
0.6962157491662495
 21
-5.0
 31
0.0
  0
LINE
  5
2D0
  8
SP
 10
0.6962157491662495
 20
-5.0
 30
0.0
 11
-0.6962157491662495
 21
-5.0
 31
0.0
  0
LINE
  5
2D1
  8
SP
 10
-0.6962157491662495
 20
-5.0
 30
0.0
 11
-0.6962157491662495
 21
-2.216890595009601
 31
0.0
  0
LINE
  5
2D2
  8
SP
 10
-0.6962157491662495
 20
-2.216890595009601
 30
0.0
 11
-1.7145256852758151
 21
-2.216890595009601
 31
0.0
  0
LINE
  5
2D3
  8
SP
 10
-1.7145256852758151
 20
-2.216890595009601
 30
0.0
 11
0.0
 21
0.0
 31
0.0
  0
LINE
  5
2D4
  8
SP
 10
0.0
 20
0.0
 30
0.0
 11
1.7145256852758151
 21
-2.216890595009601
 31
0.0
  0
LINE
  5
2D5
  8
SP
 10
1.7145256852758151
 20
-2.216890595009601
 30
0.0
 11
0.6962157491662495
 21
-2.216890595009601
 31
0.0
  0
ENDBLK
  5
2D7
  8
0
  0
BLOCK
  8
0
  2
右回転矢印
 70
     0
 10
0.0
 20
0.0
 30
0.0
  3
右回転矢印
  1

  0
LINE
  5
1E3
  8
SP
 10
-2.7705290305565882
 20
1.567794835092901
 30
0.0
 11
-2.4288000558398148
 21
2.8051227455822878
 31
0.0
  0
LINE
  5
1E4
  8
SP
 10
-2.4288000558398148
 20
2.8051227455822878
 30
0.0
 11
0.0
 21
0.0
 31
0.0
  0
LINE
  5
1E5
  8
SP
 10
0.0
 20
0.0
 30
0.0
 11
-3.3160037613098718
 21
-0.4072531086382499
 31
0.0
  0
LINE
  5
1E6
  8
SP
 10
-3.3160037613098718
 20
-0.4072531086382499
 30
0.0
 11
-3.0391574735299112
 21
0.5951483970269315
 31
0.0
  0
ARC
  5
1E7
  8
SP
 10
-5.9215210782018062
 20
-9.8412769578768184
 30
0.0
 40
10.82714154973578
 50
74.560750721316467
 51
112.11861101078711
  0
LINE
  5
1E8
  8
SP
 10
-9.9982127316752951
 20
0.1890560027239694
 30
0.0
 11
-10.37814929817227
 21
1.1238557349100611
 31
0.0
  0
ARC
  5
1E9
  8
SP
 10
-5.9215210782018062
 20
-9.8412769578768291
 30
0.0
 40
11.83620167374065
 50
74.560750721316396
 51
112.11861101078701
  0
ENDBLK
  5
1EB
  8
0
  0
BLOCK
  8
0
  2
*D6
 70
     1
 10
0.0
 20
0.0
 30
0.0
  3
*D6
  1

  0
LINE
  5
2E67
  8
SP
 62
     2
 10
17427.803122048099
 20
-50.243310899584692
 30
0.0
 11
17427.803122048099
 21
-717.86403791347027
 31
0.0
  0
LINE
  5
2E68
  8
SP
 62
     2
 10
19677.803122048099
 20
-50.243310899584628
 30
0.0
 11
19677.803122048099
 21
-717.86403791347027
 31
0.0
  0
LINE
  5
2E69
  8
SP
 62
     2
 10
17517.803122048092
 20
-672.86403791347027
 30
0.0
 11
19587.803122048099
 21
-672.86403791347027
 31
0.0
  0
INSERT
  5
2E6A
  8
SP
 62
     2
  2
_OPEN
 10
17427.803122048099
 20
-672.86403791347027
 30
0.0
 41
90.0
 42
90.0
 43
90.0
 50
180.0
  0
INSERT
  5
2E6B
  8
SP
 62
     2
  2
_OPEN
 10
19677.803122048099
 20
-672.86403791347027
 30
0.0
 41
90.0
 42
90.0
 43
90.0
  0
TEXT
  5
2E6C
  8
SP
 62
     2
 10
18303.518755461679
 20
-650.36403791347027
 30
0.0
 40
135.0
  1
2250
 51
15.0
  0
POINT
  5
2E6D
  8
DEFPOINTS
 62
     0
 10
17427.803122048099
 20
-5.2433108995846851
 30
0.0
  0
POINT
  5
2E6E
  8
DEFPOINTS
 62
     0
 10
19677.803122048099
 20
-5.2433108995846283
 30
0.0
  0
POINT
  5
2E6F
  8
DEFPOINTS
 62
     0
 10
19677.803122048099
 20
-672.86403791347027
 30
0.0
  0
ENDBLK
  5
A67
  8
0
  0
BLOCK
  8
0
  2
*D7
 70
     1
 10
0.0
 20
0.0
 30
0.0
  3
*D7
  1

  0
LINE
  5
2E4C
  8
SP
 62
     2
 10
19677.803122048099
 20
-50.243310899584628
 30
0.0
 11
19677.803122048099
 21
-717.86403791347027
 31
0.0
  0
LINE
  5
2E4D
  8
SP
 62
     2
 10
20827.803122048099
 20
-50.243310899584692
 30
0.0
 11
20827.803122048099
 21
-717.86403791347027
 31
0.0
  0
LINE
  5
2E4E
  8
SP
 62
     2
 10
19767.803122048099
 20
-672.86403791347027
 30
0.0
 11
20737.803122048099
 21
-672.86403791347027
 31
0.0
  0
INSERT
  5
2E4F
  8
SP
 62
     2
  2
_OPEN
 10
19677.803122048099
 20
-672.86403791347027
 30
0.0
 41
90.0
 42
90.0
 43
90.0
 50
180.0
  0
INSERT
  5
2E50
  8
SP
 62
     2
  2
_OPEN
 10
20827.803122048099
 20
-672.86403791347027
 30
0.0
 41
90.0
 42
90.0
 43
90.0
  0
TEXT
  5
2E51
  8
SP
 62
     2
 10
20014.591531732411
 20
-650.36403791347027
 30
0.0
 40
135.0
  1
1150
 51
15.0
  0
POINT
  5
2E52
  8
DEFPOINTS
 62
     0
 10
19677.803122048099
 20
-5.2433108995846283
 30
0.0
  0
POINT
  5
2E53
  8
DEFPOINTS
 62
     0
 10
20827.803122048099
 20
-5.2433108995846851
 30
0.0
  0
POINT
  5
2E54
  8
DEFPOINTS
 62
     0
 10
20827.803122048099
 20
-672.86403791347027
 30
0.0
  0
ENDBLK
  5
A74
  8
0
  0
BLOCK
  8
0
  2
*D8
 70
     1
 10
0.0
 20
0.0
 30
0.0
  3
*D8
  1

  0
LINE
  5
2EEF
  8
SP
 10
20827.803122048099
 20
-50.243310899584692
 30
0.0
 11
20827.803122048099
 21
-1013.196934813673
 31
0.0
  0
LINE
  5
2EF0
  8
SP
 10
17427.803122048099
 20
-50.243310899584692
 30
0.0
 11
17427.803122048099
 21
-1013.196934813673
 31
0.0
  0
LINE
  5
2EF1
  8
SP
 10
20737.803122048099
 20
-968.19693481367347
 30
0.0
 11
17517.803122048092
 21
-968.19693481367347
 31
0.0
  0
INSERT
  5
2EF2
  8
SP
  2
_OPEN
 10
20827.803122048099
 20
-968.19693481367347
 30
0.0
 41
90.0
 42
90.0
 43
90.0
  0
INSERT
  5
2EF3
  8
SP
  2
_OPEN
 10
17427.803122048099
 20
-968.19693481367347
 30
0.0
 41
90.0
 42
90.0
 43
90.0
 50
180.0
  0
TEXT
  8
0
  40
135
  5
2F78
  72
0
  71
0
 10
18857.8
 20
-1117.15
 30
0.000000
  1
3400
  0
POINT
  5
2EF5
  8
DEFPOINTS
 62
     0
 10
20827.803122048099
 20
-5.2433108995846851
 30
0.0
  0
POINT
  5
2EF6
  8
DEFPOINTS
 62
     0
 10
17427.803122048099
 20
-5.2433108995846851
 30
0.0
  0
POINT
  5
2EF7
  8
DEFPOINTS
 62
     0
 10
17427.803122048099
 20
-968.19693481367347
 30
0.0
  0
ENDBLK
  5
14BE
  8
0
  0
BLOCK
  8
0
  2
*D9
 70
     1
 10
0.0
 20
0.0
 30
0.0
  3
*D9
  1

  0
LINE
  5
2EF8
  8
SP
 10
21021.144687877291
 20
1674.7566891004151
 30
0.0
 11
21461.90897234351
 21
1674.7566891004151
 31
0.0
  0
LINE
  5
2EF9
  8
SP
 10
20838.835791461941
 20
194.7566891004152
 30
0.0
 11
21461.90897234351
 21
194.75668910041509
 31
0.0
  0
LINE
  5
2EFA
  8
SP
 10
21416.90897234351
 20
1584.7566891004151
 30
0.0
 11
21416.90897234351
 21
284.75668910041497
 31
0.0
  0
INSERT
  5
2EFB
  8
SP
  2
_OPEN
 10
21416.90897234351
 20
1674.7566891004151
 30
0.0
 41
90.0
 42
90.0
 43
90.0
 50
90.0
  0
INSERT
  5
2EFC
  8
SP
  2
_OPEN
 10
21416.90897234351
 20
194.75668910041509
 30
0.0
 41
90.0
 42
90.0
 43
90.0
 50
270.0
  0
TEXT
  8
0
  40
135
  5
2F79
  72
0
  71
0
 10
21056.9
 20
686.360
 30
0.000000
  1
1480
  0
POINT
  5
2EFE
  8
DEFPOINTS
 62
     0
 10
20976.144687877291
 20
1674.7566891004151
 30
0.0
  0
POINT
  5
2EFF
  8
DEFPOINTS
 62
     0
 10
20793.835791461941
 20
194.75668910041529
 30
0.0
  0
POINT
  5
2F00
  8
DEFPOINTS
 62
     0
 10
21416.90897234351
 20
194.75668910041509
 30
0.0
  0
ENDBLK
  5
14CA
  8
0
  0
BLOCK
  8
0
  2
*D10
 70
     1
 10
0.0
 20
0.0
 30
0.0
  3
*D10
  1

  0
LINE
  5
2F01
  8
SP
 10
20838.835791461941
 20
174.7566891004152
 30
0.0
 11
21461.90897234351
 21
174.75668910041509
 31
0.0
  0
LINE
  5
2F02
  8
SP
 10
20838.835791461941
 20
-5.2433108995846984
 30
0.0
 11
21461.90897234351
 21
-5.2433108995848743
 31
0.0
  0
LINE
  5
2F03
  8
SP
 10
21416.90897234351
 20
264.75668910041497
 30
0.0
 11
21416.90897234351
 21
354.75668910041509
 31
0.0
  0
LINE
  5
2F04
  8
SP
 10
21416.90897234351
 20
-95.243310899584856
 30
0.0
 11
21416.90897234351
 21
-545.2433108995848
 31
0.0
  0
LINE
  5
2F05
  8
SP
 10
21416.90897234351
 20
174.75668910041509
 30
0.0
 11
21416.90897234351
 21
-5.243310899584861
 31
0.0
  0
INSERT
  5
2F06
  8
SP
  2
_DOT
 10
21416.90897234351
 20
174.75668910041509
 30
0.0
 41
90.0
 42
90.0
 43
90.0
 50
270.0
  0
INSERT
  5
2F07
  8
SP
  2
_OPEN
 10
21416.90897234351
 20
-5.243310899584861
 30
0.0
 41
90.0
 42
90.0
 43
90.0
 50
90.0
  0
TEXT
  8
0
  40
135
  5
2F7A
  72
0
  71
0
 10
21056.9
 20
-604.193
 30
0.000000
  1
180
  0
POINT
  5
2F09
  8
DEFPOINTS
 62
     0
 10
20793.835791461941
 20
174.75668910041529
 30
0.0
  0
POINT
  5
2F0A
  8
DEFPOINTS
 62
     0
 10
20793.835791461941
 20
-5.2433108995846851
 30
0.0
  0
POINT
  5
2F0B
  8
DEFPOINTS
 62
     0
 10
21416.90897234351
 20
-5.243310899584861
 30
0.0
  0
ENDBLK
  5
14D8
  8
0
  0
BLOCK
  8
0
  2
*D11
 70
     1
 10
0.0
 20
0.0
 30
0.0
  3
*D11
  1

  0
LINE
  5
2F0F
  8
SP
 10
19677.803122048099
 20
3920.1395363970878
 30
0.0
 11
19677.803122048099
 21
4382.8220489511514
 31
0.0
  0
LINE
  5
2F10
  8
SP
 10
20952.803122048092
 20
3946.7566891004149
 30
0.0
 11
20952.803122048092
 21
4382.8220489511514
 31
0.0
  0
LINE
  5
2F11
  8
SP
 10
19767.803122048099
 20
4337.8220489511514
 30
0.0
 11
20862.803122048092
 21
4337.8220489511514
 31
0.0
  0
INSERT
  5
2F12
  8
SP
  2
_OPEN
 10
19677.803122048099
 20
4337.8220489511514
 30
0.0
 41
90.0
 42
90.0
 43
90.0
 50
180.0
  0
INSERT
  5
2F13
  8
SP
  2
_OPEN
 10
20952.803122048092
 20
4337.8220489511514
 30
0.0
 41
90.0
 42
90.0
 43
90.0
  0
TEXT
  8
0
  40
135
  5
2F7B
  72
0
  71
0
 10
20045.3
 20
4188.87
 30
0.000000
  1
1275
  0
POINT
  5
2F15
  8
DEFPOINTS
 62
     0
 10
19677.803122048099
 20
3875.1395363970869
 30
0.0
  0
POINT
  5
2F16
  8
DEFPOINTS
 62
     0
 10
20952.803122048092
 20
3901.7566891004149
 30
0.0
  0
POINT
  5
2F17
  8
DEFPOINTS
 62
     0
 10
20952.803122048092
 20
4337.8220489511514
 30
0.0
  0
ENDBLK
  5
14E7
  8
0
  0
BLOCK
  8
0
  2
*D12
 70
     1
 10
0.0
 20
0.0
 30
0.0
  3
*D12
  1

  0
LINE
  5
2F18
  8
SP
 10
26156.542731618971
 20
2674.7566891004149
 30
0.0
 11
26650.732449997999
 21
2674.7566891004149
 31
0.0
  0
LINE
  5
2F19
  8
SP
 10
26156.542731618971
 20
674.75668910041531
 30
0.0
 11
26650.732449997999
 21
674.7566891004152
 31
0.0
  0
LINE
  5
2F1A
  8
SP
 10
26605.732449997999
 20
2584.7566891004149
 30
0.0
 11
26605.732449997999
 21
764.7566891004152
 31
0.0
  0
INSERT
  5
2F1B
  8
SP
  2
_OPEN
 10
26605.732449997999
 20
2674.7566891004149
 30
0.0
 41
90.0
 42
90.0
 43
90.0
 50
90.0
  0
INSERT
  5
2F1C
  8
SP
  2
_OPEN
 10
26605.732449997999
 20
674.7566891004152
 30
0.0
 41
90.0
 42
90.0
 43
90.0
 50
270.0
  0
TEXT
  8
0
  40
135
  5
2F7C
  72
0
  71
0
 10
26245.7
 20
1435.81
 30
0.000000
  1
%%C2000
  0
POINT
  5
2F1E
  8
DEFPOINTS
 62
     0
 10
26111.542731618971
 20
2674.7566891004149
 30
0.0
  0
POINT
  5
2F1F
  8
DEFPOINTS
 62
     0
 10
26111.542731618971
 20
674.75668910041531
 30
0.0
  0
POINT
  5
2F20
  8
DEFPOINTS
 62
     0
 10
26605.732449997999
 20
674.7566891004152
 30
0.0
  0
ENDBLK
  5
1561
  8
0
  0
BLOCK
  8
0
  2
*D13
 70
     1
 10
0.0
 20
0.0
 30
0.0
  3
*D13
  1

  0
LINE
  5
2F21
  8
SP
 62
     2
 10
22835.542731618971
 20
-50.243310899584692
 30
0.0
 11
22835.542731618971
 21
-723.32073116783056
 31
0.0
  0
LINE
  5
2F22
  8
SP
 62
     2
 10
25206.542731618971
 20
-50.243310899584742
 30
0.0
 11
25206.542731618971
 21
-723.32073116783056
 31
0.0
  0
LINE
  5
2F23
  8
SP
 62
     2
 10
22925.542731618971
 20
-678.32073116783067
 30
0.0
 11
25116.542731618971
 21
-678.32073116783067
 31
0.0
  0
INSERT
  5
2F24
  8
SP
 62
     2
  2
_OPEN
 10
22835.542731618971
 20
-678.32073116783067
 30
0.0
 41
90.0
 42
90.0
 43
90.0
 50
180.0
  0
INSERT
  5
2F25
  8
SP
 62
     2
  2
_OPEN
 10
25206.542731618971
 20
-678.32073116783067
 30
0.0
 41
90.0
 42
90.0
 43
90.0
  0
TEXT
  8
0
  40
135
  5
2F7D
  62
2
  72
0
  71
0
 10
23751.0
 20
-827.271
 30
0.000000
  1
2371
  0
POINT
  5
2F27
  8
DEFPOINTS
 62
     0
 10
22835.542731618971
 20
-5.2433108995846851
 30
0.0
  0
POINT
  5
2F28
  8
DEFPOINTS
 62
     0
 10
25206.542731618971
 20
-5.2433108995847411
 30
0.0
  0
POINT
  5
2F29
  8
DEFPOINTS
 62
     0
 10
25206.542731618971
 20
-678.32073116783067
 30
0.0
  0
ENDBLK
  5
1B15
  8
0
  0
BLOCK
  8
0
  2
*D14
 70
     1
 10
0.0
 20
0.0
 30
0.0
  3
*D14
  1

  0
LINE
  5
2F2A
  8
SP
 62
     2
 10
26035.542731618971
 20
-50.243310899584692
 30
0.0
 11
26035.542731618971
 21
-723.32073116783056
 31
0.0
  0
LINE
  5
2F2B
  8
SP
 62
     2
 10
25296.542731618971
 20
-678.32073116783067
 30
0.0
 11
25945.542731618971
 21
-678.32073116783067
 31
0.0
  0
INSERT
  5
2F2C
  8
SP
 62
     2
  2
_OPEN
 10
25206.542731618971
 20
-678.32073116783067
 30
0.0
 41
90.0
 42
90.0
 43
90.0
 50
180.0
  0
INSERT
  5
2F2D
  8
SP
 62
     2
  2
_OPEN
 10
26035.542731618971
 20
-678.32073116783067
 30
0.0
 41
90.0
 42
90.0
 43
90.0
  0
TEXT
  8
0
  40
135
  5
2F7E
  62
2
  72
0
  71
0
 10
25351.0
 20
-827.271
 30
0.000000
  1
829
  0
POINT
  5
2F2F
  8
DEFPOINTS
 62
     0
 10
25206.542731618971
 20
-5.2433108995847411
 30
0.0
  0
POINT
  5
2F30
  8
DEFPOINTS
 62
     0
 10
26035.542731618971
 20
-5.2433108995846851
 30
0.0
  0
POINT
  5
2F31
  8
DEFPOINTS
 62
     0
 10
26035.542731618971
 20
-678.32073116783067
 30
0.0
  0
ENDBLK
  5
1B21
  8
0
  0
BLOCK
  8
0
  2
*D15
 70
     1
 10
0.0
 20
0.0
 30
0.0
  3
*D15
  1

  0
LINE
  5
2F32
  8
SP
 62
     2
 10
26035.542731618971
 20
-723.32073116783056
 30
0.0
 11
26035.542731618971
 21
-1015.443031420727
 31
0.0
  0
LINE
  5
2F33
  8
SP
 62
     2
 10
22835.542731618971
 20
-723.32073116783056
 30
0.0
 11
22835.542731618971
 21
-1015.443031420727
 31
0.0
  0
LINE
  5
2F34
  8
SP
 62
     2
 10
25945.542731618971
 20
-970.44303142072749
 30
0.0
 11
22925.542731618971
 21
-970.44303142072749
 31
0.0
  0
INSERT
  5
2F35
  8
SP
 62
     2
  2
_OPEN
 10
26035.542731618971
 20
-970.44303142072749
 30
0.0
 41
90.0
 42
90.0
 43
90.0
  0
INSERT
  5
2F36
  8
SP
 62
     2
  2
_OPEN
 10
22835.542731618971
 20
-970.44303142072749
 30
0.0
 41
90.0
 42
90.0
 43
90.0
 50
180.0
  0
TEXT
  8
0
  40
135
  5
2F7F
  62
2
  72
0
  71
0
 10
24165.5
 20
-1119.39
 30
0.000000
  1
3200
  0
POINT
  5
2F38
  8
DEFPOINTS
 62
     0
 10
26035.542731618971
 20
-678.32073116783067
 30
0.0
  0
POINT
  5
2F39
  8
DEFPOINTS
 62
     0
 10
22835.542731618971
 20
-678.32073116783067
 30
0.0
  0
POINT
  5
2F3A
  8
DEFPOINTS
 62
     0
 10
22835.542731618971
 20
-970.44303142072749
 30
0.0
  0
ENDBLK
  5
1B2E
  8
0
  0
BLOCK
  8
0
  2
*D16
 70
     1
 10
0.0
 20
0.0
 30
0.0
  3
*D16
  1

  0
LINE
  5
2F3B
  8
SP
 62
     2
 10
22696.542731618982
 20
4314.894121657162
 30
0.0
 11
25116.542731618971
 21
4314.894121657162
 31
0.0
  0
INSERT
  5
2F3C
  8
SP
 62
     2
  2
_OPEN
 10
22606.542731618971
 20
4314.894121657162
 30
0.0
 41
90.0
 42
90.0
 43
90.0
 50
180.0
  0
INSERT
  5
2F3D
  8
SP
 62
     2
  2
_OPEN
 10
25206.542731618971
 20
4314.894121657162
 30
0.0
 41
90.0
 42
90.0
 43
90.0
  0
TEXT
  8
0
  40
135
  5
2F80
  62
2
  72
0
  71
0
 10
23636.5
 20
4165.94
 30
0.000000
  1
2600
  0
POINT
  5
2F3F
  8
DEFPOINTS
 62
     0
 10
22606.542731618971
 20
4314.894121657162
 30
0.0
  0
POINT
  5
2F40
  8
DEFPOINTS
 62
     0
 10
25206.542731618971
 20
4314.894121657162
 30
0.0
  0
POINT
  5
2F41
  8
DEFPOINTS
 62
     0
 10
25206.542731618971
 20
4314.894121657162
 30
0.0
  0
ENDBLK
  5
1BFE
  8
0
  0
BLOCK
  8
0
  2
*D17
 70
     1
 10
0.0
 20
0.0
 30
0.0
  3
*D17
  1

  0
LINE
  5
2F42
  8
SP
 62
     2
 10
21066.144687877291
 20
1674.7566891004151
 30
0.0
 11
21461.90897234351
 21
1674.7566891004151
 31
0.0
  0
LINE
  5
2F43
  8
SP
 62
     2
 10
20997.803122049561
 20
3901.7566891004162
 30
0.0
 11
21461.90897234351
 21
3901.7566891004162
 31
0.0
  0
LINE
  5
2F44
  8
SP
 62
     2
 10
21416.90897234351
 20
1764.7566891004151
 30
0.0
 11
21416.90897234351
 21
3811.7566891004162
 31
0.0
  0
INSERT
  5
2F45
  8
SP
 62
     2
  2
_OPEN
 10
21416.90897234351
 20
1674.7566891004151
 30
0.0
 41
90.0
 42
90.0
 43
90.0
 50
270.0
  0
INSERT
  5
2F46
  8
SP
 62
     2
  2
_OPEN
 10
21416.90897234351
 20
3901.7566891004162
 30
0.0
 41
90.0
 42
90.0
 43
90.0
 50
90.0
  0
TEXT
  8
0
  40
135
  5
2F81
  62
2
  72
0
  71
0
 10
21056.9
 20
2549.31
 30
0.000000
  1
2227
  0
POINT
  5
2F48
  8
DEFPOINTS
 62
     0
 10
21021.144687877291
 20
1674.7566891004151
 30
0.0
  0
POINT
  5
2F49
  8
DEFPOINTS
 62
     0
 10
20952.80312204955
 20
3901.7566891004162
 30
0.0
  0
POINT
  5
2F4A
  8
DEFPOINTS
 62
     0
 10
21416.90897234351
 20
3901.7566891004162
 30
0.0
  0
ENDBLK
  5
1C2F
  8
0
  0
BLOCK
  8
0
  2
*D18
 70
     1
 10
0.0
 20
0.0
 30
0.0
  3
*D18
  1

  0
LINE
  5
2E9D
  8
SP
 10
20838.835791461941
 20
194.7566891004152
 30
0.0
 11
21461.90897234351
 21
194.75668910041509
 31
0.0
  0
LINE
  5
2E9E
  8
SP
 10
20838.835791461941
 20
174.7566891004152
 30
0.0
 11
21461.90897234351
 21
174.75668910041509
 31
0.0
  0
LINE
  5
2E9F
  8
SP
 10
21416.90897234351
 20
284.75668910041497
 30
0.0
 11
21416.90897234351
 21
374.75668910041497
 31
0.0
  0
LINE
  5
2EA0
  8
SP
 10
21416.90897234351
 20
84.75668910041513
 30
0.0
 11
21416.90897234351
 21
-5.2433108995848636
 31
0.0
  0
TEXT
  5
2EA1
  8
SP
 10
21683.39336576291
 20
-34.992916139689342
 30
0.0
 40
135.0
  1
(20)
 50
90.0
 51
15.0
  0
LINE
  5
2EA2
  8
SP
 10
21416.90897234351
 20
194.75668910041509
 30
0.0
 11
21416.90897234351
 21
174.75668910041509
 31
0.0
  0
INSERT
  5
2EA3
  8
SP
  2
_OPEN
 10
21416.90897234351
 20
194.75668910041509
 30
0.0
 41
90.0
 42
90.0
 43
90.0
 50
270.0
  0
INSERT
  5
2EA4
  8
SP
  2
_DOT
 10
21416.90897234351
 20
174.75668910041509
 30
0.0
 41
90.0
 42
90.0
 43
90.0
 50
90.0
  0
POINT
  5
2EA5
  8
DEFPOINTS
 62
     0
 10
20793.835791461941
 20
194.75668910041529
 30
0.0
  0
POINT
  5
2EA6
  8
DEFPOINTS
 62
     0
 10
20793.835791461941
 20
174.75668910041529
 30
0.0
  0
POINT
  5
2EA7
  8
DEFPOINTS
 62
     0
 10
21416.90897234351
 20
174.75668910041509
 30
0.0
  0
ENDBLK
  5
1C46
  8
0
  0
BLOCK
  8
0
  2
*D19
 70
     1
 10
0.0
 20
0.0
 30
0.0
  3
*D19
  1

  0
LINE
  5
2F4B
  8
SP
 62
     2
 10
19677.803122048099
 20
8863.1641548246207
 30
0.0
 11
19677.803122048099
 21
9146.4418624533773
 31
0.0
  0
LINE
  5
2F4C
  8
SP
 62
     2
 10
20952.80312204947
 20
8533.5457743905772
 30
0.0
 11
20952.80312204947
 21
9146.4418624533773
 31
0.0
  0
LINE
  5
2F4D
  8
SP
 62
     2
 10
19767.803122048099
 20
9101.4418624533755
 30
0.0
 11
20862.80312204947
 21
9101.4418624533755
 31
0.0
  0
INSERT
  5
2F4E
  8
SP
 62
     2
  2
_OPEN
 10
19677.803122048099
 20
9101.4418624533755
 30
0.0
 41
90.0
 42
90.0
 43
90.0
 50
180.0
  0
INSERT
  5
2F4F
  8
SP
 62
     2
  2
_OPEN
 10
20952.80312204947
 20
9101.4418624533755
 30
0.0
 41
90.0
 42
90.0
 43
90.0
  0
TEXT
  8
0
  40
135
  5
2F82
  62
2
  72
0
  71
0
 10
20045.3
 20
8952.49
 30
0.000000
  1
1275
  0
POINT
  5
2F51
  8
DEFPOINTS
 62
     0
 10
19677.803122048099
 20
8818.1641548246207
 30
0.0
  0
POINT
  5
2F52
  8
DEFPOINTS
 62
     0
 10
20952.80312204947
 20
8488.5457743905772
 30
0.0
  0
POINT
  5
2F53
  8
DEFPOINTS
 62
     0
 10
20952.80312204947
 20
9101.4418624533755
 30
0.0
  0
ENDBLK
  5
2546
  8
0
  0
BLOCK
  8
0
  2
*D20
 70
     1
 10
0.0
 20
0.0
 30
0.0
  3
*D20
  1

  0
LINE
  5
2F54
  8
SP
 62
     2
 10
20797.803122048092
 20
8564.5457743905736
 30
0.0
 11
21563.806542702219
 21
8564.5457743905736
 31
0.0
  0
LINE
  5
2F55
  8
SP
 62
     2
 10
21218.70983373027
 20
7659.5457743905736
 30
0.0
 11
21563.806542702219
 21
7659.5457743905736
 31
0.0
  0
LINE
  5
2F56
  8
SP
 62
     2
 10
21518.806542702219
 20
8474.5457743905736
 30
0.0
 11
21518.806542702219
 21
7749.5457743905727
 31
0.0
  0
INSERT
  5
2F57
  8
SP
 62
     2
  2
_OPEN
 10
21518.806542702219
 20
8564.5457743905736
 30
0.0
 41
90.0
 42
90.0
 43
90.0
 50
90.0
  0
INSERT
  5
2F58
  8
SP
 62
     2
  2
_OPEN
 10
21518.806542702219
 20
7659.5457743905736
 30
0.0
 41
90.0
 42
90.0
 43
90.0
 50
270.0
  0
TEXT
  8
0
  40
135
  5
2F83
  62
2
  72
0
  71
0
 10
21158.8
 20
7873.10
 30
0.000000
  1
905
  0
POINT
  5
2F5A
  8
DEFPOINTS
 62
     0
 10
20752.803122048092
 20
8564.5457743905736
 30
0.0
  0
POINT
  5
2F5B
  8
DEFPOINTS
 62
     0
 10
21173.70983373027
 20
7659.5457743905736
 30
0.0
  0
POINT
  5
2F5C
  8
DEFPOINTS
 62
     0
 10
21518.806542702219
 20
7659.5457743905736
 30
0.0
  0
ENDBLK
  5
2561
  8
0
  0
BLOCK
  8
0
  2
*D21
 70
     1
 10
0.0
 20
0.0
 30
0.0
  3
*D21
  1

  0
LINE
  5
2F5D
  8
SP
 62
     2
 10
21218.70983373027
 20
7659.5457743905736
 30
0.0
 11
21563.806542702219
 21
7659.5457743905736
 31
0.0
  0
LINE
  5
2F5E
  8
SP
 62
     2
 10
20202.803122048099
 20
5059.5457743905781
 30
0.0
 11
21563.806542702219
 21
5059.5457743905781
 31
0.0
  0
LINE
  5
2F5F
  8
SP
 62
     2
 10
21518.806542702219
 20
7569.5457743905727
 30
0.0
 11
21518.806542702219
 21
5149.5457743905781
 31
0.0
  0
INSERT
  5
2F60
  8
SP
 62
     2
  2
_OPEN
 10
21518.806542702219
 20
7659.5457743905736
 30
0.0
 41
90.0
 42
90.0
 43
90.0
 50
90.0
  0
INSERT
  5
2F61
  8
SP
 62
     2
  2
_OPEN
 10
21518.806542702219
 20
5059.5457743905781
 30
0.0
 41
90.0
 42
90.0
 43
90.0
 50
270.0
  0
TEXT
  8
0
  40
135
  5
2F84
  62
2
  72
0
  71
0
 10
21158.8
 20
6120.60
 30
0.000000
  1
2600
  0
POINT
  5
2F63
  8
DEFPOINTS
 62
     0
 10
21173.70983373027
 20
7659.5457743905736
 30
0.0
  0
POINT
  5
2F64
  8
DEFPOINTS
 62
     0
 10
20157.803122048092
 20
5059.5457743905781
 30
0.0
  0
POINT
  5
2F65
  8
DEFPOINTS
 62
     0
 10
21518.806542702219
 20
5059.5457743905781
 30
0.0
  0
ENDBLK
  5
256E
  8
0
  0
BLOCK
  8
0
  2
*D22
 70
     1
 10
0.0
 20
0.0
 30
0.0
  3
*D22
  1

  0
LINE
  5
2F66
  8
SP
 62
     2
 10
25206.542731618971
 20
4288.9344583351522
 30
0.0
 11
25206.542731618971
 21
4359.894121657162
 31
0.0
  0
LINE
  5
2F67
  8
SP
 62
     2
 10
26111.542731618971
 20
2794.7566891004149
 30
0.0
 11
26111.542731618971
 21
4359.894121657162
 31
0.0
  0
LINE
  5
2F68
  8
SP
 62
     2
 10
25296.542731618971
 20
4314.894121657162
 30
0.0
 11
26021.542731618971
 21
4314.894121657162
 31
0.0
  0
INSERT
  5
2F69
  8
SP
 62
     2
  2
_OPEN
 10
25206.542731618971
 20
4314.894121657162
 30
0.0
 41
90.0
 42
90.0
 43
90.0
 50
180.0
  0
INSERT
  5
2F6A
  8
SP
 62
     2
  2
_OPEN
 10
26111.542731618971
 20
4314.894121657162
 30
0.0
 41
90.0
 42
90.0
 43
90.0
  0
TEXT
  8
0
  40
135
  5
2F85
  62
2
  72
0
  71
0
 10
25389.0
 20
4165.94
 30
0.000000
  1
905
  0
POINT
  5
2F6C
  8
DEFPOINTS
 62
     0
 10
25206.542731618971
 20
4243.9344583351522
 30
0.0
  0
POINT
  5
2F6D
  8
DEFPOINTS
 62
     0
 10
26111.542731618971
 20
2749.7566891004149
 30
0.0
  0
POINT
  5
2F6E
  8
DEFPOINTS
 62
     0
 10
26111.542731618971
 20
4314.894121657162
 30
0.0
  0
ENDBLK
  5
2668
  8
0
  0
BLOCK
  8
0
  2
*D23
 70
     1
 10
0.0
 20
0.0
 30
0.0
  3
*D23
  1

  0
LINE
  5
2F6F
  8
SP
 62
     2
 10
17427.803122048099
 20
6950.5457743905718
 30
0.0
 11
17427.803122048099
 21
9146.4418624533773
 31
0.0
  0
LINE
  5
2F70
  8
SP
 62
     2
 10
19677.803122048099
 20
8863.1641548246207
 30
0.0
 11
19677.803122048099
 21
9146.4418624533773
 31
0.0
  0
LINE
  5
2F71
  8
SP
 62
     2
 10
17517.803122048092
 20
9101.4418624533755
 30
0.0
 11
19587.803122048099
 21
9101.4418624533755
 31
0.0
  0
INSERT
  5
2F72
  8
SP
 62
     2
  2
_OPEN
 10
17427.803122048099
 20
9101.4418624533755
 30
0.0
 41
90.0
 42
90.0
 43
90.0
 50
180.0
  0
INSERT
  5
2F73
  8
SP
 62
     2
  2
_OPEN
 10
19677.803122048099
 20
9101.4418624533755
 30
0.0
 41
90.0
 42
90.0
 43
90.0
  0
TEXT
  8
0
  40
135
  5
2F86
  62
2
  72
0
  71
0
 10
18282.8
 20
8952.49
 30
0.000000
  1
2250
  0
POINT
  5
2F75
  8
DEFPOINTS
 62
     0
 10
17427.803122048099
 20
6905.5457743905718
 30
0.0
  0
POINT
  5
2F76
  8
DEFPOINTS
 62
     0
 10
19677.803122048099
 20
8818.1641548246207
 30
0.0
  0
POINT
  5
2F77
  8
DEFPOINTS
 62
     0
 10
19677.803122048099
 20
9101.4418624533755
 30
0.0
  0
ENDBLK
  5
26A4
  8
0
  0
ENDSEC
  0
SECTION
  2
ENTITIES
  0
LINE
  5
46
  8
FUTO
 10
23090.542731618971
 20
1514.7566891004151
 30
0.0
 11
24340.542731618971
 21
1514.7566891004151
 31
0.0
  0
LINE
  5
49
  8
FUTO
 10
24148.542731618971
 20
1732.2566891004151
 30
0.0
 11
23086.542731618971
 21
1732.2566891004151
 31
0.0
  0
LINE
  5
4A
  8
FUTO
 10
24148.542731618971
 20
1617.2566891004151
 30
0.0
 11
23086.542731618971
 21
1617.2566891004151
 31
0.0
  0
LINE
  5
4B
  8
FUTO
 10
22835.542731618971
 20
374.75668910041531
 30
0.0
 11
26049.742731618971
 21
374.75668910041531
 31
0.0
  0
LINE
  5
4C
  8
CT
 10
26233.805943617939
 20
1674.7566891004151
 30
0.0
 11
22501.765308620561
 21
1674.7566891004151
 31
0.0
  0
LINE
  5
4F
  8
FUTO
 10
22835.542731618971
 20
174.75668910041529
 30
0.0
 11
26035.542731618971
 21
174.75668910041529
 31
0.0
  0
LINE
  5
50
  8
FUTO
 10
22910.542731618971
 20
194.75668910041529
 30
0.0
 11
25960.542731618971
 21
194.75668910041529
 31
0.0
  0
LINE
  5
51
  8
FUTO
 10
22910.542731618971
 20
6.756689100415314
 30
0.0
 11
24423.687810073119
 21
6.756689100415314
 31
0.0
  0
LINE
  5
52
  8
FUTO
 10
22910.542731618971
 20
162.75668910041529
 30
0.0
 11
24423.687810073108
 21
162.75668910041529
 31
0.0
  0
LINE
  5
53
  8
FUTO
 10
22910.542731618971
 20
206.75668910041529
 30
0.0
 11
24423.687810073119
 21
206.75668910041529
 31
0.0
  0
LINE
  5
54
  8
FUTO
 10
22925.542731618971
 20
362.75668910041531
 30
0.0
 11
24423.687810073119
 21
362.75668910041531
 31
0.0
  0
DIMENSION
  5
6B
  8
SP
  2
*D8
 10
17427.803122048099
 20
-968.19693481367347
 30
0.0
 11
19127.803122048092
 21
-878.19693481367347
 31
0.0
 70
     0
 13
20827.803122048099
 23
-5.2433108995846851
 33
0.0
 14
17427.803122048099
 24
-5.2433108995846851
 34
0.0
1001
ACAD
1000
DSTYLE
1002
{
1070
   287
1070
     0
1070
   287
1070
     0
1070
    40
1040
45.0
1070
   140
1040
3.0
1070
   143
1040
0.03937
1070
   147
1040
0.5
1070
   173
1070
     1
1070
   176
1070
   256
1070
   177
1070
   256
1070
   178
1070
   256
1070
   271
1070
     4
1070
   272
1070
     4
1070
   279
1070
     0
1070
   285
1070
     0
1070
   286
1070
     0
1070
   289
1070
     0
1070
     6
1000
OPEN
1070
     7
1000
OPEN
1002
}
  0
LINE
  5
78
  8
CT
 10
17882.570128809581
 20
1674.7566891004151
 30
0.0
 11
17584.76992190794
 21
1674.7566891004151
 31
0.0
  0
LINE
  5
80
  8
FUTO
 10
18152.570128809581
 20
194.75668910041529
 30
0.0
 11
17587.03643123341
 21
194.75668910041529
 31
0.0
  0
ARC
  5
86
  8
KL
 10
19530.803122048092
 20
1821.7566891004151
 30
0.0
 40
1589.0
 50
180.0
 51
270.0
  0
LINE
  5
89
  8
FUTO
 10
20827.803122048099
 20
194.75668910041529
 30
0.0
 11
17427.803122048099
 21
194.75668910041529
 31
0.0
  0
LINE
  5
8A
  8
FUTO
 10
20827.803122048099
 20
374.75668910041531
 30
0.0
 11
17427.803122048099
 21
374.75668910041531
 31
0.0
  0
LINE
  5
8C
  8
FUTO
 10
20827.803122048099
 20
174.75668910041529
 30
0.0
 11
17427.803122048099
 21
174.75668910041529
 31
0.0
  0
LINE
  5
8D
  8
FUTO
 10
20827.803122048099
 20
-5.2433108995846851
 30
0.0
 11
17427.803122048099
 21
-5.2433108995846851
 31
0.0
  0
LINE
  5
8E
  8
FUTO
 10
20827.803122048099
 20
358.75668910041531
 30
0.0
 11
17427.803122048099
 21
358.75668910041531
 31
0.0
  0
LINE
  5
8F
  8
FUTO
 10
20827.803122048099
 20
210.75668910041529
 30
0.0
 11
17427.803122048099
 21
210.75668910041529
 31
0.0
  0
LINE
  5
90
  8
FUTO
 10
20827.803122048099
 20
158.75668910041529
 30
0.0
 11
17427.803122048099
 21
158.75668910041529
 31
0.0
  0
LINE
  5
91
  8
FUTO
 10
20827.803122048099
 20
10.75668910041531
 30
0.0
 11
17427.803122048099
 21
10.75668910041531
 31
0.0
  0
ARC
  5
92
  8
KL
 10
19824.803122048099
 20
1821.7566891004151
 30
0.0
 40
1883.0
 50
95.571618378367063
 51
180.0
  0
ARC
  5
93
  8
FUTO
 10
19824.803122048099
 20
1821.7566891004151
 30
0.0
 40
1903.0
 50
95.487360127071057
 51
184.15857277401679
  0
LINE
  5
A6
  8
FUTO
 10
17427.803122048099
 20
194.75668910041529
 30
0.0
 11
17427.803122048092
 21
374.75668910041531
 31
0.0
  0
LINE
  5
A7
  8
FUTO
 10
17427.803122048099
 20
-5.2433108995846851
 30
0.0
 11
17427.803122048099
 21
174.75668910041529
 31
0.0
  0
DIMENSION
  5
F2
  8
SP
  2
*D9
 10
21416.90897234351
 20
194.75668910041509
 30
0.0
 11
21416.90897234351
 21
925.31044911769993
 31
0.0
 70
   128
 13
20976.144687877291
 23
1674.7566891004151
 33
0.0
 14
20793.835791461941
 24
194.75668910041529
 34
0.0
 50
90.0
1001
ACAD
1000
DSTYLE
1002
{
1070
   287
1070
     0
1070
   287
1070
     0
1070
    40
1040
45.0
1070
   140
1040
3.0
1070
   143
1040
0.03937
1070
   147
1040
0.5
1070
   173
1070
     1
1070
   176
1070
   256
1070
   177
1070
   256
1070
   178
1070
   256
1070
   271
1070
     4
1070
   272
1070
     4
1070
   279
1070
     0
1070
   285
1070
     0
1070
   286
1070
     0
1070
   289
1070
     0
1070
     6
1000
OPEN
1070
     7
1000
OPEN
1002
}
  0
LINE
  5
FF
  8
FUTO
 10
23090.542731618971
 20
1534.7566891004151
 30
0.0
 11
23090.542731618971
 21
1514.7566891004151
 31
0.0
  0
LINE
  5
100
  8
FUTO
 10
22910.542731618971
 20
1534.7566891004151
 30
0.0
 11
22910.542731618971
 21
374.75668910041531
 31
0.0
  0
LINE
  5
101
  8
SL
 10
22854.34273161897
 20
2049.7566891004149
 30
0.0
 11
22854.34273161897
 21
569.75668910041531
 31
0.0
  0
LINE
  5
102
  8
SL
 10
22724.342731618981
 20
2049.7566891004149
 30
0.0
 11
22724.342731618981
 21
569.75668910041531
 31
0.0
  0
LINE
  5
103
  8
FUTO
 10
22606.542731618971
 20
2154.7566891004149
 30
0.0
 11
22606.542731618971
 21
474.75668910041531
 31
0.0
  0
LINE
  5
104
  8
FUTO
 10
20818.803122048092
 20
374.75668910041531
 30
0.0
 11
20818.803122048092
 21
1587.419246195406
 31
0.0
  0
LINE
  5
105
  8
FUTO
 10
20827.803122048099
 20
194.75668910041529
 30
0.0
 11
20827.803122048099
 21
1586.8173196108901
 31
0.0
  0
LINE
  5
107
  8
FUTO
 10
20477.803122048092
 20
388.96873557812432
 30
0.0
 11
20077.083054030609
 21
1408.344347201549
 31
0.0
  0
ARC
  5
10A
  8
KL
 10
19555.303122048092
 20
1552.2566891004151
 30
0.0
 40
1319.5
 50
268.9360914973721
 51
0.0
  0
ARC
  5
10B
  8
FUTO
 10
19555.303122048092
 20
1552.2566891004151
 30
0.0
 40
1339.5
 50
298.47089920088439
 51
0.0
  0
LINE
  5
10C
  8
CT
 10
19677.803122048099
 20
-5.2433108995846851
 30
0.0
 11
19677.803122048099
 21
3875.1395363970869
 31
0.0
  0
LINE
  5
10D
  8
CT
 10
19677.803122048099
 20
-5.2433108995846851
 30
0.0
 11
19677.803122048099
 21
3875.1395363970869
 31
0.0
  0
LINE
  5
10E
  8
FUTO
 10
18518.803122048092
 20
622.10799052236871
 30
0.0
 11
18518.803122048092
 21
697.93707338745344
 31
0.0
  0
ARC
  5
10F
  8
FUTO
 10
19530.803122048092
 20
1821.7566891004151
 30
0.0
 40
1609.0
 50
185.5638312990269
 51
198.3670046421735
  0
LINE
  5
110
  8
CT
 10
17827.803122048099
 20
1357.9717778322629
 30
0.0
 11
17827.803122048099
 21
-5.2433108995846851
 31
0.0
  0
LINE
  5
111
  8
FUTO
 10
18536.803122048099
 20
374.75668910041531
 30
0.0
 11
18536.803122048099
 21
705.08649335611153
 31
0.0
  0
LINE
  5
112
  8
FUTO
 10
18527.803122048092
 20
194.75668910041529
 30
0.0
 11
18527.803122048092
 21
701.51178337178214
 31
0.0
  0
LINE
  5
116
  8
FUTO
 10
18877.803122048092
 20
388.96873557812518
 30
0.0
 11
19088.156655952331
 21
924.0786025275097
 31
0.0
  0
LINE
  5
127
  8
FUTO
 10
18527.803122048092
 20
597.70730738788552
 30
0.0
 11
18492.447782988758
 21
562.35196832855854
 31
0.0
  0
LINE
  5
128
  8
FUTO
 10
18527.803122048092
 20
631.10799052236871
 30
0.0
 11
18474.447782988769
 21
577.75265146304173
 31
0.0
  0
LINE
  5
129
  8
FUTO
 10
18527.803122048092
 20
614.3495498139182
 30
0.0
 11
18483.447782988769
 21
569.99421075459213
 31
0.0
  0
LINE
  5
156
  8
FUTO
 10
18474.447782988769
 20
577.75265146304173
 30
0.0
 11
18492.447782988758
 21
562.35196832855854
 31
0.0
  0
LINE
  5
157
  8
FUTO
 10
18877.803122048092
 20
194.7566891004162
 30
0.0
 11
18877.803122048092
 21
388.96873557812609
 31
0.0
  0
LINE
  5
15F
  8
CT
 10
20694.275801274911
 20
282.3650772446199
 30
0.0
 11
20694.275801274911
 21
91.056683754763071
 31
0.0
  0
LINE
  5
160
  8
FUTO
 10
20477.803122048092
 20
194.75668910041529
 30
0.0
 11
20477.803122048092
 21
388.96873557812518
 31
0.0
  0
LINE
  5
162
  8
SP
 10
20734.275801274911
 20
194.75668910041529
 30
0.0
 11
20734.275801274911
 21
174.75668910041529
 31
0.0
  0
LINE
  5
163
  8
SP
 10
20654.275801274911
 20
194.75668910041529
 30
0.0
 11
20654.275801274911
 21
174.75668910041529
 31
0.0
  0
DIMENSION
  5
164
  8
SP
  2
*D10
 10
21416.90897234351
 20
-5.243310899584861
 30
0.0
 11
21326.90897234351
 21
-365.24331089958127
 31
0.0
 70
     0
 13
20793.835791461941
 23
174.75668910041529
 33
0.0
 14
20793.835791461941
 24
-5.2433108995846851
 34
0.0
 50
90.0
1001
ACAD
1000
DSTYLE
1002
{
1070
   287
1070
     0
1070
   287
1070
     0
1070
    40
1040
45.0
1070
   140
1040
3.0
1070
   143
1040
0.03937
1070
   147
1040
0.5
1070
   173
1070
     1
1070
   176
1070
   256
1070
   177
1070
   256
1070
   178
1070
   256
1070
   271
1070
     4
1070
   272
1070
     4
1070
   279
1070
     0
1070
   285
1070
     0
1070
   286
1070
     0
1070
   289
1070
     0
1070
     6
1000
DOT
1070
     7
1000
OPEN
1002
}
  0
DIMENSION
  5
17B
  8
SP
  2
*D18
 10
21416.90897234351
 20
174.75668910041509
 30
0.0
 11
21638.39336576291
 21
170.5524303069825
 31
0.0
 70
   128
  1
(<>)
 13
20793.835791461941
 23
194.75668910041529
 33
0.0
 14
20793.835791461941
 24
174.75668910041529
 34
0.0
 50
90.0
1001
ACAD
1000
DSTYLE
1002
{
1070
   140
1040
3.0
1070
   272
1070
     4
1070
    40
1040
45.0
1070
   173
1070
     1
1070
   147
1040
0.5
1070
   271
1070
     4
1070
   178
1070
   256
1070
   177
1070
   256
1070
   176
1070
   256
1070
     7
1000
_DOT
1070
     6
1000
_OPEN
1070
     5
1000

1070
   285
1070
     0
1070
   286
1070
     0
1070
   143
1040
0.03937
1002
}
  0
LINE
  5
18A
  8
FUTO
 10
20827.803122048099
 20
-5.2433108995846851
 30
0.0
 11
20827.803122048099
 21
174.75668910041529
 31
0.0
  0
ARC
  5
19A
  8
FUTO
 10
22893.542731618971
 20
217.83205871810051
 30
0.0
 40
10.0
 50
275.0
 51
0.0
  0
LINE
  5
19B
  8
FUTO
 10
22910.542731618971
 20
374.75668910041531
 30
0.0
 11
22910.542731618971
 21
194.75668910041529
 31
0.0
  0
ARC
  5
1A0
  8
FUTO
 10
22893.542731618971
 20
151.68131948273
 30
0.0
 40
10.0
 50
0.0
 51
85.000000000000014
  0
LINE
  5
1A1
  8
FUTO
 10
22835.542731618971
 20
197.6796964010673
 30
0.0
 11
22835.542731618971
 21
194.75668910041529
 31
0.0
  0
ARC
  5
1A2
  8
FUTO
 10
22841.042731618971
 20
197.67969640106821
 30
0.0
 40
5.5
 50
95.000000000000057
 51
180.00000000000051
  0
LINE
  5
1A3
  8
FUTO
 10
22835.542731618971
 20
171.83368179976239
 30
0.0
 11
22835.542731618971
 21
174.75668910041529
 31
0.0
  0
ARC
  5
1A4
  8
FUTO
 10
22841.042731618971
 20
171.83368179976239
 30
0.0
 40
5.5
 50
180.0
 51
265.0
  0
LINE
  5
1A5
  8
FUTO
 10
22910.542731618971
 20
194.75668910041529
 30
0.0
 11
22835.542731618971
 21
194.75668910041529
 31
0.0
  0
LINE
  5
1A6
  8
FUTO
 10
22894.41428904645
 20
207.8701117371829
 30
0.0
 11
22840.56337503386
 21
203.1587672405721
 31
0.0
  0
LINE
  5
1A7
  8
FUTO
 10
22894.41428904645
 20
161.64326646364771
 30
0.0
 11
22840.56337503386
 21
166.35461096025841
 31
0.0
  0
LINE
  5
1A8
  8
FUTO
 10
22910.542731618971
 20
174.75668910041529
 30
0.0
 11
22835.542731618971
 21
174.75668910041529
 31
0.0
  0
ARC
  5
1A9
  8
FUTO
 10
22893.542731618971
 20
17.832058718100591
 30
0.0
 40
10.0
 50
275.0
 51
0.0
  0
LINE
  5
1AA
  8
FUTO
 10
22835.542731618971
 20
-2.3203035989326959
 30
0.0
 11
22835.542731618971
 21
-5.2433108995846851
 31
0.0
  0
ARC
  5
1AB
  8
FUTO
 10
22841.042731618971
 20
-2.3203035989317859
 30
0.0
 40
5.5
 50
95.000000000000057
 51
180.00000000000051
  0
LINE
  5
1AC
  8
FUTO
 10
22910.542731618971
 20
-5.2433108995846851
 30
0.0
 11
22835.542731618971
 21
-5.2433108995846851
 31
0.0
  0
LINE
  5
1AD
  8
FUTO
 10
22894.41428904645
 20
7.8701117371829241
 30
0.0
 11
22840.56337503386
 21
3.1587672405721601
 31
0.0
  0
LINE
  5
1AE
  8
FUTO
 10
22910.542731618971
 20
174.75668910041529
 30
0.0
 11
22910.542731618971
 21
-5.2433108995846851
 31
0.0
  0
LINE
  5
1AF
  8
FUTO
 10
22903.542731618971
 20
151.68131948273
 30
0.0
 11
22903.542731618971
 21
17.832058718100591
 31
0.0
  0
LINE
  5
1B0
  8
CT
 10
22982.939039625559
 20
724.75668910040531
 30
0.0
 11
22508.7346827043
 21
724.75668910040531
 31
0.0
  0
LINE
  5
1B1
  8
SL
 10
22854.34273161897
 20
569.75668910041531
 30
0.0
 11
22724.342731618981
 21
569.75668910041531
 31
0.0
  0
LINE
  5
1B2
  8
FUTO
 10
22887.29176578148
 20
474.75668910041531
 30
0.0
 11
22606.542731618971
 21
474.75668910041531
 31
0.0
  0
ARC
  5
1B3
  8
FUTO
 10
22893.542731618971
 20
351.68131948272998
 30
0.0
 40
10.0
 50
0.0
 51
85.000000000000014
  0
LINE
  5
1B4
  8
FUTO
 10
22835.542731618971
 20
371.83368179976242
 30
0.0
 11
22835.542731618971
 21
374.75668910041531
 31
0.0
  0
ARC
  5
1B5
  8
FUTO
 10
22841.042731618971
 20
371.83368179976242
 30
0.0
 40
5.5
 50
180.0
 51
265.0
  0
LINE
  5
1B6
  8
FUTO
 10
22894.41428904645
 20
361.64326646364771
 30
0.0
 11
22840.56337503386
 21
366.35461096025841
 31
0.0
  0
LINE
  5
1B7
  8
FUTO
 10
22910.542731618971
 20
374.75668910041531
 30
0.0
 11
22835.542731618971
 21
374.75668910041531
 31
0.0
  0
LINE
  5
1B8
  8
FUTO
 10
22903.542731618971
 20
351.68131948272998
 30
0.0
 11
22903.542731618971
 21
217.83205871810051
 31
0.0
  0
LINE
  5
1B9
  8
FUTO
 10
22887.29176578148
 20
596.27840506051496
 30
0.0
 11
22887.29176578148
 21
474.75668910041531
 31
0.0
  0
DIMENSION
  5
1BA
  8
SP
  2
*D11
 10
20952.803122048092
 20
4337.8220489511514
 30
0.0
 11
20315.303122048099
 21
4427.8220489511514
 31
0.0
 70
     0
 13
19677.803122048099
 23
3875.1395363970869
 33
0.0
 14
20952.803122048092
 24
3901.7566891004149
 34
0.0
1001
ACAD
1000
DSTYLE
1002
{
1070
   287
1070
     0
1070
   287
1070
     0
1070
    40
1040
45.0
1070
   140
1040
3.0
1070
   143
1040
0.03937
1070
   147
1040
0.5
1070
   173
1070
     1
1070
   176
1070
   256
1070
   177
1070
   256
1070
   178
1070
   256
1070
   271
1070
     4
1070
   272
1070
     4
1070
   279
1070
     0
1070
   285
1070
     0
1070
   286
1070
     0
1070
   289
1070
     0
1070
     6
1000
OPEN
1070
     7
1000
OPEN
1002
}
  0
LINE
  5
1C7
  8
KL
 10
20952.803122048092
 20
3822.756689100414
 30
0.0
 11
19641.9828418863
 21
3695.8606737185469
 31
0.0
  0
LINE
  5
1C8
  8
FUTO
 10
20877.803122048092
 20
3835.5896929204641
 30
0.0
 11
19640.04840079874
 21
3715.7669036916868
 31
0.0
  0
LINE
  5
1CD
  8
CT
 10
21022.387014468659
 20
1674.7566891004151
 30
0.0
 11
19477.803122048099
 21
1674.7566891004151
 31
0.0
  0
LINE
  5
1CE
  8
FUTO
 10
20938.825897722119
 20
1599.43866946922
 30
0.0
 11
20157.249572916739
 21
1651.711065883489
 31
0.0
  0
LINE
  5
1CF
  8
FUTO
 10
20937.624727991129
 20
1581.4787922069061
 30
0.0
 11
20172.891442613422
 21
1632.624713821669
 31
0.0
  0
LINE
  5
1D0
  8
FUTO
 10
20938.225312856619
 20
1590.458730838063
 30
0.0
 11
20156.733182376462
 21
1642.725496274265
 31
0.0
  0
ARC
  5
1D3
  8
KL
 10
19800.303122048092
 20
1552.2566891004151
 30
0.0
 40
1074.5
 50
0.0
 51
33.15191494409035
  0
INSERT
  5
1E1
  8
FUTO
  2
右回転矢印
 10
19888.947274977159
 20
2943.4299183458811
 30
0.0
 41
40.0
 42
40.0
 43
40.0
 50
0.996954535217047
  0
LINE
  5
1F0
  8
FUTO
 10
18527.803122048092
 20
1683.7566891004151
 30
0.0
 11
18527.803122048092
 21
3185.7508239851659
 31
0.0
  0
LINE
  5
1F1
  8
FUTO
 10
18536.803122048099
 20
1683.7566891004151
 30
0.0
 11
18536.803122048099
 21
3194.4492985363372
 31
0.0
  0
LINE
  5
1F3
  8
KL
 10
19477.803122048099
 20
1674.7566891004151
 30
0.0
 11
18789.303395174491
 21
1674.7566891004151
 31
0.0
  0
LINE
  5
1F4
  8
KL
 10
19477.803122048099
 20
1683.7566891004151
 30
0.0
 11
18803.322475199981
 21
1683.7566891004151
 31
0.0
  0
LINE
  5
1F5
  8
KL
 10
19477.803122048099
 20
1665.7566891004151
 30
0.0
 11
18775.284315148991
 21
1665.7566891004151
 31
0.0
  0
LINE
  5
21D
  8
FUTO
 10
17882.570128809581
 20
1683.7566891004151
 30
0.0
 11
17882.570128809581
 21
1665.7566891004151
 31
0.0
  0
INSERT
  5
226
  8
FUTO
  2
22222F
 10
19677.803122048099
 20
1674.7566891004151
 30
0.0
  0
LINE
  5
259
  8
KL
 10
19677.803122048099
 20
1534.7566891004151
 30
0.0
 11
19328.216317570648
 21
1534.7566891004151
 31
0.0
  0
LINE
  5
25C
  8
KL
 10
19477.803122048099
 20
1665.7566891004151
 30
0.0
 11
19477.803122048099
 21
1683.7566891004151
 31
0.0
  0
LINE
  5
25E
  8
KL
 10
19677.803122048099
 20
1534.7566891004151
 30
0.0
 11
20027.389926525539
 21
1534.7566891004151
 31
0.0
  0
LINE
  5
25F
  8
FUTO
 10
19876.756728986089
 20
1652.4304201250279
 30
0.0
 11
19877.957898717072
 21
1670.390297387343
 31
0.0
  0
CIRCLE
  5
265
  8
KL
 10
20720.41181127997
 20
2153.2566891004149
 30
0.0
 40
24.5
  0
LINE
  5
26B
  8
FUTO
 10
19668.803122048099
 20
3718.5505496309352
 30
0.0
 11
19640.055719451499
 21
3715.7676121853578
 31
0.0
  0
LINE
  5
26C
  8
SP
 10
22606.542731618971
 20
2194.7566891004149
 30
0.0
 11
22606.542731618971
 21
4354.894121657162
 31
0.0
  0
LINE
  5
289
  8
FUTO
 10
20877.803122048092
 20
1758.7566891004151
 30
0.0
 11
20877.803122048092
 21
3835.5896929204641
 31
0.0
  0
LINE
  5
28A
  8
FUTO
 10
20946.803122048092
 20
1758.7566891004151
 30
0.0
 11
20946.803122048092
 21
3826.756689100413
 31
0.0
  0
LINE
  5
28B
  8
FUTO
 10
20952.803122048092
 20
1683.7566891004151
 30
0.0
 11
20952.803122048092
 21
3901.7566891004171
 31
0.0
  0
LINE
  5
28C
  8
FUTO
 10
20827.803122048099
 20
1606.8639539319879
 30
0.0
 11
20827.803122048099
 21
3830.7493644138672
 31
0.0
  0
LINE
  5
28D
  8
FUTO
 10
20818.803122048092
 20
1607.4658805165041
 30
0.0
 11
20818.803122048092
 21
3829.878105282678
 31
0.0
  0
LINE
  5
28E
  8
FUTO
 10
20952.80312204855
 20
1683.7566891003171
 30
0.0
 11
20952.80312204955
 21
3901.7566891003171
 31
0.0
  0
LINE
  5
28F
  8
FUTO
 10
20952.803122048041
 20
1683.756689100313
 30
0.0
 11
20952.80312204955
 21
3901.756689100313
 31
0.0
  0
INSERT
  5
291
  8
FUTO
  2
L-75-6
 10
21034.23271893257
 20
1873.3631505039709
 30
0.0
 41
-1.0
 50
90.0
  0
ARC
  5
29E
  8
FUTO
 10
19800.303122048092
 20
1552.2566891004151
 30
0.0
 40
1094.5
 50
2.6290058399643121
 51
10.02349966759664
  0
LINE
  5
2A1
  8
CT
 10
21049.086529072429
 20
1674.7566891004151
 30
0.0
 11
20917.087792429989
 21
1674.7566891004151
 31
0.0
  0
LINE
  5
2A2
  8
FUTO
 10
20913.467570160181
 20
1718.9886284438519
 30
0.0
 11
21008.163881388798
 21
1718.9886284438919
 31
0.0
  0
ARC
  5
2A3
  8
FUTO
 10
19800.303122048092
 20
1552.2566891004151
 30
0.0
 40
1094.5
 50
0.0
 51
1.681558003073357
  0
LINE
  5
2A4
  8
FUTO
 10
20938.825897722119
 20
1599.43866946922
 30
0.0
 11
20937.624727991129
 21
1581.4787922069061
 31
0.0
  0
LINE
  5
2A5
  8
KL
 10
20853.982390136829
 20
1762.7566891004151
 30
0.0
 11
20952.803122048092
 21
1762.7566891004151
 31
0.0
  0
LINE
  5
2A6
  8
FUTO
 10
20877.803122048092
 20
1758.7566891004151
 30
0.0
 11
20952.803122048092
 21
1758.7566891004151
 31
0.0
  0
LINE
  5
2A7
  8
FUTO
 10
20878.097165453419
 20
1742.7566891004151
 30
0.0
 11
20878.097165453419
 21
1755.679471070448
 31
0.0
  0
LINE
  5
2A8
  8
FUTO
 10
22936.542731618971
 20
1789.7566891004151
 30
0.0
 11
22936.542731618971
 21
1594.7566891004151
 31
0.0
  0
LINE
  5
2A9
  8
FUTO
 10
23064.542731618971
 20
1789.7566891004151
 30
0.0
 11
23064.542731618971
 21
1594.7566891004151
 31
0.0
  0
LINE
  5
2AA
  8
CT
 10
23000.542731618971
 20
1838.2483076102451
 30
0.0
 11
23000.542731618971
 21
1523.599535338376
 31
0.0
  0
LINE
  5
2AB
  8
FUTO
 10
22922.542731618971
 20
1789.7566891004151
 30
0.0
 11
22922.542731618971
 21
1559.7566891004151
 31
0.0
  0
LINE
  5
2AC
  8
FUTO
 10
23078.542731618971
 20
1789.7566891004151
 30
0.0
 11
23078.542731618971
 21
1559.7566891004151
 31
0.0
  0
LINE
  5
2AD
  8
FUTO
 10
23064.542731618971
 20
1789.7566891004151
 30
0.0
 11
23064.542731618971
 21
1594.7566891004151
 31
0.0
  0
LINE
  5
2AE
  8
FUTO
 10
22914.542731618971
 20
1754.7566891004151
 30
0.0
 11
22914.542731618971
 21
1594.7566891004151
 31
0.0
  0
LINE
  5
2AF
  8
FUTO
 10
23086.542731618971
 20
1754.7566891004151
 30
0.0
 11
23086.542731618971
 21
1594.7566891004151
 31
0.0
  0
LINE
  5
2B1
  8
SL
 10
22854.34273161897
 20
849.75668910040531
 30
0.0
 11
22724.342731618981
 21
849.75668910040531
 31
0.0
  0
LINE
  5
2B2
  8
SL
 10
22854.34273161897
 20
1299.7566891004151
 30
0.0
 11
22724.342731618981
 21
1299.7566891004151
 31
0.0
  0
LINE
  5
2B3
  8
FUTO
 10
22930.542731618971
 20
1544.7566891004151
 30
0.0
 11
23070.542731618971
 21
1544.7566891004151
 31
0.0
  0
LINE
  5
2B4
  8
FUTO
 10
22930.542731618971
 20
1594.7566891004151
 30
0.0
 11
23070.542731618971
 21
1594.7566891004151
 31
0.0
  0
LINE
  5
2B5
  8
FUTO
 10
22910.542731618971
 20
1534.7566891004151
 30
0.0
 11
23090.542731618971
 21
1534.7566891004151
 31
0.0
  0
LINE
  5
2B6
  8
CT
 10
22955.542731618971
 20
1621.5033465777681
 30
0.0
 11
22955.542731618971
 21
1523.599535338376
 31
0.0
  0
LINE
  5
2B7
  8
FUTO
 10
22930.542731618971
 20
1594.7566891004151
 30
0.0
 11
22930.542731618971
 21
1534.7566891004151
 31
0.0
  0
LINE
  5
2B8
  8
FUTO
 10
22914.542731618971
 20
1594.7566891004151
 30
0.0
 11
22922.542731618971
 21
1574.7566891004151
 31
0.0
  0
LINE
  5
2B9
  8
FUTO
 10
22922.542731618971
 20
1559.7566891004151
 30
0.0
 11
22930.542731618971
 21
1559.7566891004151
 31
0.0
  0
LINE
  5
2BA
  8
FUTO
 10
22914.542731618971
 20
1727.2566891004151
 30
0.0
 11
22854.34273161897
 21
1727.2566891004151
 31
0.0
  0
LINE
  5
2BB
  8
FUTO
 10
22914.542731618971
 20
1622.2566891004151
 30
0.0
 11
22854.34273161897
 21
1622.2566891004151
 31
0.0
  0
LINE
  5
2BC
  8
CT
 10
23045.542731618971
 20
1621.5033465777681
 30
0.0
 11
23045.542731618971
 21
1523.599535338376
 31
0.0
  0
LINE
  5
2BD
  8
FUTO
 10
23070.542731618971
 20
1594.7566891004151
 30
0.0
 11
23070.542731618971
 21
1534.7566891004151
 31
0.0
  0
LINE
  5
2BE
  8
FUTO
 10
23078.542731618971
 20
1559.7566891004151
 30
0.0
 11
23070.542731618971
 21
1559.7566891004151
 31
0.0
  0
LINE
  5
2BF
  8
FUTO
 10
23086.542731618971
 20
1594.7566891004151
 30
0.0
 11
23078.542731618971
 21
1574.7566891004151
 31
0.0
  0
LINE
  5
2C0
  8
SL
 10
22854.34273161897
 20
2049.7566891004149
 30
0.0
 11
22724.342731618981
 21
2049.7566891004149
 31
0.0
  0
LINE
  5
2C1
  8
FUTO
 10
22887.29176578148
 20
2154.7566891004149
 30
0.0
 11
22606.542731618971
 21
2154.7566891004149
 31
0.0
  0
POINT
  5
2C2
  8
DEFPOINTS
 10
22606.542731618971
 20
2154.7566891004149
 30
0.0
  0
LINE
  5
2C3
  8
FUTO
 10
22887.29176578148
 20
2154.7566891004149
 30
0.0
 11
22887.29176578148
 21
1887.4789356046961
 31
0.0
  0
LINE
  5
2C4
  8
FUTO
 10
22946.542731618971
 20
1807.7566891004151
 30
0.0
 11
23054.542731618971
 21
1807.7566891004151
 31
0.0
  0
LINE
  5
2C5
  8
FUTO
 10
22914.542731618971
 20
1754.7566891004151
 30
0.0
 11
22922.542731618971
 21
1774.7566891004151
 31
0.0
  0
LINE
  5
2C6
  8
FUTO
 10
22922.542731618971
 20
1789.7566891004151
 30
0.0
 11
22936.542731618971
 21
1789.7566891004151
 31
0.0
  0
LINE
  5
2C7
  8
FUTO
 10
22946.542731618971
 20
1807.7566891004151
 30
0.0
 11
22946.542731618971
 21
1789.7566891004151
 31
0.0
  0
LINE
  5
2C8
  8
FUTO
 10
22936.542731618971
 20
1789.7566891004151
 30
0.0
 11
22946.542731618971
 21
1789.7566891004151
 31
0.0
  0
LINE
  5
2C9
  8
FUTO
 10
23054.542731618971
 20
1807.7566891004151
 30
0.0
 11
23054.542731618971
 21
1789.7566891004151
 31
0.0
  0
LINE
  5
2CA
  8
FUTO
 10
23054.542731618971
 20
1789.7566891004151
 30
0.0
 11
23064.542731618971
 21
1789.7566891004151
 31
0.0
  0
LINE
  5
2CB
  8
FUTO
 10
23078.542731618971
 20
1789.7566891004151
 30
0.0
 11
23064.542731618971
 21
1789.7566891004151
 31
0.0
  0
LINE
  5
2CC
  8
FUTO
 10
23086.542731618971
 20
1754.7566891004151
 30
0.0
 11
23078.542731618971
 21
1774.7566891004151
 31
0.0
  0
INSERT
  5
2CD
  8
FUTO
  2
まっすぐの矢印
 10
21325.927791227201
 20
3216.32527132209
 30
0.0
 41
40.0
 42
40.0
 43
40.0
 50
270.0
  0
LINE
  5
2D8
  8
FUTO
 10
20913.467570160181
 20
3866.7566891004039
 30
0.0
 11
21008.163881388798
 21
3866.7566891003639
 31
0.0
  0
INSERT
  5
2D9
  8
FUTO
  2
L-75-6
 10
21034.23271893257
 20
3712.1502276968599
 30
0.0
 50
90.0
  0
LINE
  5
2DA
  8
FUTO
 10
20952.803122049521
 20
3826.7566891003171
 30
0.0
 11
20952.80312204955
 21
3901.7566891003171
 31
0.0
  0
LINE
  5
2DB
  8
FUTO
 10
20952.8031220495
 20
3826.756689100313
 30
0.0
 11
20952.80312204955
 21
3901.756689100313
 31
0.0
  0
LINE
  5
33E
  8
FUTO
 10
20952.80312204835
 20
6905.5457743905718
 30
0.0
 11
17941.803122048092
 21
6905.5457743905718
 31
0.0
  0
LINE
  5
33F
  8
FUTO
 10
20952.803122048299
 20
6830.5457743905708
 30
0.0
 11
17427.803122048099
 21
6830.5457743905708
 31
0.0
  0
LINE
  5
340
  8
FUTO
 10
20477.803122048092
 20
5288.5457743905718
 30
0.0
 11
17427.803122048099
 21
5288.5457743905718
 31
0.0
  0
LINE
  5
341
  8
FUTO
 10
20477.803122048092
 20
5363.5457743905736
 30
0.0
 11
17427.803122048099
 21
5363.5457743905718
 31
0.0
  0
LINE
  5
35D
  8
FUTO
 10
17427.803122048099
 20
5288.5457743905718
 30
0.0
 11
17427.803122048099
 21
5363.5457743905718
 31
0.0
  0
LINE
  5
35E
  8
SL
 10
17602.803122048099
 20
5363.5457743905718
 30
0.0
 11
17602.803122048099
 21
6267.3457743905037
 31
0.0
  0
POINT
  5
388
  8
DEFPOINTS
 10
17427.803122048099
 20
6905.5457743905718
 30
0.0
  0
LINE
  5
3AB
  8
CT
 10
19677.803122048099
 20
4838.7712131597837
 30
0.0
 11
19677.803122048099
 21
8818.1641548246207
 31
0.0
  0
LINE
  5
3AE
  8
FUTO
 10
18527.803122048092
 20
6855.5457743905718
 30
0.0
 11
18527.803122048092
 21
6830.5457743905708
 31
0.0
  0
LINE
  5
44F
  8
FUTO
 10
20477.803122048092
 20
5288.5457743905718
 30
0.0
 11
20477.803122048092
 21
6830.5457743905708
 31
0.0
  0
LINE
  5
450
  8
FUTO
 10
20402.803122048099
 20
5363.5457743905718
 30
0.0
 11
20402.803122048099
 21
6830.5457743905708
 31
0.0
  0
LINE
  5
452
  8
FUTO
 10
18952.803122048099
 20
5363.5457743905718
 30
0.0
 11
18952.803122048099
 21
6830.5457743905708
 31
0.0
  0
LINE
  5
454
  8
FUTO
 10
18877.803122048092
 20
5288.5457743905718
 30
0.0
 11
18877.803122048092
 21
6830.5457743905708
 31
0.0
  0
LINE
  5
546
  8
CT
 10
21173.70983373027
 20
7659.5457743905736
 30
0.0
 11
17738.738131402351
 21
7659.5457743905736
 31
0.0
  0
LINE
  5
547
  8
FUTO
 10
20952.803122048092
 20
8413.5457743905772
 30
0.0
 11
17941.803122048092
 21
8413.5457743905772
 31
0.0
  0
LINE
  5
548
  8
FUTO
 10
20952.803122048092
 20
8488.5457743905772
 30
0.0
 11
18527.803122048092
 21
8488.5457743905754
 31
0.0
  0
LINE
  5
568
  8
FUTO
 10
18527.803122048092
 20
8463.5457743905772
 30
0.0
 11
18527.803122048092
 21
8488.5457743905754
 31
0.0
  0
DIMENSION
  5
5CF
  8
SP
  2
*D12
 10
26605.732449997999
 20
674.7566891004152
 30
0.0
 11
26605.732449997999
 21
1674.7566891004151
 31
0.0
 70
   128
  1
%%C<>
 13
26111.542731618971
 23
2674.7566891004149
 33
0.0
 14
26111.542731618971
 24
674.75668910041531
 34
0.0
 50
90.0
1001
ACAD
1000
DSTYLE
1002
{
1070
   287
1070
     0
1070
   287
1070
     0
1070
    40
1040
45.0
1070
   140
1040
3.0
1070
   143
1040
0.03937
1070
   147
1040
0.5
1070
   173
1070
     1
1070
   176
1070
   256
1070
   177
1070
   256
1070
   178
1070
   256
1070
   271
1070
     4
1070
   272
1070
     4
1070
   279
1070
     0
1070
   285
1070
     0
1070
   286
1070
     0
1070
   289
1070
     0
1070
     6
1000
OPEN
1070
     7
1000
OPEN
1002
}
  0
LINE
  5
5DE
  8
FUTO
 10
25959.742731618971
 20
374.75668910041531
 30
0.0
 11
25959.742731618971
 21
1687.756689100414
 31
0.0
  0
LINE
  5
5DF
  8
FUTO
 10
25956.542731618971
 20
374.75668910041531
 30
0.0
 11
25956.542731618971
 21
1687.756689100414
 31
0.0
  0
LINE
  5
5E0
  8
FUTO
 10
26049.742731618971
 20
374.75668910041531
 30
0.0
 11
26049.742731618971
 21
1585.7566891004151
 31
0.0
  0
LINE
  5
5E5
  8
KL
 10
25968.742731619859
 20
599.75668910041531
 30
0.0
 11
25968.74273162035
 21
2749.7566891004149
 31
0.0
  0
LINE
  5
5E6
  8
FUTO
 10
26111.542731618971
 20
599.75668910041531
 30
0.0
 11
26111.542731618971
 21
2749.7566891004149
 31
0.0
  0
LINE
  5
5E7
  8
FUTO
 10
26105.542731618971
 20
599.75668910041531
 30
0.0
 11
26105.542731618971
 21
2749.7566891004149
 31
0.0
  0
LINE
  5
5EB
  8
FUTO
 10
24453.34273161897
 20
374.75668910041531
 30
0.0
 11
24453.34273161897
 21
1585.7566891004151
 31
0.0
  0
LINE
  5
5EC
  8
FUTO
 10
24456.542731618971
 20
374.75668910041531
 30
0.0
 11
24456.542731618971
 21
1585.7566891004151
 31
0.0
  0
LINE
  5
5ED
  8
FUTO
 10
24363.34273161897
 20
374.75668910041531
 30
0.0
 11
24363.34273161897
 21
1585.7566891004151
 31
0.0
  0
LINE
  5
5EE
  8
FUTO
 10
24340.542731618971
 20
374.75668910041531
 30
0.0
 11
24340.542731618971
 21
1514.7566891004151
 31
0.0
  0
LINE
  5
5F0
  8
CT
 10
25206.542731618971
 20
-5.2433108995846851
 30
0.0
 11
25206.542731618971
 21
4247.4538933142794
 31
0.0
  0
LINE
  5
603
  8
KL
 10
24456.542731618971
 20
232.75668910041529
 30
0.0
 11
25959.742731618971
 21
232.75668910041529
 31
0.0
  0
LINE
  5
604
  8
KL
 10
24456.542731618971
 20
212.7566891004152
 30
0.0
 11
24456.542731618971
 21
374.75668910041531
 31
0.0
  0
LINE
  5
605
  8
KL
 10
24453.34273161897
 20
212.7566891004152
 30
0.0
 11
24453.34273161897
 21
374.75668910041531
 31
0.0
  0
LINE
  5
606
  8
KL
 10
24453.34273161897
 20
212.7566891004152
 30
0.0
 11
24456.542731618971
 21
212.7566891004152
 31
0.0
  0
ARC
  5
614
  8
FUTO
 10
25977.542731618971
 20
217.83205871810051
 30
0.0
 40
10.0
 50
180.0
 51
265.0
  0
LINE
  5
615
  8
KL
 10
25956.542731618971
 20
212.7566891004152
 30
0.0
 11
25956.542731618971
 21
374.75668910041531
 31
0.0
  0
LINE
  5
616
  8
KL
 10
25959.742731618971
 20
212.7566891004152
 30
0.0
 11
25959.742731618971
 21
374.75668910041531
 31
0.0
  0
LINE
  5
617
  8
FUTO
 10
25960.542731618971
 20
194.75668910041529
 30
0.0
 11
25960.542731618971
 21
374.75668910041531
 31
0.0
  0
LINE
  5
618
  8
FUTO
 10
25960.542731618971
 20
194.75668910041529
 30
0.0
 11
25960.542731618971
 21
374.75668910041531
 31
0.0
  0
LINE
  5
61B
  8
FUTO
 10
25976.671174191491
 20
207.8701117371829
 30
0.0
 11
26030.522088204081
 21
203.1587672405721
 31
0.0
  0
LINE
  5
61C
  8
FUTO
 10
25960.542731618971
 20
194.75668910041529
 30
0.0
 11
26035.542731618971
 21
194.75668910041529
 31
0.0
  0
LINE
  5
61D
  8
FUTO
 10
25960.542731618971
 20
174.75668910041529
 30
0.0
 11
26035.542731618971
 21
174.75668910041529
 31
0.0
  0
LINE
  5
61E
  8
FUTO
 10
25960.542731618971
 20
174.75668910041529
 30
0.0
 11
26035.542731618971
 21
174.75668910041529
 31
0.0
  0
LINE
  5
61F
  8
FUTO
 10
25976.671174191491
 20
161.64326646364771
 30
0.0
 11
26030.522088204081
 21
166.35461096025841
 31
0.0
  0
LINE
  5
620
  8
FUTO
 10
25976.671174191491
 20
7.8701117371829241
 30
0.0
 11
26030.522088204081
 21
3.1587672405721601
 31
0.0
  0
LINE
  5
621
  8
FUTO
 10
25960.542731618971
 20
-5.2433108995846851
 30
0.0
 11
26035.542731618971
 21
-5.2433108995846851
 31
0.0
  0
LINE
  5
622
  8
KL
 10
25956.542731618971
 20
212.7566891004152
 30
0.0
 11
25959.742731618971
 21
212.7566891004152
 31
0.0
  0
ARC
  5
623
  8
FUTO
 10
25977.542731618971
 20
151.68131948273
 30
0.0
 40
10.0
 50
95.0
 51
180.0
  0
ARC
  5
624
  8
FUTO
 10
25977.542731618971
 20
17.832058718100591
 30
0.0
 40
10.0
 50
180.0
 51
265.0
  0
LINE
  5
625
  8
FUTO
 10
25960.542731618971
 20
-5.2433108995846851
 30
0.0
 11
25960.542731618971
 21
174.75668910041529
 31
0.0
  0
LINE
  5
626
  8
FUTO
 10
25967.542731618971
 20
17.832058718100591
 30
0.0
 11
25967.542731618971
 21
151.68131948273
 31
0.0
  0
LINE
  5
629
  8
FUTO
 10
26035.542731618971
 20
197.67969640106821
 30
0.0
 11
26035.542731618971
 21
194.75668910041529
 31
0.0
  0
ARC
  5
62A
  8
FUTO
 10
26030.042731618971
 20
197.67969640106821
 30
0.0
 40
5.5
 50
0.0
 51
84.999999999999986
  0
LINE
  5
62B
  8
FUTO
 10
26035.542731618971
 20
171.8336817997633
 30
0.0
 11
26035.542731618971
 21
174.75668910041529
 31
0.0
  0
ARC
  5
62C
  8
FUTO
 10
26030.042731618971
 20
171.83368179976239
 30
0.0
 40
5.5
 50
275.0
 51
0.0000000000005598
  0
LINE
  5
62D
  8
FUTO
 10
26035.542731618971
 20
-2.3203035989317859
 30
0.0
 11
26035.542731618971
 21
-5.2433108995846851
 31
0.0
  0
ARC
  5
62E
  8
FUTO
 10
26030.042731618971
 20
-2.3203035989317859
 30
0.0
 40
5.5
 50
0.0
 51
84.999999999999986
  0
LINE
  5
62F
  8
0
 10
25960.542731618971
 20
374.75668910041531
 30
0.0
 11
26035.542731618971
 21
374.75668910041531
 31
0.0
  0
LINE
  5
630
  8
FUTO
 10
25976.671174191491
 20
361.64326646364771
 30
0.0
 11
26030.522088204081
 21
366.35461096025841
 31
0.0
  0
ARC
  5
631
  8
FUTO
 10
25977.542731618971
 20
351.68131948272998
 30
0.0
 40
10.0
 50
95.0
 51
180.0
  0
LINE
  5
632
  8
FUTO
 10
25967.542731618971
 20
217.83205871810051
 30
0.0
 11
25967.542731618971
 21
351.68131948272998
 31
0.0
  0
LINE
  5
633
  8
FUTO
 10
26035.542731618971
 20
371.83368179976333
 30
0.0
 11
26035.542731618971
 21
374.75668910041531
 31
0.0
  0
ARC
  5
634
  8
FUTO
 10
26030.042731618971
 20
371.83368179976242
 30
0.0
 40
5.5
 50
275.0
 51
0.0000000000005598
  0
LINE
  5
635
  8
KL
 10
25959.742731618971
 20
674.75668910041531
 30
0.0
 11
26111.542731618971
 21
674.75668910041531
 31
0.0
  0
LINE
  5
636
  8
FUTO
 10
25959.742731618971
 20
668.75668910041531
 30
0.0
 11
26049.742731618971
 21
668.75668910041531
 31
0.0
  0
LINE
  5
637
  8
HOSO
 10
25968.742731619881
 20
674.75668910042623
 30
0.0
 11
25959.742731619881
 21
674.75668910042805
 31
0.0
  0
LINE
  5
638
  8
HOSO
 10
25933.622988011772
 20
634.75668910041531
 30
0.0
 11
25991.822144116999
 21
634.75668910041531
 31
0.0
  0
LINE
  5
639
  8
KL
 10
25959.742731618971
 20
599.75668910041531
 30
0.0
 11
25968.742731619859
 21
599.75668910041531
 31
0.0
  0
LINE
  5
63A
  8
FUTO
 10
26049.742731618971
 20
668.75668910041531
 30
0.0
 11
26105.542731618971
 21
668.75668910041531
 31
0.0
  0
LINE
  5
63B
  8
HOSO
 10
26083.504542178991
 20
634.75668910041531
 30
0.0
 11
26141.703698284211
 21
634.75668910041531
 31
0.0
  0
LINE
  5
63C
  8
FUTO
 10
26105.542731618971
 20
599.75668910041531
 30
0.0
 11
26111.542731618971
 21
599.75668910041531
 31
0.0
  0
LINE
  5
68C
  8
FUTO
 10
25959.742731618971
 20
1756.756689100414
 30
0.0
 11
25959.742731618971
 21
3828.756689100413
 31
0.0
  0
LINE
  5
68D
  8
FUTO
 10
25956.542731618971
 20
1762.756689100414
 30
0.0
 11
25956.542731618971
 21
3822.756689100414
 31
0.0
  0
LINE
  5
68E
  8
FUTO
 10
26034.742731618971
 20
1603.7566891004151
 30
0.0
 11
26034.742731618971
 21
3897.756689100413
 31
0.0
  0
LINE
  5
68F
  8
FUTO
 10
24456.542731618971
 20
1762.756689100414
 30
0.0
 11
24456.542731618971
 21
3822.756689100414
 31
0.0
  0
LINE
  5
690
  8
FUTO
 10
24453.34273161897
 20
1756.756689100414
 30
0.0
 11
24453.34273161897
 21
3828.756689100413
 31
0.0
  0
LINE
  5
691
  8
FUTO
 10
24378.342731618981
 20
1603.7566891004151
 30
0.0
 11
24378.342731618981
 21
3897.756689100413
 31
0.0
  0
LINE
  5
693
  8
FUTO
 10
25175.542731620331
 20
2652.7566891004149
 30
0.0
 11
24625.54273162008
 21
2652.7566891005408
 31
0.0
  0
LINE
  5
699
  8
FUTO
 10
24388.34273161897
 20
1594.7566891004151
 30
0.0
 11
26024.742731618971
 21
1594.7566891004151
 31
0.0
  0
LINE
  5
69A
  8
FUTO
 10
24378.342731618981
 20
1603.7566891004151
 30
0.0
 11
26034.742731618971
 21
1603.7566891004151
 31
0.0
  0
LINE
  5
69B
  8
FUTO
 10
24363.34273161897
 20
1585.7566891004151
 30
0.0
 11
26049.742731618971
 21
1585.7566891004151
 31
0.0
  0
LINE
  5
69C
  8
FUTO
 10
24456.542731618971
 20
1762.756689100414
 30
0.0
 11
25959.742731618971
 21
1762.756689100414
 31
0.0
  0
LINE
  5
69D
  8
FUTO
 10
24453.34273161897
 20
1756.756689100414
 30
0.0
 11
25959.742731618971
 21
1756.756689100414
 31
0.0
  0
LINE
  5
69E
  8
FUTO
 10
24378.342731618981
 20
1687.756689100414
 30
0.0
 11
26034.742731618971
 21
1687.756689100414
 31
0.0
  0
LINE
  5
69F
  8
FUTO
 10
25956.542731618971
 20
2089.7566891004149
 30
0.0
 11
24456.542731618971
 21
2089.7566891004149
 31
0.0
  0
LINE
  5
6A0
  8
FUTO
 10
25956.542731618971
 20
2138.7566891004149
 30
0.0
 11
24456.542731618971
 21
2138.7566891004149
 31
0.0
  0
LINE
  5
6A4
  8
FUTO
 10
24185.542731618971
 20
1579.7566891004151
 30
0.0
 11
24185.542731618971
 21
1809.7566891004151
 31
0.0
  0
LINE
  5
6A5
  8
FUTO
 10
24172.542731618971
 20
1579.7566891004151
 30
0.0
 11
24172.542731618971
 21
1809.7566891004151
 31
0.0
  0
LINE
  5
6A6
  8
FUTO
 10
24148.542731618971
 20
1585.756689100414
 30
0.0
 11
24148.542731618971
 21
1763.7566891004169
 31
0.0
  0
LINE
  5
6A7
  8
CT
 10
24250.542731618971
 20
1444.4649800259151
 30
0.0
 11
24250.542731618971
 21
1904.0903908622111
 31
0.0
  0
LINE
  5
6A8
  8
FUTO
 10
24315.542731618971
 20
1579.7566891004151
 30
0.0
 11
24315.542731618971
 21
1809.7566891004151
 31
0.0
  0
LINE
  5
6A9
  8
FUTO
 10
24352.542731618971
 20
1585.756689100414
 30
0.0
 11
24352.542731618971
 21
1763.7566891004169
 31
0.0
  0
LINE
  5
6AA
  8
FUTO
 10
24328.542731618971
 20
1579.7566891004151
 30
0.0
 11
24328.542731618971
 21
1809.7566891004151
 31
0.0
  0
LINE
  5
6AB
  8
FUTO
 10
24315.542731618971
 20
1579.7566891004151
 30
0.0
 11
24315.542731618971
 21
1809.7566891004151
 31
0.0
  0
LINE
  5
6AF
  8
FUTO
 10
24170.542731618971
 20
1524.7566891004151
 30
0.0
 11
24330.542731618971
 21
1524.7566891004151
 31
0.0
  0
LINE
  5
6B0
  8
FUTO
 10
24170.542731618971
 20
1579.7566891004151
 30
0.0
 11
24330.542731618971
 21
1579.7566891004151
 31
0.0
  0
LINE
  5
6B1
  8
CT
 10
24200.542731618971
 20
1486.3919541673149
 30
0.0
 11
24200.542731618971
 21
1608.450270431061
 31
0.0
  0
LINE
  5
6B2
  8
FUTO
 10
24170.542731618971
 20
1514.7566891004151
 30
0.0
 11
24170.542731618971
 21
1579.7566891004151
 31
0.0
  0
LINE
  5
6B3
  8
FUTO
 10
24148.542731618971
 20
1585.7566891004151
 30
0.0
 11
24170.542731618971
 21
1561.9233557670809
 31
0.0
  0
LINE
  5
6B6
  8
KL
 10
24352.542731618971
 20
1619.7566891004151
 30
0.0
 11
24446.18677194363
 21
1619.7566891004151
 31
0.0
  0
LINE
  5
6B7
  8
FUTO
 10
24456.542731618971
 20
1603.7566891004151
 30
0.0
 11
24456.542731618971
 21
1687.756689100414
 31
0.0
  0
LINE
  5
6B8
  8
FUTO
 10
24453.34273161897
 20
1603.7566891004151
 30
0.0
 11
24453.34273161897
 21
1687.756689100414
 31
0.0
  0
LINE
  5
6BA
  8
CT
 10
24300.542731618971
 20
1484.4632674543429
 30
0.0
 11
24300.542731618971
 21
1608.450270431061
 31
0.0
  0
LINE
  5
6BB
  8
FUTO
 10
24330.542731618971
 20
1514.7566891004151
 30
0.0
 11
24330.542731618971
 21
1579.7566891004151
 31
0.0
  0
LINE
  5
6BC
  8
FUTO
 10
24352.542731618971
 20
1585.7566891004151
 30
0.0
 11
24330.542731618971
 21
1561.9233557670809
 31
0.0
  0
LINE
  5
6BD
  8
SP
 10
24388.438032038059
 20
1603.7566891004151
 30
0.0
 11
24388.438032038059
 21
1584.2316538857369
 31
0.0
  0
LINE
  5
6C0
  8
FUTO
 10
24637.542731620219
 20
2138.7566891004149
 30
0.0
 11
24637.542731620331
 21
2652.7566891005372
 31
0.0
  0
LINE
  5
6C1
  8
FUTO
 10
24625.542731619498
 20
2138.7566891004149
 30
0.0
 11
24625.54273162008
 21
2652.7566891005458
 31
0.0
  0
LINE
  5
6C2
  8
FUTO
 10
24190.542731618971
 20
1825.7566891004151
 30
0.0
 11
24310.542731618971
 21
1825.7566891004151
 31
0.0
  0
LINE
  5
6C3
  8
FUTO
 10
24190.542731618971
 20
1809.7566891004151
 30
0.0
 11
24190.542731618971
 21
1825.7566891004151
 31
0.0
  0
LINE
  5
6C4
  8
FUTO
 10
24148.542731618971
 20
1763.7566891004151
 30
0.0
 11
24172.542731618971
 21
1789.7566891004151
 31
0.0
  0
LINE
  5
6C5
  8
FUTO
 10
24172.542731618971
 20
1809.7566891004151
 30
0.0
 11
24190.542731618971
 21
1809.7566891004151
 31
0.0
  0
LINE
  5
6C6
  8
KL
 10
24352.542731618971
 20
1729.7566891004151
 30
0.0
 11
24448.62980881082
 21
1729.7566891004151
 31
0.0
  0
LINE
  5
6C7
  8
FUTO
 10
24328.542731618971
 20
1809.7566891004151
 30
0.0
 11
24310.542731618971
 21
1809.7566891004151
 31
0.0
  0
LINE
  5
6C8
  8
FUTO
 10
24310.542731618971
 20
1809.7566891004151
 30
0.0
 11
24310.542731618971
 21
1825.7566891004151
 31
0.0
  0
LINE
  5
6C9
  8
FUTO
 10
24352.542731618971
 20
1763.7566891004151
 30
0.0
 11
24328.542731618971
 21
1789.7566891004151
 31
0.0
  0
ARC
  5
6D9
  8
FUTO
 10
25472.34273162036
 20
2444.756689100348
 30
0.0
 40
160.0
 50
254.48444371379881
 51
312.53240781518639
  0
LINE
  5
6DA
  8
FUTO
 10
25429.542731620211
 20
2138.7566891004149
 30
0.0
 11
25429.542731620259
 21
2317.2566891003571
 31
0.0
  0
LINE
  5
6DB
  8
FUTO
 10
25175.542731620219
 20
2138.7566891004149
 30
0.0
 11
25175.542731620331
 21
2652.7566891004149
 31
0.0
  0
LINE
  5
6DD
  8
FUTO
 10
25175.542731620331
 20
2652.7566891004149
 30
0.0
 11
25353.491992965479
 21
2360.0259076873258
 31
0.0
  0
ARC
  5
6DF
  8
FUTO
 10
25429.54273162028
 20
2406.2566891003571
 30
0.0
 40
89.0
 50
211.29516346276301
 51
269.99999999998698
  0
LINE
  5
6E1
  8
FUTO
 10
25959.742731620328
 20
2674.756689100428
 30
0.0
 11
25580.503870916298
 21
2326.853474783672
 31
0.0
  0
LINE
  5
6E2
  8
KL
 10
25959.742731618971
 20
2674.7566891004149
 30
0.0
 11
26111.542731618971
 21
2674.7566891004149
 31
0.0
  0
LINE
  5
6E3
  8
KL
 10
25959.742731618971
 20
2680.7566891004149
 30
0.0
 11
26034.742731618971
 21
2680.7566891004149
 31
0.0
  0
LINE
  5
6E4
  8
HOSO
 10
25968.742731620339
 20
2674.7566891004249
 30
0.0
 11
25959.742731620339
 21
2674.756689100428
 31
0.0
  0
LINE
  5
6E5
  8
HOSO
 10
25925.93635777455
 20
2714.7566891004149
 30
0.0
 11
25996.563484912371
 21
2714.7566891004149
 31
0.0
  0
LINE
  5
6E6
  8
FUTO
 10
26034.742731618971
 20
2680.7566891004149
 30
0.0
 11
26105.542731618971
 21
2680.7566891004149
 31
0.0
  0
LINE
  5
6E7
  8
HOSO
 10
26075.49680417663
 20
2714.7566891004149
 30
0.0
 11
26146.123931314451
 21
2714.7566891004149
 31
0.0
  0
LINE
  5
6F6
  8
FUTO
 10
24456.542731618971
 20
3822.756689100414
 30
0.0
 11
25956.542731618971
 21
3822.756689100414
 31
0.0
  0
LINE
  5
6F7
  8
FUTO
 10
24378.342731618981
 20
3897.756689100413
 30
0.0
 11
26034.742731618971
 21
3897.756689100413
 31
0.0
  0
LINE
  5
6F8
  8
FUTO
 10
24453.34273161897
 20
3828.756689100413
 30
0.0
 11
25959.742731618971
 21
3828.756689100413
 31
0.0
  0
LINE
  5
706
  8
KL
 10
25959.742731618971
 20
2749.7566891004149
 30
0.0
 11
25968.74273162035
 21
2749.7566891004149
 31
0.0
  0
LINE
  5
707
  8
KL
 10
25959.742731618961
 20
2747.7566891004149
 30
0.0
 11
25959.742731618979
 21
2837.7566891004149
 31
0.0
  0
LINE
  5
708
  8
FUTO
 10
26105.542731618971
 20
2749.7566891004149
 30
0.0
 11
26111.542731618971
 21
2749.7566891004149
 31
0.0
  0
INSERT
  5
71C
  8
FUTO
  2
まっすぐの矢印
 10
26279.039019374999
 20
2225.680940240607
 30
0.0
 41
40.0
 42
40.0
 43
40.0
 50
90.0
  0
DIMENSION
  5
A68
  8
SP
  2
*D6
 10
19677.803122048099
 20
-672.86403791347027
 30
0.0
 11
18552.803122048099
 21
-582.86403791347038
 31
0.0
 70
     0
 13
17427.803122048099
 23
-5.2433108995846851
 33
0.0
 14
19677.803122048099
 24
-5.2433108995846283
 34
0.0
1001
ACAD
1000
DSTYLE
1002
{
1070
   140
1040
3.0
1070
    40
1040
45.0
1070
   173
1070
     1
1070
   147
1040
0.5
1070
     7
1000
_OPEN
1070
     6
1000
_OPEN
1002
}
  0
DIMENSION
  5
A75
  8
SP
  2
*D7
 10
20827.803122048099
 20
-672.86403791347027
 30
0.0
 11
20252.803122048092
 21
-582.86403791347038
 31
0.0
 70
     0
 13
19677.803122048099
 23
-5.2433108995846283
 33
0.0
 14
20827.803122048099
 24
-5.2433108995846851
 34
0.0
1001
ACAD
1000
DSTYLE
1002
{
1070
   140
1040
3.0
1070
    40
1040
45.0
1070
   173
1070
     1
1070
   147
1040
0.5
1070
     7
1000
_OPEN
1070
     6
1000
_OPEN
1002
}
  0
LINE
  5
AB0
  8
SL
 10
24090.110997392869
 20
1821.9597965947451
 30
0.0
 11
23159.93222451465
 21
1821.9597965947451
 31
0.0
  0
LINE
  5
AB2
  8
CT
 10
17594.275801274911
 20
282.3650772446199
 30
0.0
 11
17594.275801274911
 21
91.056683754763071
 31
0.0
  0
LINE
  5
AB3
  8
SP
 10
17554.275801274911
 20
194.75668910041529
 30
0.0
 11
17554.275801274911
 21
174.75668910041529
 31
0.0
  0
LINE
  5
AB4
  8
SP
 10
17634.275801274911
 20
194.75668910041529
 30
0.0
 11
17634.275801274911
 21
174.75668910041529
 31
0.0
  0
POINT
  5
CAC
  8
DEFPOINTS
  6
BYBLOCK
 62
     0
 10
20477.803122048092
 20
5288.5457743905718
 30
0.0
  0
POINT
  5
CB7
  8
DEFPOINTS
  6
BYBLOCK
 62
     0
 10
20477.803122048092
 20
5288.5457743905718
 30
0.0
  0
LINE
  5
178C
  8
FUTO
 10
17712.803122048092
 20
374.75668910040531
 30
0.0
 11
17477.803122048099
 21
374.75668910040531
 31
0.0
  0
LINE
  5
178D
  8
FUTO
 10
17487.803122048099
 20
444.7566891004052
 30
0.0
 11
17712.803122048099
 21
444.7566891004052
 31
0.0
  0
LINE
  5
178F
  8
FUTO
 10
18177.803122048099
 20
374.75668910040531
 30
0.0
 11
17942.803122048092
 21
374.75668910040531
 31
0.0
  0
LINE
  5
1790
  8
FUTO
 10
17942.803122048099
 20
444.7566891004052
 30
0.0
 11
18167.803122048099
 21
444.7566891004052
 31
0.0
  0
LINE
  5
1791
  8
FUTO
 10
18167.803122048099
 20
444.7566891004052
 30
0.0
 11
18177.803122048099
 21
374.75668910040531
 31
0.0
  0
LINE
  5
1792
  8
FUTO
 10
17712.803122048092
 20
384.75668910040531
 30
0.0
 11
17942.803122048092
 21
384.75668910040531
 31
0.0
  0
LINE
  5
1793
  8
FUTO
 10
17712.803122048099
 20
434.75668910040531
 30
0.0
 11
17942.803122048092
 21
434.75668910040531
 31
0.0
  0
LINE
  5
1794
  8
FUTO
 10
17942.803122048099
 20
444.7566891004052
 30
0.0
 11
17942.803122048092
 21
434.75668910040531
 31
0.0
  0
LINE
  5
1795
  8
FUTO
 10
17942.803122048092
 20
384.75668910040531
 30
0.0
 11
17942.803122048092
 21
374.75668910040531
 31
0.0
  0
LINE
  5
1796
  8
FUTO
 10
17712.803122048099
 20
444.7566891004052
 30
0.0
 11
17712.803122048099
 21
434.75668910040531
 31
0.0
  0
LINE
  5
1797
  8
FUTO
 10
17712.803122048092
 20
384.75668910040531
 30
0.0
 11
17712.803122048092
 21
374.75668910040531
 31
0.0
  0
LINE
  5
1798
  8
FUTO
 10
17584.803122048099
 20
444.7566891004052
 30
0.0
 11
17684.803122048099
 21
444.7566891004052
 31
0.0
  0
LINE
  5
1799
  8
FUTO
 10
17487.803122048099
 20
444.7566891004052
 30
0.0
 11
17477.803122048099
 21
374.75668910040531
 31
0.0
  0
LINE
  5
179B
  8
CT
 10
17726.096707423829
 20
1174.7566891004039
 30
0.0
 11
17571.799769904141
 21
1174.7566891004039
 31
0.0
  0
LINE
  5
179C
  8
FUTO
 10
18037.803122048092
 20
1314.7566891004051
 30
0.0
 11
17647.803122048099
 21
1314.7566891004051
 31
0.0
  0
LINE
  5
179D
  8
FUTO
 10
18037.803122048092
 20
1049.7566891004039
 30
0.0
 11
17647.803122048099
 21
1049.756689100403
 31
0.0
  0
LINE
  5
179E
  8
FUTO
 10
17983.282254323702
 20
456.5660117329316
 30
0.0
 11
17672.323989772489
 21
456.56601173293262
 31
0.0
  0
LINE
  5
17A0
  8
CT
 10
18165.26208623785
 20
724.75668910040531
 30
0.0
 11
17484.525899855071
 21
724.75668910040531
 31
0.0
  0
ARC
  5
17A1
  8
FUTO
 10
17827.803122048099
 20
724.75668910040531
 30
0.0
 40
310.0
 50
300.10230806831191
 51
239.897691931688
  0
LINE
  5
17A3
  8
FUTO
 10
17997.803122048092
 20
465.52706116409081
 30
0.0
 11
17997.803122048092
 21
444.7566891004044
 31
0.0
  0
LINE
  5
17A4
  8
CT
 10
18056.303122048099
 20
489.92613759004962
 30
0.0
 11
18056.303122048099
 21
398.30057451779521
 31
0.0
  0
LINE
  5
17A5
  8
FUTO
 10
18107.803122048099
 20
591.7153421438743
 30
0.0
 11
18107.803122048099
 21
444.7566891004052
 31
0.0
  0
LINE
  5
17A6
  8
FUTO
 10
18107.803122048099
 20
444.7566891004052
 30
0.0
 11
17997.803122048092
 21
444.7566891004052
 31
0.0
  0
LINE
  5
17A7
  8
FUTO
 10
18107.803122048099
 20
474.75668910040429
 30
0.0
 11
18011.106149846331
 21
474.75668910040429
 31
0.0
  0
LINE
  5
17A8
  8
FUTO
 10
18057.803122048092
 20
1294.7566891004051
 30
0.0
 11
18057.803122048092
 21
1069.7566891004039
 31
0.0
  0
ARC
  5
17A9
  8
FUTO
 10
18037.803122048092
 20
1069.7566891004039
 30
0.0
 40
20.0
 50
270.0
 51
0.0
  0
ARC
  5
17AA
  8
FUTO
 10
18037.803122048092
 20
1294.7566891004051
 30
0.0
 40
20.0
 50
0.0
 51
90.0
  0
LINE
  5
17AB
  8
FUTO
 10
17547.803122048092
 20
591.71534214385883
 30
0.0
 11
17547.803122048092
 21
444.7566891004044
 31
0.0
  0
LINE
  5
17AC
  8
FUTO
 10
17657.803122048092
 20
465.52706116409081
 30
0.0
 11
17657.803122048092
 21
444.7566891004044
 31
0.0
  0
LINE
  5
17AD
  8
CT
 10
17599.303122048099
 20
489.92613759004962
 30
0.0
 11
17599.303122048099
 21
402.46537283926131
 31
0.0
  0
LINE
  5
17AE
  8
FUTO
 10
17657.803122048092
 20
444.7566891004044
 30
0.0
 11
17547.803122048092
 21
444.7566891004044
 31
0.0
  0
LINE
  5
17AF
  8
FUTO
 10
17644.500094249859
 20
474.75668910040429
 30
0.0
 11
17547.803122048092
 21
474.75668910040429
 31
0.0
  0
LINE
  5
17B0
  8
FUTO
 10
17627.803122048092
 20
1294.7566891004051
 30
0.0
 11
17627.803122048092
 21
1069.756689100403
 31
0.0
  0
ARC
  5
17B1
  8
FUTO
 10
17647.803122048099
 20
1069.756689100403
 30
0.0
 40
20.0
 50
180.0
 51
270.0
  0
ARC
  5
17B2
  8
FUTO
 10
17647.803122048099
 20
1294.7566891004051
 30
0.0
 40
20.0
 50
90.0
 51
180.0
  0
CIRCLE
  5
17B5
  8
SL
 10
17827.803122048099
 20
724.75668910040531
 30
0.0
 40
177.5
  0
CIRCLE
  5
17B6
  8
SL
 10
19677.803122048099
 20
1674.7566891004151
 30
0.0
 40
315.0
  0
LINE
  5
17B7
  8
SL
 10
17736.45803916252
 20
876.94842945653181
 30
0.0
 11
19515.697763687771
 21
1944.843439591569
 31
0.0
  0
LINE
  5
17B8
  8
SL
 10
19802.855012200322
 20
1385.6424819618619
 30
0.0
 11
17898.26886967356
 21
561.84312793502966
 31
0.0
  0
ARC
  5
17B9
  8
FUTO
 10
19677.803122048099
 20
1674.7566891004151
 30
0.0
 40
480.0
 50
291.66248096875432
 51
122.6997412022006
  0
ARC
  5
17BA
  8
FUTO
 10
17827.803122048099
 20
724.75668910040531
 30
0.0
 40
280.0
 50
122.6997412022006
 51
291.66248096875432
  0
LINE
  5
17BB
  8
FUTO
 10
19418.489592700462
 20
2078.6830357247418
 30
0.0
 11
17676.536896595309
 21
960.38039129792935
 31
0.0
  0
LINE
  5
17BD
  8
FUTO
 10
17931.16183305001
 20
464.53183083351672
 30
0.0
 11
19854.989483765668
 21
1228.656932071463
 31
0.0
  0
ARC
  5
17BE
  8
FUTO
 10
19530.803122048092
 20
1821.7566891004151
 30
0.0
 40
1609.0
 50
226.30500409889541
 51
244.0683489132152
  0
DIMENSION
  5
1B16
  8
SP
  2
*D13
 10
25206.542731618971
 20
-678.32073116783067
 30
0.0
 11
24021.042731618971
 21
-588.32073116783056
 31
0.0
 70
     0
 13
22835.542731618971
 23
-5.2433108995846851
 33
0.0
 14
25206.542731618971
 24
-5.2433108995847411
 34
0.0
1001
ACAD
1000
DSTYLE
1002
{
1070
   287
1070
     3
1070
    40
1040
45.0
1070
   140
1040
3.0
1070
   147
1040
0.5
1070
   173
1070
     1
1070
   279
1070
     0
1070
     6
1000
OPEN
1070
     7
1000
OPEN
1002
}
  0
DIMENSION
  5
1B22
  8
SP
  2
*D14
 10
26035.542731618971
 20
-678.32073116783067
 30
0.0
 11
25621.042731618971
 21
-588.32073116783056
 31
0.0
 70
     0
 13
25206.542731618971
 23
-5.2433108995847411
 33
0.0
 14
26035.542731618971
 24
-5.2433108995846851
 34
0.0
1001
ACAD
1000
DSTYLE
1002
{
1070
   287
1070
     4
1070
    40
1040
45.0
1070
    75
1070
     1
1070
   140
1040
3.0
1070
   147
1040
0.5
1070
   173
1070
     1
1070
   279
1070
     1
1070
     6
1000
OPEN
1070
     7
1000
OPEN
1002
}
  0
DIMENSION
  5
1B2F
  8
SP
  2
*D15
 10
22835.542731618971
 20
-970.44303142072749
 30
0.0
 11
24435.542731618971
 21
-880.44303142072749
 31
0.0
 70
     0
 13
26035.542731618971
 23
-678.32073116783067
 33
0.0
 14
22835.542731618971
 24
-678.32073116783067
 34
0.0
1001
ACAD
1000
DSTYLE
1002
{
1070
   287
1070
     3
1070
    40
1040
45.0
1070
   140
1040
3.0
1070
   147
1040
0.5
1070
   173
1070
     1
1070
   279
1070
     0
1070
     6
1000
OPEN
1070
     7
1000
OPEN
1002
}
  0
LINE
  5
1BAD
  8
FUTO
 10
24445.542731618971
 20
17.832058718100591
 30
0.0
 11
24445.542731618971
 21
151.68131948273
 31
0.0
  0
LINE
  5
1BAE
  8
FUTO
 10
24452.542731618971
 20
-5.2433108995846851
 30
0.0
 11
24452.542731618971
 21
174.75668910041529
 31
0.0
  0
ARC
  5
1BAF
  8
FUTO
 10
24383.042731618971
 20
-2.3203035989317859
 30
0.0
 40
5.5
 50
95.000000000000014
 51
180.0
  0
LINE
  5
1BB0
  8
FUTO
 10
24377.542731618971
 20
-2.3203035989317859
 30
0.0
 11
24377.542731618971
 21
-5.2433108995846851
 31
0.0
  0
ARC
  5
1BB1
  8
FUTO
 10
24435.542731618971
 20
17.832058718100591
 30
0.0
 40
10.0
 50
275.0
 51
0.0
  0
LINE
  5
1BB2
  8
FUTO
 10
24452.542731618971
 20
-5.2433108995846851
 30
0.0
 11
24377.542731618971
 21
-5.2433108995846851
 31
0.0
  0
LINE
  5
1BB3
  8
FUTO
 10
24436.41428904645
 20
7.8701117371829241
 30
0.0
 11
24382.56337503386
 21
3.1587672405721601
 31
0.0
  0
ARC
  5
1BB4
  8
FUTO
 10
24383.042731618971
 20
171.83368179976239
 30
0.0
 40
5.5
 50
179.9999999999994
 51
264.99999999999989
  0
LINE
  5
1BB5
  8
FUTO
 10
24377.542731618971
 20
171.8336817997633
 30
0.0
 11
24377.542731618971
 21
174.75668910041529
 31
0.0
  0
ARC
  5
1BB6
  8
FUTO
 10
24383.042731618971
 20
197.67969640106821
 30
0.0
 40
5.5
 50
95.000000000000014
 51
180.0
  0
LINE
  5
1BB7
  8
FUTO
 10
24377.542731618971
 20
197.67969640106821
 30
0.0
 11
24377.542731618971
 21
194.75668910041529
 31
0.0
  0
ARC
  5
1BB8
  8
FUTO
 10
24435.542731618971
 20
151.68131948273
 30
0.0
 40
10.0
 50
0.0
 51
85.0
  0
LINE
  5
1BB9
  8
KL
 10
24456.542731618971
 20
212.7566891004152
 30
0.0
 11
24453.34273161897
 21
212.7566891004152
 31
0.0
  0
LINE
  5
1BBA
  8
FUTO
 10
24436.41428904645
 20
161.64326646364771
 30
0.0
 11
24382.56337503386
 21
166.35461096025841
 31
0.0
  0
LINE
  5
1BBB
  8
FUTO
 10
24452.542731618971
 20
174.75668910041529
 30
0.0
 11
24377.542731618971
 21
174.75668910041529
 31
0.0
  0
LINE
  5
1BBC
  8
FUTO
 10
24452.542731618971
 20
174.75668910041529
 30
0.0
 11
24377.542731618971
 21
174.75668910041529
 31
0.0
  0
LINE
  5
1BBD
  8
FUTO
 10
24452.542731618971
 20
194.75668910041529
 30
0.0
 11
24377.542731618971
 21
194.75668910041529
 31
0.0
  0
LINE
  5
1BBE
  8
FUTO
 10
24436.41428904645
 20
207.8701117371829
 30
0.0
 11
24382.56337503386
 21
203.1587672405721
 31
0.0
  0
ARC
  5
1BBF
  8
FUTO
 10
24435.542731618971
 20
217.83205871810051
 30
0.0
 40
10.0
 50
275.0
 51
0.0
  0
LINE
  5
1BC0
  8
FUTO
 10
24377.542731618971
 20
371.83368179976333
 30
0.0
 11
24377.542731618971
 21
374.75668910041531
 31
0.0
  0
LINE
  5
1BC1
  8
FUTO
 10
24452.542731618971
 20
194.75668910041529
 30
0.0
 11
24452.542731618971
 21
374.75668910041531
 31
0.0
  0
LINE
  5
1BC2
  8
FUTO
 10
24452.542731618971
 20
194.75668910041529
 30
0.0
 11
24452.542731618971
 21
374.75668910041531
 31
0.0
  0
LINE
  5
1BC3
  8
KL
 10
24453.34273161897
 20
212.7566891004152
 30
0.0
 11
24453.34273161897
 21
374.75668910041531
 31
0.0
  0
LINE
  5
1BC4
  8
KL
 10
24456.542731618971
 20
212.7566891004152
 30
0.0
 11
24456.542731618971
 21
374.75668910041531
 31
0.0
  0
ARC
  5
1BC5
  8
FUTO
 10
24383.042731618971
 20
371.83368179976242
 30
0.0
 40
5.5
 50
179.9999999999994
 51
264.99999999999989
  0
LINE
  5
1BC6
  8
FUTO
 10
24445.542731618971
 20
217.83205871810051
 30
0.0
 11
24445.542731618971
 21
351.68131948272998
 31
0.0
  0
ARC
  5
1BC7
  8
FUTO
 10
24435.542731618971
 20
351.68131948272998
 30
0.0
 40
10.0
 50
0.0
 51
85.0
  0
LINE
  5
1BC8
  8
FUTO
 10
24436.41428904645
 20
361.64326646364771
 30
0.0
 11
24382.56337503386
 21
366.35461096025841
 31
0.0
  0
LINE
  5
1BC9
  8
0
 10
24452.542731618971
 20
374.75668910041531
 30
0.0
 11
24377.542731618971
 21
374.75668910041531
 31
0.0
  0
LINE
  5
1BCA
  8
FUTO
 10
24452.542731618971
 20
206.75668910041529
 30
0.0
 11
25960.542731618971
 21
206.75668910041529
 31
0.0
  0
LINE
  5
1BCB
  8
FUTO
 10
24452.542731618971
 20
362.75668910041531
 30
0.0
 11
25960.542731618971
 21
362.75668910041531
 31
0.0
  0
LINE
  5
1BCC
  8
FUTO
 10
24452.542731618971
 20
162.75668910041529
 30
0.0
 11
25960.542731618971
 21
162.75668910041529
 31
0.0
  0
LINE
  5
1BCD
  8
FUTO
 10
24452.542731618971
 20
6.756689100415314
 30
0.0
 11
25960.542731618971
 21
6.756689100415314
 31
0.0
  0
LINE
  5
1BCE
  8
FUTO
 10
24452.542731618971
 20
-5.2433108995846851
 30
0.0
 11
25960.542731618971
 21
-5.2433108995846851
 31
0.0
  0
LINE
  5
1BCF
  8
FUTO
 10
22910.542731618971
 20
-5.2433108995846851
 30
0.0
 11
24423.687810073119
 21
-5.2433108995846851
 31
0.0
  0
DIMENSION
  5
1BF2
  8
SP
  2
*D16
 10
25206.542731618971
 20
4314.894121657162
 30
0.0
 11
23906.542731618971
 21
4404.894121657162
 31
0.0
 70
     0
 13
22606.542731618971
 23
4314.894121657162
 33
0.0
 14
25206.542731618971
 24
4314.894121657162
 34
0.0
1001
ACAD
1000
DSTYLE
1002
{
1070
   287
1070
     3
1070
    40
1040
45.0
1070
   140
1040
3.0
1070
   147
1040
0.5
1070
   173
1070
     1
1070
   279
1070
     0
1070
   341
1005
24
1070
     6
1000
OPEN
1070
     7
1000
OPEN
1002
}
  0
LINE
  5
1C10
  8
FUTO
 10
18527.803122048092
 20
174.75668910041529
 30
0.0
 11
18527.803122048092
 21
-5.2433108995846851
 31
0.0
  0
LINE
  5
1C11
  8
FUTO
 10
18877.803122048092
 20
174.75668910041529
 30
0.0
 11
18877.803122048092
 21
-5.2433108995846851
 31
0.0
  0
LINE
  5
1C21
  8
SL
 10
23159.93222451465
 20
1821.9597965947451
 30
0.0
 11
23159.93222451465
 21
1514.7566891004151
 31
0.0
  0
LINE
  5
1C22
  8
SL
 10
24090.110997392869
 20
1821.9597965947451
 30
0.0
 11
24090.110997392869
 21
1514.7566891004151
 31
0.0
  0
DIMENSION
  5
1C23
  8
SP
  2
*D17
 10
21416.90897234351
 20
3901.7566891004162
 30
0.0
 11
21326.90897234351
 21
2788.256689100419
 31
0.0
 70
     0
 13
21021.144687877291
 23
1674.7566891004151
 33
0.0
 14
20952.80312204955
 24
3901.7566891004162
 34
0.0
 50
90.0
1001
ACAD
1000
DSTYLE
1002
{
1070
   287
1070
     3
1070
    40
1040
45.0
1070
   140
1040
3.0
1070
   147
1040
0.5
1070
   173
1070
     1
1070
   279
1070
     0
1070
   341
1005
24
1070
     6
1000
OPEN
1070
     7
1000
OPEN
1002
}
  0
LINE
  5
1C5C
  8
FUTO
 10
19766.803122048092
 20
6601.5457743905736
 30
0.0
 11
19792.803122048092
 21
6625.5457743905727
 31
0.0
  0
LINE
  5
1C5D
  8
FUTO
 10
19588.803122048099
 20
6601.5457743905736
 30
0.0
 11
19564.969788714759
 21
6623.5457743905754
 31
0.0
  0
LINE
  5
1C61
  8
FUTO
 10
20157.803122048092
 20
5059.5457743905781
 30
0.0
 11
17547.803122048092
 21
5059.5457743905736
 31
0.0
  0
LINE
  5
1C62
  8
SL
 10
20052.803122048092
 20
5177.3457743905774
 30
0.0
 11
17650.303122048092
 21
5177.3457743905728
 31
0.0
  0
LINE
  5
1C63
  8
SL
 10
20052.803122048092
 20
5307.3457743905747
 30
0.0
 11
17650.303122048092
 21
5307.3457743905756
 31
0.0
  0
LINE
  5
1C6B
  8
FUTO
 10
19620.303122048092
 20
6601.5457743905736
 30
0.0
 11
19620.303122048092
 21
5539.5457743905736
 31
0.0
  0
LINE
  5
1C6C
  8
FUTO
 10
19735.303122048092
 20
6601.5457743905736
 30
0.0
 11
19735.303122048092
 21
5539.5457743905736
 31
0.0
  0
LINE
  5
1C6D
  8
FUTO
 10
20157.803122048092
 20
5340.2948085530816
 30
0.0
 11
17547.803122048092
 21
5340.2948085530816
 31
0.0
  0
LINE
  5
1C6E
  8
FUTO
 10
19757.803122048092
 20
5539.5457743905736
 30
0.0
 11
19597.803122048099
 21
5539.5457743905736
 31
0.0
  0
LINE
  5
1C6F
  8
FUTO
 10
19757.803122048092
 20
5367.5457743905736
 30
0.0
 11
19597.803122048099
 21
5367.5457743905736
 31
0.0
  0
LINE
  5
1C70
  8
FUTO
 10
19792.803122048092
 20
5517.5457743905736
 30
0.0
 11
19597.803122048099
 21
5517.5457743905736
 31
0.0
  0
LINE
  5
1C71
  8
FUTO
 10
19792.803122048092
 20
5531.5457743905736
 30
0.0
 11
19562.803122048099
 21
5531.5457743905736
 31
0.0
  0
LINE
  5
1C72
  8
FUTO
 10
19792.803122048092
 20
5375.5457743905727
 30
0.0
 11
19562.803122048099
 21
5375.5457743905727
 31
0.0
  0
LINE
  5
1C73
  8
CT
 10
19841.294740557922
 20
5453.5457743905727
 30
0.0
 11
19526.645968286059
 21
5453.5457743905727
 31
0.0
  0
LINE
  5
1C74
  8
FUTO
 10
19792.803122048092
 20
5517.5457743905736
 30
0.0
 11
19562.803122048099
 21
5517.5457743905736
 31
0.0
  0
LINE
  5
1C75
  8
FUTO
 10
19792.803122048092
 20
5389.5457743905727
 30
0.0
 11
19562.803122048099
 21
5389.5457743905727
 31
0.0
  0
LINE
  5
1C76
  8
SL
 10
19302.803122048099
 20
5307.3457743905747
 30
0.0
 11
19302.803122048099
 21
5177.3457743905738
 31
0.0
  0
LINE
  5
1C7A
  8
FUTO
 10
19625.303122048092
 20
5367.5457743905736
 30
0.0
 11
19625.303122048092
 21
5307.3457743905719
 31
0.0
  0
LINE
  5
1C7B
  8
FUTO
 10
19562.803122048099
 20
5375.5457743905727
 30
0.0
 11
19562.803122048099
 21
5383.5457743905727
 31
0.0
  0
LINE
  5
1C7C
  8
FUTO
 10
19597.803122048099
 20
5367.5457743905736
 30
0.0
 11
19577.803122048099
 21
5375.5457743905727
 31
0.0
  0
LINE
  5
1C7F
  8
FUTO
 10
19597.803122048099
 20
5539.5457743905736
 30
0.0
 11
19577.803122048099
 21
5531.5457743905736
 31
0.0
  0
LINE
  5
1C80
  8
FUTO
 10
19562.803122048099
 20
5531.5457743905736
 30
0.0
 11
19562.803122048099
 21
5523.5457743905727
 31
0.0
  0
LINE
  5
1C83
  8
SL
 10
20052.803122048092
 20
5307.3457743905719
 30
0.0
 11
20052.803122048092
 21
5177.3457743905774
 31
0.0
  0
LINE
  5
1C84
  8
FUTO
 10
19810.803122048092
 20
5399.5457743905736
 30
0.0
 11
19810.803122048092
 21
5507.5457743905736
 31
0.0
  0
LINE
  5
1C85
  8
FUTO
 10
19792.803122048092
 20
5389.5457743905727
 30
0.0
 11
19792.803122048092
 21
5399.5457743905736
 31
0.0
  0
LINE
  5
1C86
  8
FUTO
 10
19810.803122048092
 20
5399.5457743905736
 30
0.0
 11
19792.803122048092
 21
5399.5457743905736
 31
0.0
  0
LINE
  5
1C87
  8
FUTO
 10
19792.803122048092
 20
5375.5457743905727
 30
0.0
 11
19792.803122048092
 21
5389.5457743905727
 31
0.0
  0
LINE
  5
1C88
  8
FUTO
 10
19757.803122048092
 20
5367.5457743905736
 30
0.0
 11
19777.803122048092
 21
5375.5457743905727
 31
0.0
  0
LINE
  5
1C89
  8
FUTO
 10
19730.303122048099
 20
5367.5457743905736
 30
0.0
 11
19730.303122048099
 21
5307.3457743905719
 31
0.0
  0
LINE
  5
1C8A
  8
FUTO
 10
19757.803122048092
 20
5539.5457743905736
 30
0.0
 11
19777.803122048092
 21
5531.5457743905736
 31
0.0
  0
LINE
  5
1C8B
  8
FUTO
 10
19792.803122048092
 20
5531.5457743905736
 30
0.0
 11
19792.803122048092
 21
5517.5457743905736
 31
0.0
  0
LINE
  5
1C8C
  8
FUTO
 10
19792.803122048092
 20
5507.5457743905736
 30
0.0
 11
19792.803122048092
 21
5517.5457743905736
 31
0.0
  0
LINE
  5
1C8D
  8
FUTO
 10
19810.803122048092
 20
5507.5457743905736
 30
0.0
 11
19792.803122048092
 21
5507.5457743905736
 31
0.0
  0
LINE
  5
1C8E
  8
FUTO
 10
20157.803122048092
 20
5340.2948085530816
 30
0.0
 11
20157.803122048092
 21
5059.5457743905781
 31
0.0
  0
POINT
  5
1C8F
  8
DEFPOINTS
 10
20157.803122048092
 20
5059.5457743905781
 30
0.0
  0
LINE
  5
1C93
  8
FUTO
 10
19588.803122048099
 20
6601.5457743905736
 30
0.0
 11
19766.803122048092
 21
6601.5457743905763
 31
0.0
  0
LINE
  5
1C9A
  8
FUTO
 10
20752.803122048092
 20
8558.5457743905736
 30
0.0
 11
18602.803122048092
 21
8558.5457743905736
 31
0.0
  0
LINE
  5
1C9B
  8
FUTO
 10
20752.803122048092
 20
8564.5457743905736
 30
0.0
 11
18602.803122048092
 21
8564.5457743905754
 31
0.0
  0
LINE
  5
1C9C
  8
KL
 10
20752.803122048092
 20
8421.7457743914656
 30
0.0
 11
18602.803122048092
 21
8421.7457743919567
 31
0.0
  0
LINE
  5
1CA1
  8
HOSO
 10
20717.803122048092
 20
8386.6260307833727
 30
0.0
 11
20717.803122048092
 21
8444.8251868886018
 31
0.0
  0
LINE
  5
1CA2
  8
FUTO
 10
20683.803122048092
 20
8412.7457743905743
 30
0.0
 11
20683.803122048092
 21
8502.7457743905725
 31
0.0
  0
LINE
  5
1CA3
  8
KL
 10
20677.803122048092
 20
8412.7457743905743
 30
0.0
 11
20677.803122048092
 21
8564.5457743905736
 31
0.0
  0
LINE
  5
1CA4
  8
KL
 10
20752.803122048092
 20
8412.7457743905743
 30
0.0
 11
20752.803122048092
 21
8421.7457743914638
 31
0.0
  0
LINE
  5
1CA5
  8
HOSO
 10
20677.803122048092
 20
8421.7457743914838
 30
0.0
 11
20677.803122048081
 21
8412.7457743914856
 31
0.0
  0
LINE
  5
1CA6
  8
FUTO
 10
20752.803122048092
 20
8558.5457743905754
 30
0.0
 11
20752.803122048092
 21
8564.5457743905736
 31
0.0
  0
LINE
  5
1CA7
  8
HOSO
 10
20717.803122048092
 20
8536.5075849505884
 30
0.0
 11
20717.803122048092
 21
8594.7067410558175
 31
0.0
  0
LINE
  5
1CA8
  8
FUTO
 10
20683.803122048092
 20
8502.7457743905725
 30
0.0
 11
20683.803122048092
 21
8558.5457743905736
 31
0.0
  0
LINE
  5
1CBE
  8
FUTO
 10
19582.803122048092
 20
6768.5457743905736
 30
0.0
 11
19812.803122048092
 21
6768.5457743905736
 31
0.0
  0
LINE
  5
1CBF
  8
FUTO
 10
19542.803122048099
 20
6781.5457743905736
 30
0.0
 11
19812.803122048092
 21
6781.5457743905736
 31
0.0
  0
LINE
  5
1CC0
  8
FUTO
 10
19588.803122048099
 20
6805.5457743905727
 30
0.0
 11
19766.803122048092
 21
6805.5457743905727
 31
0.0
  0
LINE
  5
1CC1
  8
FUTO
 10
19542.803122048099
 20
6768.5457743905763
 30
0.0
 11
19812.803122048092
 21
6768.5457743905736
 31
0.0
  0
LINE
  5
1CC2
  8
CT
 10
19447.511412973588
 20
6703.5457743905727
 30
0.0
 11
19907.136823809891
 21
6703.5457743905727
 31
0.0
  0
LINE
  5
1CC3
  8
FUTO
 10
19542.803122048099
 20
6625.5457743905754
 30
0.0
 11
19812.803122048092
 21
6625.5457743905727
 31
0.0
  0
LINE
  5
1CC4
  8
FUTO
 10
19542.803122048099
 20
6638.5457743905763
 30
0.0
 11
19812.803122048092
 21
6638.5457743905727
 31
0.0
  0
LINE
  5
1CC5
  8
KL
 10
19622.803122048099
 20
6805.5457743905727
 30
0.0
 11
19622.803122048099
 21
6899.1898147152342
 31
0.0
  0
LINE
  5
1CCB
  8
FUTO
 10
19588.803122048099
 20
6805.5457743905754
 30
0.0
 11
19564.969788714759
 21
6783.5457743905736
 31
0.0
  0
LINE
  5
1CCE
  8
KL
 10
19732.803122048099
 20
6805.5457743905727
 30
0.0
 11
19732.803122048099
 21
6901.6328515824234
 31
0.0
  0
LINE
  5
1CCF
  8
FUTO
 10
19828.803122048099
 20
6643.5457743905736
 30
0.0
 11
19828.803122048099
 21
6763.5457743905727
 31
0.0
  0
LINE
  5
1CD0
  8
FUTO
 10
19812.803122048092
 20
6625.5457743905754
 30
0.0
 11
19812.803122048092
 21
6643.5457743905736
 31
0.0
  0
LINE
  5
1CD1
  8
FUTO
 10
19812.803122048092
 20
6643.5457743905736
 30
0.0
 11
19828.803122048099
 21
6643.5457743905736
 31
0.0
  0
LINE
  5
1CD2
  8
FUTO
 10
19766.803122048092
 20
6805.5457743905754
 30
0.0
 11
19792.803122048092
 21
6781.5457743905736
 31
0.0
  0
LINE
  5
1CD3
  8
FUTO
 10
19812.803122048092
 20
6763.5457743905727
 30
0.0
 11
19828.803122048099
 21
6763.5457743905727
 31
0.0
  0
LINE
  5
1CD4
  8
FUTO
 10
19812.803122048092
 20
6781.5457743905736
 30
0.0
 11
19812.803122048092
 21
6763.5457743905727
 31
0.0
  0
LINE
  5
1CE0
  8
HOSO
 10
18637.803122048092
 20
8378.9394005461527
 30
0.0
 11
18637.803122048092
 21
8449.5665276839754
 31
0.0
  0
LINE
  5
1CE1
  8
KL
 10
18671.803122048099
 20
8412.7457743905743
 30
0.0
 11
18671.803122048099
 21
8487.7457743905743
 31
0.0
  0
LINE
  5
1CE2
  8
KL
 10
18677.803122048099
 20
8412.7457743905743
 30
0.0
 11
18677.803122048099
 21
8564.5457743905736
 31
0.0
  0
LINE
  5
1CE4
  8
KL
 10
18602.803122048092
 20
8412.7457743905743
 30
0.0
 11
18602.803122048092
 21
8421.7457743919567
 31
0.0
  0
LINE
  5
1CE5
  8
HOSO
 10
18677.803122048081
 20
8421.7457743919385
 30
0.0
 11
18677.803122048081
 21
8412.7457743919404
 31
0.0
  0
LINE
  5
1CE6
  8
FUTO
 10
18602.803122048092
 20
8558.5457743905736
 30
0.0
 11
18602.803122048092
 21
8564.5457743905754
 31
0.0
  0
LINE
  5
1CE7
  8
HOSO
 10
18637.803122048092
 20
8528.4998469482343
 30
0.0
 11
18637.803122048092
 21
8599.1269740860516
 31
0.0
  0
LINE
  5
1CE8
  8
FUTO
 10
18671.803122048099
 20
8487.7457743905743
 30
0.0
 11
18671.803122048099
 21
8558.5457743905736
 31
0.0
  0
INSERT
  5
1CE9
  8
FUTO
  2
まっすぐの矢印
 10
19126.878870907902
 20
8731.0420621466037
 30
0.0
 41
40.0
 42
40.0
 43
40.0
 50
180.0
  0
LINE
  5
1D14
  8
FUTO
 10
19544.803122048092
 20
5399.5457743905736
 30
0.0
 11
19544.803122048092
 21
5507.5457743905736
 31
0.0
  0
LINE
  5
1D15
  8
FUTO
 10
19562.803122048099
 20
5375.5457743905727
 30
0.0
 11
19562.803122048099
 21
5389.5457743905727
 31
0.0
  0
LINE
  5
1D16
  8
FUTO
 10
19544.803122048092
 20
5399.5457743905736
 30
0.0
 11
19562.803122048099
 21
5399.5457743905736
 31
0.0
  0
LINE
  5
1D17
  8
FUTO
 10
19562.803122048099
 20
5389.5457743905727
 30
0.0
 11
19562.803122048099
 21
5399.5457743905736
 31
0.0
  0
LINE
  5
1D18
  8
FUTO
 10
19544.803122048092
 20
5507.5457743905736
 30
0.0
 11
19562.803122048099
 21
5507.5457743905736
 31
0.0
  0
LINE
  5
1D19
  8
FUTO
 10
19562.803122048099
 20
5507.5457743905736
 30
0.0
 11
19562.803122048099
 21
5517.5457743905736
 31
0.0
  0
LINE
  5
1D1A
  8
FUTO
 10
19562.803122048099
 20
5531.5457743905736
 30
0.0
 11
19562.803122048099
 21
5517.5457743905736
 31
0.0
  0
LINE
  5
1D1B
  8
FUTO
 10
19526.803122048099
 20
6643.5457743905736
 30
0.0
 11
19526.803122048099
 21
6763.5457743905727
 31
0.0
  0
LINE
  5
1D1C
  8
FUTO
 10
19542.803122048099
 20
6643.5457743905736
 30
0.0
 11
19526.803122048099
 21
6643.5457743905736
 31
0.0
  0
LINE
  5
1D1D
  8
FUTO
 10
19542.803122048099
 20
6625.5457743905754
 30
0.0
 11
19542.803122048099
 21
6643.5457743905736
 31
0.0
  0
LINE
  5
1D1E
  8
FUTO
 10
19542.803122048099
 20
6781.5457743905736
 30
0.0
 11
19542.803122048099
 21
6763.5457743905727
 31
0.0
  0
LINE
  5
1D1F
  8
FUTO
 10
19542.803122048099
 20
6763.5457743905727
 30
0.0
 11
19526.803122048099
 21
6763.5457743905727
 31
0.0
  0
LINE
  5
1D20
  8
FUTO
 10
19328.216317570648
 20
5357.5457743905708
 30
0.0
 11
19328.216317570648
 21
6830.5457743905708
 31
0.0
  0
LINE
  5
1D21
  8
FUTO
 10
20027.389926525539
 20
5357.5457743905708
 30
0.0
 11
20027.389926525539
 21
6830.5457743905708
 31
0.0
  0
LINE
  5
1D22
  8
FUTO
 10
20952.803122048299
 20
6830.5457743905708
 30
0.0
 11
20952.80312204943
 21
8488.5457743905772
 31
0.0
  0
LINE
  5
1D23
  8
FUTO
 10
20952.803122048721
 20
6830.5457743905708
 30
0.0
 11
20952.80312204947
 21
8488.5457743905772
 31
0.0
  0
LINE
  5
1D24
  8
FUTO
 10
20952.803122048092
 20
6830.5457743905708
 30
0.0
 11
20952.803122048092
 21
8488.5457743905772
 31
0.0
  0
LINE
  5
1D25
  8
FUTO
 10
20946.803122048092
 20
6830.5457743905708
 30
0.0
 11
20946.803122048092
 21
8488.5457743905772
 31
0.0
  0
LINE
  5
1D26
  8
FUTO
 10
20877.803122048092
 20
6830.5457743905708
 30
0.0
 11
20877.803122048092
 21
8488.5457743905772
 31
0.0
  0
LINE
  5
1D35
  8
CT
 10
17827.803122048099
 20
6427.25958675113
 30
0.0
 11
17827.803122048099
 21
5064.0444980192824
 31
0.0
  0
LINE
  5
1D3A
  8
SL
 10
17650.303122048092
 20
5307.3457743905756
 30
0.0
 11
17650.303122048092
 21
5177.3457743905728
 31
0.0
  0
LINE
  5
1D3B
  8
FUTO
 10
17547.803122048092
 20
5340.2948085530816
 30
0.0
 11
17547.803122048092
 21
5059.5457743905718
 31
0.0
  0
LINE
  5
2121
  8
CT
 10
22927.84273161897
 20
724.75668910040531
 30
0.0
 11
22560.02273161897
 21
724.75668910040531
 31
0.0
  0
LINE
  5
2132
  8
KL
 10
23188.060731618971
 20
449.75668910040338
 30
0.0
 11
23116.489731618982
 21
449.75668910040338
 31
0.0
  0
LINE
  5
2306
  8
FUTO
 10
17540.303122047841
 20
6012.3457743904837
 30
0.0
 11
17540.303122047779
 21
6207.3457743904837
 31
0.0
  0
LINE
  5
2307
  8
FUTO
 10
18097.803122047771
 20
6225.6066443906548
 30
0.0
 11
18097.803122047841
 21
6012.3457743906556
 31
0.0
  0
LINE
  5
2308
  8
FUTO
 10
17540.303122047779
 20
6207.3457743904837
 30
0.0
 11
18097.803122047779
 21
6207.3457743906556
 31
0.0
  0
LINE
  5
2309
  8
FUTO
 10
18057.803122047771
 20
6267.3457743906438
 30
0.0
 11
17597.803122047771
 21
6267.3457743905019
 31
0.0
  0
LINE
  5
230A
  8
FUTO
 10
18097.803122047771
 20
6225.6066443906548
 30
0.0
 11
18057.803122047771
 21
6267.3457743906438
 31
0.0
  0
LINE
  5
230B
  8
FUTO
 10
17540.303122047779
 20
6207.3457743904837
 30
0.0
 11
17597.803122047771
 21
6267.3457743905019
 31
0.0
  0
LINE
  5
230C
  8
CT
 10
18138.117981701042
 20
5746.8457743906711
 30
0.0
 11
17495.042647952061
 21
5746.845774390471
 31
0.0
  0
LINE
  5
230D
  8
FUTO
 10
17540.303122047841
 20
6012.3457743904837
 30
0.0
 11
18097.803122047841
 21
6012.3457743906556
 31
0.0
  0
LINE
  5
230E
  8
FUTO
 10
17540.303122048012
 20
5463.8457743904837
 30
0.0
 11
17592.369143908782
 21
5463.8457743905001
 31
0.0
  0
LINE
  5
230F
  8
FUTO
 10
17540.303122048041
 20
5363.8457743904828
 30
0.0
 11
17824.803122048041
 21
5363.845774390571
 31
0.0
  0
LINE
  5
2310
  8
CT
 10
18131.933187015042
 20
5956.3457743906674
 30
0.0
 11
18168.61872701504
 21
5956.3457743906783
 31
0.0
  0
LINE
  5
2311
  8
CT
 10
18131.933187015169
 20
5537.3457743906683
 30
0.0
 11
18168.618727015171
 21
5537.3457743906783
 31
0.0
  0
LINE
  5
2312
  8
FUTO
 10
17870.303122048099
 20
5177.3457743905874
 30
0.0
 11
17870.303122048041
 21
5347.3457743905874
 31
0.0
  0
LINE
  5
2313
  8
FUTO
 10
17785.303122048041
 20
5347.345774390561
 30
0.0
 11
17785.303122048099
 21
5177.3457743905601
 31
0.0
  0
LINE
  5
2314
  8
FUTO
 10
17780.303122048099
 20
5177.3457743905583
 30
0.0
 11
17780.303122048059
 21
5317.3457743905592
 31
0.0
  0
LINE
  5
2315
  8
FUTO
 10
17877.803122048041
 20
5347.3457743905874
 30
0.0
 11
17777.803122048041
 21
5347.3457743905583
 31
0.0
  0
LINE
  5
2316
  8
FUTO
 10
17913.303122048041
 20
5357.3457743905983
 30
0.0
 11
17742.303122048041
 21
5357.3457743905474
 31
0.0
  0
LINE
  5
2317
  8
FUTO
 10
17915.303122048041
 20
5364.1941493905988
 30
0.0
 11
17915.303122048041
 21
5359.3457743905992
 31
0.0
  0
ARC
  5
2318
  8
FUTO
 10
17913.303122048041
 20
5359.3457743905992
 30
0.0
 40
2.0
 50
270.0
 51
0.0
  0
LINE
  5
2319
  8
FUTO
 10
17877.803122048041
 20
5347.3457743905874
 30
0.0
 11
17877.803122048041
 21
5357.3457743905874
 31
0.0
  0
LINE
  5
231A
  8
FUTO
 10
17777.803122048041
 20
5347.3457743905583
 30
0.0
 11
17777.803122048041
 21
5357.3457743905592
 31
0.0
  0
LINE
  5
231B
  8
FUTO
 10
17785.303122048059
 20
5317.3457743905601
 30
0.0
 11
17780.303122048059
 21
5317.3457743905592
 31
0.0
  0
LINE
  5
231C
  8
FUTO
 10
17740.303122048041
 20
5363.8457743905474
 30
0.0
 11
17740.303122048041
 21
5359.3457743905474
 31
0.0
  0
ARC
  5
231D
  8
FUTO
 10
17742.303122048041
 20
5359.3457743905474
 30
0.0
 40
2.0
 50
180.0
 51
270.0
  0
LINE
  5
231E
  8
FUTO
 10
17870.303122048099
 20
5177.3457743905874
 30
0.0
 11
17780.303122048099
 21
5177.3457743905583
 31
0.0
  0
LINE
  5
231F
  8
FUTO
 10
17541.989045047922
 20
5746.8457743904864
 30
0.0
 11
17541.989045048002
 21
5491.3457743904846
 31
0.0
  0
LINE
  5
2320
  8
FUTO
 10
17592.369143908709
 20
5706.3457743905019
 30
0.0
 11
17990.286162107459
 21
5706.3457743906238
 31
0.0
  0
LINE
  5
2321
  8
FUTO
 10
17592.36914390872
 20
5687.945780390497
 30
0.0
 11
17990.28616210747
 21
5687.9457803906198
 31
0.0
  0
LINE
  5
2322
  8
CT
 10
17775.267252558871
 20
5561.3457743905556
 30
0.0
 11
17918.412058558872
 21
5561.3457743906019
 31
0.0
  0
LINE
  5
2323
  8
FUTO
 10
17537.803122047841
 20
6002.3457743904837
 30
0.0
 11
17537.803122047939
 21
5691.3457743904837
 31
0.0
  0
LINE
  5
2324
  8
FUTO
 10
17541.989045047922
 20
5746.8457743904864
 30
0.0
 11
17541.989045047842
 21
6002.3457743904846
 31
0.0
  0
LINE
  5
2325
  8
FUTO
 10
17541.989045047842
 20
6002.3457743904846
 30
0.0
 11
17548.44090704784
 21
6012.3457743904873
 31
0.0
  0
LINE
  5
2326
  8
FUTO
 10
17537.803122047841
 20
6002.3457743904837
 30
0.0
 11
17544.469788047842
 21
6012.3457743904846
 31
0.0
  0
LINE
  5
2327
  8
FUTO
 10
17537.803122047939
 20
5691.3457743904837
 30
0.0
 11
17541.98904504794
 21
5687.1598513904846
 31
0.0
  0
LINE
  5
2328
  8
FUTO
 10
17990.28616210755
 20
5416.3457743906238
 30
0.0
 11
17592.3691439088
 21
5416.3457743905019
 31
0.0
  0
LINE
  5
2329
  8
FUTO
 10
17990.28616210755
 20
5434.7457983906179
 30
0.0
 11
17592.3691439088
 21
5434.7457983904978
 31
0.0
  0
LINE
  5
232A
  8
FUTO
 10
17540.303122048041
 20
5363.8457743904828
 30
0.0
 11
17540.303122048012
 21
5463.8457743904837
 31
0.0
  0
LINE
  5
232B
  8
FUTO
 10
17545.28807404801
 20
5480.1183463904863
 30
0.0
 11
17556.13645504801
 21
5463.8457743904892
 31
0.0
  0
LINE
  5
232C
  8
FUTO
 10
17541.989045048002
 20
5491.3457743904846
 30
0.0
 11
17559.73166504801
 21
5463.8457743904892
 31
0.0
  0
LINE
  5
232D
  8
FUTO
 10
17551.574517048
 20
5476.4888663904876
 30
0.0
 11
17543.16210604801
 21
5481.3457743904864
 31
0.0
  0
LINE
  5
232E
  8
FUTO
 10
17990.28616210755
 20
5416.3457743906201
 30
0.0
 11
17990.286162107459
 21
5706.3457743906238
 31
0.0
  0
LINE
  5
232F
  8
FUTO
 10
17592.3691439088
 20
5416.3457743904992
 30
0.0
 11
17592.369143908709
 21
5706.3457743905019
 31
0.0
  0
LINE
  5
2330
  8
FUTO
 10
18115.303122048012
 20
5463.845774390662
 30
0.0
 11
17990.286162107539
 21
5463.8457743906201
 31
0.0
  0
LINE
  5
2331
  8
FUTO
 10
18115.303122048052
 20
5363.845774390662
 30
0.0
 11
17830.803122048041
 21
5363.8457743905728
 31
0.0
  0
LINE
  5
2332
  8
FUTO
 10
18115.303122048052
 20
5363.845774390662
 30
0.0
 11
18115.303122048012
 21
5463.845774390662
 31
0.0
  0
LINE
  5
2333
  8
FUTO
 10
18113.61719904792
 20
5746.8457743906602
 30
0.0
 11
18113.61719904784
 21
6002.3457743906602
 31
0.0
  0
LINE
  5
2334
  8
FUTO
 10
18117.803122047841
 20
6002.3457743906611
 30
0.0
 11
18117.803122047939
 21
5691.3457743906611
 31
0.0
  0
LINE
  5
2335
  8
FUTO
 10
18113.61719904792
 20
5746.8457743906602
 30
0.0
 11
18113.617199048
 21
5491.3457743906602
 31
0.0
  0
LINE
  5
2336
  8
FUTO
 10
18113.617199048
 20
5491.3457743906602
 30
0.0
 11
18095.87457904801
 21
5463.8457743906556
 31
0.0
  0
LINE
  5
2337
  8
FUTO
 10
18104.031727048012
 20
5476.4888663906586
 30
0.0
 11
18112.444138048009
 21
5481.3457743906611
 31
0.0
  0
LINE
  5
2338
  8
FUTO
 10
18110.318170048002
 20
5480.1183463906609
 30
0.0
 11
18099.469789048009
 21
5463.8457743906556
 31
0.0
  0
LINE
  5
2339
  8
FUTO
 10
18117.803122047841
 20
6002.3457743906611
 30
0.0
 11
18111.13645604784
 21
6012.3457743906602
 31
0.0
  0
LINE
  5
233A
  8
FUTO
 10
18113.61719904784
 20
6002.3457743906602
 30
0.0
 11
18107.165337047842
 21
6012.3457743906602
 31
0.0
  0
LINE
  5
233B
  8
FUTO
 10
18177.80312204799
 20
5442.7668408521095
 30
0.0
 11
18177.803122047801
 21
6050.9247079292509
 31
0.0
  0
LINE
  5
233C
  8
FUTO
 10
18177.80312204799
 20
5442.7668408521095
 30
0.0
 11
18115.303122048012
 21
5442.7668408520931
 31
0.0
  0
LINE
  5
233D
  8
FUTO
 10
18177.803122047801
 20
6050.9247079292509
 30
0.0
 11
18097.80312204783
 21
6050.9247079292227
 31
0.0
  0
LINE
  5
233E
  8
FUTO
 10
17477.803122048052
 20
5442.7668408518948
 30
0.0
 11
17477.803122047859
 21
6050.9247079290362
 31
0.0
  0
LINE
  5
233F
  8
FUTO
 10
17477.80312204787
 20
6050.9247079290362
 30
0.0
 11
17557.80312204783
 21
6050.9247079290562
 31
0.0
  0
LINE
  5
2340
  8
FUTO
 10
17477.803122048052
 20
5442.7668408518948
 30
0.0
 11
17540.303122048012
 21
5442.7668408519139
 31
0.0
  0
LINE
  5
2370
  8
KL
 10
22904.342731618952
 20
622.22620610036665
 30
0.0
 11
22904.34273161893
 21
537.3733921003668
 31
0.0
  0
LINE
  5
2371
  8
KL
 10
22988.342731618959
 20
724.75668910034892
 30
0.0
 11
22988.342731618912
 21
466.75668910034892
 31
0.0
  0
LINE
  5
2372
  8
KL
 10
22988.342731618959
 20
727.75668910034881
 30
0.0
 11
22988.342731618919
 21
494.75668910034881
 31
0.0
  0
LINE
  5
2373
  8
KL
 10
23153.34273161893
 20
570.76279410031475
 30
0.0
 11
23153.342731618919
 21
494.7566891003143
 31
0.0
  0
LINE
  5
2374
  8
KL
 10
23434.342731618941
 20
574.22872610025206
 30
0.0
 11
23434.342731618919
 21
494.75668910025252
 31
0.0
  0
LINE
  5
2375
  8
KL
 10
23559.342731619028
 20
1012.256689100227
 30
0.0
 11
23559.342731618912
 21
454.75668910022699
 31
0.0
  0
LINE
  5
2376
  8
CT
 10
23293.842731618912
 20
425.8065731002834
 30
0.0
 11
23293.842731619039
 21
1057.5171631961409
 31
0.0
  0
LINE
  5
2377
  8
KL
 10
23814.342731618912
 20
494.7566891001706
 30
0.0
 11
23814.342731619021
 21
954.75668910017055
 31
0.0
  0
LINE
  5
2378
  8
KL
 10
23754.342731619028
 20
1012.2566891001831
 30
0.0
 11
23754.342731618912
 21
454.75668910018328
 31
0.0
  0
LINE
  5
2379
  8
KL
 10
23549.342731618912
 20
454.70774910022828
 30
0.0
 11
23538.842731618912
 21
454.70774910022999
 31
0.0
  0
LINE
  5
237C
  8
KL
 10
23168.842731618912
 20
444.75668910031061
 30
0.0
 11
23597.842731618912
 21
444.7566891002179
 31
0.0
  0
ARC
  5
237D
  8
KL
 10
22936.677432618919
 20
497.56412410035858
 30
0.0
 40
10.0
 50
183.0000000000033
 51
225.0000000001105
  0
LINE
  5
237E
  8
KL
 10
22926.691136618909
 20
497.04076510036163
 30
0.0
 11
22924.577393618922
 21
537.37339210036134
 31
0.0
  0
LINE
  5
237F
  8
KL
 10
22904.34273161893
 20
537.3733921003668
 30
0.0
 11
22958.34273161893
 21
537.37339210035395
 31
0.0
  0
LINE
  5
2380
  8
KL
 10
23133.342731618912
 20
474.756689100318
 30
0.0
 11
23053.342731618912
 21
474.75668910033431
 31
0.0
  0
LINE
  5
2381
  8
KL
 10
23048.842731618912
 20
444.75668910033608
 30
0.0
 11
23168.842731618912
 21
444.75668910031061
 31
0.0
  0
LINE
  5
2383
  8
KL
 10
22988.34273161893
 20
538.17794810034775
 30
0.0
 11
23153.34273161893
 21
538.17794810031319
 31
0.0
  0
LINE
  5
2384
  8
KL
 10
23168.842731618912
 20
444.75668910031061
 30
0.0
 11
22989.842731618912
 21
444.75668910034881
 31
0.0
  0
ARC
  5
238A
  8
KL
 10
22956.542901618908
 20
477.69865510035652
 30
0.0
 40
10.0
 50
225.0000000001105
 51
267.99999999999602
  0
LINE
  5
238B
  8
KL
 10
22998.342731618912
 20
494.7566891003471
 30
0.0
 11
22998.342731618912
 21
492.89225710034668
 31
0.0
  0
LINE
  5
238C
  8
KL
 10
22998.342731618912
 20
494.7566891003471
 30
0.0
 11
22988.342731618919
 21
494.75668910034881
 31
0.0
  0
ARC
  5
238D
  8
KL
 10
23053.842731618912
 20
469.75668910033443
 30
0.0
 40
5.0
 50
90.0
 51
180.0
  0
LINE
  5
238E
  8
KL
 10
23038.342731618912
 20
454.70774910033742
 30
0.0
 11
23048.842731618912
 21
454.7077491003356
 31
0.0
  0
LINE
  5
238F
  8
KL
 10
23008.342731618912
 20
458.527858100343
 30
0.0
 11
23038.342731618912
 21
454.70774910033742
 31
0.0
  0
LINE
  5
2390
  8
KL
 10
22998.342731618912
 20
492.89225710034668
 30
0.0
 11
23008.342731618912
 21
458.527858100343
 31
0.0
  0
LINE
  5
2391
  8
KL
 10
22956.193906618912
 20
467.70474710035609
 30
0.0
 11
22988.342731618912
 21
466.75668910034892
 31
0.0
  0
LINE
  5
2393
  8
KL
 10
23048.842731618912
 20
469.75668910033608
 30
0.0
 11
23048.842731618912
 21
444.75668910033608
 31
0.0
  0
LINE
  5
2394
  8
KL
 10
22989.842731618912
 20
444.75668910034881
 30
0.0
 11
22989.84273161889
 21
381.51691996838872
 31
0.0
  0
ARC
  5
2398
  8
KL
 10
23133.342731618912
 20
494.75668910031789
 30
0.0
 40
20.0
 50
270.0
 51
0.0
  0
LINE
  5
2399
  8
KL
 10
23173.842731618912
 20
454.75668910030879
 30
0.0
 11
23293.842731618912
 21
454.75668910028338
 31
0.0
  0
ARC
  5
239B
  8
KL
 10
23173.842731618912
 20
449.7566891003089
 30
0.0
 40
5.0
 50
90.0
 51
180.0
  0
LINE
  5
239C
  8
KL
 10
23084.342731618912
 20
478.51706110032592
 30
0.0
 11
23084.342731618901
 21
441.83152110032728
 31
0.0
  0
ARC
  5
239D
  8
KL
 10
23454.342731618919
 20
494.75668910024882
 30
0.0
 40
20.0
 50
180.0
 51
270.0
  0
ARC
  5
239E
  8
KL
 10
23533.842731618912
 20
469.75668910023057
 30
0.0
 40
5.0
 50
0.0
 51
90.0
  0
LINE
  5
239F
  8
KL
 10
23454.342731618912
 20
474.75668910024882
 30
0.0
 11
23534.342731618912
 21
474.75668910023057
 31
0.0
  0
LINE
  5
23A0
  8
KL
 10
23418.842731618912
 20
449.7566891002561
 30
0.0
 11
23418.842731618912
 21
444.7566891002561
 31
0.0
  0
LINE
  5
23A1
  8
KL
 10
23539.342731618912
 20
444.75668910023057
 30
0.0
 11
23418.842731618912
 21
444.7566891002561
 31
0.0
  0
LINE
  5
23A2
  8
KL
 10
23538.842731618912
 20
469.75668910023057
 30
0.0
 11
23538.842731618912
 21
444.75668910023057
 31
0.0
  0
LINE
  5
23A3
  8
KL
 10
23503.342731618912
 20
478.51706110023667
 30
0.0
 11
23503.342731618912
 21
441.83152110023821
 31
0.0
  0
ARC
  5
23A4
  8
KL
 10
23413.842731618912
 20
449.75668910025797
 30
0.0
 40
5.0
 50
0.0
 51
90.0
  0
LINE
  5
23A5
  8
KL
 10
23413.842731618912
 20
454.75668910025792
 30
0.0
 11
23293.842731618912
 21
454.75668910028338
 31
0.0
  0
LINE
  5
23A6
  8
KL
 10
22949.4718336189
 20
470.62758810035569
 30
0.0
 11
22929.60636461891
 21
490.49305610036112
 31
0.0
  0
LINE
  5
23A7
  8
KL
 10
23772.60360161891
 20
454.7566891001797
 30
0.0
 11
23559.342731618912
 21
454.75668910022699
 31
0.0
  0
LINE
  5
23A8
  8
KL
 10
23597.842731618912
 20
444.7566891002179
 30
0.0
 11
23597.842731618879
 21
381.57298975334652
 31
0.0
  0
LINE
  5
23A9
  8
KL
 10
23772.60360161891
 20
454.7566891001797
 30
0.0
 11
23814.342731618912
 21
494.7566891001706
 31
0.0
  0
LINE
  5
23AA
  8
KL
 10
23559.342731618912
 20
455.98111910022538
 30
0.0
 11
23549.342731618912
 21
454.70774910022828
 31
0.0
  0
LINE
  5
23AB
  8
KL
 10
23293.842731619028
 20
1010.570766100282
 30
0.0
 11
23549.342731619028
 21
1010.570766100227
 31
0.0
  0
LINE
  5
23AC
  8
KL
 10
23549.342731619028
 20
1014.756689100228
 30
0.0
 11
23238.342731619028
 21
1014.7566891002959
 31
0.0
  0
CIRCLE
  5
23AE
  8
KL
 10
23108.342731619061
 20
1149.756689100323
 30
0.0
 40
59.0
  0
LINE
  5
23AF
  8
KL
 10
22981.742755619031
 20
1041.35663810035
 30
0.0
 11
22981.742755619081
 21
1236.22804810035
 31
0.0
  0
LINE
  5
23B0
  8
KL
 10
22963.342731619039
 20
1060.698622100354
 30
0.0
 11
22963.342731619079
 21
1245.4219421003529
 31
0.0
  0
LINE
  5
23B1
  8
CT
 10
23108.342731619079
 20
1219.3383391003231
 30
0.0
 11
23108.342731619039
 21
1076.1935331003231
 31
0.0
  0
LINE
  5
23B2
  8
KL
 10
23234.942737619069
 20
1236.2280481002949
 30
0.0
 11
23234.942737619029
 21
1041.3566801002951
 31
0.0
  0
LINE
  5
23B3
  8
KL
 10
23253.342731619079
 20
1245.4219421002911
 30
0.0
 11
23253.342731619039
 21
1060.6986221002919
 31
0.0
  0
LINE
  5
23B4
  8
FUTO
 10
22910.842731619028
 20
1012.256689100365
 30
0.0
 11
22910.84273161897
 21
727.75668910036529
 31
0.0
  0
LINE
  5
23B5
  8
KL
 10
23010.842731619028
 20
1012.256689100343
 30
0.0
 11
23010.84273161897
 21
727.75668910034335
 31
0.0
  0
LINE
  5
23B6
  8
CT
 10
22511.637719412462
 20
724.75668910047079
 30
0.0
 11
23873.01408855899
 21
724.75668910005595
 31
0.0
  0
LINE
  5
23B7
  8
KL
 10
22910.84273161897
 20
727.75668910036529
 30
0.0
 11
23010.84273161897
 21
727.75668910034335
 31
0.0
  0
LINE
  5
23B8
  8
KL
 10
22988.342731618952
 20
615.15513810034918
 30
0.0
 11
22904.342731618941
 21
615.15513810036725
 31
0.0
  0
LINE
  5
23B9
  8
FUTO
 10
22724.342731618959
 20
682.2566891004052
 30
0.0
 11
22724.342731618981
 21
772.25668910040531
 31
0.0
  0
ARC
  5
23BA
  8
FUTO
 10
22906.342731618988
 20
810.25668910036723
 30
0.0
 40
2.0
 50
90.0
 51
180.0
  0
LINE
  5
23BB
  8
FUTO
 10
22910.842731618988
 20
812.25668910036529
 30
0.0
 11
22906.342731618988
 21
812.25668910036711
 31
0.0
  0
LINE
  5
23BC
  8
FUTO
 10
22864.342731618981
 20
767.25668910037621
 30
0.0
 11
22864.342731618981
 21
772.25668910037609
 31
0.0
  0
LINE
  5
23BD
  8
FUTO
 10
22894.342731618981
 20
774.75668910036893
 30
0.0
 11
22904.342731618981
 21
774.75668910036711
 31
0.0
  0
LINE
  5
23BE
  8
FUTO
 10
22894.342731618959
 20
674.75668910036893
 30
0.0
 11
22904.342731618959
 21
674.75668910036711
 31
0.0
  0
ARC
  5
23BF
  8
FUTO
 10
22906.342731618952
 20
639.25668910036711
 30
0.0
 40
2.0
 50
180.0
 51
270.0
  0
LINE
  5
23C0
  8
FUTO
 10
22911.191106618939
 20
637.25668910036529
 30
0.0
 11
22906.342731618952
 21
637.25668910036711
 31
0.0
  0
LINE
  5
23C1
  8
KL
 10
22909.342731618952
 20
622.22620610036483
 30
0.0
 11
22904.342731618952
 21
622.22620610036665
 31
0.0
  0
LINE
  5
23C3
  8
FUTO
 10
22904.342731618952
 20
639.25668910036711
 30
0.0
 11
22904.342731618988
 21
810.25668910036723
 31
0.0
  0
LINE
  5
23C4
  8
FUTO
 10
22894.342731618959
 20
674.75668910036893
 30
0.0
 11
22894.342731618981
 21
774.75668910036893
 31
0.0
  0
LINE
  5
23C6
  8
FUTO
 10
22724.342731618981
 20
772.25668910040531
 30
0.0
 11
22864.342731618981
 21
772.25668910037609
 31
0.0
  0
LINE
  5
23C7
  8
FUTO
 10
22894.342731618981
 20
767.25668910036893
 30
0.0
 11
22724.342731618981
 21
767.25668910040531
 31
0.0
  0
LINE
  5
23C8
  8
FUTO
 10
22724.342731618959
 20
682.2566891004052
 30
0.0
 11
22894.342731618959
 21
682.25668910036893
 31
0.0
  0
ARC
  5
23CD
  8
KL
 10
23439.342731618941
 20
574.22872610025206
 30
0.0
 40
5.0
 50
90.0
 51
180.0
  0
LINE
  5
23CE
  8
KL
 10
22910.842731619028
 20
1012.256689100365
 30
0.0
 11
23010.842731619028
 21
1012.256689100343
 31
0.0
  0
LINE
  5
23CF
  8
KL
 10
23223.342731619039
 20
1059.756689100298
 30
0.0
 11
22993.342731619039
 21
1059.7566891003471
 31
0.0
  0
LINE
  5
23D0
  8
CT
 10
23014.861690619051
 20
1149.756689100343
 30
0.0
 11
23194.785058619051
 21
1149.756689100305
 31
0.0
  0
LINE
  5
23D1
  8
KL
 10
23223.342731619028
 20
1029.756689100298
 30
0.0
 11
22993.342731619039
 21
1029.7566891003471
 31
0.0
  0
LINE
  5
23D2
  8
KL
 10
23293.842731619028
 20
1010.570766100282
 30
0.0
 11
23038.342731619028
 21
1010.570766100337
 31
0.0
  0
LINE
  5
23D3
  8
KL
 10
23028.342731619039
 20
1019.7566891003401
 30
0.0
 11
23188.342731619039
 21
1019.756689100305
 31
0.0
  0
LINE
  5
23D4
  8
KL
 10
22981.742755619041
 20
1060.6986221003499
 30
0.0
 11
22963.342731619039
 21
1060.698622100354
 31
0.0
  0
ARC
  5
23D5
  8
KL
 10
22993.342609619041
 20
1071.356577100345
 30
0.0
 40
11.599888
 50
179.99945399997631
 51
270.0006100000092
  0
LINE
  5
23D6
  8
KL
 10
23023.48582361903
 20
1000.985294100342
 30
0.0
 11
23028.342731619028
 21
1009.397705100339
 31
0.0
  0
LINE
  5
23D7
  8
KL
 10
23038.342731619028
 20
1010.570766100337
 30
0.0
 11
23010.842731619028
 21
992.82814610034336
 31
0.0
  0
LINE
  5
23D8
  8
KL
 10
23027.11530361903
 20
1007.2717371003411
 30
0.0
 11
23010.842731619028
 21
996.42335610034297
 31
0.0
  0
LINE
  5
23D9
  8
KL
 10
23028.342731619028
 20
1009.397705100339
 30
0.0
 11
23028.342731619039
 21
1029.7566891003401
 31
0.0
  0
ARC
  5
23DA
  8
KL
 10
22993.342731619039
 20
1041.3566381003459
 30
0.0
 40
11.599949000000001
 50
179.9997550000013
 51
270.0
  0
LINE
  5
23DB
  8
KL
 10
23188.342731619039
 20
1029.756689100305
 30
0.0
 11
23188.342731619028
 21
1010.570766100304
 31
0.0
  0
ARC
  5
23DC
  8
KL
 10
23223.342762619039
 20
1071.3566651002971
 30
0.0
 40
11.599976
 50
269.99984700005228
 51
0.0001069999742915
  0
LINE
  5
23DD
  8
KL
 10
23234.942737619029
 20
1060.698622100296
 30
0.0
 11
23253.342731619039
 21
1060.6986221002919
 31
0.0
  0
ARC
  5
23DE
  8
KL
 10
23223.342731619039
 20
1041.3566861002971
 30
0.0
 40
11.600006
 50
270.0
 51
0.0000150000275647
  0
LINE
  5
23DF
  8
KL
 10
23238.342731619028
 20
1014.7566891002959
 30
0.0
 11
23234.156808619031
 21
1010.570766100295
 31
0.0
  0
LINE
  5
23E0
  8
KL
 10
22963.342731619079
 20
1245.4219421003529
 30
0.0
 11
23253.342731619079
 21
1245.4219421002911
 31
0.0
  0
LINE
  5
23E1
  8
KL
 10
22981.742755619081
 20
1236.22804810035
 30
0.0
 11
23234.942737619069
 21
1236.2280481002949
 31
0.0
  0
LINE
  5
23E2
  8
KL
 10
23223.34273161909
 20
1277.814840100297
 30
0.0
 11
22993.34273161909
 21
1277.8148401003459
 31
0.0
  0
ARC
  5
23E3
  8
KL
 10
22993.34273161909
 20
1266.214895100346
 30
0.0
 40
11.599976
 50
90.0
 51
180.0003050000046
  0
LINE
  5
23E4
  8
KL
 10
22981.742755619081
 20
1245.42194210035
 30
0.0
 11
22981.742755619081
 21
1266.214834100349
 31
0.0
  0
ARC
  5
23E5
  8
KL
 10
23223.34273161909
 20
1266.214850100296
 30
0.0
 40
11.599990999999999
 50
359.99992399997137
 51
90.0
  0
LINE
  5
23E6
  8
KL
 10
23234.94273761908
 20
1266.2148341002951
 30
0.0
 11
23234.942737619069
 21
1245.4219421002949
 31
0.0
  0
LINE
  5
23E8
  8
KL
 10
23559.342731619028
 20
1012.256689100227
 30
0.0
 11
23754.342731619028
 21
1012.2566891001831
 31
0.0
  0
LINE
  5
23E9
  8
KL
 10
23754.342731619028
 20
1012.2566891001831
 30
0.0
 11
23814.342731619021
 21
954.75668910017055
 31
0.0
  0
LINE
  5
23EA
  8
KL
 10
23549.342731619028
 20
1014.756689100228
 30
0.0
 11
23559.342731619028
 21
1008.0900231002259
 31
0.0
  0
LINE
  5
23EB
  8
KL
 10
23549.342731619028
 20
1010.570766100227
 30
0.0
 11
23559.342731619028
 21
1004.118904100224
 31
0.0
  0
LINE
  5
2519
  8
SL
 10
17527.803122048099
 20
5363.5457743905718
 30
0.0
 11
17527.803122048099
 21
6050.9247079290481
 31
0.0
  0
LINE
  5
251A
  8
FUTO
 10
17427.803122048099
 20
6830.5457743905708
 30
0.0
 11
17427.803122048099
 21
6905.5457743905718
 31
0.0
  0
LINE
  5
251B
  8
FUTO
 10
17602.803122048099
 20
6267.3457743905037
 30
0.0
 11
17602.803122048099
 21
6830.5457743905708
 31
0.0
  0
LINE
  5
251C
  8
FUTO
 10
17527.803122048099
 20
6050.9247079290481
 30
0.0
 11
17527.803122048099
 21
6830.5457743905708
 31
0.0
  0
LINE
  5
251D
  8
SL
 10
18052.803122048099
 20
5363.5457743905708
 30
0.0
 11
18052.803122048099
 21
6267.3457743905028
 31
0.0
  0
LINE
  5
251E
  8
SL
 10
18127.803122048092
 20
5363.5457743905699
 30
0.0
 11
18127.803122048099
 21
6050.9247079290481
 31
0.0
  0
LINE
  5
251F
  8
FUTO
 10
18127.803122048099
 20
6050.9247079290481
 30
0.0
 11
18127.803122048099
 21
6830.5457743905708
 31
0.0
  0
LINE
  5
2520
  8
FUTO
 10
18052.803122048099
 20
6267.3457743905028
 30
0.0
 11
18052.803122048099
 21
6830.5457743905708
 31
0.0
  0
LINE
  5
2521
  8
FUTO
 10
17941.803122048092
 20
6905.5457743905718
 30
0.0
 11
17941.803122048092
 21
8413.5457743905772
 31
0.0
  0
LINE
  5
2522
  8
FUTO
 10
17891.803122048092
 20
6855.5457743905718
 30
0.0
 11
17891.803122048092
 21
8463.545774390579
 31
0.0
  0
LINE
  5
2523
  8
FUTO
 10
20877.803122048092
 20
8463.5457743905772
 30
0.0
 11
17891.803122048092
 21
8463.5457743905772
 31
0.0
  0
LINE
  5
2524
  8
FUTO
 10
20877.803122048092
 20
6855.5457743905736
 30
0.0
 11
17891.803122048092
 21
6855.5457743905718
 31
0.0
  0
LINE
  5
2525
  8
FUTO
 10
17891.803122048092
 20
6905.5457743905718
 30
0.0
 11
17427.803122048099
 21
6905.5457743905718
 31
0.0
  0
DIMENSION
  5
253A
  8
SP
  2
*D19
 10
20952.80312204947
 20
9101.4418624533755
 30
0.0
 11
20315.303122048779
 21
9191.4418624533755
 31
0.0
 70
     0
 13
19677.803122048099
 23
8818.1641548246207
 33
0.0
 14
20952.80312204947
 24
8488.5457743905772
 34
0.0
1001
ACAD
1000
DSTYLE
1002
{
1070
   287
1070
     3
1070
    40
1040
45.0
1070
   140
1040
3.0
1070
   147
1040
0.5
1070
   173
1070
     1
1070
   279
1070
     0
1070
   341
1005
24
1070
     6
1000
OPEN
1070
     7
1000
OPEN
1002
}
  0
DIMENSION
  5
2555
  8
SP
  2
*D20
 10
21518.806542702219
 20
7659.5457743905736
 30
0.0
 11
21428.806542702219
 21
8112.0457743905781
 31
0.0
 70
     0
 13
20752.803122048092
 23
8564.5457743905736
 33
0.0
 14
21173.70983373027
 24
7659.5457743905736
 34
0.0
 50
90.0
1001
ACAD
1000
DSTYLE
1002
{
1070
   287
1070
     3
1070
    40
1040
45.0
1070
   140
1040
3.0
1070
   147
1040
0.5
1070
   173
1070
     1
1070
   279
1070
     0
1070
   341
1005
24
1070
     6
1000
OPEN
1070
     7
1000
OPEN
1002
}
  0
DIMENSION
  5
2562
  8
SP
  2
*D21
 10
21518.806542702219
 20
5059.5457743905781
 30
0.0
 11
21428.806542702219
 21
6359.5457743905781
 31
0.0
 70
     0
 13
21173.70983373027
 23
7659.5457743905736
 33
0.0
 14
20157.803122048092
 24
5059.5457743905781
 34
0.0
 50
90.0
1001
ACAD
1000
DSTYLE
1002
{
1070
   287
1070
     3
1070
    40
1040
45.0
1070
   140
1040
3.0
1070
   147
1040
0.5
1070
   173
1070
     1
1070
   279
1070
     0
1070
   341
1005
24
1070
     6
1000
OPEN
1070
     7
1000
OPEN
1002
}
  0
LINE
  5
2599
  8
KL
 10
20077.083054030609
 20
1408.344347201549
 30
0.0
 11
20027.389926525539
 21
1534.7566891004151
 31
0.0
  0
LINE
  5
259A
  8
KL
 10
19088.156655952331
 20
924.0786025275097
 30
0.0
 11
19328.216317570648
 21
1534.7566891004151
 31
0.0
  0
LINE
  5
259B
  8
KL
 10
18536.803122048099
 20
705.08649335611153
 30
0.0
 11
18536.803122048099
 21
1512.65600531773
 31
0.0
  0
LINE
  5
259C
  8
KL
 10
18527.803122048092
 20
765.50361923306264
 30
0.0
 11
18527.803122048092
 21
1506.878165412923
 31
0.0
  0
LINE
  5
259D
  8
KL
 10
18518.803122048092
 20
697.93707338745344
 30
0.0
 11
18518.803122048092
 21
1501.1003255081171
 31
0.0
  0
LINE
  5
259E
  8
FUTO
 10
18518.803122048092
 20
1501.1003255081171
 30
0.0
 11
18518.803122048092
 21
1665.7566891004151
 31
0.0
  0
LINE
  5
259F
  8
FUTO
 10
18527.803122048092
 20
1506.878165412923
 30
0.0
 11
18527.803122048092
 21
1665.7566891004151
 31
0.0
  0
LINE
  5
25A0
  8
FUTO
 10
18536.803122048099
 20
1512.65600531773
 30
0.0
 11
18536.803122048099
 21
1665.7566891004151
 31
0.0
  0
LINE
  5
25A1
  8
FUTO
 10
18803.322475199981
 20
1683.7566891004151
 30
0.0
 11
17882.570128809581
 21
1683.7566891004151
 31
0.0
  0
LINE
  5
25A2
  8
FUTO
 10
18789.303395174491
 20
1674.7566891004151
 30
0.0
 11
17882.570128809581
 21
1674.7566891004151
 31
0.0
  0
LINE
  5
25A3
  8
FUTO
 10
18775.284315148991
 20
1665.7566891004151
 30
0.0
 11
17882.570128809581
 21
1665.7566891004151
 31
0.0
  0
LINE
  5
25A5
  8
KL
 10
20157.249572916739
 20
1651.711065883489
 30
0.0
 11
19877.957898717072
 21
1670.390297387343
 31
0.0
  0
LINE
  5
25A6
  8
KL
 10
20156.733182376462
 20
1642.725496274265
 30
0.0
 11
19877.357313851579
 21
1661.4103587561849
 31
0.0
  0
LINE
  5
25A7
  8
KL
 10
20156.04840318576
 20
1633.7511886211751
 30
0.0
 11
19876.756728986089
 21
1652.4304201250279
 31
0.0
  0
INSERT
  5
2632
  8
FUTO
  2
まっすぐの矢印
 10
21325.927791227201
 20
7334.0867574370104
 30
0.0
 41
40.0
 42
40.0
 43
40.0
 50
270.0
  0
DIMENSION
  5
265C
  8
SP
  2
*D22
 10
26111.542731618971
 20
4314.894121657162
 30
0.0
 11
25659.042731618971
 21
4404.894121657162
 31
0.0
 70
     0
 13
25206.542731618971
 23
4243.9344583351522
 33
0.0
 14
26111.542731618971
 24
2749.7566891004149
 34
0.0
1001
ACAD
1000
DSTYLE
1002
{
1070
   287
1070
     3
1070
    40
1040
45.0
1070
   140
1040
3.0
1070
   147
1040
0.5
1070
   173
1070
     1
1070
   279
1070
     0
1070
   341
1005
24
1070
     6
1000
OPEN
1070
     7
1000
OPEN
1002
}
  0
DIMENSION
  5
2698
  8
SP
  2
*D23
 10
19677.803122048099
 20
9101.4418624533755
 30
0.0
 11
18552.803122048099
 21
9191.4418624533755
 31
0.0
 70
     0
 13
17427.803122048099
 23
6905.5457743905718
 33
0.0
 14
19677.803122048099
 24
8818.1641548246207
 34
0.0
1001
ACAD
1000
DSTYLE
1002
{
1070
   287
1070
     3
1070
    40
1040
45.0
1070
   140
1040
3.0
1070
   147
1040
0.5
1070
   173
1070
     1
1070
   279
1070
     0
1070
   341
1005
24
1070
     6
1000
OPEN
1070
     7
1000
OPEN
1002
}
  0
LINE
  5
2C43
  8
4
 10
26455.16085578172
 20
-1551.493410538867
 30
0.0
 11
26455.16085578172
 21
-2751.493410538867
 31
0.0
  0
LINE
  5
2C44
  8
4
 10
22255.16085578172
 20
-1551.493410538867
 30
0.0
 11
22255.160855781709
 21
-2751.493410538867
 31
0.0
  0
LINE
  5
2C45
  8
4
 10
19255.16085578172
 20
-1551.493410538867
 30
0.0
 11
19255.16085578172
 21
-2751.493410538867
 31
0.0
  0
LINE
  5
2C48
  8
4
 10
19255.16085578172
 20
-2751.493410538867
 30
0.0
 11
26455.16085578172
 21
-2751.493410538867
 31
0.0
  0
LINE
  5
2C49
  8
4
 10
19255.16085578172
 20
-2151.493410538867
 30
0.0
 11
26455.16085578172
 21
-2151.493410538867
 31
0.0
  0
TEXT
  5
2C4A
  8
4
 10
19486.173340863141
 20
-1962.23525533919
 30
0.0
 40
300.0
  1
機器名称
  0
TEXT
  5
2C4B
  8
4
 10
19472.709491930509
 20
-2621.6224701468009
 30
0.0
 40
300.0
  1
機器型番
  0
TEXT
  5
2C4C
  8
4
 10
22283.919225987978
 20
-2018.369596397187
 30
0.0
 40
270.0
  1
ミツヤリミットロードファン
  0
TEXT
  5
2C4D
  8
4
 10
22475.087829294611
 20
-2648.5359048592072
 30
0.0
 40
300.0
  1
LL#12-1
  0
TEXT
  5
2C4F
  8
4
 10
17252.166415758398
 20
10651.79244665692
 30
0.0
 40
432.0
  1
遠心式片吸込片持リミットロードファン
  0
LINE
  5
2C50
  8
4
 10
16855.16085578172
 20
10264.95911504996
 30
0.0
 11
26455.16085578172
 21
10264.95911504996
 31
0.0
  0
LINE
  5
2C51
  8
4
 10
16855.16085578172
 20
11464.95911504996
 30
0.0
 11
26455.16085578172
 21
11464.95911504996
 31
0.0
  0
LINE
  5
2C52
  8
4
 10
19255.16085578172
 20
-1551.493410538867
 30
0.0
 11
26455.16085578172
 21
-1551.493410538867
 31
0.0
  0
LINE
  5
2C53
  8
4
 10
16855.16085578172
 20
11464.95911504996
 30
0.0
 11
16855.16085578172
 21
10264.95911504996
 31
0.0
  0
TEXT
  5
2C54
  8
4
 10
24168.97821127747
 20
11684.87307843298
 30
0.0
 40
336.00000000000011
  1
No.
  0
TEXT
  5
2C55
  8
4
 10
24254.231826663388
 20
9101.3076931035412
 30
0.0
 40
323.99999999999989
  1
縮尺：1/60
  0
LINE
  5
2C56
  8
4
 10
26455.16085578172
 20
11464.95911504996
 30
0.0
 11
26455.16085578172
 21
10264.95911504996
 31
0.0
  0
LINE
  5
2C57
  8
4
 10
27955.16085578172
 20
13148.506589461131
 30
0.0
 11
27955.16085578172
 21
13148.506589461131
 31
0.0
  0
LINE
  5
2C58
  8
4
 10
23998.865389940911
 20
11536.08808821353
 30
0.0
 11
23998.865389940911
 21
12168.42015875964
 31
0.0
  0
LINE
  5
2C59
  8
4
 10
23998.865389940911
 20
12168.42015875964
 30
0.0
 11
26455.16085578172
 21
12168.42015875964
 31
0.0
  0
LINE
  5
2C5A
  8
4
 10
26455.16085578172
 20
12168.42015875964
 30
0.0
 11
26455.16085578172
 21
11536.08808821353
 31
0.0
  0
LINE
  5
2C5B
  8
4
 10
26455.16085578172
 20
11536.08808821353
 30
0.0
 11
23998.865389940911
 21
11536.08808821353
 31
0.0
  0
LINE
  5
2C5C
  8
4
 10
15355.16085578172
 20
-4551.4934105388666
 30
0.0
 11
15355.16085578172
 21
13148.506589461131
 31
0.0
  0
LINE
  5
2C5D
  8
4
 10
15355.16085578172
 20
13148.506589461131
 30
0.0
 11
27955.16085578172
 21
13148.506589461131
 31
0.0
  0
LINE
  5
2C5E
  8
4
 10
27955.16085578172
 20
13148.506589461131
 30
0.0
 11
27955.16085578172
 21
-4551.4934105388666
 31
0.0
  0
LINE
  5
2C5F
  8
4
 10
27955.16085578172
 20
-4551.4934105388666
 30
0.0
 11
15355.16085578172
 21
-4551.4934105388666
 31
0.0
  0
TEXT
  5
2C60
  8
4
 10
20303.977931828518
 20
9709.0691167184559
 30
0.0
 40
323.99999999999989
  1
床置防振ベット
  0
TEXT
  5
2C61
  8
4
 10
17135.87148103433
 20
9727.5782540684359
 30
0.0
 40
323.99999999999989
  1
右回転右横向
  0
ENDSEC
  0
EOF
