  0
SECTION
  2
HEADER
  9
$ACADVER
  1
AC1009
  9
$INSBASE
 10
0.0
 20
0.0
 30
0.0
  9
$EXTMIN
 10
16338.26712634967
 20
-6228.7308408302533
 30
0.0
  9
$EXTMAX
 10
28938.26712634967
 20
11471.26915916974
 30
0.0
  9
$LIMMIN
 10
0.0
 20
0.0
  9
$LIMMAX
 10
297.0
 20
210.0
  9
$ORTHOMODE
 70
     0
  9
$REGENMODE
 70
     1
  9
$FILLMODE
 70
     1
  9
$QTEXTMODE
 70
     0
  9
$MIRRTEXT
 70
     0
  9
$DRAGMODE
 70
     2
  9
$LTSCALE
 40
225.0
  9
$OSMODE
 70
    37
  9
$ATTMODE
 70
     1
  9
$TEXTSIZE
 40
120.0
  9
$TRACEWID
 40
0.05
  9
$TEXTSTYLE
  7
STANDARD
  9
$CLAYER
  8
SP
  9
$CELTYPE
  6
BYLAYER
  9
$CECOLOR
 62
   256
  9
$DIMSCALE
 40
45.0
  9
$DIMASZ
 40
2.0
  9
$DIMEXO
 40
1.0
  9
$DIMDLI
 40
10.0
  9
$DIMRND
 40
0.0
  9
$DIMDLE
 40
0.0
  9
$DIMEXE
 40
1.0
  9
$DIMTP
 40
0.0
  9
$DIMTM
 40
0.0
  9
$DIMTXT
 40
3.0
  9
$DIMCEN
 40
0.0
  9
$DIMTSZ
 40
0.0
  9
$DIMTOL
 70
     0
  9
$DIMLIM
 70
     0
  9
$DIMTIH
 70
     0
  9
$DIMTOH
 70
     0
  9
$DIMSE1
 70
     0
  9
$DIMSE2
 70
     0
  9
$DIMTAD
 70
     1
  9
$DIMZIN
 70
     8
  9
$DIMBLK
  1

  9
$DIMASO
 70
     1
  9
$DIMSHO
 70
     1
  9
$DIMPOST
  1

  9
$DIMAPOST
  1

  9
$DIMALT
 70
     0
  9
$DIMALTD
 70
     2
  9
$DIMALTF
 40
25.399999999999999
  9
$DIMLFAC
 40
1.0
  9
$DIMTOFL
 70
     1
  9
$DIMTVP
 40
0.0
  9
$DIMTIX
 70
     0
  9
$DIMSOXD
 70
     0
  9
$DIMSAH
 70
     1
  9
$DIMBLK1
  1
OPEN
  9
$DIMBLK2
  1
OPEN
  9
$DIMSTYLE
  2
DIA1
  9
$DIMCLRD
 70
     2
  9
$DIMCLRE
 70
     2
  9
$DIMCLRT
 70
     2
  9
$DIMTFAC
 40
1.0
  9
$DIMGAP
 40
0.5
  9
$LUNITS
 70
     2
  9
$LUPREC
 70
     3
  9
$SKETCHINC
 40
0.1
  9
$FILLETRAD
 40
10.0
  9
$AUNITS
 70
     0
  9
$AUPREC
 70
     2
  9
$MENU
  1
acad
  9
$ELEVATION
 40
0.0
  9
$PELEVATION
 40
0.0
  9
$THICKNESS
 40
0.0
  9
$LIMCHECK
 70
     0
  9
$BLIPMODE
 70
     0
  9
$CHAMFERA
 40
10.0
  9
$CHAMFERB
 40
10.0
  9
$SKPOLY
 70
     0
  9
$TDCREATE
 40
2451270.426261805
  9
$TDUPDATE
 40
2454953.6371428231
  9
$TDINDWG
 40
0.8555292477000001
  9
$TDUSRTIMER
 40
0.8555292477000001
  9
$USRTIMER
 70
     1
  9
$ANGBASE
 50
0.0
  9
$ANGDIR
 70
     0
  9
$PDMODE
 70
     0
  9
$PDSIZE
 40
1.0
  9
$PLINEWID
 40
0.0
  9
$COORDS
 70
     1
  9
$SPLFRAME
 70
     0
  9
$SPLINETYPE
 70
     6
  9
$SPLINESEGS
 70
     8
  9
$ATTDIA
 70
     0
  9
$ATTREQ
 70
     1
  9
$HANDLING
 70
 10241
  9
$HANDSEED
  5
351B
  9
$SURFTAB1
 70
     6
  9
$SURFTAB2
 70
     6
  9
$SURFTYPE
 70
     6
  9
$SURFU
 70
     6
  9
$SURFV
 70
     6
  9
$UCSNAME
  2

  9
$UCSORG
 10
0.0
 20
0.0
 30
0.0
  9
$UCSXDIR
 10
1.0
 20
0.0
 30
0.0
  9
$UCSYDIR
 10
0.0
 20
1.0
 30
0.0
  9
$PUCSNAME
  2

  9
$PUCSORG
 10
0.0
 20
0.0
 30
0.0
  9
$PUCSXDIR
 10
1.0
 20
0.0
 30
0.0
  9
$PUCSYDIR
 10
0.0
 20
1.0
 30
0.0
  9
$USERI1
 70
     0
  9
$USERI2
 70
     0
  9
$USERI3
 70
     0
  9
$USERI4
 70
     0
  9
$USERI5
 70
     0
  9
$USERR1
 40
0.0
  9
$USERR2
 40
0.0
  9
$USERR3
 40
0.0
  9
$USERR4
 40
0.0
  9
$USERR5
 40
0.0
  9
$WORLDVIEW
 70
     1
  9
$SHADEDGE
 70
     3
  9
$SHADEDIF
 70
    70
  9
$TILEMODE
 70
     1
  9
$MAXACTVP
 70
    16
  9
$PLIMCHECK
 70
     0
  9
$PEXTMIN
 10
1.0000000000000000E+020
 20
1.0000000000000000E+020
 30
1.0000000000000000E+020
  9
$PEXTMAX
 10
-1.0000000000000000E+020
 20
-1.0000000000000000E+020
 30
-1.0000000000000000E+020
  9
$PLIMMIN
 10
0.0
 20
0.0
  9
$PLIMMAX
 10
12.0
 20
9.0
  9
$UNITMODE
 70
     0
  9
$VISRETAIN
 70
     0
  9
$PLINEGEN
 70
     0
  9
$PSLTSCALE
 70
     0
  0
ENDSEC
  0
SECTION
  2
TABLES
  0
TABLE
  2
VPORT
 70
     2
  0
VPORT
  2
*ACTIVE
 70
     0
 10
0.0
 20
0.0
 11
1.0
 21
1.0
 12
28498.096298574299
 22
-4260.4269125803112
 13
0.0
 23
0.0
 14
5.0
 24
5.0
 15
0.0
 25
0.0
 16
0.0
 26
0.0
 36
1.0
 17
0.0
 27
0.0
 37
0.0
 40
5817.000279107674
 41
3.1666666666666661
 42
50.0
 43
0.0
 44
0.0
 50
0.0
 51
0.0
 71
     0
 72
   100
 73
     1
 74
     0
 75
     0
 76
     0
 77
     0
 78
     0
  0
ENDTAB
  0
TABLE
  2
LTYPE
 70
     4
  0
LTYPE
  2
CONTINUOUS
 70
     0
  3
Solid line
 72
    65
 73
     0
 40
0.0
  0
LTYPE
  2
CENTER
 70
     0
  3
____ _ ____ _ ____ _ ____ _ ____ _ ____ _ ____ 
 72
    65
 73
     4
 40
2.0
 49
1.25
 49
-0.25
 49
0.25
 49
-0.25
  0
LTYPE
  2
HIDDEN
 70
     0
  3
__ __ __ __ __ __ __ __ __ __ __ __ __ __ __ __
 72
    65
 73
     2
 40
0.375
 49
0.25
 49
-0.125
  0
LTYPE
  2
PHANTOM
 70
     0
  3
______  __  __  ______  __  __  ______  __  __ 
 72
    65
 73
     6
 40
2.5
 49
1.25
 49
-0.25
 49
0.25
 49
-0.25
 49
0.25
 49
-0.25
  0
ENDTAB
  0
TABLE
  2
LAYER
 70
     9
  0
LAYER
  2
0
 70
     0
 62
     7
  6
CONTINUOUS
  0
LAYER
  2
CT
 70
     0
 62
     3
  6
CENTER
  0
LAYER
  2
FUTO
 70
     0
 62
     4
  6
CONTINUOUS
  0
LAYER
  2
HOSO
 70
     0
 62
     7
  6
CONTINUOUS
  0
LAYER
  2
KL
 70
     0
 62
     7
  6
HIDDEN
  0
LAYER
  2
SL
 70
     0
 62
     1
  6
PHANTOM
  0
LAYER
  2
SP
 70
     0
 62
     2
  6
CONTINUOUS
  0
LAYER
  2
DEFPOINTS
 70
     0
 62
     7
  6
CONTINUOUS
  0
LAYER
  2
4
 70
     0
 62
     7
  6
CONTINUOUS
  0
ENDTAB
  0
TABLE
  2
STYLE
 70
     1
  0
STYLE
  2
STANDARD
 70
     0
 40
0.0
 41
1.0
 50
15.0
 71
     0
 42
120.0
  3
C:\Program Files\AutoCAD LT\simplex.shx
  4
C:\Program Files\AutoCAD LT\extfont.shx
  0
ENDTAB
  0
TABLE
  2
VIEW
 70
     0
  0
ENDTAB
  0
TABLE
  2
UCS
 70
     0
  0
ENDTAB
  0
TABLE
  2
APPID
 70
     2
  0
APPID
  2
ACAD
 70
     0
  0
APPID
  2
CONTENTBLOCKICON
 70
     0
  0
ENDTAB
  0
TABLE
  2
DIMSTYLE
 70
     2
  0
DIMSTYLE
  2
DIA1
 70
     0
  3

  4

  5

  6

  7

 40
1.0
 41
2.0
 42
1.0
 43
10.0
 44
1.0
 45
0.0
 46
0.0
 47
0.0
 48
0.0
140
2.5
141
0.0
142
0.0
143
25.399999999999999
144
1.0
145
0.0
146
1.0
147
0.09
 71
     0
 72
     0
 73
     0
 74
     0
 75
     0
 76
     0
 77
     1
 78
     8
170
     0
171
     2
172
     1
173
     0
174
     0
175
     0
176
     2
177
     2
178
     2
  0
DIMSTYLE
  2
STANDARD
 70
     0
  3

  4

  5

  6

  7

 40
1.0
 41
0.18
 42
0.0625
 43
0.38
 44
0.18
 45
0.0
 46
0.0
 47
0.0
 48
0.0
140
0.18
141
0.09
142
0.0
143
25.399999999999999
144
1.0
145
0.0
146
1.0
147
0.09
 71
     0
 72
     0
 73
     1
 74
     1
 75
     0
 76
     0
 77
     0
 78
     0
170
     0
171
     2
172
     0
173
     0
174
     0
175
     0
176
     0
177
     0
178
     0
  0
ENDTAB
  0
ENDSEC
  0
SECTION
  2
BLOCKS
  0
BLOCK
  8
0
  2
$MODEL_SPACE
 70
     0
 10
0.0
 20
0.0
 30
0.0
  3
$MODEL_SPACE
  1

  0
ENDBLK
  5
7
  8
0
  0
BLOCK
 67
     1
  8
0
  2
$PAPER_SPACE
 70
     0
 10
0.0
 20
0.0
 30
0.0
  3
$PAPER_SPACE
  1

  0
ENDBLK
  5
A
 67
     1
  8
0
  0
BLOCK
  8
0
  2
_OPEN
 70
     0
 10
0.0
 20
0.0
 30
0.0
  3
_OPEN
  1

  0
LINE
  5
25
  8
0
  6
BYBLOCK
 62
     0
 10
-1.0
 20
0.1666666666666666
 30
0.0
 11
0.0
 21
0.0
 31
0.0
  0
LINE
  5
26
  8
0
  6
BYBLOCK
 62
     0
 10
0.0
 20
0.0
 30
0.0
 11
-1.0
 21
-0.1666666666666666
 31
0.0
  0
LINE
  5
27
  8
0
  6
BYBLOCK
 62
     0
 10
0.0
 20
0.0
 30
0.0
 11
-1.0
 21
0.0
 31
0.0
  0
ENDBLK
  5
29
  8
0
  0
BLOCK
  8
0
  2
_DOT
 70
     0
 10
0.0
 20
0.0
 30
0.0
  3
_DOT
  1

  0
POLYLINE
  5
16D
  8
0
  6
BYBLOCK
 62
     0
 66
     1
 10
0.0
 20
0.0
 30
0.0
 70
     1
 40
0.25
 41
0.25
  0
VERTEX
  5
34A1
  8
0
  6
BYBLOCK
 62
     0
 10
-0.125
 20
0.0
 30
0.0
 42
1.0
  0
VERTEX
  5
34A2
  8
0
  6
BYBLOCK
 62
     0
 10
0.125
 20
0.0
 30
0.0
 42
1.0
  0
SEQEND
  5
34A3
  8
0
  6
BYBLOCK
 62
     0
  0
LINE
  5
171
  8
0
  6
BYBLOCK
 62
     0
 10
-0.25
 20
0.0
 30
0.0
 11
-1.0
 21
0.0
 31
0.0
  0
ENDBLK
  5
173
  8
0
  0
BLOCK
  8
0
  2
L-75-6
 70
     0
 10
0.0
 20
0.0
 30
0.0
  3
L-75-6
  1

  0
LINE
  5
293
  8
0
 10
114.6064614035558
 20
81.429596884474719
 30
0.0
 11
189.60646140355581
 21
81.429596884474719
 31
0.0
  0
LINE
  5
294
  8
0
 10
114.6064614035558
 20
81.429596884474719
 30
0.0
 11
114.6064614035558
 21
156.42959688447471
 31
0.0
  0
LINE
  5
295
  8
0
 10
189.60646140355581
 20
81.429596884474719
 30
0.0
 11
189.60646140355581
 21
83.429596884474705
 31
0.0
  0
LINE
  5
296
  8
0
 10
114.6064614035558
 20
156.42959688447471
 30
0.0
 11
116.6064614035558
 21
156.42959688447471
 31
0.0
  0
LINE
  5
297
  8
0
 10
120.6064614035558
 20
95.929596884474705
 30
0.0
 11
120.6064614035558
 21
152.42959688447471
 31
0.0
  0
LINE
  5
298
  8
0
 10
129.10646140355581
 20
87.429596884474719
 30
0.0
 11
185.60646140355581
 21
87.429596884474719
 31
0.0
  0
ARC
  5
299
  8
0
 10
185.60646140355581
 20
83.429596884474705
 30
0.0
 40
4.0
 50
0.0
 51
90.0
  0
ARC
  5
29A
  8
0
 10
116.6064614035558
 20
152.42959688447471
 30
0.0
 40
4.0
 50
0.0
 51
90.0
  0
ARC
  5
29B
  8
0
 10
129.10646140355581
 20
95.929596884474705
 30
0.0
 40
8.5
 50
180.0
 51
270.0
  0
ENDBLK
  5
29D
  8
0
  0
BLOCK
  8
0
  2
22222F
 70
     0
 10
0.0
 20
0.0
 30
0.0
  3
22222F
  1

  0
ARC
  5
228
  8
FUTO
 10
-0.0000000000000568
 20
0.0
 30
0.0
 40
130.0
 50
124.6637959032814
 51
175.3362040967184
  0
ARC
  5
229
  8
FUTO
 10
-0.0000000000000568
 20
0.0
 30
0.0
 40
130.0
 50
4.6637959032815717
 51
55.336204096718511
  0
ARC
  5
22A
  8
FUTO
 10
-0.0000000000000568
 20
0.0
 30
0.0
 40
115.0
 50
8.9772148936872895
 51
51.022785106312661
  0
ARC
  5
22B
  8
FUTO
 10
-0.0000000000000568
 20
0.0
 30
0.0
 40
115.0
 50
128.9772148936872
 51
171.02278510631271
  0
ARC
  5
22C
  8
FUTO
 10
-57.499999999999829
 20
99.592921435210386
 30
0.0
 40
18.0
 50
25.51139255315622
 51
214.4886074468437
  0
ARC
  5
22D
  8
FUTO
 10
57.5
 20
99.592921435210243
 30
0.0
 40
18.0
 50
325.51139255315621
 51
154.4886074468437
  0
LINE
  5
22E
  8
FUTO
 10
-110.0
 20
-127.0
 30
0.0
 11
-0.0000000000000568
 21
-127.0
 31
0.0
  0
ARC
  5
22F
  8
FUTO
 10
-0.0000000000000568
 20
0.0
 30
0.0
 40
115.0
 50
248.9772148936872
 51
291.0227851063126
  0
CIRCLE
  5
230
  8
FUTO
 10
-0.0000000000000568
 20
0.0
 30
0.0
 40
54.0
  0
LINE
  5
231
  8
CT
 10
-190.0
 20
-140.0
 30
0.0
 11
-190.0
 21
-70.0
 31
0.0
  0
LINE
  5
232
  8
FUTO
 10
-225.0
 20
-130.0
 30
0.0
 11
-110.0
 21
-130.0
 31
0.0
  0
LINE
  5
233
  8
FUTO
 10
-125.0000000000001
 20
-80.0
 30
0.0
 11
-222.0
 21
-80.0
 31
0.0
  0
ARC
  5
234
  8
FUTO
 10
-222.0
 20
-83.0
 30
0.0
 40
3.0
 50
90.0
 51
180.0
  0
LINE
  5
235
  8
FUTO
 10
-225.0
 20
-83.0
 30
0.0
 11
-225.0
 21
-130.0
 31
0.0
  0
LINE
  5
236
  8
FUTO
 10
-129.99999999999929
 20
-9.9498743710669828
 30
0.0
 11
-130.0
 21
-60.0
 31
0.0
  0
ARC
  5
237
  8
FUTO
 10
-0.0000000000000568
 20
0.0
 30
0.0
 40
115.0
 50
188.9772148936872
 51
231.02278510631271
  0
LINE
  5
238
  8
FUTO
 10
-125.0000000000001
 20
-80.0
 30
0.0
 11
-110.0000000000001
 21
-95.0
 31
0.0
  0
ARC
  5
239
  8
FUTO
 10
-150.0
 20
-60.0
 30
0.0
 40
20.0
 50
270.0
 51
0.0
  0
LINE
  5
23A
  8
FUTO
 10
-110.0
 20
-130.0
 30
0.0
 11
-110.0000000000001
 21
-95.0
 31
0.0
  0
ARC
  5
23B
  8
FUTO
 10
-57.500000000000057
 20
-99.592921435210542
 30
0.0
 40
18.0
 50
145.51139255315621
 51
334.48860744684367
  0
ARC
  5
23C
  8
FUTO
 10
-115.0
 20
0.0
 30
0.0
 40
18.0
 50
85.511392553156256
 51
274.48860744684367
  0
LINE
  5
23D
  8
CT
 10
190.0
 20
-140.0
 30
0.0
 11
190.0
 21
-70.0
 31
0.0
  0
ARC
  5
23E
  8
FUTO
 10
150.0
 20
-60.0
 30
0.0
 40
20.0
 50
180.0
 51
270.0
  0
LINE
  5
23F
  8
FUTO
 10
222.0000000000004
 20
-80.0
 30
0.0
 11
124.9999999999997
 21
-80.0
 31
0.0
  0
LINE
  5
240
  8
FUTO
 10
110.0
 20
-130.0
 30
0.0
 11
225.0
 21
-130.0
 31
0.0
  0
LINE
  5
241
  8
FUTO
 10
130.0
 20
-60.0
 30
0.0
 11
130.0
 21
-9.9498743710661302
 31
0.0
  0
ARC
  5
242
  8
FUTO
 10
-0.0000000000000568
 20
0.0
 30
0.0
 40
115.0
 50
308.97721489368718
 51
351.02278510631271
  0
LINE
  5
243
  8
FUTO
 10
-0.0000000000000568
 20
-127.0
 30
0.0
 11
110.0
 21
-127.0
 31
0.0
  0
ARC
  5
244
  8
FUTO
 10
57.5
 20
-99.592921435210542
 30
0.0
 40
18.0
 50
205.51139255315621
 51
34.488607446843737
  0
LINE
  5
245
  8
FUTO
 10
109.9999999999997
 20
-95.0
 30
0.0
 11
124.9999999999997
 21
-80.0
 31
0.0
  0
LINE
  5
246
  8
FUTO
 10
109.9999999999997
 20
-95.0
 30
0.0
 11
110.0
 21
-130.0
 31
0.0
  0
ARC
  5
247
  8
FUTO
 10
115.0
 20
0.0
 30
0.0
 40
18.0
 50
265.51139255315621
 51
94.488607446843773
  0
ARC
  5
248
  8
FUTO
 10
222.0000000000004
 20
-83.0
 30
0.0
 40
3.0
 50
0.0
 51
90.0
  0
LINE
  5
249
  8
FUTO
 10
225.0
 20
-130.0
 30
0.0
 11
225.0000000000004
 21
-83.0
 31
0.0
  0
LINE
  5
24A
  8
FUTO
 10
19.227247756821669
 20
132.99999999999989
 30
0.0
 11
-19.227247756821779
 21
132.99999999999989
 31
0.0
  0
ARC
  5
24B
  8
FUTO
 10
-0.0000000000000568
 20
0.0
 30
0.0
 40
115.0
 50
68.977214893687218
 51
111.0227851063126
  0
ARC
  5
24C
  8
FUTO
 10
-0.0000000000000568
 20
0.0
 30
0.0
 40
130.0
 50
98.505358450480756
 51
115.3362040967184
  0
LINE
  5
24D
  8
FUTO
 10
-19.227247756821779
 20
113.3812724558063
 30
0.0
 11
-19.227247756821779
 21
132.99999999999989
 31
0.0
  0
ARC
  5
24E
  8
FUTO
 10
-0.0000000000000568
 20
0.0
 30
0.0
 40
130.0
 50
64.663795903281382
 51
81.494641549519287
  0
LINE
  5
24F
  8
FUTO
 10
19.227247756821669
 20
113.3812724558063
 30
0.0
 11
19.227247756821669
 21
132.99999999999989
 31
0.0
  0
ENDBLK
  5
251
  8
0
  0
BLOCK
  8
0
  2
まっすぐの矢印
 70
     0
 10
0.0
 20
0.0
 30
0.0
  3
まっすぐの矢印
  1

  0
LINE
  5
2CF
  8
SP
 10
0.6962157491662495
 20
-2.216890595009601
 30
0.0
 11
0.6962157491662495
 21
-5.0
 31
0.0
  0
LINE
  5
2D0
  8
SP
 10
0.6962157491662495
 20
-5.0
 30
0.0
 11
-0.6962157491662495
 21
-5.0
 31
0.0
  0
LINE
  5
2D1
  8
SP
 10
-0.6962157491662495
 20
-5.0
 30
0.0
 11
-0.6962157491662495
 21
-2.216890595009601
 31
0.0
  0
LINE
  5
2D2
  8
SP
 10
-0.6962157491662495
 20
-2.216890595009601
 30
0.0
 11
-1.7145256852758151
 21
-2.216890595009601
 31
0.0
  0
LINE
  5
2D3
  8
SP
 10
-1.7145256852758151
 20
-2.216890595009601
 30
0.0
 11
0.0
 21
0.0
 31
0.0
  0
LINE
  5
2D4
  8
SP
 10
0.0
 20
0.0
 30
0.0
 11
1.7145256852758151
 21
-2.216890595009601
 31
0.0
  0
LINE
  5
2D5
  8
SP
 10
1.7145256852758151
 20
-2.216890595009601
 30
0.0
 11
0.6962157491662495
 21
-2.216890595009601
 31
0.0
  0
ENDBLK
  5
2D7
  8
0
  0
BLOCK
  8
0
  2
右回転矢印
 70
     0
 10
0.0
 20
0.0
 30
0.0
  3
右回転矢印
  1

  0
LINE
  5
1E3
  8
SP
 10
-2.7705290305565882
 20
1.567794835092901
 30
0.0
 11
-2.4288000558398148
 21
2.8051227455822878
 31
0.0
  0
LINE
  5
1E4
  8
SP
 10
-2.4288000558398148
 20
2.8051227455822878
 30
0.0
 11
0.0
 21
0.0
 31
0.0
  0
LINE
  5
1E5
  8
SP
 10
0.0
 20
0.0
 30
0.0
 11
-3.3160037613098718
 21
-0.4072531086382499
 31
0.0
  0
LINE
  5
1E6
  8
SP
 10
-3.3160037613098718
 20
-0.4072531086382499
 30
0.0
 11
-3.0391574735299112
 21
0.5951483970269315
 31
0.0
  0
ARC
  5
1E7
  8
SP
 10
-5.9215210782018062
 20
-9.8412769578768184
 30
0.0
 40
10.82714154973578
 50
74.560750721316467
 51
112.11861101078711
  0
LINE
  5
1E8
  8
SP
 10
-9.9982127316752951
 20
0.1890560027239694
 30
0.0
 11
-10.37814929817227
 21
1.1238557349100611
 31
0.0
  0
ARC
  5
1E9
  8
SP
 10
-5.9215210782018062
 20
-9.8412769578768291
 30
0.0
 40
11.83620167374065
 50
74.560750721316396
 51
112.11861101078701
  0
ENDBLK
  5
1EB
  8
0
  0
BLOCK
  8
0
  2
*D6
 70
     1
 10
0.0
 20
0.0
 30
0.0
  3
*D6
  1

  0
LINE
  5
340C
  8
SP
 62
     2
 10
18445.742671524171
 20
-1627.5004133965849
 30
0.0
 11
18445.742671524171
 21
-2295.1211404104702
 31
0.0
  0
LINE
  5
340D
  8
SP
 62
     2
 10
20695.742671524171
 20
-1627.5004133965849
 30
0.0
 11
20695.742671524171
 21
-2295.1211404104702
 31
0.0
  0
LINE
  5
340E
  8
SP
 62
     2
 10
18535.742671524171
 20
-2250.1211404104702
 30
0.0
 11
20605.742671524171
 21
-2250.1211404104702
 31
0.0
  0
INSERT
  5
340F
  8
SP
 62
     2
  2
_OPEN
 10
18445.742671524171
 20
-2250.1211404104702
 30
0.0
 41
90.0
 42
90.0
 43
90.0
 50
180.0
  0
INSERT
  5
3410
  8
SP
 62
     2
  2
_OPEN
 10
20695.742671524171
 20
-2250.1211404104702
 30
0.0
 41
90.0
 42
90.0
 43
90.0
  0
TEXT
  5
3411
  8
SP
 62
     2
 10
19321.458304937762
 20
-2227.6211404104702
 30
0.0
 40
135.0
  1
2250
 51
15.0
  0
POINT
  5
3412
  8
DEFPOINTS
 62
     0
 10
18445.742671524171
 20
-1582.500413396584
 30
0.0
  0
POINT
  5
3413
  8
DEFPOINTS
 62
     0
 10
20695.742671524171
 20
-1582.500413396584
 30
0.0
  0
POINT
  5
3414
  8
DEFPOINTS
 62
     0
 10
20695.742671524171
 20
-2250.1211404104702
 30
0.0
  0
ENDBLK
  5
A67
  8
0
  0
BLOCK
  8
0
  2
*D7
 70
     1
 10
0.0
 20
0.0
 30
0.0
  3
*D7
  1

  0
LINE
  5
33FA
  8
SP
 62
     2
 10
20695.742671524171
 20
-1627.5004133965849
 30
0.0
 11
20695.742671524171
 21
-2295.1211404104702
 31
0.0
  0
LINE
  5
33FB
  8
SP
 62
     2
 10
21845.742671524171
 20
-1627.5004133965849
 30
0.0
 11
21845.742671524171
 21
-2295.1211404104702
 31
0.0
  0
LINE
  5
33FC
  8
SP
 62
     2
 10
20785.742671524171
 20
-2250.1211404104702
 30
0.0
 11
21755.742671524171
 21
-2250.1211404104702
 31
0.0
  0
INSERT
  5
33FD
  8
SP
 62
     2
  2
_OPEN
 10
20695.742671524171
 20
-2250.1211404104702
 30
0.0
 41
90.0
 42
90.0
 43
90.0
 50
180.0
  0
INSERT
  5
33FE
  8
SP
 62
     2
  2
_OPEN
 10
21845.742671524171
 20
-2250.1211404104702
 30
0.0
 41
90.0
 42
90.0
 43
90.0
  0
TEXT
  5
33FF
  8
SP
 62
     2
 10
21032.531081208479
 20
-2227.6211404104702
 30
0.0
 40
135.0
  1
1150
 51
15.0
  0
POINT
  5
3400
  8
DEFPOINTS
 62
     0
 10
20695.742671524171
 20
-1582.500413396584
 30
0.0
  0
POINT
  5
3401
  8
DEFPOINTS
 62
     0
 10
21845.742671524171
 20
-1582.500413396584
 30
0.0
  0
POINT
  5
3402
  8
DEFPOINTS
 62
     0
 10
21845.742671524171
 20
-2250.1211404104702
 30
0.0
  0
ENDBLK
  5
A74
  8
0
  0
BLOCK
  8
0
  2
*D8
 70
     1
 10
0.0
 20
0.0
 30
0.0
  3
*D8
  1

  0
LINE
  5
348D
  8
SP
 10
21845.742671524171
 20
-1627.5004133965849
 30
0.0
 11
21845.742671524171
 21
-2590.4540373106729
 31
0.0
  0
LINE
  5
348E
  8
SP
 10
18445.742671524171
 20
-1627.5004133965849
 30
0.0
 11
18445.742671524171
 21
-2590.4540373106729
 31
0.0
  0
LINE
  5
348F
  8
SP
 10
21755.742671524171
 20
-2545.4540373106729
 30
0.0
 11
18535.742671524171
 21
-2545.4540373106729
 31
0.0
  0
INSERT
  5
3490
  8
SP
  2
_OPEN
 10
21845.742671524171
 20
-2545.4540373106729
 30
0.0
 41
90.0
 42
90.0
 43
90.0
  0
INSERT
  5
3491
  8
SP
  2
_OPEN
 10
18445.742671524171
 20
-2545.4540373106729
 30
0.0
 41
90.0
 42
90.0
 43
90.0
 50
180.0
  0
TEXT
  8
0
  40
135
  5
350D
  72
0
  71
0
 10
19875.7
 20
-2694.40
 30
0.000000
  1
3400
  0
POINT
  5
3493
  8
DEFPOINTS
 62
     0
 10
21845.742671524171
 20
-1582.500413396584
 30
0.0
  0
POINT
  5
3494
  8
DEFPOINTS
 62
     0
 10
18445.742671524171
 20
-1582.500413396584
 30
0.0
  0
POINT
  5
3495
  8
DEFPOINTS
 62
     0
 10
18445.742671524171
 20
-2545.4540373106729
 30
0.0
  0
ENDBLK
  5
14BE
  8
0
  0
BLOCK
  8
0
  2
*D9
 70
     1
 10
0.0
 20
0.0
 30
0.0
  3
*D9
  1

  0
LINE
  5
3496
  8
SP
 10
21856.77534093802
 20
-1402.5004133965849
 30
0.0
 11
22479.848521819578
 21
-1402.5004133965849
 31
0.0
  0
LINE
  5
3497
  8
SP
 10
21856.77534093802
 20
-1582.500413396584
 30
0.0
 11
22479.848521819578
 21
-1582.5004133965849
 31
0.0
  0
LINE
  5
3498
  8
SP
 10
22434.848521819578
 20
-1312.5004133965849
 30
0.0
 11
22434.848521819578
 21
-1222.5004133965849
 31
0.0
  0
LINE
  5
3499
  8
SP
 10
22434.848521819578
 20
-1672.5004133965849
 30
0.0
 11
22434.848521819578
 21
-2122.5004133965849
 31
0.0
  0
LINE
  5
349A
  8
SP
 10
22434.848521819578
 20
-1402.5004133965849
 30
0.0
 11
22434.848521819578
 21
-1582.5004133965849
 31
0.0
  0
INSERT
  5
349B
  8
SP
  2
_DOT
 10
22434.848521819578
 20
-1402.5004133965849
 30
0.0
 41
90.0
 42
90.0
 43
90.0
 50
270.0
  0
INSERT
  5
349C
  8
SP
  2
_OPEN
 10
22434.848521819578
 20
-1582.5004133965849
 30
0.0
 41
90.0
 42
90.0
 43
90.0
 50
90.0
  0
TEXT
  8
0
  40
135
  5
350E
  72
0
  71
0
 10
22074.8
 20
-2181.45
 30
0.000000
  1
180
  0
POINT
  5
349E
  8
DEFPOINTS
 62
     0
 10
21811.77534093802
 20
-1402.5004133965849
 30
0.0
  0
POINT
  5
349F
  8
DEFPOINTS
 62
     0
 10
21811.77534093802
 20
-1582.500413396584
 30
0.0
  0
POINT
  5
34A0
  8
DEFPOINTS
 62
     0
 10
22434.848521819578
 20
-1582.5004133965849
 30
0.0
  0
ENDBLK
  5
14D8
  8
0
  0
BLOCK
  8
0
  2
*D10
 70
     1
 10
0.0
 20
0.0
 30
0.0
  3
*D10
  1

  0
LINE
  5
34A4
  8
SP
 10
27174.48228109505
 20
1967.4995866034139
 30
0.0
 11
27668.671999474071
 21
1967.4995866034139
 31
0.0
  0
LINE
  5
34A5
  8
SP
 10
27174.48228109505
 20
-32.500413396584918
 30
0.0
 11
27668.671999474071
 21
-32.500413396585067
 31
0.0
  0
LINE
  5
34A6
  8
SP
 10
27623.671999474071
 20
1877.4995866034139
 30
0.0
 11
27623.671999474071
 21
57.49958660341494
 31
0.0
  0
INSERT
  5
34A7
  8
SP
  2
_OPEN
 10
27623.671999474071
 20
1967.4995866034139
 30
0.0
 41
90.0
 42
90.0
 43
90.0
 50
90.0
  0
INSERT
  5
34A8
  8
SP
  2
_OPEN
 10
27623.671999474071
 20
-32.500413396585053
 30
0.0
 41
90.0
 42
90.0
 43
90.0
 50
270.0
  0
TEXT
  8
0
  40
135
  5
350F
  72
0
  71
0
 10
27263.7
 20
728.550
 30
0.000000
  1
%%C2000
  0
POINT
  5
34AA
  8
DEFPOINTS
 62
     0
 10
27129.482281095039
 20
1967.4995866034151
 30
0.0
  0
POINT
  5
34AB
  8
DEFPOINTS
 62
     0
 10
27129.482281095039
 20
-32.500413396584911
 30
0.0
  0
POINT
  5
34AC
  8
DEFPOINTS
 62
     0
 10
27623.671999474071
 20
-32.500413396585053
 30
0.0
  0
ENDBLK
  5
1561
  8
0
  0
BLOCK
  8
0
  2
*D11
 70
     1
 10
0.0
 20
0.0
 30
0.0
  3
*D11
  1

  0
LINE
  5
34AD
  8
SP
 10
26224.482281095039
 20
2671.3703692551621
 30
0.0
 11
26224.482281095039
 21
2787.330032577172
 31
0.0
  0
LINE
  5
34AE
  8
SP
 10
27129.482281095039
 20
2087.4995866034151
 30
0.0
 11
27129.482281095039
 21
2787.330032577172
 31
0.0
  0
LINE
  5
34AF
  8
SP
 10
26314.48228109505
 20
2742.330032577172
 30
0.0
 11
27039.48228109505
 21
2742.330032577172
 31
0.0
  0
INSERT
  5
34B0
  8
SP
  2
_OPEN
 10
26224.482281095039
 20
2742.330032577172
 30
0.0
 41
90.0
 42
90.0
 43
90.0
 50
180.0
  0
INSERT
  5
34B1
  8
SP
  2
_OPEN
 10
27129.482281095039
 20
2742.330032577172
 30
0.0
 41
90.0
 42
90.0
 43
90.0
  0
TEXT
  8
0
  40
135
  5
3510
  72
0
  71
0
 10
26407.0
 20
2593.38
 30
0.000000
  1
905
  0
POINT
  5
34B3
  8
DEFPOINTS
 62
     0
 10
26224.482281095039
 20
2626.3703692551621
 30
0.0
  0
POINT
  5
34B4
  8
DEFPOINTS
 62
     0
 10
27129.482281095039
 20
2042.4995866034151
 30
0.0
  0
POINT
  5
34B5
  8
DEFPOINTS
 62
     0
 10
27129.482281095039
 20
2742.330032577172
 30
0.0
  0
ENDBLK
  5
1576
  8
0
  0
BLOCK
  8
0
  2
*D12
 70
     1
 10
0.0
 20
0.0
 30
0.0
  3
*D12
  1

  0
LINE
  5
34B6
  8
SP
 62
     2
 10
23853.48228109505
 20
-1627.5004133965849
 30
0.0
 11
23853.48228109505
 21
-2300.5778336648309
 31
0.0
  0
LINE
  5
34B7
  8
SP
 62
     2
 10
26224.482281095039
 20
-1627.5004133965849
 30
0.0
 11
26224.482281095039
 21
-2300.5778336648309
 31
0.0
  0
LINE
  5
34B8
  8
SP
 62
     2
 10
23943.482281095039
 20
-2255.5778336648309
 30
0.0
 11
26134.48228109505
 21
-2255.5778336648309
 31
0.0
  0
INSERT
  5
34B9
  8
SP
 62
     2
  2
_OPEN
 10
23853.48228109505
 20
-2255.5778336648309
 30
0.0
 41
90.0
 42
90.0
 43
90.0
 50
180.0
  0
INSERT
  5
34BA
  8
SP
 62
     2
  2
_OPEN
 10
26224.482281095039
 20
-2255.5778336648309
 30
0.0
 41
90.0
 42
90.0
 43
90.0
  0
TEXT
  8
0
  40
135
  5
3511
  62
2
  72
0
  71
0
 10
24769.0
 20
-2404.53
 30
0.000000
  1
2371
  0
POINT
  5
34BC
  8
DEFPOINTS
 62
     0
 10
23853.48228109505
 20
-1582.500413396584
 30
0.0
  0
POINT
  5
34BD
  8
DEFPOINTS
 62
     0
 10
26224.482281095039
 20
-1582.5004133965849
 30
0.0
  0
POINT
  5
34BE
  8
DEFPOINTS
 62
     0
 10
26224.482281095039
 20
-2255.5778336648309
 30
0.0
  0
ENDBLK
  5
1B15
  8
0
  0
BLOCK
  8
0
  2
*D13
 70
     1
 10
0.0
 20
0.0
 30
0.0
  3
*D13
  1

  0
LINE
  5
34BF
  8
SP
 62
     2
 10
27053.482281095039
 20
-1627.5004133965849
 30
0.0
 11
27053.482281095039
 21
-2300.5778336648309
 31
0.0
  0
LINE
  5
34C0
  8
SP
 62
     2
 10
26314.48228109505
 20
-2255.5778336648309
 30
0.0
 11
26963.48228109505
 21
-2255.5778336648309
 31
0.0
  0
INSERT
  5
34C1
  8
SP
 62
     2
  2
_OPEN
 10
26224.482281095039
 20
-2255.5778336648309
 30
0.0
 41
90.0
 42
90.0
 43
90.0
 50
180.0
  0
INSERT
  5
34C2
  8
SP
 62
     2
  2
_OPEN
 10
27053.482281095039
 20
-2255.5778336648309
 30
0.0
 41
90.0
 42
90.0
 43
90.0
  0
TEXT
  8
0
  40
135
  5
3512
  62
2
  72
0
  71
0
 10
26369.0
 20
-2404.53
 30
0.000000
  1
829
  0
POINT
  5
34C4
  8
DEFPOINTS
 62
     0
 10
26224.482281095039
 20
-1582.5004133965849
 30
0.0
  0
POINT
  5
34C5
  8
DEFPOINTS
 62
     0
 10
27053.482281095039
 20
-1582.500413396584
 30
0.0
  0
POINT
  5
34C6
  8
DEFPOINTS
 62
     0
 10
27053.482281095039
 20
-2255.5778336648309
 30
0.0
  0
ENDBLK
  5
1B21
  8
0
  0
BLOCK
  8
0
  2
*D14
 70
     1
 10
0.0
 20
0.0
 30
0.0
  3
*D14
  1

  0
LINE
  5
34C7
  8
SP
 62
     2
 10
27053.482281095039
 20
-2300.5778336648309
 30
0.0
 11
27053.482281095039
 21
-2592.7001339177268
 31
0.0
  0
LINE
  5
34C8
  8
SP
 62
     2
 10
23853.48228109505
 20
-2300.5778336648309
 30
0.0
 11
23853.48228109505
 21
-2592.7001339177268
 31
0.0
  0
LINE
  5
34C9
  8
SP
 62
     2
 10
26963.48228109505
 20
-2547.7001339177268
 30
0.0
 11
23943.482281095039
 21
-2547.7001339177268
 31
0.0
  0
INSERT
  5
34CA
  8
SP
 62
     2
  2
_OPEN
 10
27053.482281095039
 20
-2547.7001339177268
 30
0.0
 41
90.0
 42
90.0
 43
90.0
  0
INSERT
  5
34CB
  8
SP
 62
     2
  2
_OPEN
 10
23853.48228109505
 20
-2547.7001339177268
 30
0.0
 41
90.0
 42
90.0
 43
90.0
 50
180.0
  0
TEXT
  8
0
  40
135
  5
3513
  62
2
  72
0
  71
0
 10
25183.5
 20
-2696.65
 30
0.000000
  1
3200
  0
POINT
  5
34CD
  8
DEFPOINTS
 62
     0
 10
27053.482281095039
 20
-2255.5778336648309
 30
0.0
  0
POINT
  5
34CE
  8
DEFPOINTS
 62
     0
 10
23853.48228109505
 20
-2255.5778336648309
 30
0.0
  0
POINT
  5
34CF
  8
DEFPOINTS
 62
     0
 10
23853.48228109505
 20
-2547.7001339177268
 30
0.0
  0
ENDBLK
  5
1B2E
  8
0
  0
BLOCK
  8
0
  2
*D15
 70
     1
 10
0.0
 20
0.0
 30
0.0
  3
*D15
  1

  0
LINE
  5
34D0
  8
SP
 62
     2
 10
23714.48228109505
 20
2742.330032577172
 30
0.0
 11
26134.48228109505
 21
2742.330032577172
 31
0.0
  0
INSERT
  5
34D1
  8
SP
 62
     2
  2
_OPEN
 10
23624.48228109505
 20
2742.330032577172
 30
0.0
 41
90.0
 42
90.0
 43
90.0
 50
180.0
  0
INSERT
  5
34D2
  8
SP
 62
     2
  2
_OPEN
 10
26224.482281095039
 20
2742.330032577172
 30
0.0
 41
90.0
 42
90.0
 43
90.0
  0
TEXT
  8
0
  40
135
  5
3514
  62
2
  72
0
  71
0
 10
24654.5
 20
2593.38
 30
0.000000
  1
2600
  0
POINT
  5
34D4
  8
DEFPOINTS
 62
     0
 10
23624.48228109505
 20
2742.330032577172
 30
0.0
  0
POINT
  5
34D5
  8
DEFPOINTS
 62
     0
 10
26224.482281095039
 20
2742.330032577172
 30
0.0
  0
POINT
  5
34D6
  8
DEFPOINTS
 62
     0
 10
26224.482281095039
 20
2742.330032577172
 30
0.0
  0
ENDBLK
  5
1BFE
  8
0
  0
BLOCK
  8
0
  2
*D16
 70
     1
 10
0.0
 20
0.0
 30
0.0
  3
*D16
  1

  0
LINE
  5
3442
  8
SP
 10
21856.77534093802
 20
-1382.5004133965849
 30
0.0
 11
22479.848521819578
 21
-1382.5004133965849
 31
0.0
  0
LINE
  5
3443
  8
SP
 10
21856.77534093802
 20
-1402.5004133965849
 30
0.0
 11
22479.848521819578
 21
-1402.5004133965849
 31
0.0
  0
LINE
  5
3444
  8
SP
 10
22434.848521819578
 20
-1292.5004133965849
 30
0.0
 11
22434.848521819578
 21
-1202.5004133965849
 31
0.0
  0
LINE
  5
3445
  8
SP
 10
22434.848521819578
 20
-1492.5004133965849
 30
0.0
 11
22434.848521819578
 21
-1582.5004133965849
 31
0.0
  0
TEXT
  5
3446
  8
SP
 10
22701.332915238989
 20
-1612.250018636689
 30
0.0
 40
135.0
  1
(20)
 50
90.0
 51
15.0
  0
LINE
  5
3447
  8
SP
 10
22434.848521819578
 20
-1382.5004133965849
 30
0.0
 11
22434.848521819578
 21
-1402.5004133965849
 31
0.0
  0
INSERT
  5
3448
  8
SP
  2
_OPEN
 10
22434.848521819578
 20
-1382.5004133965849
 30
0.0
 41
90.0
 42
90.0
 43
90.0
 50
270.0
  0
INSERT
  5
3449
  8
SP
  2
_DOT
 10
22434.848521819578
 20
-1402.5004133965849
 30
0.0
 41
90.0
 42
90.0
 43
90.0
 50
90.0
  0
POINT
  5
344A
  8
DEFPOINTS
 62
     0
 10
21811.77534093802
 20
-1382.5004133965849
 30
0.0
  0
POINT
  5
344B
  8
DEFPOINTS
 62
     0
 10
21811.77534093802
 20
-1402.5004133965849
 30
0.0
  0
POINT
  5
344C
  8
DEFPOINTS
 62
     0
 10
22434.848521819578
 20
-1402.5004133965849
 30
0.0
  0
ENDBLK
  5
1C46
  8
0
  0
BLOCK
  8
0
  2
*D17
 70
     1
 10
0.0
 20
0.0
 30
0.0
  3
*D17
  1

  0
LINE
  5
34D7
  8
SP
 62
     2
 10
20695.742671524171
 20
7213.2587782432483
 30
0.0
 11
20695.742671524171
 21
7496.5364858720031
 31
0.0
  0
LINE
  5
34D8
  8
SP
 62
     2
 10
21970.742671525539
 20
6883.6403978092058
 30
0.0
 11
21970.742671525539
 21
7496.5364858720031
 31
0.0
  0
LINE
  5
34D9
  8
SP
 62
     2
 10
20785.742671524171
 20
7451.5364858720041
 30
0.0
 11
21880.74267152555
 21
7451.5364858720041
 31
0.0
  0
INSERT
  5
34DA
  8
SP
 62
     2
  2
_OPEN
 10
20695.742671524171
 20
7451.5364858720041
 30
0.0
 41
90.0
 42
90.0
 43
90.0
 50
180.0
  0
INSERT
  5
34DB
  8
SP
 62
     2
  2
_OPEN
 10
21970.742671525539
 20
7451.5364858720041
 30
0.0
 41
90.0
 42
90.0
 43
90.0
  0
TEXT
  8
0
  40
135
  5
3515
  62
2
  72
0
  71
0
 10
21063.2
 20
7302.59
 30
0.000000
  1
1275
  0
POINT
  5
34DD
  8
DEFPOINTS
 62
     0
 10
20695.742671524171
 20
7168.2587782432483
 30
0.0
  0
POINT
  5
34DE
  8
DEFPOINTS
 62
     0
 10
21970.742671525539
 20
6838.6403978092058
 30
0.0
  0
POINT
  5
34DF
  8
DEFPOINTS
 62
     0
 10
21970.742671525539
 20
7451.5364858720041
 30
0.0
  0
ENDBLK
  5
2546
  8
0
  0
BLOCK
  8
0
  2
*D18
 70
     1
 10
0.0
 20
0.0
 30
0.0
  3
*D18
  1

  0
LINE
  5
34E0
  8
SP
 62
     2
 10
21815.742671524171
 20
6914.6403978092021
 30
0.0
 11
22581.746092178291
 21
6914.6403978092012
 31
0.0
  0
LINE
  5
34E1
  8
SP
 62
     2
 10
22236.64938320635
 20
6009.6403978092021
 30
0.0
 11
22581.746092178291
 21
6009.6403978092012
 31
0.0
  0
LINE
  5
34E2
  8
SP
 62
     2
 10
22536.746092178299
 20
6824.6403978092021
 30
0.0
 11
22536.746092178299
 21
6099.6403978092012
 31
0.0
  0
INSERT
  5
34E3
  8
SP
 62
     2
  2
_OPEN
 10
22536.746092178299
 20
6914.6403978092012
 30
0.0
 41
90.0
 42
90.0
 43
90.0
 50
90.0
  0
INSERT
  5
34E4
  8
SP
 62
     2
  2
_OPEN
 10
22536.746092178299
 20
6009.6403978092012
 30
0.0
 41
90.0
 42
90.0
 43
90.0
 50
270.0
  0
TEXT
  8
0
  40
135
  5
3516
  62
2
  72
0
  71
0
 10
22176.7
 20
6223.19
 30
0.000000
  1
905
  0
POINT
  5
34E6
  8
DEFPOINTS
 62
     0
 10
21770.742671524171
 20
6914.6403978092021
 30
0.0
  0
POINT
  5
34E7
  8
DEFPOINTS
 62
     0
 10
22191.64938320635
 20
6009.6403978092021
 30
0.0
  0
POINT
  5
34E8
  8
DEFPOINTS
 62
     0
 10
22536.746092178299
 20
6009.6403978092012
 30
0.0
  0
ENDBLK
  5
2561
  8
0
  0
BLOCK
  8
0
  2
*D19
 70
     1
 10
0.0
 20
0.0
 30
0.0
  3
*D19
  1

  0
LINE
  5
34E9
  8
SP
 62
     2
 10
22236.64938320635
 20
6009.6403978092021
 30
0.0
 11
22581.746092178291
 21
6009.6403978092012
 31
0.0
  0
LINE
  5
34EA
  8
SP
 62
     2
 10
21220.742671524171
 20
3409.6403978092048
 30
0.0
 11
22581.746092178291
 21
3409.6403978092048
 31
0.0
  0
LINE
  5
34EB
  8
SP
 62
     2
 10
22536.746092178299
 20
5919.6403978092012
 30
0.0
 11
22536.746092178299
 21
3499.6403978092048
 31
0.0
  0
INSERT
  5
34EC
  8
SP
 62
     2
  2
_OPEN
 10
22536.746092178299
 20
6009.6403978092012
 30
0.0
 41
90.0
 42
90.0
 43
90.0
 50
90.0
  0
INSERT
  5
34ED
  8
SP
 62
     2
  2
_OPEN
 10
22536.746092178299
 20
3409.6403978092048
 30
0.0
 41
90.0
 42
90.0
 43
90.0
 50
270.0
  0
TEXT
  8
0
  40
135
  5
3517
  62
2
  72
0
  71
0
 10
22176.7
 20
4470.69
 30
0.000000
  1
2600
  0
POINT
  5
34EF
  8
DEFPOINTS
 62
     0
 10
22191.64938320635
 20
6009.6403978092021
 30
0.0
  0
POINT
  5
34F0
  8
DEFPOINTS
 62
     0
 10
21175.742671524171
 20
3409.6403978092048
 30
0.0
  0
POINT
  5
34F1
  8
DEFPOINTS
 62
     0
 10
22536.746092178299
 20
3409.6403978092048
 30
0.0
  0
ENDBLK
  5
256E
  8
0
  0
BLOCK
  8
0
  2
*D20
 70
     1
 10
0.0
 20
0.0
 30
0.0
  3
*D20
  1

  0
LINE
  5
34F2
  8
SP
 62
     2
 10
21890.742671524171
 20
-1382.5004133965849
 30
0.0
 11
22479.848521819578
 21
-1382.5004133965849
 31
0.0
  0
LINE
  5
34F3
  8
SP
 62
     2
 10
22112.026078548512
 20
967.49958660341497
 30
0.0
 11
22479.848521819578
 21
967.49958660341497
 31
0.0
  0
LINE
  5
34F4
  8
SP
 62
     2
 10
22434.848521819578
 20
-1292.5004133965849
 30
0.0
 11
22434.848521819578
 21
877.49958660341485
 31
0.0
  0
INSERT
  5
34F5
  8
SP
 62
     2
  2
_OPEN
 10
22434.848521819578
 20
-1382.5004133965849
 30
0.0
 41
90.0
 42
90.0
 43
90.0
 50
270.0
  0
INSERT
  5
34F6
  8
SP
 62
     2
  2
_OPEN
 10
22434.848521819578
 20
967.49958660341497
 30
0.0
 41
90.0
 42
90.0
 43
90.0
 50
90.0
  0
TEXT
  8
0
  40
135
  5
3518
  62
2
  72
0
  71
0
 10
22074.8
 20
-446.450
 30
0.000000
  1
2350
  0
POINT
  5
34F8
  8
DEFPOINTS
 62
     0
 10
21845.742671524171
 20
-1382.5004133965849
 30
0.0
  0
POINT
  5
34F9
  8
DEFPOINTS
 62
     0
 10
22067.026078548512
 20
967.49958660341497
 30
0.0
  0
POINT
  5
34FA
  8
DEFPOINTS
 62
     0
 10
22434.848521819578
 20
967.49958660341497
 30
0.0
  0
ENDBLK
  5
2751
  8
0
  0
BLOCK
  8
0
  2
*D21
 70
     1
 10
0.0
 20
0.0
 30
0.0
  3
*D21
  1

  0
LINE
  5
34FB
  8
SP
 62
     2
 10
20740.742671524171
 20
2409.4995866034101
 30
0.0
 11
22479.848521819578
 21
2409.4995866034092
 31
0.0
  0
LINE
  5
34FC
  8
SP
 62
     2
 10
22112.026078548512
 20
967.49958660341497
 30
0.0
 11
22479.848521819578
 21
967.49958660341497
 31
0.0
  0
LINE
  5
34FD
  8
SP
 62
     2
 10
22434.848521819578
 20
2319.4995866034092
 30
0.0
 11
22434.848521819578
 21
1057.4995866034151
 31
0.0
  0
INSERT
  5
34FE
  8
SP
 62
     2
  2
_OPEN
 10
22434.848521819578
 20
2409.4995866034092
 30
0.0
 41
90.0
 42
90.0
 43
90.0
 50
90.0
  0
INSERT
  5
34FF
  8
SP
 62
     2
  2
_OPEN
 10
22434.848521819578
 20
967.49958660341497
 30
0.0
 41
90.0
 42
90.0
 43
90.0
 50
270.0
  0
TEXT
  8
0
  40
135
  5
3519
  62
2
  72
0
  71
0
 10
22074.8
 20
1449.55
 30
0.000000
  1
1442
  0
POINT
  5
3501
  8
DEFPOINTS
 62
     0
 10
20695.742671524171
 20
2409.4995866034101
 30
0.0
  0
POINT
  5
3502
  8
DEFPOINTS
 62
     0
 10
22067.026078548512
 20
967.49958660341497
 30
0.0
  0
POINT
  5
3503
  8
DEFPOINTS
 62
     0
 10
22434.848521819578
 20
967.49958660341497
 30
0.0
  0
ENDBLK
  5
275F
  8
0
  0
BLOCK
  8
0
  2
*D22
 70
     1
 10
0.0
 20
0.0
 30
0.0
  3
*D22
  1

  0
LINE
  5
3504
  8
SP
 62
     2
 10
20695.742671524171
 20
7258.2587782432474
 30
0.0
 11
20695.742671524171
 21
7496.5364858720031
 31
0.0
  0
LINE
  5
3505
  8
SP
 62
     2
 10
18445.742671524171
 20
5300.6403978092003
 30
0.0
 11
18445.742671524171
 21
7496.5364858720031
 31
0.0
  0
LINE
  5
3506
  8
SP
 62
     2
 10
20605.742671524171
 20
7451.5364858720041
 30
0.0
 11
18535.742671524171
 21
7451.5364858720041
 31
0.0
  0
INSERT
  5
3507
  8
SP
 62
     2
  2
_OPEN
 10
20695.742671524171
 20
7451.5364858720041
 30
0.0
 41
90.0
 42
90.0
 43
90.0
  0
INSERT
  5
3508
  8
SP
 62
     2
  2
_OPEN
 10
18445.742671524171
 20
7451.5364858720041
 30
0.0
 41
90.0
 42
90.0
 43
90.0
 50
180.0
  0
TEXT
  8
0
  40
135
  5
351A
  62
2
  72
0
  71
0
 10
19300.7
 20
7302.59
 30
0.000000
  1
2250
  0
POINT
  5
350A
  8
DEFPOINTS
 62
     0
 10
20695.742671524171
 20
7213.2587782432483
 30
0.0
  0
POINT
  5
350B
  8
DEFPOINTS
 62
     0
 10
18445.742671524171
 20
5255.6403978092012
 30
0.0
  0
POINT
  5
350C
  8
DEFPOINTS
 62
     0
 10
18445.742671524171
 20
7451.5364858720041
 30
0.0
  0
ENDBLK
  5
27A0
  8
0
  0
ENDSEC
  0
SECTION
  2
ENTITIES
  0
LINE
  5
46
  8
FUTO
 10
24108.48228109505
 20
807.49958660341497
 30
0.0
 11
25358.48228109505
 21
807.49958660341497
 31
0.0
  0
LINE
  5
49
  8
FUTO
 10
25166.48228109505
 20
1024.9995866034151
 30
0.0
 11
24104.48228109505
 21
1024.9995866034151
 31
0.0
  0
LINE
  5
4A
  8
FUTO
 10
25166.48228109505
 20
909.99958660341497
 30
0.0
 11
24104.48228109505
 21
909.99958660341497
 31
0.0
  0
LINE
  5
4B
  8
FUTO
 10
23853.48228109505
 20
-1202.5004133965849
 30
0.0
 11
25396.282281095049
 21
-1202.5004133965849
 31
0.0
  0
LINE
  5
4C
  8
CT
 10
27250.745493094018
 20
967.49958660341497
 30
0.0
 11
23519.70485809664
 21
967.49958660341497
 31
0.0
  0
LINE
  5
4F
  8
FUTO
 10
23853.48228109505
 20
-1402.5004133965849
 30
0.0
 11
27053.482281095039
 21
-1402.5004133965849
 31
0.0
  0
LINE
  5
50
  8
FUTO
 10
23928.482281095039
 20
-1382.5004133965849
 30
0.0
 11
26978.48228109505
 21
-1382.5004133965849
 31
0.0
  0
LINE
  5
51
  8
FUTO
 10
23928.482281095039
 20
-1570.500413396584
 30
0.0
 11
25441.627359549191
 21
-1570.500413396584
 31
0.0
  0
LINE
  5
52
  8
FUTO
 10
23928.482281095039
 20
-1414.5004133965849
 30
0.0
 11
25441.627359549191
 21
-1414.5004133965849
 31
0.0
  0
LINE
  5
53
  8
FUTO
 10
23928.482281095039
 20
-1370.5004133965849
 30
0.0
 11
25441.627359549191
 21
-1370.5004133965849
 31
0.0
  0
LINE
  5
54
  8
FUTO
 10
23943.482281095039
 20
-1214.5004133965849
 30
0.0
 11
25396.282281095049
 21
-1214.5004133965849
 31
0.0
  0
DIMENSION
  5
6B
  8
SP
  2
*D8
 10
18445.742671524171
 20
-2545.4540373106729
 30
0.0
 11
20145.742671524171
 21
-2455.4540373106738
 31
0.0
 70
     0
 13
21845.742671524171
 23
-1582.500413396584
 33
0.0
 14
18445.742671524171
 24
-1582.500413396584
 34
0.0
1001
ACAD
1000
DSTYLE
1002
{
1070
   287
1070
     0
1070
   287
1070
     0
1070
    40
1040
45.0
1070
   140
1040
3.0
1070
   143
1040
0.03937
1070
   147
1040
0.5
1070
   173
1070
     1
1070
   176
1070
   256
1070
   177
1070
   256
1070
   178
1070
   256
1070
   271
1070
     4
1070
   272
1070
     4
1070
   279
1070
     0
1070
   285
1070
     0
1070
   286
1070
     0
1070
   289
1070
     0
1070
     6
1000
OPEN
1070
     7
1000
OPEN
1002
}
  0
LINE
  5
78
  8
CT
 10
18900.509678285649
 20
967.49958660341497
 30
0.0
 11
18602.70947138402
 21
967.49958660341497
 31
0.0
  0
LINE
  5
80
  8
FUTO
 10
19170.509678285649
 20
-1382.5004133965849
 30
0.0
 11
18604.975980709489
 21
-1382.5004133965849
 31
0.0
  0
ARC
  5
86
  8
KL
 10
20548.742671524171
 20
820.49958660341508
 30
0.0
 40
1589.0
 50
89.999999999999986
 51
180.0
  0
LINE
  5
89
  8
FUTO
 10
21845.742671524171
 20
-1382.5004133965849
 30
0.0
 11
18445.742671524171
 21
-1382.5004133965849
 31
0.0
  0
LINE
  5
8A
  8
FUTO
 10
21845.742671524171
 20
-1202.5004133965849
 30
0.0
 11
18445.742671524171
 21
-1202.5004133965849
 31
0.0
  0
LINE
  5
8C
  8
FUTO
 10
21845.742671524171
 20
-1402.5004133965849
 30
0.0
 11
18445.742671524171
 21
-1402.5004133965849
 31
0.0
  0
LINE
  5
8D
  8
FUTO
 10
21845.742671524171
 20
-1582.500413396584
 30
0.0
 11
18445.742671524171
 21
-1582.500413396584
 31
0.0
  0
LINE
  5
8E
  8
FUTO
 10
21845.742671524171
 20
-1218.5004133965849
 30
0.0
 11
18445.742671524171
 21
-1218.5004133965849
 31
0.0
  0
LINE
  5
8F
  8
FUTO
 10
21845.742671524171
 20
-1366.5004133965849
 30
0.0
 11
18445.742671524171
 21
-1366.5004133965849
 31
0.0
  0
LINE
  5
90
  8
FUTO
 10
21845.742671524171
 20
-1418.5004133965849
 30
0.0
 11
18445.742671524171
 21
-1418.5004133965849
 31
0.0
  0
LINE
  5
91
  8
FUTO
 10
21845.742671524171
 20
-1566.500413396584
 30
0.0
 11
18445.742671524171
 21
-1566.500413396584
 31
0.0
  0
ARC
  5
92
  8
KL
 10
20842.742671524171
 20
820.49958660341508
 30
0.0
 40
1883.0
 50
180.0
 51
264.42838162163292
  0
ARC
  5
93
  8
FUTO
 10
20842.742671524171
 20
820.49958660341508
 30
0.0
 40
1903.0
 50
228.35562174952449
 51
242.68374042314471
  0
LINE
  5
A6
  8
FUTO
 10
18445.742671524171
 20
-1382.5004133965849
 30
0.0
 11
18445.742671524171
 21
-1202.5004133965849
 31
0.0
  0
LINE
  5
A7
  8
FUTO
 10
18445.742671524171
 20
-1582.500413396584
 30
0.0
 11
18445.742671524171
 21
-1402.5004133965849
 31
0.0
  0
LINE
  5
FF
  8
FUTO
 10
24108.48228109505
 20
827.49958660341508
 30
0.0
 11
24108.48228109505
 21
807.49958660341497
 31
0.0
  0
LINE
  5
100
  8
FUTO
 10
23928.482281095039
 20
827.49958660341508
 30
0.0
 11
23928.482281095039
 21
-1202.5004133965849
 31
0.0
  0
LINE
  5
101
  8
SL
 10
23872.282281095049
 20
1342.4995866034151
 30
0.0
 11
23872.282281095049
 21
-1007.500413396585
 31
0.0
  0
LINE
  5
102
  8
SL
 10
23742.282281095049
 20
1342.4995866034151
 30
0.0
 11
23742.282281095049
 21
-1007.500413396585
 31
0.0
  0
LINE
  5
103
  8
FUTO
 10
23624.48228109505
 20
1447.4995866034151
 30
0.0
 11
23624.48228109505
 21
-1102.500413396584
 31
0.0
  0
LINE
  5
104
  8
FUTO
 10
21836.74267152416
 20
-1202.5004133965849
 30
0.0
 11
21836.742671524171
 21
880.162143698406
 31
0.0
  0
LINE
  5
105
  8
FUTO
 10
21845.742671524171
 20
-1382.5004133965849
 30
0.0
 11
21845.742671524171
 21
879.56021711388985
 31
0.0
  0
ARC
  5
10A
  8
KL
 10
20573.242671524171
 20
1089.9995866034151
 30
0.0
 40
1319.5
 50
0.000000000000007
 51
91.063908502627825
  0
ARC
  5
10B
  8
FUTO
 10
20573.242671524171
 20
1089.9995866034151
 30
0.0
 40
1339.5
 50
0.000000000000007
 51
84.75285293416124
  0
LINE
  5
10C
  8
CT
 10
20695.742671524171
 20
-712.50041339658492
 30
0.0
 11
20695.742671524171
 21
2564.602716810406
 31
0.0
  0
LINE
  5
10D
  8
CT
 10
20695.742671524171
 20
-1572.503557178816
 30
0.0
 11
20695.742671524171
 21
2302.5754473170982
 31
0.0
  0
LINE
  5
10E
  8
KL
 10
19536.742671524171
 20
-529.57622036210876
 30
0.0
 11
19536.742671524171
 21
-9.3200291095467946
 31
0.0
  0
ARC
  5
10F
  8
FUTO
 10
20548.742671524171
 20
820.49958660341508
 30
0.0
 40
1609.0
 50
84.758085345326023
 51
174.43616870097301
  0
LINE
  5
110
  8
CT
 10
18845.742671524171
 20
-219.28532466473729
 30
0.0
 11
18845.742671524171
 21
-1582.500413396584
 31
0.0
  0
LINE
  5
111
  8
FUTO
 10
19554.742671524171
 20
-1202.5004133965849
 30
0.0
 11
19554.742671524171
 21
-621.33317863867433
 31
0.0
  0
LINE
  5
112
  8
FUTO
 10
19545.742671524171
 20
-1382.5004133965849
 30
0.0
 11
19545.742671524171
 21
-628.91502317120762
 31
0.0
  0
LINE
  5
127
  8
KL
 10
19545.742671524171
 20
-553.97690349659194
 30
0.0
 11
19510.387332464841
 21
-589.33224255591904
 31
0.0
  0
LINE
  5
128
  8
KL
 10
19545.742671524171
 20
-520.57622036210876
 30
0.0
 11
19492.387332464841
 21
-573.93155942143585
 31
0.0
  0
LINE
  5
129
  8
KL
 10
19545.742671524171
 20
-537.33466107055938
 30
0.0
 11
19501.387332464841
 21
-581.69000012988545
 31
0.0
  0
LINE
  5
156
  8
KL
 10
19492.387332464841
 20
-573.93155942143585
 30
0.0
 11
19510.387332464841
 21
-589.33224255591904
 31
0.0
  0
LINE
  5
157
  8
FUTO
 10
19895.742671524171
 20
-1382.500413396584
 30
0.0
 11
19895.742671524171
 21
-1188.2883669188741
 31
0.0
  0
LINE
  5
15F
  8
CT
 10
21712.21535075099
 20
-1294.8920252523801
 30
0.0
 11
21712.21535075099
 21
-1486.2004187422369
 31
0.0
  0
LINE
  5
160
  8
FUTO
 10
21495.742671524171
 20
-1382.5004133965849
 30
0.0
 11
21495.742671524171
 21
-1188.288366918875
 31
0.0
  0
LINE
  5
162
  8
SP
 10
21752.21535075099
 20
-1382.5004133965849
 30
0.0
 11
21752.21535075099
 21
-1402.5004133965849
 31
0.0
  0
LINE
  5
163
  8
SP
 10
21672.21535075099
 20
-1382.5004133965849
 30
0.0
 11
21672.21535075099
 21
-1402.5004133965849
 31
0.0
  0
DIMENSION
  5
164
  8
SP
  2
*D9
 10
22434.848521819578
 20
-1582.5004133965849
 30
0.0
 11
22344.848521819578
 21
-1942.5004133965811
 31
0.0
 70
     0
 13
21811.77534093802
 23
-1402.5004133965849
 33
0.0
 14
21811.77534093802
 24
-1582.500413396584
 34
0.0
 50
90.0
1001
ACAD
1000
DSTYLE
1002
{
1070
   287
1070
     0
1070
   287
1070
     0
1070
    40
1040
45.0
1070
   140
1040
3.0
1070
   143
1040
0.03937
1070
   147
1040
0.5
1070
   173
1070
     1
1070
   176
1070
   256
1070
   177
1070
   256
1070
   178
1070
   256
1070
   271
1070
     4
1070
   272
1070
     4
1070
   279
1070
     0
1070
   285
1070
     0
1070
   286
1070
     0
1070
   289
1070
     0
1070
     6
1000
DOT
1070
     7
1000
OPEN
1002
}
  0
DIMENSION
  5
17B
  8
SP
  2
*D16
 10
22434.848521819578
 20
-1402.5004133965849
 30
0.0
 11
22656.332915238989
 21
-1406.7046721900169
 31
0.0
 70
   128
  1
(<>)
 13
21811.77534093802
 23
-1382.5004133965849
 33
0.0
 14
21811.77534093802
 24
-1402.5004133965849
 34
0.0
 50
90.0
1001
ACAD
1000
DSTYLE
1002
{
1070
   140
1040
3.0
1070
   272
1070
     4
1070
    40
1040
45.0
1070
   173
1070
     1
1070
   147
1040
0.5
1070
   271
1070
     4
1070
   178
1070
   256
1070
   177
1070
   256
1070
   176
1070
   256
1070
     7
1000
_DOT
1070
     6
1000
_OPEN
1070
     5
1000

1070
   285
1070
     0
1070
   286
1070
     0
1070
   143
1040
0.03937
1002
}
  0
LINE
  5
18A
  8
FUTO
 10
21845.742671524171
 20
-1582.500413396584
 30
0.0
 11
21845.742671524171
 21
-1402.5004133965849
 31
0.0
  0
ARC
  5
19A
  8
FUTO
 10
23911.482281095039
 20
-1359.425043778899
 30
0.0
 40
10.0
 50
275.0
 51
0.0
  0
LINE
  5
19B
  8
FUTO
 10
23928.482281095039
 20
-1202.5004133965849
 30
0.0
 11
23928.482281095039
 21
-1382.5004133965849
 31
0.0
  0
ARC
  5
1A0
  8
FUTO
 10
23911.482281095039
 20
-1425.57578301427
 30
0.0
 40
10.0
 50
0.0
 51
85.000000000000014
  0
LINE
  5
1A1
  8
FUTO
 10
23853.48228109505
 20
-1379.5774060959329
 30
0.0
 11
23853.48228109505
 21
-1382.5004133965849
 31
0.0
  0
ARC
  5
1A2
  8
FUTO
 10
23858.98228109505
 20
-1379.577406095932
 30
0.0
 40
5.5
 50
95.000000000000057
 51
180.00000000000051
  0
LINE
  5
1A3
  8
FUTO
 10
23853.48228109505
 20
-1405.4234206972369
 30
0.0
 11
23853.48228109505
 21
-1402.5004133965849
 31
0.0
  0
ARC
  5
1A4
  8
FUTO
 10
23858.98228109505
 20
-1405.4234206972369
 30
0.0
 40
5.5
 50
180.0
 51
265.0
  0
LINE
  5
1A5
  8
FUTO
 10
23928.482281095039
 20
-1382.5004133965849
 30
0.0
 11
23853.48228109505
 21
-1382.5004133965849
 31
0.0
  0
LINE
  5
1A6
  8
FUTO
 10
23912.353838522518
 20
-1369.3869907598171
 30
0.0
 11
23858.502924509939
 21
-1374.0983352564281
 31
0.0
  0
LINE
  5
1A7
  8
FUTO
 10
23912.353838522518
 20
-1415.6138360333521
 30
0.0
 11
23858.502924509939
 21
-1410.9024915367411
 31
0.0
  0
LINE
  5
1A8
  8
FUTO
 10
23928.482281095039
 20
-1402.5004133965849
 30
0.0
 11
23853.48228109505
 21
-1402.5004133965849
 31
0.0
  0
ARC
  5
1A9
  8
FUTO
 10
23911.482281095039
 20
-1559.425043778899
 30
0.0
 40
10.0
 50
275.0
 51
0.0
  0
LINE
  5
1AA
  8
FUTO
 10
23853.48228109505
 20
-1579.5774060959329
 30
0.0
 11
23853.48228109505
 21
-1582.500413396584
 31
0.0
  0
ARC
  5
1AB
  8
FUTO
 10
23858.98228109505
 20
-1579.577406095932
 30
0.0
 40
5.5
 50
95.000000000000057
 51
180.00000000000051
  0
LINE
  5
1AC
  8
FUTO
 10
23928.482281095039
 20
-1582.500413396584
 30
0.0
 11
23853.48228109505
 21
-1582.500413396584
 31
0.0
  0
LINE
  5
1AD
  8
FUTO
 10
23912.353838522518
 20
-1569.3869907598171
 30
0.0
 11
23858.502924509939
 21
-1574.0983352564281
 31
0.0
  0
LINE
  5
1AE
  8
FUTO
 10
23928.482281095039
 20
-1402.5004133965849
 30
0.0
 11
23928.482281095039
 21
-1582.500413396584
 31
0.0
  0
LINE
  5
1AF
  8
FUTO
 10
23921.48228109505
 20
-1425.57578301427
 30
0.0
 11
23921.48228109505
 21
-1559.425043778899
 31
0.0
  0
LINE
  5
1B0
  8
CT
 10
24000.87858910163
 20
-852.50041339659504
 30
0.0
 11
23526.674232180379
 21
-852.50041339659504
 31
0.0
  0
LINE
  5
1B1
  8
SL
 10
23872.282281095049
 20
-1007.500413396585
 30
0.0
 11
23742.282281095049
 21
-1007.500413396585
 31
0.0
  0
LINE
  5
1B2
  8
FUTO
 10
23905.231315257559
 20
-1102.500413396584
 30
0.0
 11
23624.48228109505
 21
-1102.500413396584
 31
0.0
  0
ARC
  5
1B3
  8
FUTO
 10
23911.482281095039
 20
-1225.57578301427
 30
0.0
 40
10.0
 50
0.0
 51
85.000000000000014
  0
LINE
  5
1B4
  8
FUTO
 10
23853.48228109505
 20
-1205.4234206972369
 30
0.0
 11
23853.48228109505
 21
-1202.5004133965849
 31
0.0
  0
ARC
  5
1B5
  8
FUTO
 10
23858.98228109505
 20
-1205.4234206972369
 30
0.0
 40
5.5
 50
180.0
 51
265.0
  0
LINE
  5
1B6
  8
FUTO
 10
23912.353838522518
 20
-1215.6138360333521
 30
0.0
 11
23858.502924509939
 21
-1210.9024915367411
 31
0.0
  0
LINE
  5
1B7
  8
FUTO
 10
23928.482281095039
 20
-1202.5004133965849
 30
0.0
 11
23853.48228109505
 21
-1202.5004133965849
 31
0.0
  0
LINE
  5
1B8
  8
FUTO
 10
23921.48228109505
 20
-1225.57578301427
 30
0.0
 11
23921.48228109505
 21
-1359.425043778899
 31
0.0
  0
LINE
  5
1B9
  8
FUTO
 10
23905.231315257559
 20
-980.97869743648516
 30
0.0
 11
23905.231315257559
 21
-1102.500413396584
 31
0.0
  0
LINE
  5
1C7
  8
KL
 10
21970.742671524171
 20
-1180.5004133965831
 30
0.0
 11
20659.922391362368
 21
-1053.604398014716
 31
0.0
  0
LINE
  5
1C8
  8
FUTO
 10
21895.742671524171
 20
-1193.333417216634
 30
0.0
 11
21484.883755500949
 21
-1153.5595747482951
 31
0.0
  0
LINE
  5
1CD
  8
CT
 10
22040.326563944742
 20
967.49958660341497
 30
0.0
 11
20495.742671524171
 21
967.49958660341497
 31
0.0
  0
LINE
  5
1CE
  8
FUTO
 10
21956.765447198191
 20
1042.8176062346099
 30
0.0
 11
21175.189122392821
 21
990.54520982034035
 31
0.0
  0
LINE
  5
1CF
  8
FUTO
 10
21955.564277467209
 20
1060.7774834969241
 30
0.0
 11
21190.83099208949
 21
1009.63156188216
 31
0.0
  0
LINE
  5
1D0
  8
FUTO
 10
21956.164862332698
 20
1051.7975448657669
 30
0.0
 11
21174.672731852541
 21
999.53077942956497
 31
0.0
  0
ARC
  5
1D3
  8
KL
 10
20818.242671524171
 20
1089.9995866034151
 30
0.0
 40
1074.5
 50
326.84808505590962
 51
0.000000000000007
  0
INSERT
  5
1E1
  8
FUTO
  2
右回転矢印
 10
20484.598518595099
 20
1875.2748769327229
 30
0.0
 41
-40.0
 42
40.0
 43
40.0
 50
359.00304546478287
  0
LINE
  5
1F0
  8
FUTO
 10
19545.742671524171
 20
976.49958660341508
 30
0.0
 11
19545.742671524171
 21
2078.6219971819728
 31
0.0
  0
LINE
  5
1F1
  8
FUTO
 10
19554.742671524171
 20
976.49958660341508
 30
0.0
 11
19554.742671524171
 21
2085.7446221597688
 31
0.0
  0
LINE
  5
1F3
  8
KL
 10
20495.742671524171
 20
967.49958660341497
 30
0.0
 11
20059.268908654391
 21
967.49958660341497
 31
0.0
  0
LINE
  5
1F4
  8
KL
 10
20495.742671524171
 20
976.49958660341508
 30
0.0
 11
20067.105844582551
 21
976.49958660341463
 31
0.0
  0
LINE
  5
1F5
  8
KL
 10
20495.742671524171
 20
958.49958660341497
 30
0.0
 11
20051.431972726241
 21
958.49958660341497
 31
0.0
  0
LINE
  5
21D
  8
FUTO
 10
18900.509678285649
 20
976.49958660341508
 30
0.0
 11
18900.509678285649
 21
958.49958660341497
 31
0.0
  0
INSERT
  5
226
  8
FUTO
  2
22222F
 10
20695.742671524171
 20
967.49958660341497
 30
0.0
  0
LINE
  5
259
  8
KL
 10
20695.742671524171
 20
827.49958660341508
 30
0.0
 11
20346.15586704672
 21
827.49958660341508
 31
0.0
  0
LINE
  5
25C
  8
KL
 10
20495.742671524171
 20
958.49958660341497
 30
0.0
 11
20495.742671524171
 21
976.49958660341508
 31
0.0
  0
LINE
  5
25E
  8
KL
 10
20695.742671524171
 20
827.49958660341508
 30
0.0
 11
21045.329476001611
 21
827.49958660341508
 31
0.0
  0
LINE
  5
25F
  8
FUTO
 10
20894.696278462168
 20
989.82585557880157
 30
0.0
 11
20895.897448193151
 21
971.86597831648749
 31
0.0
  0
CIRCLE
  5
265
  8
KL
 10
21738.351360756042
 20
488.99958660341503
 30
0.0
 40
24.5
  0
LINE
  5
26B
  8
FUTO
 10
20686.742671524171
 20
-1076.2942739271029
 30
0.0
 11
20657.995268927581
 21
-1073.511336481527
 31
0.0
  0
LINE
  5
26C
  8
SP
 10
23624.48228109505
 20
1487.4995866034151
 30
0.0
 11
23624.48228109505
 21
2782.330032577172
 31
0.0
  0
LINE
  5
289
  8
FUTO
 10
21895.742671524171
 20
883.49958660341497
 30
0.0
 11
21895.742671524171
 21
-1193.333417216634
 31
0.0
  0
LINE
  5
28A
  8
FUTO
 10
21964.742671524171
 20
883.49958660341497
 30
0.0
 11
21964.742671524171
 21
-1184.5004133965831
 31
0.0
  0
LINE
  5
28B
  8
FUTO
 10
21970.742671524171
 20
958.49958660341497
 30
0.0
 11
21970.742671524171
 21
-1259.5004133965861
 31
0.0
  0
LINE
  5
28C
  8
FUTO
 10
21845.742671524171
 20
1508.33438075757
 30
0.0
 11
21845.742671524171
 21
-1188.4930887100361
 31
0.0
  0
LINE
  5
28D
  8
FUTO
 10
21836.742671524171
 20
1534.7781832107601
 30
0.0
 11
21836.742671524171
 21
-1187.6218295788469
 31
0.0
  0
LINE
  5
28E
  8
FUTO
 10
21970.742671524629
 20
958.49958660351319
 30
0.0
 11
21970.74267152563
 21
-1259.500413396486
 31
0.0
  0
LINE
  5
28F
  8
FUTO
 10
21970.742671524109
 20
958.49958660351695
 30
0.0
 11
21970.74267152563
 21
-1259.5004133964831
 31
0.0
  0
INSERT
  5
291
  8
FUTO
  2
L-75-6
 10
22052.172268408642
 20
768.89312519985924
 30
0.0
 50
90.0
  0
ARC
  5
29E
  8
FUTO
 10
20818.242671524171
 20
1089.9995866034151
 30
0.0
 40
1094.5
 50
349.97650033240342
 51
357.37099416003571
  0
LINE
  5
2A1
  8
CT
 10
22067.026078548512
 20
967.49958660341497
 30
0.0
 11
21935.027341906069
 21
967.49958660341497
 31
0.0
  0
LINE
  5
2A2
  8
FUTO
 10
21931.407119636249
 20
923.26764725997771
 30
0.0
 11
22026.10343086487
 21
923.26764725993769
 31
0.0
  0
ARC
  5
2A3
  8
FUTO
 10
20818.242671524171
 20
1089.9995866034151
 30
0.0
 40
1094.5
 50
358.31844199692659
 51
0.000000000000007
  0
LINE
  5
2A4
  8
FUTO
 10
21956.765447198191
 20
1042.8176062346099
 30
0.0
 11
21955.564277467209
 21
1060.7774834969241
 31
0.0
  0
LINE
  5
2A5
  8
KL
 10
21871.921939612901
 20
879.49958660341508
 30
0.0
 11
21970.742671524171
 21
879.49958660341508
 31
0.0
  0
LINE
  5
2A6
  8
FUTO
 10
21895.742671524171
 20
883.49958660341497
 30
0.0
 11
21970.742671524171
 21
883.49958660341497
 31
0.0
  0
LINE
  5
2A7
  8
FUTO
 10
21896.036714929502
 20
899.49958660341497
 30
0.0
 11
21896.036714929502
 21
886.57680463338238
 31
0.0
  0
LINE
  5
2A8
  8
FUTO
 10
23954.48228109505
 20
1082.4995866034151
 30
0.0
 11
23954.48228109505
 21
887.49958660341508
 31
0.0
  0
LINE
  5
2A9
  8
FUTO
 10
24082.48228109505
 20
1082.4995866034151
 30
0.0
 11
24082.48228109505
 21
887.49958660341508
 31
0.0
  0
LINE
  5
2AA
  8
CT
 10
24018.48228109505
 20
1130.9912051132451
 30
0.0
 11
24018.48228109505
 21
816.34243284137574
 31
0.0
  0
LINE
  5
2AB
  8
FUTO
 10
23940.48228109505
 20
1082.4995866034151
 30
0.0
 11
23940.48228109505
 21
852.49958660341508
 31
0.0
  0
LINE
  5
2AC
  8
FUTO
 10
24096.48228109505
 20
1082.4995866034151
 30
0.0
 11
24096.48228109505
 21
852.49958660341508
 31
0.0
  0
LINE
  5
2AD
  8
FUTO
 10
24082.48228109505
 20
1082.4995866034151
 30
0.0
 11
24082.48228109505
 21
887.49958660341508
 31
0.0
  0
LINE
  5
2AE
  8
FUTO
 10
23932.48228109505
 20
1047.4995866034151
 30
0.0
 11
23932.48228109505
 21
887.49958660341508
 31
0.0
  0
LINE
  5
2AF
  8
FUTO
 10
24104.48228109505
 20
1047.4995866034151
 30
0.0
 11
24104.48228109505
 21
887.49958660341508
 31
0.0
  0
LINE
  5
2B1
  8
SL
 10
23872.282281095049
 20
-727.50041339659504
 30
0.0
 11
23742.282281095049
 21
-727.50041339659504
 31
0.0
  0
LINE
  5
2B2
  8
SL
 10
23872.282281095049
 20
592.49958660341508
 30
0.0
 11
23742.282281095049
 21
592.49958660341508
 31
0.0
  0
LINE
  5
2B3
  8
FUTO
 10
23948.48228109505
 20
837.49958660341508
 30
0.0
 11
24088.482281095039
 21
837.49958660341508
 31
0.0
  0
LINE
  5
2B4
  8
FUTO
 10
23948.48228109505
 20
887.49958660341508
 30
0.0
 11
24088.482281095039
 21
887.49958660341508
 31
0.0
  0
LINE
  5
2B5
  8
FUTO
 10
23928.482281095039
 20
827.49958660341508
 30
0.0
 11
24108.48228109505
 21
827.49958660341508
 31
0.0
  0
LINE
  5
2B6
  8
CT
 10
23973.48228109505
 20
914.24624408076852
 30
0.0
 11
23973.48228109505
 21
816.34243284137574
 31
0.0
  0
LINE
  5
2B7
  8
FUTO
 10
23948.48228109505
 20
887.49958660341508
 30
0.0
 11
23948.48228109505
 21
827.49958660341508
 31
0.0
  0
LINE
  5
2B8
  8
FUTO
 10
23932.48228109505
 20
887.49958660341508
 30
0.0
 11
23940.48228109505
 21
867.49958660341497
 31
0.0
  0
LINE
  5
2B9
  8
FUTO
 10
23940.48228109505
 20
852.49958660341508
 30
0.0
 11
23948.48228109505
 21
852.49958660341508
 31
0.0
  0
LINE
  5
2BA
  8
FUTO
 10
23932.48228109505
 20
1019.999586603415
 30
0.0
 11
23872.282281095038
 21
1019.999586603415
 31
0.0
  0
LINE
  5
2BB
  8
FUTO
 10
23932.48228109505
 20
914.99958660341508
 30
0.0
 11
23872.282281095038
 21
914.99958660341508
 31
0.0
  0
LINE
  5
2BC
  8
CT
 10
24063.482281095039
 20
914.24624408076852
 30
0.0
 11
24063.482281095039
 21
816.34243284137574
 31
0.0
  0
LINE
  5
2BD
  8
FUTO
 10
24088.482281095039
 20
887.49958660341508
 30
0.0
 11
24088.482281095039
 21
827.49958660341508
 31
0.0
  0
LINE
  5
2BE
  8
FUTO
 10
24096.48228109505
 20
852.49958660341508
 30
0.0
 11
24088.482281095039
 21
852.49958660341508
 31
0.0
  0
LINE
  5
2BF
  8
FUTO
 10
24104.48228109505
 20
887.49958660341508
 30
0.0
 11
24096.48228109505
 21
867.49958660341497
 31
0.0
  0
LINE
  5
2C0
  8
SL
 10
23872.282281095038
 20
1342.4995866034151
 30
0.0
 11
23742.282281095049
 21
1342.4995866034151
 31
0.0
  0
LINE
  5
2C1
  8
FUTO
 10
23905.231315257559
 20
1447.4995866034151
 30
0.0
 11
23624.48228109505
 21
1447.4995866034151
 31
0.0
  0
POINT
  5
2C2
  8
DEFPOINTS
 10
23624.48228109505
 20
1447.4995866034151
 30
0.0
  0
LINE
  5
2C3
  8
FUTO
 10
23905.231315257559
 20
1447.4995866034151
 30
0.0
 11
23905.231315257559
 21
1180.2218331076961
 31
0.0
  0
LINE
  5
2C4
  8
FUTO
 10
23964.482281095039
 20
1100.4995866034151
 30
0.0
 11
24072.48228109505
 21
1100.4995866034151
 31
0.0
  0
LINE
  5
2C5
  8
FUTO
 10
23932.48228109505
 20
1047.4995866034151
 30
0.0
 11
23940.48228109505
 21
1067.4995866034151
 31
0.0
  0
LINE
  5
2C6
  8
FUTO
 10
23940.48228109505
 20
1082.4995866034151
 30
0.0
 11
23954.48228109505
 21
1082.4995866034151
 31
0.0
  0
LINE
  5
2C7
  8
FUTO
 10
23964.482281095039
 20
1100.4995866034151
 30
0.0
 11
23964.482281095039
 21
1082.4995866034151
 31
0.0
  0
LINE
  5
2C8
  8
FUTO
 10
23954.48228109505
 20
1082.4995866034151
 30
0.0
 11
23964.482281095039
 21
1082.4995866034151
 31
0.0
  0
LINE
  5
2C9
  8
FUTO
 10
24072.48228109505
 20
1100.4995866034151
 30
0.0
 11
24072.48228109505
 21
1082.4995866034151
 31
0.0
  0
LINE
  5
2CA
  8
FUTO
 10
24072.48228109505
 20
1082.4995866034151
 30
0.0
 11
24082.48228109505
 21
1082.4995866034151
 31
0.0
  0
LINE
  5
2CB
  8
FUTO
 10
24096.48228109505
 20
1082.4995866034151
 30
0.0
 11
24082.48228109505
 21
1082.4995866034151
 31
0.0
  0
LINE
  5
2CC
  8
FUTO
 10
24104.48228109505
 20
1047.4995866034151
 30
0.0
 11
24096.48228109505
 21
1067.4995866034151
 31
0.0
  0
INSERT
  5
2CD
  8
FUTO
  2
まっすぐの矢印
 10
22343.86734070328
 20
-574.06899561825946
 30
0.0
 41
-40.0
 42
40.0
 43
40.0
 50
270.0
  0
LINE
  5
2D8
  8
FUTO
 10
21931.407119636249
 20
-1224.500413396574
 30
0.0
 11
22026.10343086487
 21
-1224.500413396534
 31
0.0
  0
INSERT
  5
2D9
  8
FUTO
  2
L-75-6
 10
22052.172268408642
 20
-1069.89395199303
 30
0.0
 41
-1.0
 50
90.0
  0
LINE
  5
2DA
  8
FUTO
 10
21970.74267152559
 20
-1184.500413396486
 30
0.0
 11
21970.74267152563
 21
-1259.500413396486
 31
0.0
  0
LINE
  5
2DB
  8
FUTO
 10
21970.742671525579
 20
-1184.5004133964831
 30
0.0
 11
21970.74267152563
 21
-1259.5004133964831
 31
0.0
  0
LINE
  5
33E
  8
FUTO
 10
21970.742671524429
 20
5255.6403978092012
 30
0.0
 11
18959.742671524171
 21
5255.6403978092012
 31
0.0
  0
LINE
  5
33F
  8
FUTO
 10
21970.742671524378
 20
5180.6403978092012
 30
0.0
 11
18445.742671524171
 21
5180.6403978092012
 31
0.0
  0
LINE
  5
340
  8
FUTO
 10
21495.742671524171
 20
3638.6403978091998
 30
0.0
 11
18445.742671524171
 21
3638.6403978091998
 31
0.0
  0
LINE
  5
341
  8
FUTO
 10
21495.742671524171
 20
3713.6403978092021
 30
0.0
 11
18445.742671524171
 21
3713.6403978091998
 31
0.0
  0
LINE
  5
35D
  8
FUTO
 10
18445.742671524171
 20
3638.6403978091998
 30
0.0
 11
18445.742671524171
 21
3713.6403978091998
 31
0.0
  0
LINE
  5
35E
  8
SL
 10
18620.742671524171
 20
3713.6403978091998
 30
0.0
 11
18620.742671524171
 21
4617.4403978091323
 31
0.0
  0
POINT
  5
388
  8
DEFPOINTS
 10
18445.742671524171
 20
5255.6403978092012
 30
0.0
  0
LINE
  5
3AB
  8
CT
 10
20695.742671524171
 20
3188.8658365784122
 30
0.0
 11
20695.742671524171
 21
7168.2587782432483
 31
0.0
  0
LINE
  5
3AE
  8
FUTO
 10
19545.742671524171
 20
5205.6403978092012
 30
0.0
 11
19545.742671524171
 21
5180.6403978092012
 31
0.0
  0
LINE
  5
44F
  8
FUTO
 10
21495.742671524171
 20
3638.6403978091998
 30
0.0
 11
21495.742671524171
 21
5180.6403978092012
 31
0.0
  0
LINE
  5
450
  8
FUTO
 10
21420.742671524171
 20
3713.6403978091998
 30
0.0
 11
21420.742671524171
 21
5180.6403978092012
 31
0.0
  0
LINE
  5
452
  8
FUTO
 10
19970.742671524171
 20
3713.6403978091998
 30
0.0
 11
19970.742671524171
 21
5180.6403978092012
 31
0.0
  0
LINE
  5
454
  8
FUTO
 10
19895.742671524171
 20
3638.6403978091998
 30
0.0
 11
19895.742671524171
 21
5180.6403978092012
 31
0.0
  0
LINE
  5
546
  8
CT
 10
22191.64938320635
 20
6009.6403978092021
 30
0.0
 11
18756.677680878431
 21
6009.6403978092021
 31
0.0
  0
LINE
  5
547
  8
FUTO
 10
21970.742671524171
 20
6763.6403978092058
 30
0.0
 11
18959.742671524171
 21
6763.6403978092058
 31
0.0
  0
LINE
  5
548
  8
FUTO
 10
21970.742671524171
 20
6838.6403978092058
 30
0.0
 11
19545.742671524171
 21
6838.6403978092039
 31
0.0
  0
LINE
  5
568
  8
FUTO
 10
19545.742671524171
 20
6813.6403978092058
 30
0.0
 11
19545.742671524171
 21
6838.6403978092039
 31
0.0
  0
DIMENSION
  5
5CF
  8
SP
  2
*D10
 10
27623.671999474071
 20
-32.500413396585053
 30
0.0
 11
27623.671999474071
 21
967.49958660341497
 31
0.0
 70
   128
  1
%%C<>
 13
27129.482281095039
 23
1967.4995866034151
 33
0.0
 14
27129.482281095039
 24
-32.500413396584911
 34
0.0
 50
90.0
1001
ACAD
1000
DSTYLE
1002
{
1070
   287
1070
     0
1070
   287
1070
     0
1070
    40
1040
45.0
1070
   140
1040
3.0
1070
   143
1040
0.03937
1070
   147
1040
0.5
1070
   173
1070
     1
1070
   176
1070
   256
1070
   177
1070
   256
1070
   178
1070
   256
1070
   271
1070
     4
1070
   272
1070
     4
1070
   279
1070
     0
1070
   285
1070
     0
1070
   286
1070
     0
1070
   289
1070
     0
1070
     6
1000
OPEN
1070
     7
1000
OPEN
1002
}
  0
LINE
  5
5DE
  8
FUTO
 10
26977.682281095051
 20
-1186.5004133965831
 30
0.0
 11
26977.682281095051
 21
967.49958660341497
 31
0.0
  0
LINE
  5
5DF
  8
FUTO
 10
26974.48228109505
 20
-1186.5004133965831
 30
0.0
 11
26974.48228109505
 21
967.49958660341497
 31
0.0
  0
LINE
  5
5E0
  8
FUTO
 10
27067.682281095051
 20
-1202.5004133965849
 30
0.0
 11
27067.68228109504
 21
1042.7975448657669
 31
0.0
  0
LINE
  5
5E5
  8
KL
 10
26986.682281095938
 20
-107.5004133965849
 30
0.0
 11
26986.68228109643
 21
2042.4995866034151
 31
0.0
  0
LINE
  5
5E6
  8
FUTO
 10
27129.482281095039
 20
-107.5004133965849
 30
0.0
 11
27129.482281095039
 21
2042.4995866034151
 31
0.0
  0
LINE
  5
5E7
  8
FUTO
 10
27123.48228109505
 20
-107.5004133965849
 30
0.0
 11
27123.48228109505
 21
2042.4995866034151
 31
0.0
  0
LINE
  5
5EB
  8
FUTO
 10
25471.282281095049
 20
-1186.5004133965831
 30
0.0
 11
25471.282281095038
 21
967.49958660341497
 31
0.0
  0
LINE
  5
5EC
  8
FUTO
 10
25474.48228109505
 20
-1186.5004133965831
 30
0.0
 11
25474.48228109505
 21
967.49958660341497
 31
0.0
  0
LINE
  5
5ED
  8
FUTO
 10
25381.282281095049
 20
-1202.5004133965849
 30
0.0
 11
25381.282281095049
 21
1042.7975448657669
 31
0.0
  0
LINE
  5
5EE
  8
FUTO
 10
25358.48228109505
 20
-1202.5004133965849
 30
0.0
 11
25358.48228109505
 21
807.49958660341497
 31
0.0
  0
LINE
  5
5F0
  8
CT
 10
26224.482281095039
 20
-1609.976769420673
 30
0.0
 11
26224.482281095039
 21
2674.8898042342898
 31
0.0
  0
ARC
  5
614
  8
FUTO
 10
26995.48228109505
 20
-1359.425043778899
 30
0.0
 40
10.0
 50
180.0
 51
265.0
  0
LINE
  5
617
  8
FUTO
 10
26978.48228109505
 20
-1382.5004133965849
 30
0.0
 11
26978.48228109505
 21
-1255.5004133965831
 31
0.0
  0
LINE
  5
618
  8
FUTO
 10
26978.48228109505
 20
-1382.5004133965849
 30
0.0
 11
26978.48228109505
 21
-1255.5004133965831
 31
0.0
  0
LINE
  5
61B
  8
FUTO
 10
26994.610723667571
 20
-1369.3869907598171
 30
0.0
 11
27048.46163768016
 21
-1374.0983352564281
 31
0.0
  0
LINE
  5
61C
  8
FUTO
 10
26978.48228109505
 20
-1382.5004133965849
 30
0.0
 11
27053.482281095039
 21
-1382.5004133965849
 31
0.0
  0
LINE
  5
61D
  8
FUTO
 10
26978.48228109505
 20
-1402.5004133965849
 30
0.0
 11
27053.482281095039
 21
-1402.5004133965849
 31
0.0
  0
LINE
  5
61E
  8
FUTO
 10
26978.48228109505
 20
-1402.5004133965849
 30
0.0
 11
27053.482281095039
 21
-1402.5004133965849
 31
0.0
  0
LINE
  5
61F
  8
FUTO
 10
26994.610723667571
 20
-1415.6138360333521
 30
0.0
 11
27048.46163768016
 21
-1410.9024915367411
 31
0.0
  0
LINE
  5
620
  8
FUTO
 10
26994.610723667571
 20
-1569.3869907598171
 30
0.0
 11
27048.46163768016
 21
-1574.0983352564281
 31
0.0
  0
LINE
  5
621
  8
FUTO
 10
26978.48228109505
 20
-1582.500413396584
 30
0.0
 11
27053.482281095039
 21
-1582.500413396584
 31
0.0
  0
ARC
  5
623
  8
FUTO
 10
26995.48228109505
 20
-1425.57578301427
 30
0.0
 40
10.0
 50
95.0
 51
180.0
  0
ARC
  5
624
  8
FUTO
 10
26995.48228109505
 20
-1559.425043778899
 30
0.0
 40
10.0
 50
180.0
 51
265.0
  0
LINE
  5
625
  8
FUTO
 10
26978.48228109505
 20
-1582.500413396584
 30
0.0
 11
26978.48228109505
 21
-1402.5004133965849
 31
0.0
  0
LINE
  5
626
  8
FUTO
 10
26985.48228109505
 20
-1559.425043778899
 30
0.0
 11
26985.48228109505
 21
-1425.57578301427
 31
0.0
  0
LINE
  5
629
  8
FUTO
 10
27053.482281095039
 20
-1379.577406095932
 30
0.0
 11
27053.482281095039
 21
-1382.5004133965849
 31
0.0
  0
ARC
  5
62A
  8
FUTO
 10
27047.98228109505
 20
-1379.577406095932
 30
0.0
 40
5.5
 50
0.0
 51
84.999999999999986
  0
LINE
  5
62B
  8
FUTO
 10
27053.482281095039
 20
-1405.423420697236
 30
0.0
 11
27053.482281095039
 21
-1402.5004133965849
 31
0.0
  0
ARC
  5
62C
  8
FUTO
 10
27047.98228109505
 20
-1405.4234206972369
 30
0.0
 40
5.5
 50
275.0
 51
0.0000000000005598
  0
LINE
  5
62D
  8
FUTO
 10
27053.482281095039
 20
-1579.577406095932
 30
0.0
 11
27053.482281095039
 21
-1582.500413396584
 31
0.0
  0
ARC
  5
62E
  8
FUTO
 10
27047.98228109505
 20
-1579.577406095932
 30
0.0
 40
5.5
 50
0.0
 51
84.999999999999986
  0
LINE
  5
632
  8
FUTO
 10
26985.48228109505
 20
-1359.425043778899
 30
0.0
 11
26985.48228109505
 21
-1255.5004133965831
 31
0.0
  0
LINE
  5
635
  8
KL
 10
26977.682281095051
 20
-32.500413396584911
 30
0.0
 11
27129.482281095039
 21
-32.500413396584911
 31
0.0
  0
LINE
  5
636
  8
FUTO
 10
26977.682281095051
 20
-38.500413396584918
 30
0.0
 11
27067.682281095051
 21
-38.500413396584918
 31
0.0
  0
LINE
  5
637
  8
HOSO
 10
26986.68228109596
 20
-32.500413396573997
 30
0.0
 11
26977.68228109596
 21
-32.500413396572178
 31
0.0
  0
LINE
  5
638
  8
HOSO
 10
26951.562537487851
 20
-72.500413396584904
 30
0.0
 11
27009.761693593071
 21
-72.500413396584904
 31
0.0
  0
LINE
  5
639
  8
KL
 10
26977.682281095051
 20
-107.5004133965849
 30
0.0
 11
26986.682281095938
 21
-107.5004133965849
 31
0.0
  0
LINE
  5
63A
  8
FUTO
 10
27067.682281095051
 20
-38.500413396584918
 30
0.0
 11
27123.48228109505
 21
-38.500413396584918
 31
0.0
  0
LINE
  5
63B
  8
HOSO
 10
27101.444091655059
 20
-72.500413396584904
 30
0.0
 11
27159.64324776029
 21
-72.500413396584904
 31
0.0
  0
LINE
  5
63C
  8
FUTO
 10
27123.48228109505
 20
-107.5004133965849
 30
0.0
 11
27129.482281095039
 21
-107.5004133965849
 31
0.0
  0
LINE
  5
68C
  8
FUTO
 10
26977.682281095051
 20
967.49958660341497
 30
0.0
 11
26977.682281095051
 21
2409.4995866034151
 31
0.0
  0
LINE
  5
68D
  8
FUTO
 10
26974.48228109505
 20
967.49958660341497
 30
0.0
 11
26974.48228109505
 21
2409.4995866034151
 31
0.0
  0
LINE
  5
68E
  8
FUTO
 10
27052.68228109504
 20
1042.7975448657669
 30
0.0
 11
27052.68228109504
 21
2409.4995866034042
 31
0.0
  0
LINE
  5
68F
  8
FUTO
 10
25474.48228109505
 20
967.49958660341497
 30
0.0
 11
25474.48228109505
 21
2409.4995866034151
 31
0.0
  0
LINE
  5
690
  8
FUTO
 10
25471.282281095049
 20
967.49958660341497
 30
0.0
 11
25471.282281095038
 21
2409.4995866034151
 31
0.0
  0
LINE
  5
691
  8
FUTO
 10
25396.282281095049
 20
1042.7975448657669
 30
0.0
 11
25396.282281095038
 21
2409.499586603416
 31
0.0
  0
LINE
  5
69A
  8
FUTO
 10
25396.282281095049
 20
1060.7975448657669
 30
0.0
 11
27052.68228109504
 21
1060.7975448657669
 31
0.0
  0
LINE
  5
69B
  8
FUTO
 10
25381.282281095049
 20
1042.7975448657669
 30
0.0
 11
27067.68228109504
 21
1042.7975448657669
 31
0.0
  0
LINE
  5
6A4
  8
FUTO
 10
25203.48228109505
 20
872.49958660341497
 30
0.0
 11
25203.48228109505
 21
1102.4995866034151
 31
0.0
  0
LINE
  5
6A5
  8
FUTO
 10
25190.48228109505
 20
872.49958660341497
 30
0.0
 11
25190.48228109505
 21
1102.4995866034151
 31
0.0
  0
LINE
  5
6A6
  8
FUTO
 10
25166.48228109505
 20
878.49958660341417
 30
0.0
 11
25166.48228109505
 21
1056.499586603416
 31
0.0
  0
LINE
  5
6A7
  8
CT
 10
25268.48228109505
 20
737.20787752891545
 30
0.0
 11
25268.48228109505
 21
1196.833288365211
 31
0.0
  0
LINE
  5
6A8
  8
FUTO
 10
25333.48228109505
 20
872.49958660341497
 30
0.0
 11
25333.48228109505
 21
1102.4995866034151
 31
0.0
  0
LINE
  5
6A9
  8
FUTO
 10
25370.48228109505
 20
878.49958660341417
 30
0.0
 11
25370.48228109505
 21
1056.499586603416
 31
0.0
  0
LINE
  5
6AA
  8
FUTO
 10
25346.48228109505
 20
872.49958660341497
 30
0.0
 11
25346.48228109505
 21
1102.4995866034151
 31
0.0
  0
LINE
  5
6AB
  8
FUTO
 10
25333.48228109505
 20
872.49958660341497
 30
0.0
 11
25333.48228109505
 21
1102.4995866034151
 31
0.0
  0
LINE
  5
6AF
  8
FUTO
 10
25188.48228109505
 20
817.49958660341497
 30
0.0
 11
25348.48228109505
 21
817.49958660341497
 31
0.0
  0
LINE
  5
6B0
  8
FUTO
 10
25188.48228109505
 20
872.49958660341497
 30
0.0
 11
25348.48228109505
 21
872.49958660341497
 31
0.0
  0
LINE
  5
6B1
  8
CT
 10
25218.482281095039
 20
779.13485167031467
 30
0.0
 11
25218.482281095039
 21
901.19316793406051
 31
0.0
  0
LINE
  5
6B2
  8
FUTO
 10
25188.48228109505
 20
807.49958660341497
 30
0.0
 11
25188.48228109505
 21
872.49958660341497
 31
0.0
  0
LINE
  5
6B3
  8
FUTO
 10
25166.48228109505
 20
878.49958660341508
 30
0.0
 11
25188.48228109505
 21
854.66625327008103
 31
0.0
  0
LINE
  5
6B6
  8
KL
 10
25370.48228109505
 20
912.49958660341508
 30
0.0
 11
25464.126321419699
 21
912.49958660341508
 31
0.0
  0
LINE
  5
6BA
  8
CT
 10
25318.48228109505
 20
777.20616495734339
 30
0.0
 11
25318.48228109505
 21
901.19316793406051
 31
0.0
  0
LINE
  5
6BB
  8
FUTO
 10
25348.48228109505
 20
807.49958660341497
 30
0.0
 11
25348.48228109505
 21
872.49958660341497
 31
0.0
  0
LINE
  5
6BC
  8
FUTO
 10
25370.48228109505
 20
878.49958660341508
 30
0.0
 11
25348.48228109505
 21
854.66625327008103
 31
0.0
  0
LINE
  5
6C2
  8
FUTO
 10
25208.48228109505
 20
1118.4995866034151
 30
0.0
 11
25328.48228109505
 21
1118.4995866034151
 31
0.0
  0
LINE
  5
6C3
  8
FUTO
 10
25208.48228109505
 20
1102.4995866034151
 30
0.0
 11
25208.48228109505
 21
1118.4995866034151
 31
0.0
  0
LINE
  5
6C4
  8
FUTO
 10
25166.48228109505
 20
1056.4995866034151
 30
0.0
 11
25190.48228109505
 21
1082.4995866034151
 31
0.0
  0
LINE
  5
6C5
  8
FUTO
 10
25190.48228109505
 20
1102.4995866034151
 30
0.0
 11
25208.48228109505
 21
1102.4995866034151
 31
0.0
  0
LINE
  5
6C6
  8
KL
 10
25370.48228109505
 20
1022.499586603415
 30
0.0
 11
25466.569358286899
 21
1022.499586603415
 31
0.0
  0
LINE
  5
6C7
  8
FUTO
 10
25346.48228109505
 20
1102.4995866034151
 30
0.0
 11
25328.48228109505
 21
1102.4995866034151
 31
0.0
  0
LINE
  5
6C8
  8
FUTO
 10
25328.48228109505
 20
1102.4995866034151
 30
0.0
 11
25328.48228109505
 21
1118.4995866034151
 31
0.0
  0
LINE
  5
6C9
  8
FUTO
 10
25370.48228109505
 20
1056.4995866034151
 30
0.0
 11
25346.48228109505
 21
1082.4995866034151
 31
0.0
  0
LINE
  5
6E2
  8
KL
 10
26977.682281095051
 20
1967.4995866034151
 30
0.0
 11
27129.482281095039
 21
1967.4995866034151
 31
0.0
  0
LINE
  5
6E3
  8
KL
 10
26977.682281095051
 20
1973.4995866034151
 30
0.0
 11
27052.682281095051
 21
1973.4995866034151
 31
0.0
  0
LINE
  5
6E4
  8
HOSO
 10
26986.682281096411
 20
1967.4995866034251
 30
0.0
 11
26977.682281096411
 21
1967.499586603428
 31
0.0
  0
LINE
  5
6E5
  8
HOSO
 10
26943.875907250618
 20
2007.4995866034151
 30
0.0
 11
27014.50303438845
 21
2007.4995866034151
 31
0.0
  0
LINE
  5
6E6
  8
FUTO
 10
27052.682281095051
 20
1973.4995866034151
 30
0.0
 11
27123.48228109505
 21
1973.4995866034151
 31
0.0
  0
LINE
  5
6E7
  8
HOSO
 10
27093.436353652709
 20
2007.4995866034151
 30
0.0
 11
27164.06348079053
 21
2007.4995866034151
 31
0.0
  0
DIMENSION
  5
6F9
  8
SP
  2
*D11
 10
27129.482281095039
 20
2742.330032577172
 30
0.0
 11
26676.98228109505
 21
2832.330032577172
 31
0.0
 70
     0
  1
905
 13
26224.482281095039
 23
2626.3703692551621
 33
0.0
 14
27129.482281095039
 24
2042.4995866034151
 34
0.0
1001
ACAD
1000
DSTYLE
1002
{
1070
   287
1070
     0
1070
   287
1070
     0
1070
    40
1040
45.0
1070
   140
1040
3.0
1070
   143
1040
0.03937
1070
   147
1040
0.5
1070
   173
1070
     1
1070
   176
1070
   256
1070
   177
1070
   256
1070
   178
1070
   256
1070
   271
1070
     4
1070
   272
1070
     4
1070
   279
1070
     0
1070
   285
1070
     0
1070
   286
1070
     0
1070
   289
1070
     0
1070
     6
1000
OPEN
1070
     7
1000
OPEN
1002
}
  0
LINE
  5
706
  8
KL
 10
26977.682281095051
 20
2042.4995866034151
 30
0.0
 11
26986.68228109643
 21
2042.4995866034151
 31
0.0
  0
LINE
  5
707
  8
KL
 10
26977.68228109504
 20
2040.4995866034151
 30
0.0
 11
26977.682281095062
 21
2130.4995866034151
 31
0.0
  0
LINE
  5
708
  8
FUTO
 10
27123.48228109505
 20
2042.4995866034151
 30
0.0
 11
27129.482281095039
 21
2042.4995866034151
 31
0.0
  0
INSERT
  5
71C
  8
FUTO
  2
まっすぐの矢印
 10
27295.978568851078
 20
1518.423837743607
 30
0.0
 41
40.0
 42
40.0
 43
40.0
 50
90.0
  0
DIMENSION
  5
A68
  8
SP
  2
*D6
 10
20695.742671524171
 20
-2250.1211404104702
 30
0.0
 11
19570.742671524171
 21
-2160.1211404104702
 31
0.0
 70
     0
 13
18445.742671524171
 23
-1582.500413396584
 33
0.0
 14
20695.742671524171
 24
-1582.500413396584
 34
0.0
1001
ACAD
1000
DSTYLE
1002
{
1070
   140
1040
3.0
1070
    40
1040
45.0
1070
   173
1070
     1
1070
   147
1040
0.5
1070
     7
1000
_OPEN
1070
     6
1000
_OPEN
1002
}
  0
DIMENSION
  5
A75
  8
SP
  2
*D7
 10
21845.742671524171
 20
-2250.1211404104702
 30
0.0
 11
21270.742671524171
 21
-2160.1211404104702
 31
0.0
 70
     0
 13
20695.742671524171
 23
-1582.500413396584
 33
0.0
 14
21845.742671524171
 24
-1582.500413396584
 34
0.0
1001
ACAD
1000
DSTYLE
1002
{
1070
   140
1040
3.0
1070
    40
1040
45.0
1070
   173
1070
     1
1070
   147
1040
0.5
1070
     7
1000
_OPEN
1070
     6
1000
_OPEN
1002
}
  0
LINE
  5
AB0
  8
SL
 10
25108.050546868952
 20
1114.7026940977439
 30
0.0
 11
24177.871773990719
 21
1114.7026940977439
 31
0.0
  0
LINE
  5
AB2
  8
CT
 10
18612.21535075099
 20
-1294.8920252523801
 30
0.0
 11
18612.21535075099
 21
-1486.2004187422369
 31
0.0
  0
LINE
  5
AB3
  8
SP
 10
18572.21535075099
 20
-1382.5004133965849
 30
0.0
 11
18572.21535075099
 21
-1402.5004133965849
 31
0.0
  0
LINE
  5
AB4
  8
SP
 10
18652.21535075099
 20
-1382.5004133965849
 30
0.0
 11
18652.21535075099
 21
-1402.5004133965849
 31
0.0
  0
POINT
  5
CAC
  8
DEFPOINTS
  6
BYBLOCK
 62
     0
 10
21495.742671524171
 20
3638.6403978091998
 30
0.0
  0
POINT
  5
CB7
  8
DEFPOINTS
  6
BYBLOCK
 62
     0
 10
21495.742671524171
 20
3638.6403978091998
 30
0.0
  0
LINE
  5
178C
  8
FUTO
 10
18730.742671524171
 20
-1202.5004133965949
 30
0.0
 11
18495.742671524171
 21
-1202.5004133965949
 31
0.0
  0
LINE
  5
178D
  8
FUTO
 10
18505.742671524171
 20
-1132.5004133965949
 30
0.0
 11
18730.742671524171
 21
-1132.5004133965949
 31
0.0
  0
LINE
  5
178F
  8
FUTO
 10
19195.742671524171
 20
-1202.5004133965949
 30
0.0
 11
18960.742671524171
 21
-1202.5004133965949
 31
0.0
  0
LINE
  5
1790
  8
FUTO
 10
18960.742671524182
 20
-1132.5004133965949
 30
0.0
 11
19185.742671524171
 21
-1132.5004133965949
 31
0.0
  0
LINE
  5
1791
  8
FUTO
 10
19185.742671524171
 20
-1132.5004133965949
 30
0.0
 11
19195.742671524171
 21
-1202.5004133965949
 31
0.0
  0
LINE
  5
1792
  8
FUTO
 10
18730.742671524171
 20
-1192.5004133965949
 30
0.0
 11
18960.742671524171
 21
-1192.5004133965949
 31
0.0
  0
LINE
  5
1793
  8
FUTO
 10
18730.742671524171
 20
-1142.5004133965949
 30
0.0
 11
18960.742671524171
 21
-1142.5004133965949
 31
0.0
  0
LINE
  5
1794
  8
FUTO
 10
18960.742671524182
 20
-1132.5004133965949
 30
0.0
 11
18960.742671524171
 21
-1142.5004133965949
 31
0.0
  0
LINE
  5
1795
  8
FUTO
 10
18960.742671524171
 20
-1192.5004133965949
 30
0.0
 11
18960.742671524171
 21
-1202.5004133965949
 31
0.0
  0
LINE
  5
1796
  8
FUTO
 10
18730.742671524171
 20
-1132.5004133965949
 30
0.0
 11
18730.742671524171
 21
-1142.5004133965949
 31
0.0
  0
LINE
  5
1797
  8
FUTO
 10
18730.742671524171
 20
-1192.5004133965949
 30
0.0
 11
18730.742671524171
 21
-1202.5004133965949
 31
0.0
  0
LINE
  5
1798
  8
FUTO
 10
18602.742671524171
 20
-1132.5004133965949
 30
0.0
 11
18702.742671524171
 21
-1132.5004133965949
 31
0.0
  0
LINE
  5
1799
  8
FUTO
 10
18505.742671524171
 20
-1132.5004133965949
 30
0.0
 11
18495.742671524171
 21
-1202.5004133965949
 31
0.0
  0
LINE
  5
179B
  8
CT
 10
18744.036256899901
 20
-402.50041339659612
 30
0.0
 11
18589.73931938022
 21
-402.50041339659612
 31
0.0
  0
LINE
  5
179C
  8
FUTO
 10
19055.742671524171
 20
-262.50041339659509
 30
0.0
 11
18665.742671524171
 21
-262.50041339659509
 31
0.0
  0
LINE
  5
179D
  8
FUTO
 10
19055.742671524171
 20
-527.50041339659606
 30
0.0
 11
18665.742671524171
 21
-527.50041339659685
 31
0.0
  0
LINE
  5
179E
  8
FUTO
 10
19001.221803799781
 20
-1120.6910907640679
 30
0.0
 11
18690.263539248561
 21
-1120.691090764067
 31
0.0
  0
LINE
  5
17A0
  8
CT
 10
19183.201635713929
 20
-852.50041339659515
 30
0.0
 11
18502.465449331139
 21
-852.50041339659515
 31
0.0
  0
ARC
  5
17A1
  8
FUTO
 10
18845.742671524171
 20
-852.50041339659515
 30
0.0
 40
310.0
 50
300.10230806831191
 51
239.897691931688
  0
LINE
  5
17A3
  8
FUTO
 10
19015.742671524171
 20
-1111.730041332909
 30
0.0
 11
19015.742671524171
 21
-1132.5004133965961
 31
0.0
  0
LINE
  5
17A4
  8
CT
 10
19074.242671524171
 20
-1087.3309649069499
 30
0.0
 11
19074.242671524171
 21
-1178.956527979205
 31
0.0
  0
LINE
  5
17A5
  8
FUTO
 10
19125.742671524182
 20
-985.54176035312605
 30
0.0
 11
19125.742671524171
 21
-1132.5004133965949
 31
0.0
  0
LINE
  5
17A6
  8
FUTO
 10
19125.742671524171
 20
-1132.5004133965949
 30
0.0
 11
19015.742671524171
 21
-1132.5004133965949
 31
0.0
  0
LINE
  5
17A7
  8
FUTO
 10
19125.742671524171
 20
-1102.5004133965961
 30
0.0
 11
19029.0456993224
 21
-1102.5004133965961
 31
0.0
  0
LINE
  5
17A8
  8
FUTO
 10
19075.742671524171
 20
-282.50041339659509
 30
0.0
 11
19075.742671524171
 21
-507.500413396596
 31
0.0
  0
ARC
  5
17A9
  8
FUTO
 10
19055.742671524171
 20
-507.500413396596
 30
0.0
 40
20.0
 50
270.0
 51
0.000000000000007
  0
ARC
  5
17AA
  8
FUTO
 10
19055.742671524171
 20
-282.50041339659509
 30
0.0
 40
20.0
 50
0.000000000000007
 51
90.0
  0
LINE
  5
17AB
  8
FUTO
 10
18565.742671524171
 20
-985.54176035314163
 30
0.0
 11
18565.742671524171
 21
-1132.5004133965961
 31
0.0
  0
LINE
  5
17AC
  8
FUTO
 10
18675.742671524171
 20
-1111.730041332909
 30
0.0
 11
18675.742671524171
 21
-1132.5004133965961
 31
0.0
  0
LINE
  5
17AD
  8
CT
 10
18617.242671524171
 20
-1087.3309649069499
 30
0.0
 11
18617.242671524171
 21
-1174.7917296577391
 31
0.0
  0
LINE
  5
17AE
  8
FUTO
 10
18675.742671524171
 20
-1132.5004133965961
 30
0.0
 11
18565.742671524171
 21
-1132.5004133965961
 31
0.0
  0
LINE
  5
17AF
  8
FUTO
 10
18662.439643725938
 20
-1102.5004133965961
 30
0.0
 11
18565.742671524171
 21
-1102.5004133965961
 31
0.0
  0
LINE
  5
17B0
  8
FUTO
 10
18645.742671524171
 20
-282.50041339659509
 30
0.0
 11
18645.742671524171
 21
-507.50041339659691
 31
0.0
  0
ARC
  5
17B1
  8
FUTO
 10
18665.742671524171
 20
-507.50041339659691
 30
0.0
 40
20.0
 50
180.0
 51
270.0
  0
ARC
  5
17B2
  8
FUTO
 10
18665.742671524171
 20
-282.50041339659509
 30
0.0
 40
20.0
 50
90.0
 51
180.0
  0
CIRCLE
  5
17B5
  8
SL
 10
18845.742671524171
 20
-852.50041339659515
 30
0.0
 40
177.5
  0
CIRCLE
  5
17B6
  8
SL
 10
20695.742671524171
 20
967.49958660341497
 30
0.0
 40
315.0
  0
ARC
  5
17B9
  8
FUTO
 10
20695.742671524171
 20
967.49958660341497
 30
0.0
 40
480.0
 50
310.11169717184271
 51
138.95160794993251
  0
ARC
  5
17BA
  8
FUTO
 10
18845.742671524171
 20
-852.50041339659515
 30
0.0
 40
280.0
 50
138.95160794993259
 51
310.11169717184271
  0
DIMENSION
  5
1B16
  8
SP
  2
*D12
 10
26224.482281095039
 20
-2255.5778336648309
 30
0.0
 11
25038.98228109505
 21
-2165.5778336648309
 31
0.0
 70
     0
 13
23853.48228109505
 23
-1582.500413396584
 33
0.0
 14
26224.482281095039
 24
-1582.5004133965849
 34
0.0
1001
ACAD
1000
DSTYLE
1002
{
1070
   287
1070
     3
1070
    40
1040
45.0
1070
   140
1040
3.0
1070
   147
1040
0.5
1070
   173
1070
     1
1070
   279
1070
     0
1070
     6
1000
OPEN
1070
     7
1000
OPEN
1002
}
  0
DIMENSION
  5
1B22
  8
SP
  2
*D13
 10
27053.482281095039
 20
-2255.5778336648309
 30
0.0
 11
26638.98228109505
 21
-2165.5778336648309
 31
0.0
 70
     0
 13
26224.482281095039
 23
-1582.5004133965849
 33
0.0
 14
27053.482281095039
 24
-1582.500413396584
 34
0.0
1001
ACAD
1000
DSTYLE
1002
{
1070
   287
1070
     4
1070
    40
1040
45.0
1070
    75
1070
     1
1070
   140
1040
3.0
1070
   147
1040
0.5
1070
   173
1070
     1
1070
   279
1070
     1
1070
     6
1000
OPEN
1070
     7
1000
OPEN
1002
}
  0
DIMENSION
  5
1B2F
  8
SP
  2
*D14
 10
23853.48228109505
 20
-2547.7001339177268
 30
0.0
 11
25453.48228109505
 21
-2457.7001339177282
 31
0.0
 70
     0
 13
27053.482281095039
 23
-2255.5778336648309
 33
0.0
 14
23853.48228109505
 24
-2255.5778336648309
 34
0.0
1001
ACAD
1000
DSTYLE
1002
{
1070
   287
1070
     3
1070
    40
1040
45.0
1070
   140
1040
3.0
1070
   147
1040
0.5
1070
   173
1070
     1
1070
   279
1070
     0
1070
     6
1000
OPEN
1070
     7
1000
OPEN
1002
}
  0
LINE
  5
1BAD
  8
FUTO
 10
25463.48228109505
 20
-1559.425043778899
 30
0.0
 11
25463.48228109505
 21
-1425.57578301427
 31
0.0
  0
LINE
  5
1BAE
  8
FUTO
 10
25470.48228109505
 20
-1582.500413396584
 30
0.0
 11
25470.48228109505
 21
-1402.5004133965849
 31
0.0
  0
ARC
  5
1BAF
  8
FUTO
 10
25400.98228109505
 20
-1579.577406095932
 30
0.0
 40
5.5
 50
95.000000000000014
 51
180.0
  0
LINE
  5
1BB0
  8
FUTO
 10
25395.482281095039
 20
-1579.577406095932
 30
0.0
 11
25395.482281095039
 21
-1582.500413396584
 31
0.0
  0
ARC
  5
1BB1
  8
FUTO
 10
25453.48228109505
 20
-1559.425043778899
 30
0.0
 40
10.0
 50
275.0
 51
0.0
  0
LINE
  5
1BB2
  8
FUTO
 10
25470.48228109505
 20
-1582.500413396584
 30
0.0
 11
25395.482281095039
 21
-1582.500413396584
 31
0.0
  0
LINE
  5
1BB3
  8
FUTO
 10
25454.353838522518
 20
-1569.3869907598171
 30
0.0
 11
25400.502924509929
 21
-1574.0983352564281
 31
0.0
  0
ARC
  5
1BB4
  8
FUTO
 10
25400.98228109505
 20
-1405.4234206972369
 30
0.0
 40
5.5
 50
179.9999999999994
 51
264.99999999999989
  0
LINE
  5
1BB5
  8
FUTO
 10
25395.482281095039
 20
-1405.423420697236
 30
0.0
 11
25395.482281095039
 21
-1402.5004133965849
 31
0.0
  0
ARC
  5
1BB6
  8
FUTO
 10
25400.98228109505
 20
-1379.577406095932
 30
0.0
 40
5.5
 50
95.000000000000014
 51
180.0
  0
LINE
  5
1BB7
  8
FUTO
 10
25395.482281095039
 20
-1379.577406095932
 30
0.0
 11
25395.482281095039
 21
-1382.5004133965849
 31
0.0
  0
ARC
  5
1BB8
  8
FUTO
 10
25453.48228109505
 20
-1425.57578301427
 30
0.0
 40
10.0
 50
0.0
 51
85.0
  0
LINE
  5
1BBA
  8
FUTO
 10
25454.353838522518
 20
-1415.6138360333521
 30
0.0
 11
25400.502924509929
 21
-1410.9024915367411
 31
0.0
  0
LINE
  5
1BBB
  8
FUTO
 10
25470.48228109505
 20
-1402.5004133965849
 30
0.0
 11
25395.482281095039
 21
-1402.5004133965849
 31
0.0
  0
LINE
  5
1BBC
  8
FUTO
 10
25470.48228109505
 20
-1402.5004133965849
 30
0.0
 11
25395.482281095039
 21
-1402.5004133965849
 31
0.0
  0
LINE
  5
1BBD
  8
FUTO
 10
25470.48228109505
 20
-1382.5004133965849
 30
0.0
 11
25395.482281095039
 21
-1382.5004133965849
 31
0.0
  0
LINE
  5
1BBE
  8
FUTO
 10
25454.353838522518
 20
-1369.3869907598171
 30
0.0
 11
25400.502924509929
 21
-1374.0983352564281
 31
0.0
  0
ARC
  5
1BBF
  8
FUTO
 10
25453.48228109505
 20
-1359.425043778899
 30
0.0
 40
10.0
 50
275.0
 51
0.0
  0
LINE
  5
1BC1
  8
FUTO
 10
25470.48228109505
 20
-1382.5004133965849
 30
0.0
 11
25470.48228109505
 21
-1255.5004133965831
 31
0.0
  0
LINE
  5
1BC2
  8
FUTO
 10
25470.48228109505
 20
-1382.5004133965849
 30
0.0
 11
25470.48228109505
 21
-1255.5004133965831
 31
0.0
  0
LINE
  5
1BC6
  8
FUTO
 10
25463.48228109505
 20
-1359.425043778899
 30
0.0
 11
25463.48228109505
 21
-1255.5004133965831
 31
0.0
  0
LINE
  5
1BCA
  8
FUTO
 10
25470.48228109505
 20
-1370.5004133965849
 30
0.0
 11
26978.48228109505
 21
-1370.5004133965849
 31
0.0
  0
LINE
  5
1BCC
  8
FUTO
 10
25470.48228109505
 20
-1414.5004133965849
 30
0.0
 11
26978.48228109505
 21
-1414.5004133965849
 31
0.0
  0
LINE
  5
1BCD
  8
FUTO
 10
25470.48228109505
 20
-1570.500413396584
 30
0.0
 11
26978.48228109505
 21
-1570.500413396584
 31
0.0
  0
LINE
  5
1BCE
  8
FUTO
 10
25470.48228109505
 20
-1582.500413396584
 30
0.0
 11
26978.48228109505
 21
-1582.500413396584
 31
0.0
  0
LINE
  5
1BCF
  8
FUTO
 10
23928.482281095039
 20
-1582.500413396584
 30
0.0
 11
25441.627359549191
 21
-1582.500413396584
 31
0.0
  0
DIMENSION
  5
1BF2
  8
SP
  2
*D15
 10
26224.482281095039
 20
2742.330032577172
 30
0.0
 11
24924.48228109505
 21
2832.330032577172
 31
0.0
 70
     0
 13
23624.48228109505
 23
2742.330032577172
 33
0.0
 14
26224.482281095039
 24
2742.330032577172
 34
0.0
1001
ACAD
1000
DSTYLE
1002
{
1070
   287
1070
     3
1070
    40
1040
45.0
1070
   140
1040
3.0
1070
   147
1040
0.5
1070
   173
1070
     1
1070
   279
1070
     0
1070
   341
1005
24
1070
     6
1000
OPEN
1070
     7
1000
OPEN
1002
}
  0
LINE
  5
1C10
  8
FUTO
 10
19545.742671524171
 20
-1402.5004133965849
 30
0.0
 11
19545.742671524171
 21
-1582.500413396584
 31
0.0
  0
LINE
  5
1C11
  8
FUTO
 10
19895.742671524171
 20
-1402.5004133965849
 30
0.0
 11
19895.742671524171
 21
-1582.500413396584
 31
0.0
  0
LINE
  5
1C21
  8
SL
 10
24177.871773990719
 20
1114.7026940977439
 30
0.0
 11
24177.871773990719
 21
807.49958660341497
 31
0.0
  0
LINE
  5
1C22
  8
SL
 10
25108.050546868952
 20
1114.7026940977439
 30
0.0
 11
25108.050546868952
 21
807.49958660341497
 31
0.0
  0
LINE
  5
1C5C
  8
FUTO
 10
20784.742671524171
 20
4951.6403978092021
 30
0.0
 11
20810.742671524171
 21
4975.6403978092021
 31
0.0
  0
LINE
  5
1C5D
  8
FUTO
 10
20606.742671524171
 20
4951.6403978092021
 30
0.0
 11
20582.909338190831
 21
4973.6403978092039
 31
0.0
  0
LINE
  5
1C61
  8
FUTO
 10
21175.742671524171
 20
3409.6403978092048
 30
0.0
 11
18565.742671524171
 21
3409.6403978092021
 31
0.0
  0
LINE
  5
1C62
  8
SL
 10
21070.742671524171
 20
3527.440397809205
 30
0.0
 11
18668.242671524171
 21
3527.4403978092009
 31
0.0
  0
LINE
  5
1C63
  8
SL
 10
21070.742671524171
 20
3657.4403978092032
 30
0.0
 11
18668.242671524171
 21
3657.4403978092041
 31
0.0
  0
LINE
  5
1C6B
  8
FUTO
 10
20638.242671524171
 20
4951.6403978092021
 30
0.0
 11
20638.242671524171
 21
3889.6403978092021
 31
0.0
  0
LINE
  5
1C6C
  8
FUTO
 10
20753.242671524171
 20
4951.6403978092021
 30
0.0
 11
20753.242671524171
 21
3889.6403978092021
 31
0.0
  0
LINE
  5
1C6D
  8
FUTO
 10
21175.742671524171
 20
3690.389431971711
 30
0.0
 11
18565.742671524171
 21
3690.3894319717101
 31
0.0
  0
LINE
  5
1C6E
  8
FUTO
 10
20775.742671524171
 20
3889.6403978092021
 30
0.0
 11
20615.742671524171
 21
3889.6403978092021
 31
0.0
  0
LINE
  5
1C6F
  8
FUTO
 10
20775.742671524171
 20
3717.6403978092012
 30
0.0
 11
20615.742671524171
 21
3717.6403978092012
 31
0.0
  0
LINE
  5
1C70
  8
FUTO
 10
20810.742671524171
 20
3867.6403978092021
 30
0.0
 11
20615.742671524171
 21
3867.6403978092021
 31
0.0
  0
LINE
  5
1C71
  8
FUTO
 10
20810.742671524171
 20
3881.6403978092012
 30
0.0
 11
20580.742671524171
 21
3881.6403978092012
 31
0.0
  0
LINE
  5
1C72
  8
FUTO
 10
20810.742671524171
 20
3725.6403978092021
 30
0.0
 11
20580.742671524171
 21
3725.6403978092021
 31
0.0
  0
LINE
  5
1C73
  8
CT
 10
20859.234290034001
 20
3803.6403978092021
 30
0.0
 11
20544.585517762131
 21
3803.6403978092021
 31
0.0
  0
LINE
  5
1C74
  8
FUTO
 10
20810.742671524171
 20
3867.6403978092021
 30
0.0
 11
20580.742671524171
 21
3867.6403978092021
 31
0.0
  0
LINE
  5
1C75
  8
FUTO
 10
20810.742671524171
 20
3739.6403978092021
 30
0.0
 11
20580.742671524171
 21
3739.6403978092021
 31
0.0
  0
LINE
  5
1C76
  8
SL
 10
20320.742671524171
 20
3657.4403978092032
 30
0.0
 11
20320.742671524171
 21
3527.4403978092032
 31
0.0
  0
LINE
  5
1C7A
  8
FUTO
 10
20643.242671524171
 20
3717.6403978092012
 30
0.0
 11
20643.242671524171
 21
3657.4403978092009
 31
0.0
  0
LINE
  5
1C7B
  8
FUTO
 10
20580.742671524171
 20
3725.6403978092021
 30
0.0
 11
20580.742671524171
 21
3733.6403978092021
 31
0.0
  0
LINE
  5
1C7C
  8
FUTO
 10
20615.742671524171
 20
3717.6403978092012
 30
0.0
 11
20595.742671524171
 21
3725.6403978092021
 31
0.0
  0
LINE
  5
1C7F
  8
FUTO
 10
20615.742671524171
 20
3889.6403978092021
 30
0.0
 11
20595.742671524171
 21
3881.6403978092012
 31
0.0
  0
LINE
  5
1C80
  8
FUTO
 10
20580.742671524171
 20
3881.6403978092012
 30
0.0
 11
20580.742671524171
 21
3873.6403978092021
 31
0.0
  0
LINE
  5
1C83
  8
SL
 10
21070.742671524171
 20
3657.4403978092009
 30
0.0
 11
21070.742671524171
 21
3527.440397809205
 31
0.0
  0
LINE
  5
1C84
  8
FUTO
 10
20828.742671524171
 20
3749.6403978092012
 30
0.0
 11
20828.742671524171
 21
3857.6403978092021
 31
0.0
  0
LINE
  5
1C85
  8
FUTO
 10
20810.742671524171
 20
3739.6403978092021
 30
0.0
 11
20810.742671524171
 21
3749.6403978092012
 31
0.0
  0
LINE
  5
1C86
  8
FUTO
 10
20828.742671524171
 20
3749.6403978092012
 30
0.0
 11
20810.742671524171
 21
3749.6403978092012
 31
0.0
  0
LINE
  5
1C87
  8
FUTO
 10
20810.742671524171
 20
3725.6403978092021
 30
0.0
 11
20810.742671524171
 21
3739.6403978092021
 31
0.0
  0
LINE
  5
1C88
  8
FUTO
 10
20775.742671524171
 20
3717.6403978092012
 30
0.0
 11
20795.742671524171
 21
3725.6403978092021
 31
0.0
  0
LINE
  5
1C89
  8
FUTO
 10
20748.242671524171
 20
3717.6403978092012
 30
0.0
 11
20748.242671524171
 21
3657.4403978092009
 31
0.0
  0
LINE
  5
1C8A
  8
FUTO
 10
20775.742671524171
 20
3889.6403978092021
 30
0.0
 11
20795.742671524171
 21
3881.6403978092012
 31
0.0
  0
LINE
  5
1C8B
  8
FUTO
 10
20810.742671524171
 20
3881.6403978092012
 30
0.0
 11
20810.742671524171
 21
3867.6403978092021
 31
0.0
  0
LINE
  5
1C8C
  8
FUTO
 10
20810.742671524171
 20
3857.6403978092021
 30
0.0
 11
20810.742671524171
 21
3867.6403978092021
 31
0.0
  0
LINE
  5
1C8D
  8
FUTO
 10
20828.742671524171
 20
3857.6403978092021
 30
0.0
 11
20810.742671524171
 21
3857.6403978092021
 31
0.0
  0
LINE
  5
1C8E
  8
FUTO
 10
21175.742671524171
 20
3690.389431971711
 30
0.0
 11
21175.742671524171
 21
3409.6403978092048
 31
0.0
  0
POINT
  5
1C8F
  8
DEFPOINTS
 10
21175.742671524171
 20
3409.6403978092048
 30
0.0
  0
LINE
  5
1C93
  8
FUTO
 10
20606.742671524171
 20
4951.6403978092021
 30
0.0
 11
20784.742671524171
 21
4951.6403978092039
 31
0.0
  0
LINE
  5
1C9A
  8
FUTO
 10
21770.742671524171
 20
6908.6403978092021
 30
0.0
 11
19620.742671524171
 21
6908.6403978092021
 31
0.0
  0
LINE
  5
1C9B
  8
FUTO
 10
21770.742671524171
 20
6914.6403978092021
 30
0.0
 11
19620.742671524171
 21
6914.6403978092039
 31
0.0
  0
LINE
  5
1C9C
  8
KL
 10
21770.742671524171
 20
6771.8403978100941
 30
0.0
 11
19620.742671524171
 21
6771.8403978105853
 31
0.0
  0
LINE
  5
1CA1
  8
HOSO
 10
21735.742671524171
 20
6736.7206542020022
 30
0.0
 11
21735.742671524171
 21
6794.9198103072313
 31
0.0
  0
LINE
  5
1CA2
  8
FUTO
 10
21701.742671524171
 20
6762.8403978092028
 30
0.0
 11
21701.742671524171
 21
6852.8403978092019
 31
0.0
  0
LINE
  5
1CA3
  8
KL
 10
21695.742671524171
 20
6762.8403978092028
 30
0.0
 11
21695.742671524171
 21
6914.6403978092021
 31
0.0
  0
LINE
  5
1CA4
  8
KL
 10
21770.742671524171
 20
6762.8403978092028
 30
0.0
 11
21770.742671524171
 21
6771.8403978100923
 31
0.0
  0
LINE
  5
1CA5
  8
HOSO
 10
21695.74267152416
 20
6771.8403978101123
 30
0.0
 11
21695.74267152416
 21
6762.8403978101123
 31
0.0
  0
LINE
  5
1CA6
  8
FUTO
 10
21770.742671524171
 20
6908.6403978092039
 30
0.0
 11
21770.742671524171
 21
6914.6403978092021
 31
0.0
  0
LINE
  5
1CA7
  8
HOSO
 10
21735.742671524171
 20
6886.6022083692178
 30
0.0
 11
21735.742671524171
 21
6944.8013644744469
 31
0.0
  0
LINE
  5
1CA8
  8
FUTO
 10
21701.742671524171
 20
6852.8403978092019
 30
0.0
 11
21701.742671524171
 21
6908.6403978092021
 31
0.0
  0
LINE
  5
1CBE
  8
FUTO
 10
20600.742671524171
 20
5118.6403978092021
 30
0.0
 11
20830.742671524171
 21
5118.6403978092021
 31
0.0
  0
LINE
  5
1CBF
  8
FUTO
 10
20560.742671524171
 20
5131.6403978092021
 30
0.0
 11
20830.742671524171
 21
5131.6403978092021
 31
0.0
  0
LINE
  5
1CC0
  8
FUTO
 10
20606.742671524171
 20
5155.6403978092021
 30
0.0
 11
20784.742671524171
 21
5155.6403978092021
 31
0.0
  0
LINE
  5
1CC1
  8
FUTO
 10
20560.742671524171
 20
5118.6403978092039
 30
0.0
 11
20830.742671524171
 21
5118.6403978092021
 31
0.0
  0
LINE
  5
1CC2
  8
CT
 10
20465.450962449671
 20
5053.640397809203
 30
0.0
 11
20925.07637328597
 21
5053.640397809203
 31
0.0
  0
LINE
  5
1CC3
  8
FUTO
 10
20560.742671524171
 20
4975.6403978092039
 30
0.0
 11
20830.742671524171
 21
4975.6403978092021
 31
0.0
  0
LINE
  5
1CC4
  8
FUTO
 10
20560.742671524171
 20
4988.6403978092039
 30
0.0
 11
20830.742671524171
 21
4988.6403978092021
 31
0.0
  0
LINE
  5
1CC5
  8
KL
 10
20640.742671524171
 20
5155.6403978092021
 30
0.0
 11
20640.742671524171
 21
5249.2844381338618
 31
0.0
  0
LINE
  5
1CCB
  8
FUTO
 10
20606.742671524171
 20
5155.6403978092039
 30
0.0
 11
20582.909338190831
 21
5133.6403978092021
 31
0.0
  0
LINE
  5
1CCE
  8
KL
 10
20750.742671524171
 20
5155.6403978092021
 30
0.0
 11
20750.742671524171
 21
5251.7274750010511
 31
0.0
  0
LINE
  5
1CCF
  8
FUTO
 10
20846.742671524171
 20
4993.6403978092021
 30
0.0
 11
20846.742671524171
 21
5113.6403978092021
 31
0.0
  0
LINE
  5
1CD0
  8
FUTO
 10
20830.742671524171
 20
4975.6403978092039
 30
0.0
 11
20830.742671524171
 21
4993.6403978092021
 31
0.0
  0
LINE
  5
1CD1
  8
FUTO
 10
20830.742671524171
 20
4993.6403978092021
 30
0.0
 11
20846.742671524171
 21
4993.6403978092021
 31
0.0
  0
LINE
  5
1CD2
  8
FUTO
 10
20784.742671524171
 20
5155.6403978092039
 30
0.0
 11
20810.742671524171
 21
5131.6403978092021
 31
0.0
  0
LINE
  5
1CD3
  8
FUTO
 10
20830.742671524171
 20
5113.6403978092021
 30
0.0
 11
20846.742671524171
 21
5113.6403978092021
 31
0.0
  0
LINE
  5
1CD4
  8
FUTO
 10
20830.742671524171
 20
5131.6403978092021
 30
0.0
 11
20830.742671524171
 21
5113.6403978092021
 31
0.0
  0
LINE
  5
1CE0
  8
HOSO
 10
19655.742671524171
 20
6729.0340239647821
 30
0.0
 11
19655.742671524171
 21
6799.6611511026013
 31
0.0
  0
LINE
  5
1CE1
  8
KL
 10
19689.742671524171
 20
6762.8403978092028
 30
0.0
 11
19689.742671524171
 21
6837.8403978092019
 31
0.0
  0
LINE
  5
1CE2
  8
KL
 10
19695.742671524171
 20
6762.8403978092028
 30
0.0
 11
19695.742671524171
 21
6914.6403978092021
 31
0.0
  0
LINE
  5
1CE4
  8
KL
 10
19620.742671524171
 20
6762.8403978092028
 30
0.0
 11
19620.742671524171
 21
6771.8403978105853
 31
0.0
  0
LINE
  5
1CE5
  8
HOSO
 10
19695.74267152416
 20
6771.8403978105671
 30
0.0
 11
19695.74267152416
 21
6762.8403978105698
 31
0.0
  0
LINE
  5
1CE6
  8
FUTO
 10
19620.742671524171
 20
6908.6403978092021
 30
0.0
 11
19620.742671524171
 21
6914.6403978092039
 31
0.0
  0
LINE
  5
1CE7
  8
HOSO
 10
19655.742671524171
 20
6878.594470366862
 30
0.0
 11
19655.742671524171
 21
6949.2215975046811
 31
0.0
  0
LINE
  5
1CE8
  8
FUTO
 10
19689.742671524171
 20
6837.8403978092019
 30
0.0
 11
19689.742671524171
 21
6908.6403978092021
 31
0.0
  0
INSERT
  5
1CE9
  8
FUTO
  2
まっすぐの矢印
 10
20144.818420383981
 20
7081.1366855652323
 30
0.0
 41
40.0
 42
40.0
 43
40.0
 50
180.0
  0
LINE
  5
1D14
  8
FUTO
 10
20562.742671524171
 20
3749.6403978092012
 30
0.0
 11
20562.742671524171
 21
3857.6403978092021
 31
0.0
  0
LINE
  5
1D15
  8
FUTO
 10
20580.742671524171
 20
3725.6403978092021
 30
0.0
 11
20580.742671524171
 21
3739.6403978092021
 31
0.0
  0
LINE
  5
1D16
  8
FUTO
 10
20562.742671524171
 20
3749.6403978092012
 30
0.0
 11
20580.742671524171
 21
3749.6403978092012
 31
0.0
  0
LINE
  5
1D17
  8
FUTO
 10
20580.742671524171
 20
3739.6403978092021
 30
0.0
 11
20580.742671524171
 21
3749.6403978092012
 31
0.0
  0
LINE
  5
1D18
  8
FUTO
 10
20562.742671524171
 20
3857.6403978092021
 30
0.0
 11
20580.742671524171
 21
3857.6403978092021
 31
0.0
  0
LINE
  5
1D19
  8
FUTO
 10
20580.742671524171
 20
3857.6403978092021
 30
0.0
 11
20580.742671524171
 21
3867.6403978092021
 31
0.0
  0
LINE
  5
1D1A
  8
FUTO
 10
20580.742671524171
 20
3881.6403978092012
 30
0.0
 11
20580.742671524171
 21
3867.6403978092021
 31
0.0
  0
LINE
  5
1D1B
  8
FUTO
 10
20544.742671524171
 20
4993.6403978092021
 30
0.0
 11
20544.742671524171
 21
5113.6403978092021
 31
0.0
  0
LINE
  5
1D1C
  8
FUTO
 10
20560.742671524171
 20
4993.6403978092021
 30
0.0
 11
20544.742671524171
 21
4993.6403978092021
 31
0.0
  0
LINE
  5
1D1D
  8
FUTO
 10
20560.742671524171
 20
4975.6403978092039
 30
0.0
 11
20560.742671524171
 21
4993.6403978092021
 31
0.0
  0
LINE
  5
1D1E
  8
FUTO
 10
20560.742671524171
 20
5131.6403978092021
 30
0.0
 11
20560.742671524171
 21
5113.6403978092021
 31
0.0
  0
LINE
  5
1D1F
  8
FUTO
 10
20560.742671524171
 20
5113.6403978092021
 30
0.0
 11
20544.742671524171
 21
5113.6403978092021
 31
0.0
  0
LINE
  5
1D20
  8
FUTO
 10
20346.155867046731
 20
3707.6403978091989
 30
0.0
 11
20346.15586704672
 21
5180.6403978092012
 31
0.0
  0
LINE
  5
1D21
  8
FUTO
 10
21045.329476001611
 20
3707.6403978091989
 30
0.0
 11
21045.329476001611
 21
5180.6403978092012
 31
0.0
  0
LINE
  5
1D22
  8
FUTO
 10
21970.742671524378
 20
5180.6403978092012
 30
0.0
 11
21970.742671525499
 21
6838.6403978092067
 31
0.0
  0
LINE
  5
1D23
  8
FUTO
 10
21970.7426715248
 20
5180.6403978092012
 30
0.0
 11
21970.742671525539
 21
6838.6403978092067
 31
0.0
  0
LINE
  5
1D24
  8
FUTO
 10
21970.742671524171
 20
5180.6403978092012
 30
0.0
 11
21970.742671524171
 21
6838.6403978092067
 31
0.0
  0
LINE
  5
1D25
  8
FUTO
 10
21964.742671524171
 20
5180.6403978092012
 30
0.0
 11
21964.742671524171
 21
6838.6403978092067
 31
0.0
  0
LINE
  5
1D26
  8
FUTO
 10
21895.742671524171
 20
5180.6403978092012
 30
0.0
 11
21895.742671524171
 21
6838.6403978092058
 31
0.0
  0
LINE
  5
1D35
  8
CT
 10
18845.742671524171
 20
4777.3542101697576
 30
0.0
 11
18845.742671524171
 21
3414.1391214379109
 31
0.0
  0
LINE
  5
1D3A
  8
SL
 10
18668.242671524171
 20
3657.440397809205
 30
0.0
 11
18668.242671524171
 21
3527.4403978092009
 31
0.0
  0
LINE
  5
1D3B
  8
FUTO
 10
18565.742671524171
 20
3690.3894319717101
 30
0.0
 11
18565.742671524171
 21
3409.6403978092012
 31
0.0
  0
LINE
  5
2121
  8
CT
 10
23945.782281095049
 20
-852.50041339659504
 30
0.0
 11
23577.96228109505
 21
-852.50041339659504
 31
0.0
  0
LINE
  5
2132
  8
FUTO
 10
24206.00028109505
 20
-1127.5004133965961
 30
0.0
 11
24134.42928109505
 21
-1127.5004133965961
 31
0.0
  0
LINE
  5
2306
  8
FUTO
 10
18558.24267152392
 20
4362.4403978091123
 30
0.0
 11
18558.242671523862
 21
4557.4403978091123
 31
0.0
  0
LINE
  5
2307
  8
FUTO
 10
19115.742671523851
 20
4575.7012678092833
 30
0.0
 11
19115.74267152392
 21
4362.4403978092851
 31
0.0
  0
LINE
  5
2308
  8
FUTO
 10
18558.242671523862
 20
4557.4403978091123
 30
0.0
 11
19115.742671523862
 21
4557.4403978092851
 31
0.0
  0
LINE
  5
2309
  8
FUTO
 10
19075.74267152384
 20
4617.4403978092723
 30
0.0
 11
18615.74267152384
 21
4617.4403978091304
 31
0.0
  0
LINE
  5
230A
  8
FUTO
 10
19115.742671523851
 20
4575.7012678092833
 30
0.0
 11
19075.74267152384
 21
4617.4403978092723
 31
0.0
  0
LINE
  5
230B
  8
FUTO
 10
18558.242671523862
 20
4557.4403978091123
 30
0.0
 11
18615.74267152384
 21
4617.4403978091304
 31
0.0
  0
LINE
  5
230C
  8
CT
 10
19156.05753117711
 20
4096.9403978092996
 30
0.0
 11
18512.98219742814
 21
4096.9403978090986
 31
0.0
  0
LINE
  5
230D
  8
FUTO
 10
18558.24267152392
 20
4362.4403978091123
 30
0.0
 11
19115.74267152392
 21
4362.4403978092851
 31
0.0
  0
LINE
  5
230E
  8
FUTO
 10
18558.242671524091
 20
3813.9403978091118
 30
0.0
 11
18610.308693384861
 21
3813.9403978091282
 31
0.0
  0
LINE
  5
230F
  8
FUTO
 10
18558.24267152412
 20
3713.9403978091118
 30
0.0
 11
18842.74267152412
 21
3713.9403978091991
 31
0.0
  0
LINE
  5
2310
  8
CT
 10
19149.87273649111
 20
4306.4403978092951
 30
0.0
 11
19186.558276491109
 21
4306.440397809306
 31
0.0
  0
LINE
  5
2311
  8
CT
 10
19149.872736491241
 20
3887.440397809296
 30
0.0
 11
19186.55827649124
 21
3887.4403978093069
 31
0.0
  0
LINE
  5
2312
  8
FUTO
 10
18888.242671524182
 20
3527.4403978092159
 30
0.0
 11
18888.24267152412
 21
3697.4403978092159
 31
0.0
  0
LINE
  5
2313
  8
FUTO
 10
18803.24267152412
 20
3697.4403978091882
 30
0.0
 11
18803.242671524182
 21
3527.4403978091891
 31
0.0
  0
LINE
  5
2314
  8
FUTO
 10
18798.242671524182
 20
3527.4403978091859
 30
0.0
 11
18798.242671524131
 21
3667.4403978091859
 31
0.0
  0
LINE
  5
2315
  8
FUTO
 10
18895.74267152412
 20
3697.4403978092159
 30
0.0
 11
18795.74267152412
 21
3697.4403978091868
 31
0.0
  0
LINE
  5
2316
  8
FUTO
 10
18931.24267152412
 20
3707.4403978092269
 30
0.0
 11
18760.24267152412
 21
3707.440397809175
 31
0.0
  0
LINE
  5
2317
  8
FUTO
 10
18933.24267152412
 20
3714.2887728092278
 30
0.0
 11
18933.24267152412
 21
3709.4403978092259
 31
0.0
  0
ARC
  5
2318
  8
FUTO
 10
18931.24267152412
 20
3709.4403978092259
 30
0.0
 40
2.0
 50
270.0
 51
0.000000000000007
  0
LINE
  5
2319
  8
FUTO
 10
18895.74267152412
 20
3697.4403978092159
 30
0.0
 11
18895.74267152412
 21
3707.440397809215
 31
0.0
  0
LINE
  5
231A
  8
FUTO
 10
18795.74267152412
 20
3697.4403978091868
 30
0.0
 11
18795.74267152412
 21
3707.4403978091868
 31
0.0
  0
LINE
  5
231B
  8
FUTO
 10
18803.242671524131
 20
3667.4403978091891
 30
0.0
 11
18798.242671524131
 21
3667.4403978091859
 31
0.0
  0
LINE
  5
231C
  8
FUTO
 10
18758.24267152412
 20
3713.940397809175
 30
0.0
 11
18758.24267152412
 21
3709.4403978091759
 31
0.0
  0
ARC
  5
231D
  8
FUTO
 10
18760.24267152412
 20
3709.4403978091759
 30
0.0
 40
2.0
 50
180.0
 51
270.0
  0
LINE
  5
231E
  8
FUTO
 10
18888.242671524182
 20
3527.4403978092159
 30
0.0
 11
18798.242671524182
 21
3527.4403978091859
 31
0.0
  0
LINE
  5
231F
  8
FUTO
 10
18559.928594524001
 20
4096.9403978091141
 30
0.0
 11
18559.928594524081
 21
3841.4403978091141
 31
0.0
  0
LINE
  5
2320
  8
FUTO
 10
18610.308693384781
 20
4056.44039780913
 30
0.0
 11
19008.225711583538
 21
4056.4403978092519
 31
0.0
  0
LINE
  5
2321
  8
FUTO
 10
18610.308693384792
 20
4038.040403809126
 30
0.0
 11
19008.225711583538
 21
4038.0404038092488
 31
0.0
  0
LINE
  5
2322
  8
CT
 10
18793.20680203494
 20
3911.440397809185
 30
0.0
 11
18936.351608034951
 21
3911.44039780923
 31
0.0
  0
LINE
  5
2323
  8
FUTO
 10
18555.742671523909
 20
4352.4403978091123
 30
0.0
 11
18555.742671524022
 21
4041.4403978091118
 31
0.0
  0
LINE
  5
2324
  8
FUTO
 10
18559.928594524001
 20
4096.9403978091141
 30
0.0
 11
18559.928594523921
 21
4352.4403978091141
 31
0.0
  0
LINE
  5
2325
  8
FUTO
 10
18559.928594523921
 20
4352.4403978091141
 30
0.0
 11
18566.380456523912
 21
4362.440397809115
 31
0.0
  0
LINE
  5
2326
  8
FUTO
 10
18555.742671523909
 20
4352.4403978091123
 30
0.0
 11
18562.409337523921
 21
4362.4403978091141
 31
0.0
  0
LINE
  5
2327
  8
FUTO
 10
18555.742671524022
 20
4041.4403978091118
 30
0.0
 11
18559.928594524019
 21
4037.2544748091118
 31
0.0
  0
LINE
  5
2328
  8
FUTO
 10
19008.225711583629
 20
3766.4403978092519
 30
0.0
 11
18610.308693384872
 21
3766.44039780913
 31
0.0
  0
LINE
  5
2329
  8
FUTO
 10
19008.225711583618
 20
3784.8404218092469
 30
0.0
 11
18610.308693384872
 21
3784.840421809125
 31
0.0
  0
LINE
  5
232A
  8
FUTO
 10
18558.24267152412
 20
3713.9403978091118
 30
0.0
 11
18558.242671524091
 21
3813.9403978091118
 31
0.0
  0
LINE
  5
232B
  8
FUTO
 10
18563.227623524079
 20
3830.2129698091139
 30
0.0
 11
18574.076004524079
 21
3813.9403978091182
 31
0.0
  0
LINE
  5
232C
  8
FUTO
 10
18559.928594524081
 20
3841.4403978091141
 30
0.0
 11
18577.671214524082
 21
3813.9403978091182
 31
0.0
  0
LINE
  5
232D
  8
FUTO
 10
18569.51406652408
 20
3826.5834898091161
 30
0.0
 11
18561.101655524079
 21
3831.4403978091141
 31
0.0
  0
LINE
  5
232E
  8
FUTO
 10
19008.225711583629
 20
3766.4403978092482
 30
0.0
 11
19008.225711583538
 21
4056.4403978092519
 31
0.0
  0
LINE
  5
232F
  8
FUTO
 10
18610.308693384872
 20
3766.4403978091282
 30
0.0
 11
18610.308693384781
 21
4056.44039780913
 31
0.0
  0
LINE
  5
2330
  8
FUTO
 10
19133.242671524091
 20
3813.9403978092901
 30
0.0
 11
19008.225711583611
 21
3813.9403978092491
 31
0.0
  0
LINE
  5
2331
  8
FUTO
 10
19133.24267152412
 20
3713.9403978092901
 30
0.0
 11
18848.74267152412
 21
3713.9403978092009
 31
0.0
  0
LINE
  5
2332
  8
FUTO
 10
19133.24267152412
 20
3713.9403978092901
 30
0.0
 11
19133.242671524091
 21
3813.9403978092901
 31
0.0
  0
LINE
  5
2333
  8
FUTO
 10
19131.556748523999
 20
4096.9403978092878
 30
0.0
 11
19131.556748523919
 21
4352.4403978092878
 31
0.0
  0
LINE
  5
2334
  8
FUTO
 10
19135.74267152392
 20
4352.4403978092896
 30
0.0
 11
19135.742671524022
 21
4041.4403978092901
 31
0.0
  0
LINE
  5
2335
  8
FUTO
 10
19131.556748523999
 20
4096.9403978092878
 30
0.0
 11
19131.556748524079
 21
3841.4403978092878
 31
0.0
  0
LINE
  5
2336
  8
FUTO
 10
19131.556748524079
 20
3841.4403978092878
 30
0.0
 11
19113.814128524089
 21
3813.9403978092851
 31
0.0
  0
LINE
  5
2337
  8
FUTO
 10
19121.971276524091
 20
3826.5834898092871
 30
0.0
 11
19130.383687524081
 21
3831.4403978092892
 31
0.0
  0
LINE
  5
2338
  8
FUTO
 10
19128.257719524081
 20
3830.2129698092899
 30
0.0
 11
19117.409338524089
 21
3813.9403978092851
 31
0.0
  0
LINE
  5
2339
  8
FUTO
 10
19135.74267152392
 20
4352.4403978092896
 30
0.0
 11
19129.076005523912
 21
4362.4403978092878
 31
0.0
  0
LINE
  5
233A
  8
FUTO
 10
19131.556748523919
 20
4352.4403978092878
 30
0.0
 11
19125.104886523921
 21
4362.4403978092878
 31
0.0
  0
LINE
  5
233B
  8
FUTO
 10
19195.742671524062
 20
3792.861464270738
 30
0.0
 11
19195.742671523869
 21
4401.0193313478794
 31
0.0
  0
LINE
  5
233C
  8
FUTO
 10
19195.742671524062
 20
3792.861464270738
 30
0.0
 11
19133.242671524091
 21
3792.8614642707212
 31
0.0
  0
LINE
  5
233D
  8
FUTO
 10
19195.742671523869
 20
4401.0193313478794
 30
0.0
 11
19115.742671523902
 21
4401.0193313478521
 31
0.0
  0
LINE
  5
233E
  8
FUTO
 10
18495.742671524131
 20
3792.8614642705229
 30
0.0
 11
18495.742671523942
 21
4401.0193313476639
 31
0.0
  0
LINE
  5
233F
  8
FUTO
 10
18495.742671523942
 20
4401.0193313476639
 30
0.0
 11
18575.742671523902
 21
4401.0193313476848
 31
0.0
  0
LINE
  5
2340
  8
FUTO
 10
18495.742671524131
 20
3792.8614642705229
 30
0.0
 11
18558.242671524091
 21
3792.8614642705429
 31
0.0
  0
LINE
  5
2370
  8
FUTO
 10
23922.28228109502
 20
-955.03089639663369
 30
0.0
 11
23922.282281094998
 21
-1039.883710396633
 31
0.0
  0
LINE
  5
2371
  8
FUTO
 10
24006.282281095038
 20
-852.50041339665154
 30
0.0
 11
24006.282281094991
 21
-1110.5004133966511
 31
0.0
  0
LINE
  5
2372
  8
FUTO
 10
24006.282281095038
 20
-849.50041339665142
 30
0.0
 11
24006.282281094991
 21
-1082.5004133966511
 31
0.0
  0
LINE
  5
2373
  8
FUTO
 10
24171.282281095009
 20
-1006.494308396685
 30
0.0
 11
24171.282281094991
 21
-1082.5004133966861
 31
0.0
  0
LINE
  5
2374
  8
FUTO
 10
24452.282281095009
 20
-1003.0283763967479
 30
0.0
 11
24452.282281094991
 21
-1082.500413396747
 31
0.0
  0
LINE
  5
2375
  8
FUTO
 10
24577.282281095111
 20
-565.00041339677318
 30
0.0
 11
24577.28228109498
 21
-1122.500413396773
 31
0.0
  0
LINE
  5
2376
  8
CT
 10
24311.78228109498
 20
-1151.4505293967161
 30
0.0
 11
24311.782281095118
 21
-519.73993930085908
 31
0.0
  0
LINE
  5
2377
  8
FUTO
 10
24832.282281094991
 20
-1082.5004133968289
 30
0.0
 11
24832.282281095089
 21
-622.50041339682969
 31
0.0
  0
LINE
  5
2378
  8
FUTO
 10
24772.282281095111
 20
-565.00041339681695
 30
0.0
 11
24772.282281094991
 21
-1122.5004133968159
 31
0.0
  0
LINE
  5
2379
  8
FUTO
 10
24567.28228109498
 20
-1122.5493533967719
 30
0.0
 11
24556.78228109498
 21
-1122.5493533967699
 31
0.0
  0
LINE
  5
237C
  8
FUTO
 10
24186.78228109498
 20
-1132.5004133966891
 30
0.0
 11
24615.78228109498
 21
-1132.5004133967821
 31
0.0
  0
ARC
  5
237D
  8
KL
 10
23954.616982094991
 20
-1079.6929783966409
 30
0.0
 40
10.0
 50
183.0000000000033
 51
225.0000000001105
  0
LINE
  5
237E
  8
FUTO
 10
23944.630686094992
 20
-1080.216337396638
 30
0.0
 11
23942.516943095001
 21
-1039.883710396638
 31
0.0
  0
LINE
  5
237F
  8
FUTO
 10
23922.282281094998
 20
-1039.883710396633
 30
0.0
 11
23976.282281095009
 21
-1039.8837103966459
 31
0.0
  0
LINE
  5
2380
  8
FUTO
 10
24151.282281094991
 20
-1102.500413396682
 30
0.0
 11
24071.282281094991
 21
-1102.5004133966661
 31
0.0
  0
LINE
  5
2381
  8
FUTO
 10
24066.78228109498
 20
-1132.500413396664
 30
0.0
 11
24186.78228109498
 21
-1132.5004133966891
 31
0.0
  0
LINE
  5
2383
  8
FUTO
 10
24006.282281094998
 20
-1039.079154396652
 30
0.0
 11
24171.282281095009
 21
-1039.079154396687
 31
0.0
  0
LINE
  5
2384
  8
FUTO
 10
24186.78228109498
 20
-1132.5004133966891
 30
0.0
 11
24007.78228109498
 21
-1132.5004133966511
 31
0.0
  0
ARC
  5
238A
  8
FUTO
 10
23974.48245109498
 20
-1099.558447396643
 30
0.0
 40
10.0
 50
225.0000000001105
 51
267.99999999999602
  0
LINE
  5
238B
  8
FUTO
 10
24016.282281094991
 20
-1082.5004133966529
 30
0.0
 11
24016.282281094991
 21
-1084.364845396653
 31
0.0
  0
LINE
  5
238C
  8
FUTO
 10
24016.282281094991
 20
-1082.5004133966529
 30
0.0
 11
24006.282281094991
 21
-1082.5004133966511
 31
0.0
  0
ARC
  5
238D
  8
FUTO
 10
24071.782281094991
 20
-1107.500413396665
 30
0.0
 40
5.0
 50
90.0
 51
180.0
  0
LINE
  5
238E
  8
FUTO
 10
24056.28228109498
 20
-1122.5493533966619
 30
0.0
 11
24066.78228109498
 21
-1122.5493533966639
 31
0.0
  0
LINE
  5
238F
  8
FUTO
 10
24026.28228109498
 20
-1118.7292443966569
 30
0.0
 11
24056.28228109498
 21
-1122.5493533966619
 31
0.0
  0
LINE
  5
2390
  8
FUTO
 10
24016.282281094991
 20
-1084.364845396653
 30
0.0
 11
24026.28228109498
 21
-1118.7292443966569
 31
0.0
  0
LINE
  5
2391
  8
FUTO
 10
23974.133456094991
 20
-1109.5523553966441
 30
0.0
 11
24006.282281094991
 21
-1110.5004133966511
 31
0.0
  0
LINE
  5
2393
  8
FUTO
 10
24066.782281094991
 20
-1107.500413396664
 30
0.0
 11
24066.78228109498
 21
-1132.500413396664
 31
0.0
  0
LINE
  5
2394
  8
FUTO
 10
24007.78228109498
 20
-1132.5004133966511
 30
0.0
 11
24007.782281094958
 21
-1195.7401825286111
 31
0.0
  0
ARC
  5
2398
  8
FUTO
 10
24151.282281094991
 20
-1082.500413396682
 30
0.0
 40
20.0
 50
270.0
 51
0.0
  0
LINE
  5
2399
  8
FUTO
 10
24191.78228109498
 20
-1122.5004133966911
 30
0.0
 11
24311.78228109498
 21
-1122.5004133967161
 31
0.0
  0
ARC
  5
239B
  8
FUTO
 10
24191.78228109498
 20
-1127.5004133966911
 30
0.0
 40
5.0
 50
90.0
 51
180.0
  0
LINE
  5
239C
  8
KL
 10
24102.282281094991
 20
-1098.7400413966741
 30
0.0
 11
24102.28228109498
 21
-1135.425581396672
 31
0.0
  0
ARC
  5
239D
  8
FUTO
 10
24472.282281094991
 20
-1082.5004133967509
 30
0.0
 40
20.0
 50
180.0
 51
270.0
  0
ARC
  5
239E
  8
FUTO
 10
24551.782281094991
 20
-1107.5004133967691
 30
0.0
 40
5.0
 50
0.0
 51
90.0
  0
LINE
  5
239F
  8
FUTO
 10
24472.282281094991
 20
-1102.5004133967509
 30
0.0
 11
24552.282281094991
 21
-1102.5004133967691
 31
0.0
  0
LINE
  5
23A0
  8
FUTO
 10
24436.78228109498
 20
-1127.5004133967441
 30
0.0
 11
24436.78228109498
 21
-1132.5004133967441
 31
0.0
  0
LINE
  5
23A1
  8
FUTO
 10
24557.28228109498
 20
-1132.5004133967691
 30
0.0
 11
24436.78228109498
 21
-1132.5004133967441
 31
0.0
  0
LINE
  5
23A2
  8
FUTO
 10
24556.782281094991
 20
-1107.5004133967691
 30
0.0
 11
24556.78228109498
 21
-1132.5004133967691
 31
0.0
  0
LINE
  5
23A3
  8
FUTO
 10
24521.282281094991
 20
-1098.740041396763
 30
0.0
 11
24521.28228109498
 21
-1135.425581396762
 31
0.0
  0
ARC
  5
23A4
  8
FUTO
 10
24431.78228109498
 20
-1127.500413396742
 30
0.0
 40
5.0
 50
0.0
 51
90.0
  0
LINE
  5
23A5
  8
FUTO
 10
24431.78228109498
 20
-1122.500413396742
 30
0.0
 11
24311.78228109498
 21
-1122.5004133967161
 31
0.0
  0
LINE
  5
23A6
  8
FUTO
 10
23967.411383094979
 20
-1106.629514396644
 30
0.0
 11
23947.545914094979
 21
-1086.7640463966391
 31
0.0
  0
LINE
  5
23A7
  8
FUTO
 10
24790.543151094978
 20
-1122.50041339682
 30
0.0
 11
24577.28228109498
 21
-1122.500413396773
 31
0.0
  0
LINE
  5
23A8
  8
FUTO
 10
24615.78228109498
 20
-1132.5004133967821
 30
0.0
 11
24615.782281094958
 21
-1195.684112743653
 31
0.0
  0
LINE
  5
23A9
  8
FUTO
 10
24790.543151094978
 20
-1122.50041339682
 30
0.0
 11
24832.282281094991
 21
-1082.5004133968289
 31
0.0
  0
LINE
  5
23AA
  8
FUTO
 10
24577.28228109498
 20
-1121.2759833967741
 30
0.0
 11
24567.28228109498
 21
-1122.5493533967719
 31
0.0
  0
LINE
  5
23AB
  8
FUTO
 10
24311.782281095111
 20
-566.68633639671782
 30
0.0
 11
24567.282281095111
 21
-566.68633639677228
 31
0.0
  0
LINE
  5
23AC
  8
FUTO
 10
24567.282281095111
 20
-562.50041339677136
 30
0.0
 11
24256.282281095111
 21
-562.50041339670406
 31
0.0
  0
CIRCLE
  5
23AE
  8
FUTO
 10
24126.282281095129
 20
-427.50041339667689
 30
0.0
 40
59.0
  0
LINE
  5
23AF
  8
FUTO
 10
23999.68230509511
 20
-535.90046439665014
 30
0.0
 11
23999.68230509515
 21
-341.02905439665022
 31
0.0
  0
LINE
  5
23B0
  8
FUTO
 10
23981.282281095118
 20
-516.5584803966459
 30
0.0
 11
23981.282281095158
 21
-331.83516039664659
 31
0.0
  0
LINE
  5
23B1
  8
CT
 10
24126.282281095151
 20
-357.9187633966767
 30
0.0
 11
24126.282281095118
 21
-501.063569396677
 31
0.0
  0
LINE
  5
23B2
  8
FUTO
 10
24252.882287095152
 20
-341.02905439670479
 30
0.0
 11
24252.882287095112
 21
-535.90042239670504
 31
0.0
  0
LINE
  5
23B3
  8
FUTO
 10
24271.282281095158
 20
-331.83516039670849
 30
0.0
 11
24271.282281095118
 21
-516.55848039670775
 31
0.0
  0
LINE
  5
23B4
  8
FUTO
 10
23928.782281095111
 20
-565.00041339663505
 30
0.0
 11
23928.782281095038
 21
-849.50041339663505
 31
0.0
  0
LINE
  5
23B5
  8
FUTO
 10
24028.782281095111
 20
-565.00041339665677
 30
0.0
 11
24028.782281095038
 21
-849.50041339665688
 31
0.0
  0
LINE
  5
23B6
  8
CT
 10
23529.577268888541
 20
-852.50041339652944
 30
0.0
 11
24890.953638035069
 21
-852.50041339694417
 31
0.0
  0
LINE
  5
23B7
  8
KL
 10
23928.782281095038
 20
-849.50041339663505
 30
0.0
 11
24028.782281095038
 21
-849.50041339665688
 31
0.0
  0
LINE
  5
23B8
  8
FUTO
 10
24006.28228109502
 20
-962.10196439665117
 30
0.0
 11
23922.28228109502
 21
-962.10196439663287
 31
0.0
  0
LINE
  5
23B9
  8
FUTO
 10
23742.282281095031
 20
-895.00041339659515
 30
0.0
 11
23742.282281095049
 21
-805.00041339659504
 31
0.0
  0
ARC
  5
23BA
  8
FUTO
 10
23924.282281095071
 20
-767.00041339663323
 30
0.0
 40
2.0
 50
90.0
 51
180.0
  0
LINE
  5
23BB
  8
FUTO
 10
23928.78228109506
 20
-765.00041339663505
 30
0.0
 11
23924.282281095071
 21
-765.00041339663323
 31
0.0
  0
LINE
  5
23BC
  8
FUTO
 10
23882.28228109506
 20
-810.00041339662403
 30
0.0
 11
23882.28228109506
 21
-805.00041339662425
 31
0.0
  0
LINE
  5
23BD
  8
FUTO
 10
23912.28228109506
 20
-802.50041339663142
 30
0.0
 11
23922.28228109506
 21
-802.50041339663323
 31
0.0
  0
LINE
  5
23BE
  8
FUTO
 10
23912.282281095031
 20
-902.50041339663142
 30
0.0
 11
23922.282281095031
 21
-902.50041339663323
 31
0.0
  0
ARC
  5
23BF
  8
FUTO
 10
23924.282281095031
 20
-938.00041339663323
 30
0.0
 40
2.0
 50
180.0
 51
270.0
  0
LINE
  5
23C0
  8
FUTO
 10
23929.130656095022
 20
-940.00041339663505
 30
0.0
 11
23924.282281095031
 21
-940.00041339663323
 31
0.0
  0
LINE
  5
23C1
  8
KL
 10
23927.28228109502
 20
-955.0308963966354
 30
0.0
 11
23922.28228109502
 21
-955.03089639663369
 31
0.0
  0
LINE
  5
23C3
  8
FUTO
 10
23922.28228109502
 20
-938.00041339663323
 30
0.0
 11
23922.28228109506
 21
-767.00041339663323
 31
0.0
  0
LINE
  5
23C4
  8
FUTO
 10
23912.282281095031
 20
-902.50041339663142
 30
0.0
 11
23912.28228109506
 21
-802.50041339663142
 31
0.0
  0
LINE
  5
23C6
  8
FUTO
 10
23742.282281095049
 20
-805.00041339659504
 30
0.0
 11
23882.28228109506
 21
-805.00041339662425
 31
0.0
  0
LINE
  5
23C7
  8
FUTO
 10
23912.28228109506
 20
-810.0004133966313
 30
0.0
 11
23742.282281095049
 21
-810.00041339659492
 31
0.0
  0
LINE
  5
23C8
  8
FUTO
 10
23742.282281095031
 20
-895.00041339659515
 30
0.0
 11
23912.282281095038
 21
-895.00041339663153
 31
0.0
  0
ARC
  5
23CD
  8
FUTO
 10
24457.282281095009
 20
-1003.0283763967479
 30
0.0
 40
5.0
 50
90.0
 51
180.0
  0
LINE
  5
23CE
  8
FUTO
 10
23928.782281095111
 20
-565.00041339663505
 30
0.0
 11
24028.782281095111
 21
-565.00041339665677
 31
0.0
  0
LINE
  5
23CF
  8
FUTO
 10
24241.282281095118
 20
-517.50041339670236
 30
0.0
 11
24011.282281095118
 21
-517.50041339665324
 31
0.0
  0
LINE
  5
23D0
  8
CT
 10
24032.801240095119
 20
-427.50041339665682
 30
0.0
 11
24212.72460809513
 21
-427.50041339669508
 31
0.0
  0
LINE
  5
23D1
  8
FUTO
 10
24241.282281095111
 20
-547.50041339670236
 30
0.0
 11
24011.282281095111
 21
-547.50041339665324
 31
0.0
  0
LINE
  5
23D2
  8
FUTO
 10
24311.782281095111
 20
-566.68633639671782
 30
0.0
 11
24056.282281095111
 21
-566.68633639666325
 31
0.0
  0
LINE
  5
23D3
  8
FUTO
 10
24046.282281095111
 20
-557.50041339666052
 30
0.0
 11
24206.282281095111
 21
-557.50041339669508
 31
0.0
  0
LINE
  5
23D4
  8
FUTO
 10
23999.68230509511
 20
-516.55848039664954
 30
0.0
 11
23981.282281095118
 21
-516.5584803966459
 31
0.0
  0
ARC
  5
23D5
  8
FUTO
 10
24011.28215909511
 20
-505.90052539665442
 30
0.0
 40
11.599888
 50
179.99945399997631
 51
270.0006100000092
  0
LINE
  5
23D6
  8
FUTO
 10
24041.425373095099
 20
-576.27180839665834
 30
0.0
 11
24046.282281095111
 21
-567.85939739666094
 31
0.0
  0
LINE
  5
23D7
  8
FUTO
 10
24056.282281095111
 20
-566.68633639666325
 30
0.0
 11
24028.7822810951
 21
-584.42895639665676
 31
0.0
  0
LINE
  5
23D8
  8
FUTO
 10
24045.054853095098
 20
-569.98536539665929
 30
0.0
 11
24028.782281095111
 21
-580.83374639665726
 31
0.0
  0
LINE
  5
23D9
  8
FUTO
 10
24046.282281095111
 20
-567.85939739666094
 30
0.0
 11
24046.282281095111
 21
-547.50041339666052
 31
0.0
  0
ARC
  5
23DA
  8
FUTO
 10
24011.282281095118
 20
-535.90046439665366
 30
0.0
 40
11.599949000000001
 50
179.9997550000013
 51
270.0
  0
LINE
  5
23DB
  8
FUTO
 10
24206.282281095111
 20
-547.50041339669497
 30
0.0
 11
24206.282281095111
 21
-566.68633639669588
 31
0.0
  0
ARC
  5
23DC
  8
FUTO
 10
24241.282312095122
 20
-505.90043739670278
 30
0.0
 40
11.599976
 50
269.99984700005228
 51
0.0001069999742915
  0
LINE
  5
23DD
  8
FUTO
 10
24252.882287095112
 20
-516.55848039670411
 30
0.0
 11
24271.282281095118
 21
-516.55848039670775
 31
0.0
  0
ARC
  5
23DE
  8
FUTO
 10
24241.282281095111
 20
-535.90041639670289
 30
0.0
 40
11.600006
 50
270.0
 51
0.0000150000275647
  0
LINE
  5
23DF
  8
KL
 10
24256.282281095111
 20
-562.50041339670406
 30
0.0
 11
24252.096358095099
 21
-566.68633639670509
 31
0.0
  0
LINE
  5
23E0
  8
FUTO
 10
23981.282281095158
 20
-331.83516039664659
 30
0.0
 11
24271.282281095158
 21
-331.83516039670849
 31
0.0
  0
LINE
  5
23E1
  8
FUTO
 10
23999.68230509515
 20
-341.02905439665022
 30
0.0
 11
24252.882287095152
 21
-341.02905439670479
 31
0.0
  0
LINE
  5
23E2
  8
FUTO
 10
24241.282281095169
 20
-299.44226239670292
 30
0.0
 11
24011.282281095158
 21
-299.4422623966538
 31
0.0
  0
ARC
  5
23E3
  8
FUTO
 10
24011.282281095158
 20
-311.04220739665379
 30
0.0
 40
11.599976
 50
90.0
 51
180.0003050000046
  0
LINE
  5
23E4
  8
FUTO
 10
23999.68230509515
 20
-331.83516039665022
 30
0.0
 11
23999.682305095161
 21
-311.0422683966508
 31
0.0
  0
ARC
  5
23E5
  8
FUTO
 10
24241.282281095158
 20
-311.04225239670347
 30
0.0
 40
11.599990999999999
 50
359.99992399997137
 51
90.0
  0
LINE
  5
23E6
  8
FUTO
 10
24252.882287095152
 20
-311.04226839670531
 30
0.0
 11
24252.882287095152
 21
-331.83516039670479
 31
0.0
  0
LINE
  5
23E8
  8
FUTO
 10
24577.282281095111
 20
-565.00041339677318
 30
0.0
 11
24772.282281095111
 21
-565.00041339681695
 31
0.0
  0
LINE
  5
23E9
  8
FUTO
 10
24772.282281095111
 20
-565.00041339681695
 30
0.0
 11
24832.282281095089
 21
-622.50041339682969
 31
0.0
  0
LINE
  5
23EA
  8
FUTO
 10
24567.282281095111
 20
-562.50041339677136
 30
0.0
 11
24577.282281095111
 21
-569.16707939677428
 31
0.0
  0
LINE
  5
23EB
  8
FUTO
 10
24567.282281095111
 20
-566.68633639677228
 30
0.0
 11
24577.282281095111
 21
-573.13819839677592
 31
0.0
  0
LINE
  5
2519
  8
SL
 10
18545.742671524171
 20
3713.6403978091998
 30
0.0
 11
18545.742671524171
 21
4401.0193313476766
 31
0.0
  0
LINE
  5
251A
  8
FUTO
 10
18445.742671524171
 20
5180.6403978092012
 30
0.0
 11
18445.742671524171
 21
5255.6403978092012
 31
0.0
  0
LINE
  5
251B
  8
FUTO
 10
18620.742671524171
 20
4617.4403978091323
 30
0.0
 11
18620.742671524171
 21
5180.6403978092012
 31
0.0
  0
LINE
  5
251C
  8
FUTO
 10
18545.742671524171
 20
4401.0193313476766
 30
0.0
 11
18545.742671524171
 21
5180.6403978092012
 31
0.0
  0
LINE
  5
251D
  8
SL
 10
19070.742671524171
 20
3713.6403978091998
 30
0.0
 11
19070.742671524171
 21
4617.4403978091314
 31
0.0
  0
LINE
  5
251E
  8
SL
 10
19145.742671524171
 20
3713.640397809198
 30
0.0
 11
19145.742671524171
 21
4401.0193313476748
 31
0.0
  0
LINE
  5
251F
  8
FUTO
 10
19145.742671524171
 20
4401.0193313476748
 30
0.0
 11
19145.742671524182
 21
5180.6403978092012
 31
0.0
  0
LINE
  5
2520
  8
FUTO
 10
19070.742671524171
 20
4617.4403978091314
 30
0.0
 11
19070.742671524182
 21
5180.6403978092012
 31
0.0
  0
LINE
  5
2521
  8
FUTO
 10
18959.742671524171
 20
5255.6403978092012
 30
0.0
 11
18959.742671524171
 21
6763.6403978092058
 31
0.0
  0
LINE
  5
2522
  8
FUTO
 10
18909.742671524171
 20
5205.6403978092012
 30
0.0
 11
18909.742671524171
 21
6813.6403978092076
 31
0.0
  0
LINE
  5
2523
  8
FUTO
 10
21895.742671524171
 20
6813.6403978092058
 30
0.0
 11
18909.742671524171
 21
6813.6403978092058
 31
0.0
  0
LINE
  5
2524
  8
FUTO
 10
21895.742671524171
 20
5205.6403978092021
 30
0.0
 11
18909.742671524171
 21
5205.6403978092012
 31
0.0
  0
LINE
  5
2525
  8
FUTO
 10
18909.742671524171
 20
5255.6403978092012
 30
0.0
 11
18445.742671524171
 21
5255.6403978092012
 31
0.0
  0
DIMENSION
  5
253A
  8
SP
  2
*D17
 10
21970.742671525539
 20
7451.5364858720041
 30
0.0
 11
21333.242671524858
 21
7541.5364858720041
 31
0.0
 70
     0
 13
20695.742671524171
 23
7168.2587782432483
 33
0.0
 14
21970.742671525539
 24
6838.6403978092058
 34
0.0
1001
ACAD
1000
DSTYLE
1002
{
1070
   287
1070
     3
1070
    40
1040
45.0
1070
   140
1040
3.0
1070
   147
1040
0.5
1070
   173
1070
     1
1070
   279
1070
     0
1070
   341
1005
24
1070
     6
1000
OPEN
1070
     7
1000
OPEN
1002
}
  0
DIMENSION
  5
2555
  8
SP
  2
*D18
 10
22536.746092178299
 20
6009.6403978092012
 30
0.0
 11
22446.746092178291
 21
6462.1403978092039
 31
0.0
 70
     0
 13
21770.742671524171
 23
6914.6403978092021
 33
0.0
 14
22191.64938320635
 24
6009.6403978092021
 34
0.0
 50
90.0
1001
ACAD
1000
DSTYLE
1002
{
1070
   287
1070
     3
1070
    40
1040
45.0
1070
   140
1040
3.0
1070
   147
1040
0.5
1070
   173
1070
     1
1070
   279
1070
     0
1070
   341
1005
24
1070
     6
1000
OPEN
1070
     7
1000
OPEN
1002
}
  0
DIMENSION
  5
2562
  8
SP
  2
*D19
 10
22536.746092178299
 20
3409.6403978092048
 30
0.0
 11
22446.746092178291
 21
4709.6403978092067
 31
0.0
 70
     0
 13
22191.64938320635
 23
6009.6403978092021
 33
0.0
 14
21175.742671524171
 24
3409.6403978092048
 34
0.0
 50
90.0
1001
ACAD
1000
DSTYLE
1002
{
1070
   287
1070
     3
1070
    40
1040
45.0
1070
   140
1040
3.0
1070
   147
1040
0.5
1070
   173
1070
     1
1070
   279
1070
     0
1070
   341
1005
24
1070
     6
1000
OPEN
1070
     7
1000
OPEN
1002
}
  0
LINE
  5
259B
  8
KL
 10
19554.742671524171
 20
-2.1706091408887001
 30
0.0
 11
19554.742671524171
 21
388.09761422538821
 31
0.0
  0
LINE
  5
259C
  8
KL
 10
19545.742671524171
 20
58.246516736062397
 30
0.0
 11
19545.742671524171
 21
377.761942128209
 31
0.0
  0
LINE
  5
259D
  8
KL
 10
19536.742671524171
 20
-9.3200291095467946
 30
0.0
 11
19536.742671524171
 21
367.42627003102689
 31
0.0
  0
LINE
  5
259E
  8
FUTO
 10
19536.742671524171
 20
367.42627003102569
 30
0.0
 11
19536.742671524171
 21
958.49958660341497
 31
0.0
  0
LINE
  5
259F
  8
FUTO
 10
19545.742671524171
 20
377.76194212820877
 30
0.0
 11
19545.742671524171
 21
958.49958660341497
 31
0.0
  0
LINE
  5
25A0
  8
FUTO
 10
19554.742671524171
 20
388.0976142253848
 30
0.0
 11
19554.742671524171
 21
958.49958660341497
 31
0.0
  0
LINE
  5
25A1
  8
FUTO
 10
20067.10584458254
 20
976.49958660341554
 30
0.0
 11
18900.509678285649
 21
976.49958660341508
 31
0.0
  0
LINE
  5
25A2
  8
FUTO
 10
20059.268908654391
 20
967.49958660341497
 30
0.0
 11
18900.509678285649
 21
967.49958660341497
 31
0.0
  0
LINE
  5
25A3
  8
FUTO
 10
20051.431972726241
 20
958.49958660341497
 30
0.0
 11
18900.509678285649
 21
958.49958660341497
 31
0.0
  0
LINE
  5
25A5
  8
KL
 10
21175.189122392821
 20
990.54520982034035
 30
0.0
 11
20895.897448193151
 21
971.86597831648749
 31
0.0
  0
LINE
  5
25A6
  8
KL
 10
21174.672731852541
 20
999.53077942956497
 30
0.0
 11
20895.296863327661
 21
980.84591694764458
 31
0.0
  0
LINE
  5
25A7
  8
KL
 10
21173.987952661839
 20
1008.505087082655
 30
0.0
 11
20894.696278462168
 21
989.82585557880157
 31
0.0
  0
INSERT
  5
2632
  8
FUTO
  2
まっすぐの矢印
 10
22343.86734070328
 20
5684.1813808556381
 30
0.0
 41
40.0
 42
40.0
 43
40.0
 50
270.0
  0
LINE
  5
2731
  8
FUTO
 10
25471.282281095049
 20
-1186.5004133965831
 30
0.0
 11
26977.682281095051
 21
-1186.5004133965831
 31
0.0
  0
LINE
  5
2732
  8
FUTO
 10
25396.282281095049
 20
-1255.5004133965831
 30
0.0
 11
27052.682281095051
 21
-1255.5004133965831
 31
0.0
  0
LINE
  5
2733
  8
FUTO
 10
25474.48228109505
 20
-1180.5004133965831
 30
0.0
 11
26974.48228109505
 21
-1180.5004133965831
 31
0.0
  0
LINE
  5
2734
  8
FUTO
 10
21495.742671524171
 20
-1202.5004133965849
 30
0.0
 11
21078.525880021691
 21
677.88429817349515
 31
0.0
  0
LINE
  5
2735
  8
FUTO
 10
19895.742671524171
 20
-1202.5004133965849
 30
0.0
 11
20132.725642569789
 21
-134.42461986994061
 31
0.0
  0
LINE
  5
2736
  8
FUTO
 10
20333.748173964432
 20
1282.7137736833649
 30
0.0
 11
18634.579214614321
 21
-668.62547093329079
 31
0.0
  0
LINE
  5
2737
  8
SL
 10
20463.245007973052
 20
1180.031552300979
 30
0.0
 11
18714.73208333267
 21
-732.74033748764998
 31
0.0
  0
LINE
  5
2738
  8
SL
 10
20904.44543834334
 20
731.55858736414984
 30
0.0
 11
18963.34502425561
 21
-985.4512939203081
 31
0.0
  0
LINE
  5
2739
  8
FUTO
 10
21004.996965071969
 20
600.40044206307221
 30
0.0
 11
19026.14100942705
 21
-1066.6415810451281
 31
0.0
  0
ARC
  5
273A
  8
FUTO
 10
20842.742671524171
 20
820.49958660341508
 30
0.0
 40
1903.0
 50
175.8414272259831
 51
207.7766785189892
  0
LINE
  5
273B
  8
KL
 10
19545.742671524171
 20
-628.91502317120762
 30
0.0
 11
19545.742671524171
 21
-5.7453191252179741
 31
0.0
  0
LINE
  5
273C
  8
KL
 10
19554.742671524171
 20
-621.33317863867433
 30
0.0
 11
19554.742671524171
 21
-2.1706091408887001
 31
0.0
  0
LINE
  5
273D
  8
KL
 10
21078.525880021691
 20
677.88429817349515
 30
0.0
 11
21045.329476001611
 21
827.49958660341508
 31
0.0
  0
LINE
  5
273E
  8
KL
 10
20132.725642569789
 20
-134.42461986994061
 30
0.0
 11
20346.15586704672
 21
827.49958660341508
 31
0.0
  0
LINE
  5
273F
  8
FUTO
 10
25396.282281095049
 20
-1255.5004133965831
 30
0.0
 11
25396.282281095049
 21
958.49958660341497
 31
0.0
  0
LINE
  5
2740
  8
FUTO
 10
27052.682281095051
 20
-1255.5004133965831
 30
0.0
 11
27052.682281095051
 21
958.49958660341497
 31
0.0
  0
LINE
  5
2742
  8
FUTO
 10
27052.68228109504
 20
2409.4995866034028
 30
0.0
 11
25396.282281095038
 21
2409.4995866034151
 31
0.0
  0
LINE
  5
2743
  8
FUTO
 10
25396.282281095049
 20
2060.2112466276321
 30
0.0
 11
25474.48228109505
 21
2060.2112466276321
 31
0.0
  0
LINE
  5
2744
  8
FUTO
 10
26977.682281095051
 20
2060.2112466276321
 30
0.0
 11
27052.68228109504
 21
2060.2112466276321
 31
0.0
  0
DIMENSION
  5
2745
  8
SP
  2
*D20
 10
22434.848521819578
 20
967.49958660341497
 30
0.0
 11
22344.848521819578
 21
-207.50041339658139
 31
0.0
 70
     0
 13
21845.742671524171
 23
-1382.5004133965849
 33
0.0
 14
22067.026078548512
 24
967.49958660341497
 34
0.0
 50
90.0
1001
ACAD
1000
DSTYLE
1002
{
1070
   287
1070
     3
1070
    40
1040
45.0
1070
   140
1040
3.0
1070
   147
1040
0.5
1070
   173
1070
     1
1070
   279
1070
     0
1070
   341
1005
24
1070
     6
1000
OPEN
1070
     7
1000
OPEN
1002
}
  0
LINE
  5
2752
  8
FUTO
 10
20548.74267152416
 20
2409.4995866034092
 30
0.0
 11
20695.742671524171
 21
2409.4995866034101
 31
0.0
  0
DIMENSION
  5
2753
  8
SP
  2
*D21
 10
22434.848521819578
 20
967.49958660341497
 30
0.0
 11
22344.848521819578
 21
1688.4995866034151
 31
0.0
 70
     0
 13
20695.742671524171
 23
2409.4995866034101
 33
0.0
 14
22067.026078548512
 24
967.49958660341497
 34
0.0
 50
90.0
1001
ACAD
1000
DSTYLE
1002
{
1070
   287
1070
     3
1070
    40
1040
45.0
1070
   140
1040
3.0
1070
   147
1040
0.5
1070
   173
1070
     1
1070
   279
1070
     0
1070
   341
1005
24
1070
     6
1000
OPEN
1070
     7
1000
OPEN
1002
}
  0
DIMENSION
  5
2794
  8
SP
  2
*D22
 10
18445.742671524171
 20
7451.5364858720041
 30
0.0
 11
19570.742671524171
 21
7541.5364858720041
 31
0.0
 70
     0
 13
20695.742671524171
 23
7213.2587782432483
 33
0.0
 14
18445.742671524171
 24
5255.6403978092012
 34
0.0
 50
180.0
1001
ACAD
1000
DSTYLE
1002
{
1070
   287
1070
     3
1070
    40
1040
45.0
1070
   140
1040
3.0
1070
   147
1040
0.5
1070
   173
1070
     1
1070
   279
1070
     0
1070
   341
1005
24
1070
     6
1000
OPEN
1070
     7
1000
OPEN
1002
}
  0
LINE
  5
2811
  8
FUTO
 10
25396.282281095049
 20
1051.797544865766
 30
0.0
 11
27052.68228109504
 21
1051.7975448657669
 31
0.0
  0
LINE
  5
2812
  8
FUTO
 10
25474.48228109505
 20
883.49958660341554
 30
0.0
 11
26974.48228109505
 21
883.49958660341497
 31
0.0
  0
LINE
  5
2813
  8
FUTO
 10
25396.282281095049
 20
958.49958660341497
 30
0.0
 11
27052.68228109504
 21
958.49958660341497
 31
0.0
  0
LINE
  5
2815
  8
FUTO
 10
27052.682281095051
 20
-1202.5004133965849
 30
0.0
 11
27067.682281095051
 21
-1202.5004133965849
 31
0.0
  0
LINE
  5
3244
  8
4
 10
27438.26712634967
 20
-3228.730840830252
 30
0.0
 11
27438.26712634967
 21
-4428.7308408302524
 31
0.0
  0
LINE
  5
3245
  8
4
 10
23238.26712634967
 20
-3228.730840830252
 30
0.0
 11
23238.26712634967
 21
-4428.7308408302524
 31
0.0
  0
LINE
  5
3246
  8
4
 10
20238.267126349681
 20
-3228.730840830252
 30
0.0
 11
20238.267126349681
 21
-4428.7308408302524
 31
0.0
  0
LINE
  5
3249
  8
4
 10
20238.267126349681
 20
-4428.7308408302524
 30
0.0
 11
27438.26712634967
 21
-4428.7308408302524
 31
0.0
  0
LINE
  5
324A
  8
4
 10
20238.267126349681
 20
-3828.730840830252
 30
0.0
 11
27438.26712634967
 21
-3828.730840830252
 31
0.0
  0
TEXT
  5
324B
  8
4
 10
20469.279611431091
 20
-3639.4726856305751
 30
0.0
 40
300.0
  1
機器名称
  0
TEXT
  5
324C
  8
4
 10
20455.81576249846
 20
-4298.8599004381867
 30
0.0
 40
300.0
  1
機器型番
  0
TEXT
  5
324D
  8
4
 10
23267.025496555929
 20
-3695.6070266885722
 30
0.0
 40
270.0
  1
ミツヤリミットロードファン
  0
TEXT
  5
324E
  8
4
 10
23458.194099862569
 20
-4325.7733351505922
 30
0.0
 40
300.0
  1
LL#12-1
  0
TEXT
  5
3250
  8
4
 10
18235.272686326349
 20
8974.5550163655353
 30
0.0
 40
432.0
  1
遠心式片吸込片持リミットロードファン
  0
LINE
  5
3251
  8
4
 10
17838.26712634967
 20
8587.7216847585769
 30
0.0
 11
27438.26712634967
 21
8587.7216847585769
 31
0.0
  0
LINE
  5
3252
  8
4
 10
17838.26712634967
 20
9787.7216847585787
 30
0.0
 11
27438.26712634967
 21
9787.7216847585787
 31
0.0
  0
LINE
  5
3253
  8
4
 10
20238.267126349681
 20
-3228.730840830252
 30
0.0
 11
27438.26712634967
 21
-3228.730840830252
 31
0.0
  0
LINE
  5
3254
  8
4
 10
17838.26712634967
 20
9787.7216847585787
 30
0.0
 11
17838.26712634967
 21
8587.7216847585769
 31
0.0
  0
TEXT
  5
3255
  8
4
 10
25152.084481845421
 20
10007.635648141601
 30
0.0
 40
336.00000000000011
  1
No.
  0
TEXT
  5
3256
  8
4
 10
25237.33809723135
 20
7424.0702628121544
 30
0.0
 40
323.99999999999989
  1
縮尺：1/60
  0
LINE
  5
3257
  8
4
 10
27438.26712634967
 20
9787.7216847585787
 30
0.0
 11
27438.26712634967
 21
8587.7216847585769
 31
0.0
  0
LINE
  5
3258
  8
4
 10
28938.26712634967
 20
11471.26915916974
 30
0.0
 11
28938.26712634967
 21
11471.26915916974
 31
0.0
  0
LINE
  5
3259
  8
4
 10
24981.971660508862
 20
9858.8506579221539
 30
0.0
 11
24981.971660508862
 21
10491.18272846826
 31
0.0
  0
LINE
  5
325A
  8
4
 10
24981.971660508862
 20
10491.18272846826
 30
0.0
 11
27438.26712634967
 21
10491.18272846826
 31
0.0
  0
LINE
  5
325B
  8
4
 10
27438.26712634967
 20
10491.18272846826
 30
0.0
 11
27438.26712634967
 21
9858.8506579221539
 31
0.0
  0
LINE
  5
325C
  8
4
 10
27438.26712634967
 20
9858.8506579221539
 30
0.0
 11
24981.971660508862
 21
9858.8506579221539
 31
0.0
  0
LINE
  5
325D
  8
4
 10
16338.26712634967
 20
-6228.7308408302533
 30
0.0
 11
16338.26712634967
 21
11471.26915916974
 31
0.0
  0
LINE
  5
325E
  8
4
 10
16338.26712634967
 20
11471.26915916974
 30
0.0
 11
28938.26712634967
 21
11471.26915916974
 31
0.0
  0
LINE
  5
325F
  8
4
 10
28938.26712634967
 20
11471.26915916974
 30
0.0
 11
28938.26712634967
 21
-6228.7308408302533
 31
0.0
  0
LINE
  5
3260
  8
4
 10
28938.26712634967
 20
-6228.7308408302533
 30
0.0
 11
16338.26712634967
 21
-6228.7308408302533
 31
0.0
  0
TEXT
  5
3261
  8
4
 10
21287.08420239648
 20
8031.8316864270719
 30
0.0
 40
323.99999999999989
  1
床置防振ベット
  0
TEXT
  5
3262
  8
4
 10
18118.977751602291
 20
8050.3408237770482
 30
0.0
 40
323.99999999999989
  1
左回転右横向
  0
ENDSEC
  0
EOF
