  0
SECTION
  2
HEADER
  9
$ACADVER
  1
AC1009
  9
$INSBASE
 10
0.0
 20
0.0
 30
0.0
  9
$EXTMIN
 10
15064.887172517059
 20
-3678.191521705452
 30
0.0
  9
$EXTMAX
 10
27664.887172517061
 20
14021.808478294541
 30
0.0
  9
$LIMMIN
 10
0.0
 20
0.0
  9
$LIMMAX
 10
297.0
 20
210.0
  9
$ORTHOMODE
 70
     0
  9
$REGENMODE
 70
     1
  9
$FILLMODE
 70
     1
  9
$QTEXTMODE
 70
     0
  9
$MIRRTEXT
 70
     0
  9
$DRAGMODE
 70
     2
  9
$LTSCALE
 40
225.0
  9
$OSMODE
 70
    37
  9
$ATTMODE
 70
     1
  9
$TEXTSIZE
 40
120.0
  9
$TRACEWID
 40
0.05
  9
$TEXTSTYLE
  7
STANDARD
  9
$CLAYER
  8
SP
  9
$CELTYPE
  6
BYLAYER
  9
$CECOLOR
 62
   256
  9
$DIMSCALE
 40
45.0
  9
$DIMASZ
 40
2.0
  9
$DIMEXO
 40
1.0
  9
$DIMDLI
 40
10.0
  9
$DIMRND
 40
0.0
  9
$DIMDLE
 40
0.0
  9
$DIMEXE
 40
1.0
  9
$DIMTP
 40
0.0
  9
$DIMTM
 40
0.0
  9
$DIMTXT
 40
3.0
  9
$DIMCEN
 40
0.0
  9
$DIMTSZ
 40
0.0
  9
$DIMTOL
 70
     0
  9
$DIMLIM
 70
     0
  9
$DIMTIH
 70
     0
  9
$DIMTOH
 70
     0
  9
$DIMSE1
 70
     0
  9
$DIMSE2
 70
     0
  9
$DIMTAD
 70
     1
  9
$DIMZIN
 70
     8
  9
$DIMBLK
  1

  9
$DIMASO
 70
     1
  9
$DIMSHO
 70
     1
  9
$DIMPOST
  1

  9
$DIMAPOST
  1

  9
$DIMALT
 70
     0
  9
$DIMALTD
 70
     2
  9
$DIMALTF
 40
25.399999999999999
  9
$DIMLFAC
 40
1.0
  9
$DIMTOFL
 70
     1
  9
$DIMTVP
 40
0.0
  9
$DIMTIX
 70
     0
  9
$DIMSOXD
 70
     0
  9
$DIMSAH
 70
     1
  9
$DIMBLK1
  1
OPEN
  9
$DIMBLK2
  1
OPEN
  9
$DIMSTYLE
  2
DIA1
  9
$DIMCLRD
 70
     2
  9
$DIMCLRE
 70
     2
  9
$DIMCLRT
 70
     2
  9
$DIMTFAC
 40
1.0
  9
$DIMGAP
 40
0.5
  9
$LUNITS
 70
     2
  9
$LUPREC
 70
     3
  9
$SKETCHINC
 40
0.1
  9
$FILLETRAD
 40
10.0
  9
$AUNITS
 70
     0
  9
$AUPREC
 70
     2
  9
$MENU
  1
acad
  9
$ELEVATION
 40
0.0
  9
$PELEVATION
 40
0.0
  9
$THICKNESS
 40
0.0
  9
$LIMCHECK
 70
     0
  9
$BLIPMODE
 70
     0
  9
$CHAMFERA
 40
10.0
  9
$CHAMFERB
 40
10.0
  9
$SKPOLY
 70
     0
  9
$TDCREATE
 40
2451270.426261805
  9
$TDUPDATE
 40
2454953.6370272678
  9
$TDINDWG
 40
0.8359005208
  9
$TDUSRTIMER
 40
0.8359005208
  9
$USRTIMER
 70
     1
  9
$ANGBASE
 50
0.0
  9
$ANGDIR
 70
     0
  9
$PDMODE
 70
     0
  9
$PDSIZE
 40
1.0
  9
$PLINEWID
 40
0.0
  9
$COORDS
 70
     1
  9
$SPLFRAME
 70
     0
  9
$SPLINETYPE
 70
     6
  9
$SPLINESEGS
 70
     8
  9
$ATTDIA
 70
     0
  9
$ATTREQ
 70
     1
  9
$HANDLING
 70
 10241
  9
$HANDSEED
  5
3018
  9
$SURFTAB1
 70
     6
  9
$SURFTAB2
 70
     6
  9
$SURFTYPE
 70
     6
  9
$SURFU
 70
     6
  9
$SURFV
 70
     6
  9
$UCSNAME
  2

  9
$UCSORG
 10
0.0
 20
0.0
 30
0.0
  9
$UCSXDIR
 10
1.0
 20
0.0
 30
0.0
  9
$UCSYDIR
 10
0.0
 20
1.0
 30
0.0
  9
$PUCSNAME
  2

  9
$PUCSORG
 10
0.0
 20
0.0
 30
0.0
  9
$PUCSXDIR
 10
1.0
 20
0.0
 30
0.0
  9
$PUCSYDIR
 10
0.0
 20
1.0
 30
0.0
  9
$USERI1
 70
     0
  9
$USERI2
 70
     0
  9
$USERI3
 70
     0
  9
$USERI4
 70
     0
  9
$USERI5
 70
     0
  9
$USERR1
 40
0.0
  9
$USERR2
 40
0.0
  9
$USERR3
 40
0.0
  9
$USERR4
 40
0.0
  9
$USERR5
 40
0.0
  9
$WORLDVIEW
 70
     1
  9
$SHADEDGE
 70
     3
  9
$SHADEDIF
 70
    70
  9
$TILEMODE
 70
     1
  9
$MAXACTVP
 70
    16
  9
$PLIMCHECK
 70
     0
  9
$PEXTMIN
 10
1.0000000000000000E+020
 20
1.0000000000000000E+020
 30
1.0000000000000000E+020
  9
$PEXTMAX
 10
-1.0000000000000000E+020
 20
-1.0000000000000000E+020
 30
-1.0000000000000000E+020
  9
$PLIMMIN
 10
0.0
 20
0.0
  9
$PLIMMAX
 10
12.0
 20
9.0
  9
$UNITMODE
 70
     0
  9
$VISRETAIN
 70
     0
  9
$PLINEGEN
 70
     0
  9
$PSLTSCALE
 70
     0
  0
ENDSEC
  0
SECTION
  2
TABLES
  0
TABLE
  2
VPORT
 70
     2
  0
VPORT
  2
*ACTIVE
 70
     0
 10
0.0
 20
0.0
 11
1.0
 21
1.0
 12
26976.98459313003
 22
-1521.0068044829529
 13
0.0
 23
0.0
 14
5.0
 24
5.0
 15
0.0
 25
0.0
 16
0.0
 26
0.0
 36
1.0
 17
0.0
 27
0.0
 37
0.0
 40
5503.23001060156
 41
3.1666666666666661
 42
50.0
 43
0.0
 44
0.0
 50
0.0
 51
0.0
 71
     0
 72
   100
 73
     1
 74
     0
 75
     0
 76
     0
 77
     0
 78
     0
  0
ENDTAB
  0
TABLE
  2
LTYPE
 70
     4
  0
LTYPE
  2
CONTINUOUS
 70
     0
  3
Solid line
 72
    65
 73
     0
 40
0.0
  0
LTYPE
  2
CENTER
 70
     0
  3
____ _ ____ _ ____ _ ____ _ ____ _ ____ _ ____ 
 72
    65
 73
     4
 40
2.0
 49
1.25
 49
-0.25
 49
0.25
 49
-0.25
  0
LTYPE
  2
HIDDEN
 70
     0
  3
__ __ __ __ __ __ __ __ __ __ __ __ __ __ __ __
 72
    65
 73
     2
 40
0.375
 49
0.25
 49
-0.125
  0
LTYPE
  2
PHANTOM
 70
     0
  3
______  __  __  ______  __  __  ______  __  __ 
 72
    65
 73
     6
 40
2.5
 49
1.25
 49
-0.25
 49
0.25
 49
-0.25
 49
0.25
 49
-0.25
  0
ENDTAB
  0
TABLE
  2
LAYER
 70
     9
  0
LAYER
  2
0
 70
     0
 62
     7
  6
CONTINUOUS
  0
LAYER
  2
CT
 70
     0
 62
     3
  6
CENTER
  0
LAYER
  2
FUTO
 70
     0
 62
     4
  6
CONTINUOUS
  0
LAYER
  2
HOSO
 70
     0
 62
     7
  6
CONTINUOUS
  0
LAYER
  2
KL
 70
     0
 62
     7
  6
HIDDEN
  0
LAYER
  2
SL
 70
     0
 62
     1
  6
PHANTOM
  0
LAYER
  2
SP
 70
     0
 62
     2
  6
CONTINUOUS
  0
LAYER
  2
DEFPOINTS
 70
     0
 62
     7
  6
CONTINUOUS
  0
LAYER
  2
4
 70
     0
 62
     7
  6
CONTINUOUS
  0
ENDTAB
  0
TABLE
  2
STYLE
 70
     1
  0
STYLE
  2
STANDARD
 70
     0
 40
0.0
 41
1.0
 50
15.0
 71
     0
 42
120.0
  3
C:\Program Files\AutoCAD LT\simplex.shx
  4
C:\Program Files\AutoCAD LT\extfont.shx
  0
ENDTAB
  0
TABLE
  2
VIEW
 70
     0
  0
ENDTAB
  0
TABLE
  2
UCS
 70
     0
  0
ENDTAB
  0
TABLE
  2
APPID
 70
     2
  0
APPID
  2
ACAD
 70
     0
  0
APPID
  2
CONTENTBLOCKICON
 70
     0
  0
ENDTAB
  0
TABLE
  2
DIMSTYLE
 70
     2
  0
DIMSTYLE
  2
DIA1
 70
     0
  3

  4

  5

  6

  7

 40
1.0
 41
2.0
 42
1.0
 43
10.0
 44
1.0
 45
0.0
 46
0.0
 47
0.0
 48
0.0
140
2.5
141
0.0
142
0.0
143
25.399999999999999
144
1.0
145
0.0
146
1.0
147
0.09
 71
     0
 72
     0
 73
     0
 74
     0
 75
     0
 76
     0
 77
     1
 78
     8
170
     0
171
     2
172
     1
173
     0
174
     0
175
     0
176
     2
177
     2
178
     2
  0
DIMSTYLE
  2
STANDARD
 70
     0
  3

  4

  5

  6

  7

 40
1.0
 41
0.18
 42
0.0625
 43
0.38
 44
0.18
 45
0.0
 46
0.0
 47
0.0
 48
0.0
140
0.18
141
0.09
142
0.0
143
25.399999999999999
144
1.0
145
0.0
146
1.0
147
0.09
 71
     0
 72
     0
 73
     1
 74
     1
 75
     0
 76
     0
 77
     0
 78
     0
170
     0
171
     2
172
     0
173
     0
174
     0
175
     0
176
     0
177
     0
178
     0
  0
ENDTAB
  0
ENDSEC
  0
SECTION
  2
BLOCKS
  0
BLOCK
  8
0
  2
$MODEL_SPACE
 70
     0
 10
0.0
 20
0.0
 30
0.0
  3
$MODEL_SPACE
  1

  0
ENDBLK
  5
7
  8
0
  0
BLOCK
 67
     1
  8
0
  2
$PAPER_SPACE
 70
     0
 10
0.0
 20
0.0
 30
0.0
  3
$PAPER_SPACE
  1

  0
ENDBLK
  5
A
 67
     1
  8
0
  0
BLOCK
  8
0
  2
_OPEN
 70
     0
 10
0.0
 20
0.0
 30
0.0
  3
_OPEN
  1

  0
LINE
  5
25
  8
0
  6
BYBLOCK
 62
     0
 10
-1.0
 20
0.1666666666666666
 30
0.0
 11
0.0
 21
0.0
 31
0.0
  0
LINE
  5
26
  8
0
  6
BYBLOCK
 62
     0
 10
0.0
 20
0.0
 30
0.0
 11
-1.0
 21
-0.1666666666666666
 31
0.0
  0
LINE
  5
27
  8
0
  6
BYBLOCK
 62
     0
 10
0.0
 20
0.0
 30
0.0
 11
-1.0
 21
0.0
 31
0.0
  0
ENDBLK
  5
29
  8
0
  0
BLOCK
  8
0
  2
_DOT
 70
     0
 10
0.0
 20
0.0
 30
0.0
  3
_DOT
  1

  0
POLYLINE
  5
16D
  8
0
  6
BYBLOCK
 62
     0
 66
     1
 10
0.0
 20
0.0
 30
0.0
 70
     1
 40
0.25
 41
0.25
  0
VERTEX
  5
2F9D
  8
0
  6
BYBLOCK
 62
     0
 10
-0.125
 20
0.0
 30
0.0
 42
1.0
  0
VERTEX
  5
2F9E
  8
0
  6
BYBLOCK
 62
     0
 10
0.125
 20
0.0
 30
0.0
 42
1.0
  0
SEQEND
  5
2F9F
  8
0
  6
BYBLOCK
 62
     0
  0
LINE
  5
171
  8
0
  6
BYBLOCK
 62
     0
 10
-0.25
 20
0.0
 30
0.0
 11
-1.0
 21
0.0
 31
0.0
  0
ENDBLK
  5
173
  8
0
  0
BLOCK
  8
0
  2
L-75-6
 70
     0
 10
0.0
 20
0.0
 30
0.0
  3
L-75-6
  1

  0
LINE
  5
293
  8
0
 10
114.6064614035558
 20
81.429596884474719
 30
0.0
 11
189.60646140355581
 21
81.429596884474719
 31
0.0
  0
LINE
  5
294
  8
0
 10
114.6064614035558
 20
81.429596884474719
 30
0.0
 11
114.6064614035558
 21
156.42959688447471
 31
0.0
  0
LINE
  5
295
  8
0
 10
189.60646140355581
 20
81.429596884474719
 30
0.0
 11
189.60646140355581
 21
83.429596884474705
 31
0.0
  0
LINE
  5
296
  8
0
 10
114.6064614035558
 20
156.42959688447471
 30
0.0
 11
116.6064614035558
 21
156.42959688447471
 31
0.0
  0
LINE
  5
297
  8
0
 10
120.6064614035558
 20
95.929596884474705
 30
0.0
 11
120.6064614035558
 21
152.42959688447471
 31
0.0
  0
LINE
  5
298
  8
0
 10
129.10646140355581
 20
87.429596884474719
 30
0.0
 11
185.60646140355581
 21
87.429596884474719
 31
0.0
  0
ARC
  5
299
  8
0
 10
185.60646140355581
 20
83.429596884474705
 30
0.0
 40
4.0
 50
0.0
 51
90.0
  0
ARC
  5
29A
  8
0
 10
116.6064614035558
 20
152.42959688447471
 30
0.0
 40
4.0
 50
0.0
 51
90.0
  0
ARC
  5
29B
  8
0
 10
129.10646140355581
 20
95.929596884474705
 30
0.0
 40
8.5
 50
180.0
 51
270.0
  0
ENDBLK
  5
29D
  8
0
  0
BLOCK
  8
0
  2
22222F
 70
     0
 10
0.0
 20
0.0
 30
0.0
  3
22222F
  1

  0
ARC
  5
228
  8
FUTO
 10
-0.0000000000000568
 20
0.0
 30
0.0
 40
130.0
 50
124.6637959032814
 51
175.3362040967184
  0
ARC
  5
229
  8
FUTO
 10
-0.0000000000000568
 20
0.0
 30
0.0
 40
130.0
 50
4.6637959032815717
 51
55.336204096718511
  0
ARC
  5
22A
  8
FUTO
 10
-0.0000000000000568
 20
0.0
 30
0.0
 40
115.0
 50
8.9772148936872895
 51
51.022785106312661
  0
ARC
  5
22B
  8
FUTO
 10
-0.0000000000000568
 20
0.0
 30
0.0
 40
115.0
 50
128.9772148936872
 51
171.02278510631271
  0
ARC
  5
22C
  8
FUTO
 10
-57.499999999999829
 20
99.592921435210386
 30
0.0
 40
18.0
 50
25.51139255315622
 51
214.4886074468437
  0
ARC
  5
22D
  8
FUTO
 10
57.5
 20
99.592921435210243
 30
0.0
 40
18.0
 50
325.51139255315621
 51
154.4886074468437
  0
LINE
  5
22E
  8
FUTO
 10
-110.0
 20
-127.0
 30
0.0
 11
-0.0000000000000568
 21
-127.0
 31
0.0
  0
ARC
  5
22F
  8
FUTO
 10
-0.0000000000000568
 20
0.0
 30
0.0
 40
115.0
 50
248.9772148936872
 51
291.0227851063126
  0
CIRCLE
  5
230
  8
FUTO
 10
-0.0000000000000568
 20
0.0
 30
0.0
 40
54.0
  0
LINE
  5
231
  8
CT
 10
-190.0
 20
-140.0
 30
0.0
 11
-190.0
 21
-70.0
 31
0.0
  0
LINE
  5
232
  8
FUTO
 10
-225.0
 20
-130.0
 30
0.0
 11
-110.0
 21
-130.0
 31
0.0
  0
LINE
  5
233
  8
FUTO
 10
-125.0000000000001
 20
-80.0
 30
0.0
 11
-222.0
 21
-80.0
 31
0.0
  0
ARC
  5
234
  8
FUTO
 10
-222.0
 20
-83.0
 30
0.0
 40
3.0
 50
90.0
 51
180.0
  0
LINE
  5
235
  8
FUTO
 10
-225.0
 20
-83.0
 30
0.0
 11
-225.0
 21
-130.0
 31
0.0
  0
LINE
  5
236
  8
FUTO
 10
-129.99999999999929
 20
-9.9498743710669828
 30
0.0
 11
-130.0
 21
-60.0
 31
0.0
  0
ARC
  5
237
  8
FUTO
 10
-0.0000000000000568
 20
0.0
 30
0.0
 40
115.0
 50
188.9772148936872
 51
231.02278510631271
  0
LINE
  5
238
  8
FUTO
 10
-125.0000000000001
 20
-80.0
 30
0.0
 11
-110.0000000000001
 21
-95.0
 31
0.0
  0
ARC
  5
239
  8
FUTO
 10
-150.0
 20
-60.0
 30
0.0
 40
20.0
 50
270.0
 51
0.0
  0
LINE
  5
23A
  8
FUTO
 10
-110.0
 20
-130.0
 30
0.0
 11
-110.0000000000001
 21
-95.0
 31
0.0
  0
ARC
  5
23B
  8
FUTO
 10
-57.500000000000057
 20
-99.592921435210542
 30
0.0
 40
18.0
 50
145.51139255315621
 51
334.48860744684367
  0
ARC
  5
23C
  8
FUTO
 10
-115.0
 20
0.0
 30
0.0
 40
18.0
 50
85.511392553156256
 51
274.48860744684367
  0
LINE
  5
23D
  8
CT
 10
190.0
 20
-140.0
 30
0.0
 11
190.0
 21
-70.0
 31
0.0
  0
ARC
  5
23E
  8
FUTO
 10
150.0
 20
-60.0
 30
0.0
 40
20.0
 50
180.0
 51
270.0
  0
LINE
  5
23F
  8
FUTO
 10
222.0000000000004
 20
-80.0
 30
0.0
 11
124.9999999999997
 21
-80.0
 31
0.0
  0
LINE
  5
240
  8
FUTO
 10
110.0
 20
-130.0
 30
0.0
 11
225.0
 21
-130.0
 31
0.0
  0
LINE
  5
241
  8
FUTO
 10
130.0
 20
-60.0
 30
0.0
 11
130.0
 21
-9.9498743710661302
 31
0.0
  0
ARC
  5
242
  8
FUTO
 10
-0.0000000000000568
 20
0.0
 30
0.0
 40
115.0
 50
308.97721489368718
 51
351.02278510631271
  0
LINE
  5
243
  8
FUTO
 10
-0.0000000000000568
 20
-127.0
 30
0.0
 11
110.0
 21
-127.0
 31
0.0
  0
ARC
  5
244
  8
FUTO
 10
57.5
 20
-99.592921435210542
 30
0.0
 40
18.0
 50
205.51139255315621
 51
34.488607446843737
  0
LINE
  5
245
  8
FUTO
 10
109.9999999999997
 20
-95.0
 30
0.0
 11
124.9999999999997
 21
-80.0
 31
0.0
  0
LINE
  5
246
  8
FUTO
 10
109.9999999999997
 20
-95.0
 30
0.0
 11
110.0
 21
-130.0
 31
0.0
  0
ARC
  5
247
  8
FUTO
 10
115.0
 20
0.0
 30
0.0
 40
18.0
 50
265.51139255315621
 51
94.488607446843773
  0
ARC
  5
248
  8
FUTO
 10
222.0000000000004
 20
-83.0
 30
0.0
 40
3.0
 50
0.0
 51
90.0
  0
LINE
  5
249
  8
FUTO
 10
225.0
 20
-130.0
 30
0.0
 11
225.0000000000004
 21
-83.0
 31
0.0
  0
LINE
  5
24A
  8
FUTO
 10
19.227247756821669
 20
132.99999999999989
 30
0.0
 11
-19.227247756821779
 21
132.99999999999989
 31
0.0
  0
ARC
  5
24B
  8
FUTO
 10
-0.0000000000000568
 20
0.0
 30
0.0
 40
115.0
 50
68.977214893687218
 51
111.0227851063126
  0
ARC
  5
24C
  8
FUTO
 10
-0.0000000000000568
 20
0.0
 30
0.0
 40
130.0
 50
98.505358450480756
 51
115.3362040967184
  0
LINE
  5
24D
  8
FUTO
 10
-19.227247756821779
 20
113.3812724558063
 30
0.0
 11
-19.227247756821779
 21
132.99999999999989
 31
0.0
  0
ARC
  5
24E
  8
FUTO
 10
-0.0000000000000568
 20
0.0
 30
0.0
 40
130.0
 50
64.663795903281382
 51
81.494641549519287
  0
LINE
  5
24F
  8
FUTO
 10
19.227247756821669
 20
113.3812724558063
 30
0.0
 11
19.227247756821669
 21
132.99999999999989
 31
0.0
  0
ENDBLK
  5
251
  8
0
  0
BLOCK
  8
0
  2
まっすぐの矢印
 70
     0
 10
0.0
 20
0.0
 30
0.0
  3
まっすぐの矢印
  1

  0
LINE
  5
2CF
  8
SP
 10
0.6962157491662495
 20
-2.216890595009601
 30
0.0
 11
0.6962157491662495
 21
-5.0
 31
0.0
  0
LINE
  5
2D0
  8
SP
 10
0.6962157491662495
 20
-5.0
 30
0.0
 11
-0.6962157491662495
 21
-5.0
 31
0.0
  0
LINE
  5
2D1
  8
SP
 10
-0.6962157491662495
 20
-5.0
 30
0.0
 11
-0.6962157491662495
 21
-2.216890595009601
 31
0.0
  0
LINE
  5
2D2
  8
SP
 10
-0.6962157491662495
 20
-2.216890595009601
 30
0.0
 11
-1.7145256852758151
 21
-2.216890595009601
 31
0.0
  0
LINE
  5
2D3
  8
SP
 10
-1.7145256852758151
 20
-2.216890595009601
 30
0.0
 11
0.0
 21
0.0
 31
0.0
  0
LINE
  5
2D4
  8
SP
 10
0.0
 20
0.0
 30
0.0
 11
1.7145256852758151
 21
-2.216890595009601
 31
0.0
  0
LINE
  5
2D5
  8
SP
 10
1.7145256852758151
 20
-2.216890595009601
 30
0.0
 11
0.6962157491662495
 21
-2.216890595009601
 31
0.0
  0
ENDBLK
  5
2D7
  8
0
  0
BLOCK
  8
0
  2
右回転矢印
 70
     0
 10
0.0
 20
0.0
 30
0.0
  3
右回転矢印
  1

  0
LINE
  5
1E3
  8
SP
 10
-2.7705290305565882
 20
1.567794835092901
 30
0.0
 11
-2.4288000558398148
 21
2.8051227455822878
 31
0.0
  0
LINE
  5
1E4
  8
SP
 10
-2.4288000558398148
 20
2.8051227455822878
 30
0.0
 11
0.0
 21
0.0
 31
0.0
  0
LINE
  5
1E5
  8
SP
 10
0.0
 20
0.0
 30
0.0
 11
-3.3160037613098718
 21
-0.4072531086382499
 31
0.0
  0
LINE
  5
1E6
  8
SP
 10
-3.3160037613098718
 20
-0.4072531086382499
 30
0.0
 11
-3.0391574735299112
 21
0.5951483970269315
 31
0.0
  0
ARC
  5
1E7
  8
SP
 10
-5.9215210782018062
 20
-9.8412769578768184
 30
0.0
 40
10.82714154973578
 50
74.560750721316467
 51
112.11861101078711
  0
LINE
  5
1E8
  8
SP
 10
-9.9982127316752951
 20
0.1890560027239694
 30
0.0
 11
-10.37814929817227
 21
1.1238557349100611
 31
0.0
  0
ARC
  5
1E9
  8
SP
 10
-5.9215210782018062
 20
-9.8412769578768291
 30
0.0
 40
11.83620167374065
 50
74.560750721316396
 51
112.11861101078701
  0
ENDBLK
  5
1EB
  8
0
  0
BLOCK
  8
0
  2
*D6
 70
     1
 10
0.0
 20
0.0
 30
0.0
  3
*D6
  1

  0
LINE
  5
2ED3
  8
SP
 62
     2
 10
21541.321991538069
 20
955.09217318188155
 30
0.0
 11
21541.321991538069
 21
287.47144616799591
 31
0.0
  0
LINE
  5
2ED4
  8
SP
 62
     2
 10
19291.321991538069
 20
955.09217318188155
 30
0.0
 11
19291.321991538069
 21
287.47144616799591
 31
0.0
  0
LINE
  5
2ED5
  8
SP
 62
     2
 10
21451.321991538069
 20
332.47144616799591
 30
0.0
 11
19381.321991538069
 21
332.47144616799591
 31
0.0
  0
INSERT
  5
2ED6
  8
SP
 62
     2
  2
_OPEN
 10
21541.321991538069
 20
332.47144616799591
 30
0.0
 41
90.0
 42
90.0
 43
90.0
  0
INSERT
  5
2ED7
  8
SP
 62
     2
  2
_OPEN
 10
19291.321991538069
 20
332.47144616799591
 30
0.0
 41
90.0
 42
90.0
 43
90.0
 50
180.0
  0
TEXT
  5
2ED8
  8
SP
 62
     2
 10
20167.037624951659
 20
354.97144616799591
 30
0.0
 40
135.0
  1
2250
 51
15.0
  0
POINT
  5
2ED9
  8
DEFPOINTS
 62
     0
 10
21541.321991538069
 20
1000.092173181881
 30
0.0
  0
POINT
  5
2EDA
  8
DEFPOINTS
 62
     0
 10
19291.321991538069
 20
1000.092173181881
 30
0.0
  0
POINT
  5
2EDB
  8
DEFPOINTS
 62
     0
 10
19291.321991538069
 20
332.47144616799591
 30
0.0
  0
ENDBLK
  5
A67
  8
0
  0
BLOCK
  8
0
  2
*D7
 70
     1
 10
0.0
 20
0.0
 30
0.0
  3
*D7
  1

  0
LINE
  5
2F0D
  8
SP
 62
     2
 10
19291.321991538069
 20
955.09217318188155
 30
0.0
 11
19291.321991538069
 21
287.47144616799591
 31
0.0
  0
LINE
  5
2F0E
  8
SP
 62
     2
 10
18141.321991538069
 20
955.09217318188155
 30
0.0
 11
18141.321991538069
 21
287.47144616799591
 31
0.0
  0
LINE
  5
2F0F
  8
SP
 62
     2
 10
19201.321991538069
 20
332.47144616799591
 30
0.0
 11
18231.321991538069
 21
332.47144616799591
 31
0.0
  0
INSERT
  5
2F10
  8
SP
 62
     2
  2
_OPEN
 10
19291.321991538069
 20
332.47144616799591
 30
0.0
 41
90.0
 42
90.0
 43
90.0
  0
INSERT
  5
2F11
  8
SP
 62
     2
  2
_OPEN
 10
18141.321991538069
 20
332.47144616799591
 30
0.0
 41
90.0
 42
90.0
 43
90.0
 50
180.0
  0
TEXT
  5
2F12
  8
SP
 62
     2
 10
18478.11040122238
 20
354.97144616799591
 30
0.0
 40
135.0
  1
1150
 51
15.0
  0
POINT
  5
2F13
  8
DEFPOINTS
 62
     0
 10
19291.321991538069
 20
1000.092173181881
 30
0.0
  0
POINT
  5
2F14
  8
DEFPOINTS
 62
     0
 10
18141.321991538069
 20
1000.092173181881
 30
0.0
  0
POINT
  5
2F15
  8
DEFPOINTS
 62
     0
 10
18141.321991538069
 20
332.47144616799591
 30
0.0
  0
ENDBLK
  5
A74
  8
0
  0
BLOCK
  8
0
  2
*D8
 70
     1
 10
0.0
 20
0.0
 30
0.0
  3
*D8
  1

  0
LINE
  5
2F80
  8
SP
 10
18141.321991538069
 20
955.09217318188155
 30
0.0
 11
18141.321991538069
 21
-7.8614507322072313
 31
0.0
  0
LINE
  5
2F81
  8
SP
 10
21541.321991538069
 20
955.09217318188155
 30
0.0
 11
21541.321991538069
 21
-7.8614507322072313
 31
0.0
  0
LINE
  5
2F82
  8
SP
 10
18231.321991538069
 20
37.138549267792762
 30
0.0
 11
21451.321991538069
 21
37.138549267792762
 31
0.0
  0
INSERT
  5
2F83
  8
SP
  2
_OPEN
 10
18141.321991538069
 20
37.138549267792762
 30
0.0
 41
90.0
 42
90.0
 43
90.0
 50
180.0
  0
INSERT
  5
2F84
  8
SP
  2
_OPEN
 10
21541.321991538069
 20
37.138549267792762
 30
0.0
 41
90.0
 42
90.0
 43
90.0
  0
TEXT
  8
0
  40
135
  5
3009
  72
0
  71
0
 10
19571.3
 20
-111.811
 30
0.000000
  1
3400
  0
POINT
  5
2F86
  8
DEFPOINTS
 62
     0
 10
18141.321991538069
 20
1000.092173181881
 30
0.0
  0
POINT
  5
2F87
  8
DEFPOINTS
 62
     0
 10
21541.321991538069
 20
1000.092173181881
 30
0.0
  0
POINT
  5
2F88
  8
DEFPOINTS
 62
     0
 10
21541.321991538069
 20
37.138549267792762
 30
0.0
  0
ENDBLK
  5
14BE
  8
0
  0
BLOCK
  8
0
  2
*D9
 70
     1
 10
0.0
 20
0.0
 30
0.0
  3
*D9
  1

  0
LINE
  5
2F89
  8
SP
 10
17947.98042570888
 20
2680.0921731818812
 30
0.0
 11
17507.21614124265
 21
2680.0921731818812
 31
0.0
  0
LINE
  5
2F8A
  8
SP
 10
18130.289322124219
 20
1200.092173181881
 30
0.0
 11
17507.21614124265
 21
1200.092173181881
 31
0.0
  0
LINE
  5
2F8B
  8
SP
 10
17552.21614124265
 20
2590.0921731818812
 30
0.0
 11
17552.21614124265
 21
1290.092173181881
 31
0.0
  0
INSERT
  5
2F8C
  8
SP
  2
_OPEN
 10
17552.21614124265
 20
2680.0921731818812
 30
0.0
 41
90.0
 42
90.0
 43
90.0
 50
90.0
  0
INSERT
  5
2F8D
  8
SP
  2
_OPEN
 10
17552.21614124265
 20
1200.092173181881
 30
0.0
 41
90.0
 42
90.0
 43
90.0
 50
270.0
  0
TEXT
  8
0
  40
135
  5
300A
  72
0
  71
0
 10
17192.2
 20
1711.63
 30
0.000000
  1
1480
  0
POINT
  5
2F8F
  8
DEFPOINTS
 62
     0
 10
17992.980425708869
 20
2680.0921731818812
 30
0.0
  0
POINT
  5
2F90
  8
DEFPOINTS
 62
     0
 10
18175.289322124219
 20
1200.092173181881
 30
0.0
  0
POINT
  5
2F91
  8
DEFPOINTS
 62
     0
 10
17552.21614124265
 20
1200.092173181881
 30
0.0
  0
ENDBLK
  5
14CA
  8
0
  0
BLOCK
  8
0
  2
*D10
 70
     1
 10
0.0
 20
0.0
 30
0.0
  3
*D10
  1

  0
LINE
  5
2F92
  8
SP
 10
18130.289322124219
 20
1180.092173181881
 30
0.0
 11
17507.21614124265
 21
1180.0921731818819
 31
0.0
  0
LINE
  5
2F93
  8
SP
 10
18130.289322124219
 20
1000.092173181881
 30
0.0
 11
17507.21614124265
 21
1000.092173181881
 31
0.0
  0
LINE
  5
2F94
  8
SP
 10
17552.21614124265
 20
1270.0921731818819
 30
0.0
 11
17552.21614124265
 21
1360.0921731818819
 31
0.0
  0
LINE
  5
2F95
  8
SP
 10
17552.21614124265
 20
910.09217318188178
 30
0.0
 11
17552.21614124265
 21
460.09217318188172
 31
0.0
  0
LINE
  5
2F96
  8
SP
 10
17552.21614124265
 20
1180.0921731818819
 30
0.0
 11
17552.21614124265
 21
1000.092173181881
 31
0.0
  0
INSERT
  5
2F97
  8
SP
  2
_DOT
 10
17552.21614124265
 20
1180.0921731818819
 30
0.0
 41
90.0
 42
90.0
 43
90.0
 50
270.0
  0
INSERT
  5
2F98
  8
SP
  2
_OPEN
 10
17552.21614124265
 20
1000.092173181881
 30
0.0
 41
90.0
 42
90.0
 43
90.0
 50
90.0
  0
TEXT
  8
0
  40
135
  5
300B
  72
0
  71
0
 10
17192.2
 20
401.142
 30
0.000000
  1
180
  0
POINT
  5
2F9A
  8
DEFPOINTS
 62
     0
 10
18175.289322124219
 20
1180.092173181881
 30
0.0
  0
POINT
  5
2F9B
  8
DEFPOINTS
 62
     0
 10
18175.289322124219
 20
1000.092173181881
 30
0.0
  0
POINT
  5
2F9C
  8
DEFPOINTS
 62
     0
 10
17552.21614124265
 20
1000.092173181881
 30
0.0
  0
ENDBLK
  5
14D8
  8
0
  0
BLOCK
  8
0
  2
*D11
 70
     1
 10
0.0
 20
0.0
 30
0.0
  3
*D11
  1

  0
LINE
  5
2FA0
  8
SP
 10
19291.321991538069
 20
4925.4750204785541
 30
0.0
 11
19291.321991538069
 21
5388.1575330326177
 31
0.0
  0
LINE
  5
2FA1
  8
SP
 10
18016.321991538069
 20
4952.0921731818808
 30
0.0
 11
18016.321991538069
 21
5388.1575330326177
 31
0.0
  0
LINE
  5
2FA2
  8
SP
 10
19201.321991538069
 20
5343.1575330326168
 30
0.0
 11
18106.321991538069
 21
5343.1575330326168
 31
0.0
  0
INSERT
  5
2FA3
  8
SP
  2
_OPEN
 10
19291.321991538069
 20
5343.1575330326168
 30
0.0
 41
90.0
 42
90.0
 43
90.0
  0
INSERT
  5
2FA4
  8
SP
  2
_OPEN
 10
18016.321991538069
 20
5343.1575330326168
 30
0.0
 41
90.0
 42
90.0
 43
90.0
 50
180.0
  0
TEXT
  8
0
  40
135
  5
300C
  72
0
  71
0
 10
18383.8
 20
5194.21
 30
0.000000
  1
1275
  0
POINT
  5
2FA6
  8
DEFPOINTS
 62
     0
 10
19291.321991538069
 20
4880.4750204785541
 30
0.0
  0
POINT
  5
2FA7
  8
DEFPOINTS
 62
     0
 10
18016.321991538069
 20
4907.0921731818817
 30
0.0
  0
POINT
  5
2FA8
  8
DEFPOINTS
 62
     0
 10
18016.321991538069
 20
5343.1575330326168
 30
0.0
  0
ENDBLK
  5
14E7
  8
0
  0
BLOCK
  8
0
  2
*D12
 70
     1
 10
0.0
 20
0.0
 30
0.0
  3
*D12
  1

  0
LINE
  5
2FA9
  8
SP
 10
25770.061601108951
 20
3680.0921731818812
 30
0.0
 11
26264.251319487968
 21
3680.0921731818812
 31
0.0
  0
LINE
  5
2FAA
  8
SP
 10
25770.061601108951
 20
1680.092173181881
 30
0.0
 11
26264.251319487968
 21
1680.092173181881
 31
0.0
  0
LINE
  5
2FAB
  8
SP
 10
26219.251319487979
 20
3590.0921731818821
 30
0.0
 11
26219.251319487979
 21
1770.092173181881
 31
0.0
  0
INSERT
  5
2FAC
  8
SP
  2
_OPEN
 10
26219.251319487979
 20
3680.0921731818812
 30
0.0
 41
90.0
 42
90.0
 43
90.0
 50
90.0
  0
INSERT
  5
2FAD
  8
SP
  2
_OPEN
 10
26219.251319487979
 20
1680.092173181881
 30
0.0
 41
90.0
 42
90.0
 43
90.0
 50
270.0
  0
TEXT
  8
0
  40
135
  5
300D
  72
0
  71
0
 10
25859.3
 20
2441.14
 30
0.000000
  1
%%C2000
  0
POINT
  5
2FAF
  8
DEFPOINTS
 62
     0
 10
25725.061601108951
 20
3680.0921731818812
 30
0.0
  0
POINT
  5
2FB0
  8
DEFPOINTS
 62
     0
 10
25725.061601108951
 20
1680.092173181881
 30
0.0
  0
POINT
  5
2FB1
  8
DEFPOINTS
 62
     0
 10
26219.251319487979
 20
1680.092173181881
 30
0.0
  0
ENDBLK
  5
1561
  8
0
  0
BLOCK
  8
0
  2
*D13
 70
     1
 10
0.0
 20
0.0
 30
0.0
  3
*D13
  1

  0
LINE
  5
2FB2
  8
SP
 10
24820.061601108951
 20
5249.2699424166176
 30
0.0
 11
24820.061601108951
 21
5365.2296057386293
 31
0.0
  0
LINE
  5
2FB3
  8
SP
 10
25725.061601108951
 20
3800.0921731818821
 30
0.0
 11
25725.061601108951
 21
5365.2296057386293
 31
0.0
  0
LINE
  5
2FB4
  8
SP
 10
24910.061601108951
 20
5320.2296057386284
 30
0.0
 11
25635.061601108951
 21
5320.2296057386284
 31
0.0
  0
INSERT
  5
2FB5
  8
SP
  2
_OPEN
 10
24820.061601108951
 20
5320.2296057386284
 30
0.0
 41
90.0
 42
90.0
 43
90.0
 50
180.0
  0
INSERT
  5
2FB6
  8
SP
  2
_OPEN
 10
25725.061601108951
 20
5320.2296057386284
 30
0.0
 41
90.0
 42
90.0
 43
90.0
  0
TEXT
  8
0
  40
135
  5
300E
  72
0
  71
0
 10
25002.6
 20
5171.28
 30
0.000000
  1
905
  0
POINT
  5
2FB8
  8
DEFPOINTS
 62
     0
 10
24820.061601108951
 20
5204.2699424166194
 30
0.0
  0
POINT
  5
2FB9
  8
DEFPOINTS
 62
     0
 10
25725.061601108951
 20
3755.0921731818821
 30
0.0
  0
POINT
  5
2FBA
  8
DEFPOINTS
 62
     0
 10
25725.061601108951
 20
5320.2296057386284
 30
0.0
  0
ENDBLK
  5
1576
  8
0
  0
BLOCK
  8
0
  2
*D14
 70
     1
 10
0.0
 20
0.0
 30
0.0
  3
*D14
  1

  0
LINE
  5
2FBB
  8
SP
 62
     2
 10
22449.061601108951
 20
955.09217318188155
 30
0.0
 11
22449.061601108951
 21
282.01475291363562
 31
0.0
  0
LINE
  5
2FBC
  8
SP
 62
     2
 10
24820.061601108951
 20
955.09217318188155
 30
0.0
 11
24820.061601108951
 21
282.01475291363562
 31
0.0
  0
LINE
  5
2FBD
  8
SP
 62
     2
 10
22539.061601108951
 20
327.01475291363562
 30
0.0
 11
24730.061601108951
 21
327.01475291363562
 31
0.0
  0
INSERT
  5
2FBE
  8
SP
 62
     2
  2
_OPEN
 10
22449.061601108951
 20
327.01475291363562
 30
0.0
 41
90.0
 42
90.0
 43
90.0
 50
180.0
  0
INSERT
  5
2FBF
  8
SP
 62
     2
  2
_OPEN
 10
24820.061601108951
 20
327.01475291363562
 30
0.0
 41
90.0
 42
90.0
 43
90.0
  0
TEXT
  8
0
  40
135
  5
300F
  62
2
  72
0
  71
0
 10
23364.6
 20
178.065
 30
0.000000
  1
2371
  0
POINT
  5
2FC1
  8
DEFPOINTS
 62
     0
 10
22449.061601108951
 20
1000.092173181881
 30
0.0
  0
POINT
  5
2FC2
  8
DEFPOINTS
 62
     0
 10
24820.061601108951
 20
1000.092173181881
 30
0.0
  0
POINT
  5
2FC3
  8
DEFPOINTS
 62
     0
 10
24820.061601108951
 20
327.01475291363562
 30
0.0
  0
ENDBLK
  5
1B15
  8
0
  0
BLOCK
  8
0
  2
*D15
 70
     1
 10
0.0
 20
0.0
 30
0.0
  3
*D15
  1

  0
LINE
  5
2FC4
  8
SP
 62
     2
 10
25649.061601108951
 20
955.09217318188155
 30
0.0
 11
25649.061601108951
 21
282.01475291363562
 31
0.0
  0
LINE
  5
2FC5
  8
SP
 62
     2
 10
24910.061601108951
 20
327.01475291363562
 30
0.0
 11
25559.061601108951
 21
327.01475291363562
 31
0.0
  0
INSERT
  5
2FC6
  8
SP
 62
     2
  2
_OPEN
 10
24820.061601108951
 20
327.01475291363562
 30
0.0
 41
90.0
 42
90.0
 43
90.0
 50
180.0
  0
INSERT
  5
2FC7
  8
SP
 62
     2
  2
_OPEN
 10
25649.061601108951
 20
327.01475291363562
 30
0.0
 41
90.0
 42
90.0
 43
90.0
  0
TEXT
  8
0
  40
135
  5
3010
  62
2
  72
0
  71
0
 10
24964.6
 20
178.065
 30
0.000000
  1
829
  0
POINT
  5
2FC9
  8
DEFPOINTS
 62
     0
 10
24820.061601108951
 20
1000.092173181881
 30
0.0
  0
POINT
  5
2FCA
  8
DEFPOINTS
 62
     0
 10
25649.061601108951
 20
1000.092173181881
 30
0.0
  0
POINT
  5
2FCB
  8
DEFPOINTS
 62
     0
 10
25649.061601108951
 20
327.01475291363562
 30
0.0
  0
ENDBLK
  5
1B21
  8
0
  0
BLOCK
  8
0
  2
*D16
 70
     1
 10
0.0
 20
0.0
 30
0.0
  3
*D16
  1

  0
LINE
  5
2FCC
  8
SP
 62
     2
 10
25649.061601108951
 20
282.01475291363562
 30
0.0
 11
25649.061601108951
 21
-10.10754733926114
 31
0.0
  0
LINE
  5
2FCD
  8
SP
 62
     2
 10
22449.061601108951
 20
282.01475291363562
 30
0.0
 11
22449.061601108951
 21
-10.10754733926114
 31
0.0
  0
LINE
  5
2FCE
  8
SP
 62
     2
 10
25559.061601108951
 20
34.892452660738847
 30
0.0
 11
22539.061601108951
 21
34.892452660738847
 31
0.0
  0
INSERT
  5
2FCF
  8
SP
 62
     2
  2
_OPEN
 10
25649.061601108951
 20
34.892452660738847
 30
0.0
 41
90.0
 42
90.0
 43
90.0
  0
INSERT
  5
2FD0
  8
SP
 62
     2
  2
_OPEN
 10
22449.061601108951
 20
34.892452660738847
 30
0.0
 41
90.0
 42
90.0
 43
90.0
 50
180.0
  0
TEXT
  8
0
  40
135
  5
3011
  62
2
  72
0
  71
0
 10
23779.1
 20
-114.058
 30
0.000000
  1
3200
  0
POINT
  5
2FD2
  8
DEFPOINTS
 62
     0
 10
25649.061601108951
 20
327.01475291363562
 30
0.0
  0
POINT
  5
2FD3
  8
DEFPOINTS
 62
     0
 10
22449.061601108951
 20
327.01475291363562
 30
0.0
  0
POINT
  5
2FD4
  8
DEFPOINTS
 62
     0
 10
22449.061601108951
 20
34.892452660738847
 30
0.0
  0
ENDBLK
  5
1B2E
  8
0
  0
BLOCK
  8
0
  2
*D17
 70
     1
 10
0.0
 20
0.0
 30
0.0
  3
*D17
  1

  0
LINE
  5
2FD5
  8
SP
 62
     2
 10
22310.061601108951
 20
5320.2296057386284
 30
0.0
 11
24730.061601108951
 21
5320.2296057386284
 31
0.0
  0
INSERT
  5
2FD6
  8
SP
 62
     2
  2
_OPEN
 10
22220.061601108951
 20
5320.2296057386284
 30
0.0
 41
90.0
 42
90.0
 43
90.0
 50
180.0
  0
INSERT
  5
2FD7
  8
SP
 62
     2
  2
_OPEN
 10
24820.061601108951
 20
5320.2296057386284
 30
0.0
 41
90.0
 42
90.0
 43
90.0
  0
TEXT
  8
0
  40
135
  5
3012
  62
2
  72
0
  71
0
 10
23250.1
 20
5171.28
 30
0.000000
  1
2600
  0
POINT
  5
2FD9
  8
DEFPOINTS
 62
     0
 10
22220.061601108951
 20
5320.2296057386284
 30
0.0
  0
POINT
  5
2FDA
  8
DEFPOINTS
 62
     0
 10
24820.061601108951
 20
5320.2296057386284
 30
0.0
  0
POINT
  5
2FDB
  8
DEFPOINTS
 62
     0
 10
24820.061601108951
 20
5320.2296057386284
 30
0.0
  0
ENDBLK
  5
1BFE
  8
0
  0
BLOCK
  8
0
  2
*D18
 70
     1
 10
0.0
 20
0.0
 30
0.0
  3
*D18
  1

  0
LINE
  5
2FDC
  8
SP
 62
     2
 10
17902.98042570888
 20
2680.0921731818812
 30
0.0
 11
17507.21614124265
 21
2680.0921731818812
 31
0.0
  0
LINE
  5
2FDD
  8
SP
 62
     2
 10
17971.32199153661
 20
4907.0921731818826
 30
0.0
 11
17507.21614124265
 21
4907.0921731818826
 31
0.0
  0
LINE
  5
2FDE
  8
SP
 62
     2
 10
17552.21614124265
 20
2770.0921731818812
 30
0.0
 11
17552.21614124265
 21
4817.0921731818826
 31
0.0
  0
INSERT
  5
2FDF
  8
SP
 62
     2
  2
_OPEN
 10
17552.21614124265
 20
2680.0921731818812
 30
0.0
 41
90.0
 42
90.0
 43
90.0
 50
270.0
  0
INSERT
  5
2FE0
  8
SP
 62
     2
  2
_OPEN
 10
17552.21614124265
 20
4907.0921731818826
 30
0.0
 41
90.0
 42
90.0
 43
90.0
 50
90.0
  0
TEXT
  8
0
  40
135
  5
3013
  62
2
  72
0
  71
0
 10
17192.2
 20
3554.64
 30
0.000000
  1
2227
  0
POINT
  5
2FE2
  8
DEFPOINTS
 62
     0
 10
17947.98042570888
 20
2680.0921731818812
 30
0.0
  0
POINT
  5
2FE3
  8
DEFPOINTS
 62
     0
 10
18016.32199153661
 20
4907.0921731818826
 30
0.0
  0
POINT
  5
2FE4
  8
DEFPOINTS
 62
     0
 10
17552.21614124265
 20
4907.0921731818826
 30
0.0
  0
ENDBLK
  5
1C2F
  8
0
  0
BLOCK
  8
0
  2
*D19
 70
     1
 10
0.0
 20
0.0
 30
0.0
  3
*D19
  1

  0
LINE
  5
2EF7
  8
SP
 10
18130.289322124219
 20
1200.092173181881
 30
0.0
 11
17507.21614124265
 21
1200.092173181881
 31
0.0
  0
LINE
  5
2EF8
  8
SP
 10
18130.289322124219
 20
1180.092173181881
 30
0.0
 11
17507.21614124265
 21
1180.0921731818819
 31
0.0
  0
LINE
  5
2EF9
  8
SP
 10
17552.21614124265
 20
1290.092173181881
 30
0.0
 11
17552.21614124265
 21
1380.0921731818819
 31
0.0
  0
LINE
  5
2EFA
  8
SP
 10
17552.21614124265
 20
1090.0921731818819
 30
0.0
 11
17552.21614124265
 21
1000.092173181881
 31
0.0
  0
TEXT
  5
2EFB
  8
SP
 10
17375.731747823251
 20
970.34256794177691
 30
0.0
 40
135.0
  1
(20)
 50
90.0
 51
15.0
  0
LINE
  5
2EFC
  8
SP
 10
17552.21614124265
 20
1200.092173181881
 30
0.0
 11
17552.21614124265
 21
1180.0921731818819
 31
0.0
  0
INSERT
  5
2EFD
  8
SP
  2
_OPEN
 10
17552.21614124265
 20
1200.092173181881
 30
0.0
 41
90.0
 42
90.0
 43
90.0
 50
270.0
  0
INSERT
  5
2EFE
  8
SP
  2
_DOT
 10
17552.21614124265
 20
1180.0921731818819
 30
0.0
 41
90.0
 42
90.0
 43
90.0
 50
90.0
  0
POINT
  5
2EFF
  8
DEFPOINTS
 62
     0
 10
18175.289322124219
 20
1200.092173181881
 30
0.0
  0
POINT
  5
2F00
  8
DEFPOINTS
 62
     0
 10
18175.289322124219
 20
1180.092173181881
 30
0.0
  0
POINT
  5
2F01
  8
DEFPOINTS
 62
     0
 10
17552.21614124265
 20
1180.0921731818819
 30
0.0
  0
ENDBLK
  5
1C46
  8
0
  0
BLOCK
  8
0
  2
*D20
 70
     1
 10
0.0
 20
0.0
 30
0.0
  3
*D20
  1

  0
LINE
  5
2FE5
  8
SP
 62
     2
 10
19291.321991538069
 20
9868.4996389060871
 30
0.0
 11
19291.321991538069
 21
10151.77734653484
 31
0.0
  0
LINE
  5
2FE6
  8
SP
 62
     2
 10
18016.32199153669
 20
9538.8812584720436
 30
0.0
 11
18016.32199153669
 21
10151.77734653484
 31
0.0
  0
LINE
  5
2FE7
  8
SP
 62
     2
 10
19201.321991538069
 20
10106.77734653484
 30
0.0
 11
18106.32199153669
 21
10106.77734653484
 31
0.0
  0
INSERT
  5
2FE8
  8
SP
 62
     2
  2
_OPEN
 10
19291.321991538069
 20
10106.77734653484
 30
0.0
 41
90.0
 42
90.0
 43
90.0
  0
INSERT
  5
2FE9
  8
SP
 62
     2
  2
_OPEN
 10
18016.32199153669
 20
10106.77734653484
 30
0.0
 41
90.0
 42
90.0
 43
90.0
 50
180.0
  0
TEXT
  8
0
  40
135
  5
3014
  62
2
  72
0
  71
0
 10
18383.8
 20
9957.83
 30
0.000000
  1
1275
  0
POINT
  5
2FEB
  8
DEFPOINTS
 62
     0
 10
19291.321991538069
 20
9823.4996389060852
 30
0.0
  0
POINT
  5
2FEC
  8
DEFPOINTS
 62
     0
 10
18016.32199153669
 20
9493.8812584720436
 30
0.0
  0
POINT
  5
2FED
  8
DEFPOINTS
 62
     0
 10
18016.32199153669
 20
10106.77734653484
 30
0.0
  0
ENDBLK
  5
2546
  8
0
  0
BLOCK
  8
0
  2
*D21
 70
     1
 10
0.0
 20
0.0
 30
0.0
  3
*D21
  1

  0
LINE
  5
2FEE
  8
SP
 62
     2
 10
18171.321991538069
 20
9569.8812584720399
 30
0.0
 11
17405.318570883948
 21
9569.8812584720399
 31
0.0
  0
LINE
  5
2FEF
  8
SP
 62
     2
 10
17750.415279855901
 20
8664.8812584720417
 30
0.0
 11
17405.318570883948
 21
8664.8812584720417
 31
0.0
  0
LINE
  5
2FF0
  8
SP
 62
     2
 10
17450.318570883948
 20
9479.8812584720381
 30
0.0
 11
17450.318570883948
 21
8754.8812584720381
 31
0.0
  0
INSERT
  5
2FF1
  8
SP
 62
     2
  2
_OPEN
 10
17450.318570883948
 20
9569.8812584720399
 30
0.0
 41
90.0
 42
90.0
 43
90.0
 50
90.0
  0
INSERT
  5
2FF2
  8
SP
 62
     2
  2
_OPEN
 10
17450.318570883948
 20
8664.8812584720417
 30
0.0
 41
90.0
 42
90.0
 43
90.0
 50
270.0
  0
TEXT
  8
0
  40
135
  5
3015
  62
2
  72
0
  71
0
 10
17090.3
 20
8878.43
 30
0.000000
  1
905
  0
POINT
  5
2FF4
  8
DEFPOINTS
 62
     0
 10
18216.321991538069
 20
9569.8812584720399
 30
0.0
  0
POINT
  5
2FF5
  8
DEFPOINTS
 62
     0
 10
17795.415279855901
 20
8664.8812584720417
 30
0.0
  0
POINT
  5
2FF6
  8
DEFPOINTS
 62
     0
 10
17450.318570883948
 20
8664.8812584720417
 30
0.0
  0
ENDBLK
  5
2561
  8
0
  0
BLOCK
  8
0
  2
*D22
 70
     1
 10
0.0
 20
0.0
 30
0.0
  3
*D22
  1

  0
LINE
  5
2FF7
  8
SP
 62
     2
 10
17750.415279855901
 20
8664.8812584720417
 30
0.0
 11
17405.318570883948
 21
8664.8812584720417
 31
0.0
  0
LINE
  5
2FF8
  8
SP
 62
     2
 10
18766.321991538069
 20
6064.8812584720436
 30
0.0
 11
17405.318570883948
 21
6064.8812584720454
 31
0.0
  0
LINE
  5
2FF9
  8
SP
 62
     2
 10
17450.318570883948
 20
8574.8812584720381
 30
0.0
 11
17450.318570883948
 21
6154.8812584720454
 31
0.0
  0
INSERT
  5
2FFA
  8
SP
 62
     2
  2
_OPEN
 10
17450.318570883948
 20
8664.8812584720417
 30
0.0
 41
90.0
 42
90.0
 43
90.0
 50
90.0
  0
INSERT
  5
2FFB
  8
SP
 62
     2
  2
_OPEN
 10
17450.318570883948
 20
6064.8812584720454
 30
0.0
 41
90.0
 42
90.0
 43
90.0
 50
270.0
  0
TEXT
  8
0
  40
135
  5
3016
  62
2
  72
0
  71
0
 10
17090.3
 20
7125.93
 30
0.000000
  1
2600
  0
POINT
  5
2FFD
  8
DEFPOINTS
 62
     0
 10
17795.415279855901
 20
8664.8812584720417
 30
0.0
  0
POINT
  5
2FFE
  8
DEFPOINTS
 62
     0
 10
18811.321991538069
 20
6064.8812584720436
 30
0.0
  0
POINT
  5
2FFF
  8
DEFPOINTS
 62
     0
 10
17450.318570883948
 20
6064.8812584720454
 30
0.0
  0
ENDBLK
  5
256E
  8
0
  0
BLOCK
  8
0
  2
*D23
 70
     1
 10
0.0
 20
0.0
 30
0.0
  3
*D23
  1

  0
LINE
  5
3000
  8
SP
 62
     2
 10
19291.321991538069
 20
9868.4996389060871
 30
0.0
 11
19291.321991538069
 21
10151.77734653484
 31
0.0
  0
LINE
  5
3001
  8
SP
 62
     2
 10
21541.321991538069
 20
7955.881258472039
 30
0.0
 11
21541.321991538069
 21
10151.77734653484
 31
0.0
  0
LINE
  5
3002
  8
SP
 62
     2
 10
19381.321991538069
 20
10106.77734653484
 30
0.0
 11
21451.321991538069
 21
10106.77734653484
 31
0.0
  0
INSERT
  5
3003
  8
SP
 62
     2
  2
_OPEN
 10
19291.321991538069
 20
10106.77734653484
 30
0.0
 41
90.0
 42
90.0
 43
90.0
 50
180.0
  0
INSERT
  5
3004
  8
SP
 62
     2
  2
_OPEN
 10
21541.321991538069
 20
10106.77734653484
 30
0.0
 41
90.0
 42
90.0
 43
90.0
  0
TEXT
  8
0
  40
135
  5
3017
  62
2
  72
0
  71
0
 10
20146.3
 20
9957.83
 30
0.000000
  1
2250
  0
POINT
  5
3006
  8
DEFPOINTS
 62
     0
 10
19291.321991538069
 20
9823.4996389060852
 30
0.0
  0
POINT
  5
3007
  8
DEFPOINTS
 62
     0
 10
21541.321991538069
 20
7910.8812584720381
 30
0.0
  0
POINT
  5
3008
  8
DEFPOINTS
 62
     0
 10
21541.321991538069
 20
10106.77734653484
 30
0.0
  0
ENDBLK
  5
26F5
  8
0
  0
ENDSEC
  0
SECTION
  2
ENTITIES
  0
LINE
  5
46
  8
FUTO
 10
22704.061601108951
 20
2520.0921731818812
 30
0.0
 11
23954.061601108951
 21
2520.0921731818812
 31
0.0
  0
LINE
  5
49
  8
FUTO
 10
23762.061601108951
 20
2737.5921731818812
 30
0.0
 11
22700.061601108951
 21
2737.5921731818812
 31
0.0
  0
LINE
  5
4A
  8
FUTO
 10
23762.061601108951
 20
2622.5921731818821
 30
0.0
 11
22700.061601108951
 21
2622.5921731818821
 31
0.0
  0
LINE
  5
4B
  8
FUTO
 10
22449.061601108951
 20
1380.092173181881
 30
0.0
 11
25663.261601108949
 21
1380.092173181881
 31
0.0
  0
LINE
  5
4C
  8
CT
 10
25846.32481310792
 20
2680.0921731818812
 30
0.0
 11
22115.284178110542
 21
2680.0921731818812
 31
0.0
  0
LINE
  5
4F
  8
FUTO
 10
22449.061601108951
 20
1180.092173181881
 30
0.0
 11
25649.061601108951
 21
1180.092173181881
 31
0.0
  0
LINE
  5
50
  8
FUTO
 10
22524.061601108951
 20
1200.092173181881
 30
0.0
 11
25574.061601108951
 21
1200.092173181881
 31
0.0
  0
LINE
  5
51
  8
FUTO
 10
22524.061601108951
 20
1012.092173181881
 30
0.0
 11
24037.206679563089
 21
1012.092173181881
 31
0.0
  0
LINE
  5
52
  8
FUTO
 10
22524.061601108951
 20
1168.092173181881
 30
0.0
 11
24037.206679563089
 21
1168.092173181881
 31
0.0
  0
LINE
  5
53
  8
FUTO
 10
22524.061601108951
 20
1212.092173181881
 30
0.0
 11
24037.206679563089
 21
1212.092173181881
 31
0.0
  0
LINE
  5
54
  8
FUTO
 10
22539.061601108951
 20
1368.092173181881
 30
0.0
 11
24037.206679563089
 21
1368.092173181881
 31
0.0
  0
DIMENSION
  5
6B
  8
SP
  2
*D8
 10
21541.321991538069
 20
37.138549267792762
 30
0.0
 11
19841.321991538069
 21
127.1385492677927
 31
0.0
 70
     0
 13
18141.321991538069
 23
1000.092173181881
 33
0.0
 14
21541.321991538069
 24
1000.092173181881
 34
0.0
 50
180.0
1001
ACAD
1000
DSTYLE
1002
{
1070
   287
1070
     0
1070
   287
1070
     0
1070
    40
1040
45.0
1070
   140
1040
3.0
1070
   143
1040
0.03937
1070
   147
1040
0.5
1070
   173
1070
     1
1070
   176
1070
   256
1070
   177
1070
   256
1070
   178
1070
   256
1070
   271
1070
     4
1070
   272
1070
     4
1070
   279
1070
     0
1070
   285
1070
     0
1070
   286
1070
     0
1070
   289
1070
     0
1070
     6
1000
OPEN
1070
     7
1000
OPEN
1002
}
  0
LINE
  5
78
  8
CT
 10
21086.554984776591
 20
2680.0921731818812
 30
0.0
 11
21384.35519167822
 21
2680.0921731818812
 31
0.0
  0
LINE
  5
80
  8
FUTO
 10
20816.554984776591
 20
1200.092173181881
 30
0.0
 11
21382.088682352762
 21
1200.092173181881
 31
0.0
  0
ARC
  5
86
  8
KL
 10
19438.321991538069
 20
2827.0921731818812
 30
0.0
 40
1589.0
 50
270.0
 51
0.000000000000007
  0
LINE
  5
89
  8
FUTO
 10
18141.321991538069
 20
1200.092173181881
 30
0.0
 11
21541.321991538069
 21
1200.092173181881
 31
0.0
  0
LINE
  5
8A
  8
FUTO
 10
18141.321991538069
 20
1380.092173181881
 30
0.0
 11
21541.321991538069
 21
1380.092173181881
 31
0.0
  0
LINE
  5
8C
  8
FUTO
 10
18141.321991538069
 20
1180.092173181881
 30
0.0
 11
21541.321991538069
 21
1180.092173181881
 31
0.0
  0
LINE
  5
8D
  8
FUTO
 10
18141.321991538069
 20
1000.092173181881
 30
0.0
 11
21541.321991538069
 21
1000.092173181881
 31
0.0
  0
LINE
  5
8E
  8
FUTO
 10
18141.321991538069
 20
1364.092173181881
 30
0.0
 11
21541.321991538069
 21
1364.092173181881
 31
0.0
  0
LINE
  5
8F
  8
FUTO
 10
18141.321991538069
 20
1216.092173181881
 30
0.0
 11
21541.321991538069
 21
1216.092173181881
 31
0.0
  0
LINE
  5
90
  8
FUTO
 10
18141.321991538069
 20
1164.092173181881
 30
0.0
 11
21541.321991538069
 21
1164.092173181881
 31
0.0
  0
LINE
  5
91
  8
FUTO
 10
18141.321991538069
 20
1016.092173181881
 30
0.0
 11
21541.321991538069
 21
1016.092173181881
 31
0.0
  0
ARC
  5
92
  8
KL
 10
19144.321991538069
 20
2827.0921731818812
 30
0.0
 40
1883.0
 50
0.000000000000007
 51
84.428381621632965
  0
ARC
  5
93
  8
FUTO
 10
19144.321991538069
 20
2827.0921731818812
 30
0.0
 40
1903.0
 50
355.84142722598313
 51
84.512639872928943
  0
LINE
  5
A6
  8
FUTO
 10
21541.321991538069
 20
1200.092173181881
 30
0.0
 11
21541.321991538069
 21
1380.092173181881
 31
0.0
  0
LINE
  5
A7
  8
FUTO
 10
21541.321991538069
 20
1000.092173181881
 30
0.0
 11
21541.321991538069
 21
1180.092173181881
 31
0.0
  0
DIMENSION
  5
F2
  8
SP
  2
*D9
 10
17552.21614124265
 20
1200.092173181881
 30
0.0
 11
17552.21614124265
 21
1950.5799567075969
 31
0.0
 70
   128
 13
17992.980425708869
 23
2680.0921731818812
 33
0.0
 14
18175.289322124219
 24
1200.092173181881
 34
0.0
 50
90.0
1001
ACAD
1000
DSTYLE
1002
{
1070
   287
1070
     0
1070
   287
1070
     0
1070
    40
1040
45.0
1070
   140
1040
3.0
1070
   143
1040
0.03937
1070
   147
1040
0.5
1070
   173
1070
     1
1070
   176
1070
   256
1070
   177
1070
   256
1070
   178
1070
   256
1070
   271
1070
     4
1070
   272
1070
     4
1070
   279
1070
     0
1070
   285
1070
     0
1070
   286
1070
     0
1070
   289
1070
     0
1070
     6
1000
OPEN
1070
     7
1000
OPEN
1002
}
  0
LINE
  5
FF
  8
FUTO
 10
22704.061601108951
 20
2540.0921731818812
 30
0.0
 11
22704.061601108951
 21
2520.0921731818812
 31
0.0
  0
LINE
  5
100
  8
FUTO
 10
22524.061601108951
 20
2540.0921731818812
 30
0.0
 11
22524.061601108951
 21
1380.092173181881
 31
0.0
  0
LINE
  5
101
  8
SL
 10
22467.861601108951
 20
3055.0921731818812
 30
0.0
 11
22467.861601108951
 21
1575.092173181881
 31
0.0
  0
LINE
  5
102
  8
SL
 10
22337.861601108951
 20
3055.0921731818812
 30
0.0
 11
22337.861601108951
 21
1575.092173181881
 31
0.0
  0
LINE
  5
103
  8
FUTO
 10
22220.061601108951
 20
3160.0921731818812
 30
0.0
 11
22220.061601108951
 21
1480.092173181881
 31
0.0
  0
LINE
  5
104
  8
FUTO
 10
18150.321991538069
 20
1380.092173181881
 30
0.0
 11
18150.321991538069
 21
2592.7547302768721
 31
0.0
  0
LINE
  5
105
  8
FUTO
 10
18141.321991538069
 20
1200.092173181881
 30
0.0
 11
18141.321991538069
 21
2592.152803692356
 31
0.0
  0
LINE
  5
107
  8
FUTO
 10
18491.321991538069
 20
1394.30421965959
 30
0.0
 11
18892.042059555559
 21
2413.679831283016
 31
0.0
  0
ARC
  5
10A
  8
KL
 10
19413.821991538069
 20
2557.5921731818812
 30
0.0
 40
1319.5
 50
180.0
 51
271.06390850262778
  0
ARC
  5
10B
  8
FUTO
 10
19413.821991538069
 20
2557.5921731818812
 30
0.0
 40
1339.5
 50
180.0
 51
241.5291007991155
  0
LINE
  5
10C
  8
CT
 10
19291.321991538069
 20
1000.092173181881
 30
0.0
 11
19291.321991538069
 21
4880.4750204785541
 31
0.0
  0
LINE
  5
10D
  8
CT
 10
19291.321991538069
 20
1000.092173181881
 30
0.0
 11
19291.321991538069
 21
4880.4750204785541
 31
0.0
  0
LINE
  5
10E
  8
FUTO
 10
20450.321991538069
 20
1627.4434746038351
 30
0.0
 11
20450.321991538069
 21
1703.27255746892
 31
0.0
  0
ARC
  5
10F
  8
FUTO
 10
19438.321991538069
 20
2827.0921731818812
 30
0.0
 40
1609.0
 50
341.63299535782642
 51
354.4361687009731
  0
LINE
  5
110
  8
CT
 10
21141.321991538069
 20
2363.3072619137288
 30
0.0
 11
21141.321991538069
 21
1000.092173181881
 31
0.0
  0
LINE
  5
111
  8
FUTO
 10
20432.321991538069
 20
1380.092173181881
 30
0.0
 11
20432.321991538069
 21
1710.4219774375781
 31
0.0
  0
LINE
  5
112
  8
FUTO
 10
20441.321991538069
 20
1200.092173181881
 30
0.0
 11
20441.321991538069
 21
1706.8472674532479
 31
0.0
  0
LINE
  5
116
  8
FUTO
 10
20091.321991538069
 20
1394.3042196595909
 30
0.0
 11
19880.96845763383
 21
1929.414086608976
 31
0.0
  0
LINE
  5
127
  8
FUTO
 10
20441.321991538069
 20
1603.042791469351
 30
0.0
 11
20476.677330597398
 21
1567.6874524100249
 31
0.0
  0
LINE
  5
128
  8
FUTO
 10
20441.321991538069
 20
1636.4434746038351
 30
0.0
 11
20494.677330597398
 21
1583.0881355445081
 31
0.0
  0
LINE
  5
129
  8
FUTO
 10
20441.321991538069
 20
1619.6850338953841
 30
0.0
 11
20485.677330597398
 21
1575.329694836058
 31
0.0
  0
LINE
  5
156
  8
FUTO
 10
20494.677330597398
 20
1583.0881355445081
 30
0.0
 11
20476.677330597398
 21
1567.6874524100249
 31
0.0
  0
LINE
  5
157
  8
FUTO
 10
20091.321991538069
 20
1200.0921731818819
 30
0.0
 11
20091.321991538069
 21
1394.304219659592
 31
0.0
  0
LINE
  5
15F
  8
CT
 10
18274.849312311249
 20
1287.700561326086
 30
0.0
 11
18274.849312311249
 21
1096.392167836229
 31
0.0
  0
LINE
  5
160
  8
FUTO
 10
18491.321991538069
 20
1200.092173181881
 30
0.0
 11
18491.321991538069
 21
1394.3042196595909
 31
0.0
  0
LINE
  5
162
  8
SP
 10
18234.849312311249
 20
1200.092173181881
 30
0.0
 11
18234.849312311249
 21
1180.092173181881
 31
0.0
  0
LINE
  5
163
  8
SP
 10
18314.849312311249
 20
1200.092173181881
 30
0.0
 11
18314.849312311249
 21
1180.092173181881
 31
0.0
  0
DIMENSION
  5
164
  8
SP
  2
*D10
 10
17552.21614124265
 20
1000.092173181881
 30
0.0
 11
17462.21614124265
 21
640.09217318188462
 31
0.0
 70
     0
 13
18175.289322124219
 23
1180.092173181881
 33
0.0
 14
18175.289322124219
 24
1000.092173181881
 34
0.0
 50
90.0
1001
ACAD
1000
DSTYLE
1002
{
1070
   287
1070
     0
1070
   287
1070
     0
1070
    40
1040
45.0
1070
   140
1040
3.0
1070
   143
1040
0.03937
1070
   147
1040
0.5
1070
   173
1070
     1
1070
   176
1070
   256
1070
   177
1070
   256
1070
   178
1070
   256
1070
   271
1070
     4
1070
   272
1070
     4
1070
   279
1070
     0
1070
   285
1070
     0
1070
   286
1070
     0
1070
   289
1070
     0
1070
     6
1000
DOT
1070
     7
1000
OPEN
1002
}
  0
DIMENSION
  5
17B
  8
SP
  2
*D19
 10
17552.21614124265
 20
1180.0921731818819
 30
0.0
 11
17330.731747823251
 21
1175.8879143884481
 31
0.0
 70
   128
  1
(<>)
 13
18175.289322124219
 23
1200.092173181881
 33
0.0
 14
18175.289322124219
 24
1180.092173181881
 34
0.0
 50
90.0
1001
ACAD
1000
DSTYLE
1002
{
1070
   140
1040
3.0
1070
   272
1070
     4
1070
    40
1040
45.0
1070
   173
1070
     1
1070
   147
1040
0.5
1070
   271
1070
     4
1070
   178
1070
   256
1070
   177
1070
   256
1070
   176
1070
   256
1070
     7
1000
_DOT
1070
     6
1000
_OPEN
1070
     5
1000

1070
   285
1070
     0
1070
   286
1070
     0
1070
   143
1040
0.03937
1002
}
  0
LINE
  5
18A
  8
FUTO
 10
18141.321991538069
 20
1000.092173181881
 30
0.0
 11
18141.321991538069
 21
1180.092173181881
 31
0.0
  0
ARC
  5
19A
  8
FUTO
 10
22507.061601108951
 20
1223.1675427995669
 30
0.0
 40
10.0
 50
275.0
 51
0.0
  0
LINE
  5
19B
  8
FUTO
 10
22524.061601108951
 20
1380.092173181881
 30
0.0
 11
22524.061601108951
 21
1200.092173181881
 31
0.0
  0
ARC
  5
1A0
  8
FUTO
 10
22507.061601108951
 20
1157.0168035641959
 30
0.0
 40
10.0
 50
0.0
 51
85.000000000000014
  0
LINE
  5
1A1
  8
FUTO
 10
22449.061601108951
 20
1203.015180482533
 30
0.0
 11
22449.061601108951
 21
1200.092173181881
 31
0.0
  0
ARC
  5
1A2
  8
FUTO
 10
22454.561601108951
 20
1203.0151804825341
 30
0.0
 40
5.5
 50
95.000000000000057
 51
180.00000000000051
  0
LINE
  5
1A3
  8
FUTO
 10
22449.061601108951
 20
1177.1691658812281
 30
0.0
 11
22449.061601108951
 21
1180.092173181881
 31
0.0
  0
ARC
  5
1A4
  8
FUTO
 10
22454.561601108951
 20
1177.1691658812281
 30
0.0
 40
5.5
 50
180.0
 51
265.0
  0
LINE
  5
1A5
  8
FUTO
 10
22524.061601108951
 20
1200.092173181881
 30
0.0
 11
22449.061601108951
 21
1200.092173181881
 31
0.0
  0
LINE
  5
1A6
  8
FUTO
 10
22507.93315853642
 20
1213.205595818649
 30
0.0
 11
22454.082244523841
 21
1208.4942513220381
 31
0.0
  0
LINE
  5
1A7
  8
FUTO
 10
22507.93315853642
 20
1166.9787505451141
 30
0.0
 11
22454.082244523841
 21
1171.6900950417239
 31
0.0
  0
LINE
  5
1A8
  8
FUTO
 10
22524.061601108951
 20
1180.092173181881
 30
0.0
 11
22449.061601108951
 21
1180.092173181881
 31
0.0
  0
ARC
  5
1A9
  8
FUTO
 10
22507.061601108951
 20
1023.1675427995669
 30
0.0
 40
10.0
 50
275.0
 51
0.0
  0
LINE
  5
1AA
  8
FUTO
 10
22449.061601108951
 20
1003.015180482533
 30
0.0
 11
22449.061601108951
 21
1000.092173181881
 31
0.0
  0
ARC
  5
1AB
  8
FUTO
 10
22454.561601108951
 20
1003.015180482534
 30
0.0
 40
5.5
 50
95.000000000000057
 51
180.00000000000051
  0
LINE
  5
1AC
  8
FUTO
 10
22524.061601108951
 20
1000.092173181881
 30
0.0
 11
22449.061601108951
 21
1000.092173181881
 31
0.0
  0
LINE
  5
1AD
  8
FUTO
 10
22507.93315853642
 20
1013.205595818649
 30
0.0
 11
22454.082244523841
 21
1008.4942513220381
 31
0.0
  0
LINE
  5
1AE
  8
FUTO
 10
22524.061601108951
 20
1180.092173181881
 30
0.0
 11
22524.061601108951
 21
1000.092173181881
 31
0.0
  0
LINE
  5
1AF
  8
FUTO
 10
22517.061601108951
 20
1157.0168035641959
 30
0.0
 11
22517.061601108951
 21
1023.1675427995669
 31
0.0
  0
LINE
  5
1B0
  8
CT
 10
22596.457909115528
 20
1730.092173181871
 30
0.0
 11
22122.253552194281
 21
1730.092173181871
 31
0.0
  0
LINE
  5
1B1
  8
SL
 10
22467.861601108951
 20
1575.092173181881
 30
0.0
 11
22337.861601108951
 21
1575.092173181881
 31
0.0
  0
LINE
  5
1B2
  8
FUTO
 10
22500.810635271449
 20
1480.092173181881
 30
0.0
 11
22220.061601108951
 21
1480.092173181881
 31
0.0
  0
ARC
  5
1B3
  8
FUTO
 10
22507.061601108951
 20
1357.0168035641959
 30
0.0
 40
10.0
 50
0.0
 51
85.000000000000014
  0
LINE
  5
1B4
  8
FUTO
 10
22449.061601108951
 20
1377.1691658812281
 30
0.0
 11
22449.061601108951
 21
1380.092173181881
 31
0.0
  0
ARC
  5
1B5
  8
FUTO
 10
22454.561601108951
 20
1377.1691658812281
 30
0.0
 40
5.5
 50
180.0
 51
265.0
  0
LINE
  5
1B6
  8
FUTO
 10
22507.93315853642
 20
1366.9787505451141
 30
0.0
 11
22454.082244523841
 21
1371.6900950417239
 31
0.0
  0
LINE
  5
1B7
  8
FUTO
 10
22524.061601108951
 20
1380.092173181881
 30
0.0
 11
22449.061601108951
 21
1380.092173181881
 31
0.0
  0
LINE
  5
1B8
  8
FUTO
 10
22517.061601108951
 20
1357.0168035641959
 30
0.0
 11
22517.061601108951
 21
1223.1675427995669
 31
0.0
  0
LINE
  5
1B9
  8
FUTO
 10
22500.810635271449
 20
1601.613889141981
 30
0.0
 11
22500.810635271449
 21
1480.092173181881
 31
0.0
  0
DIMENSION
  5
1BA
  8
SP
  2
*D11
 10
18016.321991538069
 20
5343.1575330326168
 30
0.0
 11
18653.821991538069
 21
5433.1575330326177
 31
0.0
 70
     0
 13
19291.321991538069
 23
4880.4750204785541
 33
0.0
 14
18016.321991538069
 24
4907.0921731818817
 34
0.0
 50
180.0
1001
ACAD
1000
DSTYLE
1002
{
1070
   287
1070
     0
1070
   287
1070
     0
1070
    40
1040
45.0
1070
   140
1040
3.0
1070
   143
1040
0.03937
1070
   147
1040
0.5
1070
   173
1070
     1
1070
   176
1070
   256
1070
   177
1070
   256
1070
   178
1070
   256
1070
   271
1070
     4
1070
   272
1070
     4
1070
   279
1070
     0
1070
   285
1070
     0
1070
   286
1070
     0
1070
   289
1070
     0
1070
     6
1000
OPEN
1070
     7
1000
OPEN
1002
}
  0
LINE
  5
1C7
  8
KL
 10
18016.321991538069
 20
4828.0921731818798
 30
0.0
 11
19327.14227169986
 21
4701.1961578000137
 31
0.0
  0
LINE
  5
1C8
  8
FUTO
 10
18091.321991538069
 20
4840.9251770019309
 30
0.0
 11
19329.076712787421
 21
4721.1023877731532
 31
0.0
  0
LINE
  5
1CD
  8
CT
 10
17946.738099117501
 20
2680.0921731818812
 30
0.0
 11
19491.321991538069
 21
2680.0921731818812
 31
0.0
  0
LINE
  5
1CE
  8
FUTO
 10
18030.299215864052
 20
2604.7741535506862
 30
0.0
 11
18811.875540669422
 21
2657.0465499649558
 31
0.0
  0
LINE
  5
1CF
  8
FUTO
 10
18031.500385595031
 20
2586.8142762883731
 30
0.0
 11
18796.23367097275
 21
2637.9601979031358
 31
0.0
  0
LINE
  5
1D0
  8
FUTO
 10
18030.899800729541
 20
2595.7942149195292
 30
0.0
 11
18812.391931209699
 21
2648.0609803557309
 31
0.0
  0
ARC
  5
1D3
  8
KL
 10
19168.821991538069
 20
2557.5921731818812
 30
0.0
 40
1074.5
 50
146.84808505590959
 51
180.0
  0
INSERT
  5
1E1
  8
FUTO
  2
右回転矢印
 10
19080.177838609001
 20
3948.7654024273479
 30
0.0
 41
-40.0
 42
40.0
 43
40.0
 50
359.00304546478287
  0
LINE
  5
1F0
  8
FUTO
 10
20441.321991538069
 20
2689.0921731818812
 30
0.0
 11
20441.321991538069
 21
4191.0863080666322
 31
0.0
  0
LINE
  5
1F1
  8
FUTO
 10
20432.321991538069
 20
2689.0921731818812
 30
0.0
 11
20432.321991538069
 21
4199.7847826178031
 31
0.0
  0
LINE
  5
1F3
  8
KL
 10
19491.321991538069
 20
2680.0921731818812
 30
0.0
 11
20179.821718411669
 21
2680.0921731818812
 31
0.0
  0
LINE
  5
1F4
  8
KL
 10
19491.321991538069
 20
2689.0921731818812
 30
0.0
 11
20165.80263838618
 21
2689.0921731818812
 31
0.0
  0
LINE
  5
1F5
  8
KL
 10
19491.321991538069
 20
2671.0921731818812
 30
0.0
 11
20193.840798437181
 21
2671.0921731818812
 31
0.0
  0
LINE
  5
21D
  8
FUTO
 10
21086.554984776591
 20
2689.0921731818812
 30
0.0
 11
21086.554984776591
 21
2671.0921731818812
 31
0.0
  0
INSERT
  5
226
  8
FUTO
  2
22222F
 10
19291.321991538069
 20
2680.0921731818812
 30
0.0
 41
-1.0
  0
LINE
  5
259
  8
KL
 10
19291.321991538069
 20
2540.0921731818812
 30
0.0
 11
19640.908796015508
 21
2540.0921731818812
 31
0.0
  0
LINE
  5
25C
  8
KL
 10
19491.321991538069
 20
2671.0921731818812
 30
0.0
 11
19491.321991538069
 21
2689.0921731818812
 31
0.0
  0
LINE
  5
25E
  8
KL
 10
19291.321991538069
 20
2540.0921731818812
 30
0.0
 11
18941.735187060629
 21
2540.0921731818812
 31
0.0
  0
LINE
  5
25F
  8
FUTO
 10
19092.368384600079
 20
2657.7659042064952
 30
0.0
 11
19091.1672148691
 21
2675.7257814688091
 31
0.0
  0
CIRCLE
  5
265
  8
KL
 10
18248.713302306191
 20
3158.5921731818812
 30
0.0
 40
24.5
  0
LINE
  5
26B
  8
FUTO
 10
19300.321991538069
 20
4723.8860337124006
 30
0.0
 11
19329.069394134669
 21
4721.1030962668247
 31
0.0
  0
LINE
  5
26C
  8
SP
 10
22220.061601108951
 20
3200.0921731818821
 30
0.0
 11
22220.061601108951
 21
5360.2296057386284
 31
0.0
  0
LINE
  5
289
  8
FUTO
 10
18091.321991538069
 20
2764.0921731818812
 30
0.0
 11
18091.321991538069
 21
4840.9251770019309
 31
0.0
  0
LINE
  5
28A
  8
FUTO
 10
18022.321991538069
 20
2764.0921731818812
 30
0.0
 11
18022.321991538069
 21
4832.0921731818798
 31
0.0
  0
LINE
  5
28B
  8
FUTO
 10
18016.321991538069
 20
2689.0921731818812
 30
0.0
 11
18016.321991538069
 21
4907.0921731818826
 31
0.0
  0
LINE
  5
28C
  8
FUTO
 10
18141.321991538069
 20
2612.1994380134552
 30
0.0
 11
18141.321991538069
 21
4836.0848484953331
 31
0.0
  0
LINE
  5
28D
  8
FUTO
 10
18150.321991538069
 20
2612.8013645979709
 30
0.0
 11
18150.321991538069
 21
4835.2135893641444
 31
0.0
  0
LINE
  5
28E
  8
FUTO
 10
18016.32199153761
 20
2689.092173181783
 30
0.0
 11
18016.32199153661
 21
4907.0921731817843
 31
0.0
  0
LINE
  5
28F
  8
FUTO
 10
18016.32199153812
 20
2689.0921731817798
 30
0.0
 11
18016.32199153661
 21
4907.0921731817798
 31
0.0
  0
INSERT
  5
291
  8
FUTO
  2
L-75-6
 10
17934.892394653602
 20
2878.698634585438
 30
0.0
 50
270.0
  0
ARC
  5
29E
  8
FUTO
 10
19168.821991538069
 20
2557.5921731818812
 30
0.0
 40
1094.5
 50
169.9765003324033
 51
177.37099416003559
  0
LINE
  5
2A1
  8
CT
 10
17920.038584513732
 20
2680.0921731818812
 30
0.0
 11
18052.037321156171
 21
2680.0921731818812
 31
0.0
  0
LINE
  5
2A2
  8
FUTO
 10
18055.65754342599
 20
2724.3241125253189
 30
0.0
 11
17960.961232197369
 21
2724.324112525358
 31
0.0
  0
ARC
  5
2A3
  8
FUTO
 10
19168.821991538069
 20
2557.5921731818812
 30
0.0
 40
1094.5
 50
178.31844199692659
 51
180.0
  0
LINE
  5
2A4
  8
FUTO
 10
18030.299215864052
 20
2604.7741535506862
 30
0.0
 11
18031.500385595031
 21
2586.8142762883731
 31
0.0
  0
LINE
  5
2A5
  8
KL
 10
18115.142723449339
 20
2768.0921731818812
 30
0.0
 11
18016.321991538069
 21
2768.0921731818812
 31
0.0
  0
LINE
  5
2A6
  8
FUTO
 10
18091.321991538069
 20
2764.0921731818812
 30
0.0
 11
18016.321991538069
 21
2764.0921731818812
 31
0.0
  0
LINE
  5
2A7
  8
FUTO
 10
18091.027948132742
 20
2748.0921731818812
 30
0.0
 11
18091.027948132742
 21
2761.0149551519139
 31
0.0
  0
LINE
  5
2A8
  8
FUTO
 10
22550.061601108951
 20
2795.0921731818812
 30
0.0
 11
22550.061601108951
 21
2600.0921731818812
 31
0.0
  0
LINE
  5
2A9
  8
FUTO
 10
22678.061601108951
 20
2795.0921731818812
 30
0.0
 11
22678.061601108951
 21
2600.0921731818812
 31
0.0
  0
LINE
  5
2AA
  8
CT
 10
22614.061601108951
 20
2843.5837916917112
 30
0.0
 11
22614.061601108951
 21
2528.9350194198419
 31
0.0
  0
LINE
  5
2AB
  8
FUTO
 10
22536.061601108951
 20
2795.0921731818812
 30
0.0
 11
22536.061601108951
 21
2565.0921731818812
 31
0.0
  0
LINE
  5
2AC
  8
FUTO
 10
22692.061601108951
 20
2795.0921731818812
 30
0.0
 11
22692.061601108951
 21
2565.0921731818812
 31
0.0
  0
LINE
  5
2AD
  8
FUTO
 10
22678.061601108951
 20
2795.0921731818812
 30
0.0
 11
22678.061601108951
 21
2600.0921731818812
 31
0.0
  0
LINE
  5
2AE
  8
FUTO
 10
22528.061601108951
 20
2760.0921731818812
 30
0.0
 11
22528.061601108951
 21
2600.0921731818812
 31
0.0
  0
LINE
  5
2AF
  8
FUTO
 10
22700.061601108951
 20
2760.0921731818812
 30
0.0
 11
22700.061601108951
 21
2600.0921731818812
 31
0.0
  0
LINE
  5
2B1
  8
SL
 10
22467.861601108951
 20
1855.092173181871
 30
0.0
 11
22337.861601108951
 21
1855.092173181871
 31
0.0
  0
LINE
  5
2B2
  8
SL
 10
22467.861601108951
 20
2305.0921731818812
 30
0.0
 11
22337.861601108951
 21
2305.0921731818812
 31
0.0
  0
LINE
  5
2B3
  8
FUTO
 10
22544.061601108951
 20
2550.0921731818812
 30
0.0
 11
22684.061601108951
 21
2550.0921731818812
 31
0.0
  0
LINE
  5
2B4
  8
FUTO
 10
22544.061601108951
 20
2600.0921731818812
 30
0.0
 11
22684.061601108951
 21
2600.0921731818812
 31
0.0
  0
LINE
  5
2B5
  8
FUTO
 10
22524.061601108951
 20
2540.0921731818812
 30
0.0
 11
22704.061601108951
 21
2540.0921731818812
 31
0.0
  0
LINE
  5
2B6
  8
CT
 10
22569.061601108951
 20
2626.8388306592351
 30
0.0
 11
22569.061601108951
 21
2528.9350194198419
 31
0.0
  0
LINE
  5
2B7
  8
FUTO
 10
22544.061601108951
 20
2600.0921731818812
 30
0.0
 11
22544.061601108951
 21
2540.0921731818812
 31
0.0
  0
LINE
  5
2B8
  8
FUTO
 10
22528.061601108951
 20
2600.0921731818812
 30
0.0
 11
22536.061601108951
 21
2580.0921731818812
 31
0.0
  0
LINE
  5
2B9
  8
FUTO
 10
22536.061601108951
 20
2565.0921731818812
 30
0.0
 11
22544.061601108951
 21
2565.0921731818812
 31
0.0
  0
LINE
  5
2BA
  8
FUTO
 10
22528.061601108951
 20
2732.5921731818812
 30
0.0
 11
22467.861601108951
 21
2732.5921731818812
 31
0.0
  0
LINE
  5
2BB
  8
FUTO
 10
22528.061601108951
 20
2627.5921731818812
 30
0.0
 11
22467.861601108951
 21
2627.5921731818812
 31
0.0
  0
LINE
  5
2BC
  8
CT
 10
22659.061601108951
 20
2626.8388306592351
 30
0.0
 11
22659.061601108951
 21
2528.9350194198419
 31
0.0
  0
LINE
  5
2BD
  8
FUTO
 10
22684.061601108951
 20
2600.0921731818812
 30
0.0
 11
22684.061601108951
 21
2540.0921731818812
 31
0.0
  0
LINE
  5
2BE
  8
FUTO
 10
22692.061601108951
 20
2565.0921731818812
 30
0.0
 11
22684.061601108951
 21
2565.0921731818812
 31
0.0
  0
LINE
  5
2BF
  8
FUTO
 10
22700.061601108951
 20
2600.0921731818812
 30
0.0
 11
22692.061601108951
 21
2580.0921731818812
 31
0.0
  0
LINE
  5
2C0
  8
SL
 10
22467.861601108951
 20
3055.0921731818812
 30
0.0
 11
22337.861601108951
 21
3055.0921731818812
 31
0.0
  0
LINE
  5
2C1
  8
FUTO
 10
22500.810635271449
 20
3160.0921731818812
 30
0.0
 11
22220.061601108951
 21
3160.0921731818812
 31
0.0
  0
POINT
  5
2C2
  8
DEFPOINTS
 10
22220.061601108951
 20
3160.0921731818812
 30
0.0
  0
LINE
  5
2C3
  8
FUTO
 10
22500.810635271449
 20
3160.0921731818812
 30
0.0
 11
22500.810635271449
 21
2892.8144196861631
 31
0.0
  0
LINE
  5
2C4
  8
FUTO
 10
22560.061601108951
 20
2813.0921731818812
 30
0.0
 11
22668.061601108951
 21
2813.0921731818812
 31
0.0
  0
LINE
  5
2C5
  8
FUTO
 10
22528.061601108951
 20
2760.0921731818812
 30
0.0
 11
22536.061601108951
 21
2780.0921731818812
 31
0.0
  0
LINE
  5
2C6
  8
FUTO
 10
22536.061601108951
 20
2795.0921731818812
 30
0.0
 11
22550.061601108951
 21
2795.0921731818812
 31
0.0
  0
LINE
  5
2C7
  8
FUTO
 10
22560.061601108951
 20
2813.0921731818812
 30
0.0
 11
22560.061601108951
 21
2795.0921731818812
 31
0.0
  0
LINE
  5
2C8
  8
FUTO
 10
22550.061601108951
 20
2795.0921731818812
 30
0.0
 11
22560.061601108951
 21
2795.0921731818812
 31
0.0
  0
LINE
  5
2C9
  8
FUTO
 10
22668.061601108951
 20
2813.0921731818812
 30
0.0
 11
22668.061601108951
 21
2795.0921731818812
 31
0.0
  0
LINE
  5
2CA
  8
FUTO
 10
22668.061601108951
 20
2795.0921731818812
 30
0.0
 11
22678.061601108951
 21
2795.0921731818812
 31
0.0
  0
LINE
  5
2CB
  8
FUTO
 10
22692.061601108951
 20
2795.0921731818812
 30
0.0
 11
22678.061601108951
 21
2795.0921731818812
 31
0.0
  0
LINE
  5
2CC
  8
FUTO
 10
22700.061601108951
 20
2760.0921731818812
 30
0.0
 11
22692.061601108951
 21
2780.0921731818812
 31
0.0
  0
INSERT
  5
2CD
  8
FUTO
  2
まっすぐの矢印
 10
17643.197322358959
 20
4221.6607554035563
 30
0.0
 41
-40.0
 42
40.0
 43
40.0
 50
90.0
  0
LINE
  5
2D8
  8
FUTO
 10
18055.65754342599
 20
4872.0921731818698
 30
0.0
 11
17960.961232197369
 21
4872.0921731818298
 31
0.0
  0
INSERT
  5
2D9
  8
FUTO
  2
L-75-6
 10
17934.892394653602
 20
4717.4857117783258
 30
0.0
 41
-1.0
 50
270.0
  0
LINE
  5
2DA
  8
FUTO
 10
18016.321991536639
 20
4832.0921731817834
 30
0.0
 11
18016.32199153661
 21
4907.0921731817843
 31
0.0
  0
LINE
  5
2DB
  8
FUTO
 10
18016.321991536661
 20
4832.0921731817798
 30
0.0
 11
18016.32199153661
 21
4907.0921731817798
 31
0.0
  0
LINE
  5
33E
  8
FUTO
 10
18016.321991537821
 20
7910.8812584720381
 30
0.0
 11
21027.321991538069
 21
7910.8812584720381
 31
0.0
  0
LINE
  5
33F
  8
FUTO
 10
18016.321991537869
 20
7835.8812584720381
 30
0.0
 11
21541.321991538069
 21
7835.8812584720381
 31
0.0
  0
LINE
  5
340
  8
FUTO
 10
18491.321991538069
 20
6293.8812584720381
 30
0.0
 11
21541.321991538069
 21
6293.8812584720381
 31
0.0
  0
LINE
  5
341
  8
FUTO
 10
18491.321991538069
 20
6368.8812584720399
 30
0.0
 11
21541.321991538069
 21
6368.8812584720381
 31
0.0
  0
LINE
  5
35D
  8
FUTO
 10
21541.321991538069
 20
6293.8812584720381
 30
0.0
 11
21541.321991538069
 21
6368.8812584720381
 31
0.0
  0
LINE
  5
35E
  8
SL
 10
21366.321991538069
 20
6368.8812584720381
 30
0.0
 11
21366.321991538069
 21
7272.6812584719692
 31
0.0
  0
POINT
  5
388
  8
DEFPOINTS
 10
21541.321991538069
 20
7910.8812584720381
 30
0.0
  0
LINE
  5
3AB
  8
CT
 10
19291.321991538069
 20
5844.10669724125
 30
0.0
 11
19291.321991538069
 21
9823.4996389060852
 31
0.0
  0
LINE
  5
3AE
  8
FUTO
 10
20441.321991538069
 20
7860.8812584720381
 30
0.0
 11
20441.321991538069
 21
7835.8812584720381
 31
0.0
  0
LINE
  5
44F
  8
FUTO
 10
18491.321991538069
 20
6293.8812584720381
 30
0.0
 11
18491.321991538069
 21
7835.8812584720381
 31
0.0
  0
LINE
  5
450
  8
FUTO
 10
18566.321991538069
 20
6368.8812584720381
 30
0.0
 11
18566.321991538069
 21
7835.8812584720381
 31
0.0
  0
LINE
  5
452
  8
FUTO
 10
20016.321991538069
 20
6368.8812584720381
 30
0.0
 11
20016.321991538069
 21
7835.8812584720381
 31
0.0
  0
LINE
  5
454
  8
FUTO
 10
20091.321991538069
 20
6293.8812584720381
 30
0.0
 11
20091.321991538069
 21
7835.8812584720381
 31
0.0
  0
LINE
  5
546
  8
CT
 10
17795.415279855901
 20
8664.8812584720417
 30
0.0
 11
21230.386982183809
 21
8664.8812584720417
 31
0.0
  0
LINE
  5
547
  8
FUTO
 10
18016.321991538069
 20
9418.8812584720436
 30
0.0
 11
21027.321991538069
 21
9418.8812584720436
 31
0.0
  0
LINE
  5
548
  8
FUTO
 10
18016.321991538069
 20
9493.8812584720436
 30
0.0
 11
20441.321991538069
 21
9493.8812584720417
 31
0.0
  0
LINE
  5
568
  8
FUTO
 10
20441.321991538069
 20
9468.8812584720436
 30
0.0
 11
20441.321991538069
 21
9493.8812584720417
 31
0.0
  0
DIMENSION
  5
5CF
  8
SP
  2
*D12
 10
26219.251319487979
 20
1680.092173181881
 30
0.0
 11
26219.251319487979
 21
2680.0921731818812
 31
0.0
 70
   128
  1
%%C<>
 13
25725.061601108951
 23
3680.0921731818812
 33
0.0
 14
25725.061601108951
 24
1680.092173181881
 34
0.0
 50
90.0
1001
ACAD
1000
DSTYLE
1002
{
1070
   287
1070
     0
1070
   287
1070
     0
1070
    40
1040
45.0
1070
   140
1040
3.0
1070
   143
1040
0.03937
1070
   147
1040
0.5
1070
   173
1070
     1
1070
   176
1070
   256
1070
   177
1070
   256
1070
   178
1070
   256
1070
   271
1070
     4
1070
   272
1070
     4
1070
   279
1070
     0
1070
   285
1070
     0
1070
   286
1070
     0
1070
   289
1070
     0
1070
     6
1000
OPEN
1070
     7
1000
OPEN
1002
}
  0
LINE
  5
5DE
  8
FUTO
 10
25573.261601108949
 20
1380.092173181881
 30
0.0
 11
25573.261601108941
 21
2680.0921731818812
 31
0.0
  0
LINE
  5
5DF
  8
FUTO
 10
25570.061601108951
 20
1380.092173181881
 30
0.0
 11
25570.061601108951
 21
2680.0921731818812
 31
0.0
  0
LINE
  5
5E0
  8
FUTO
 10
25663.261601108949
 20
1380.092173181881
 30
0.0
 11
25663.261601108941
 21
2671.0921731818812
 31
0.0
  0
LINE
  5
5E5
  8
KL
 10
25582.26160110984
 20
1605.092173181881
 30
0.0
 11
25582.261601110331
 21
3755.0921731818821
 31
0.0
  0
LINE
  5
5E6
  8
FUTO
 10
25725.061601108951
 20
1605.092173181881
 30
0.0
 11
25725.061601108951
 21
3755.0921731818821
 31
0.0
  0
LINE
  5
5E7
  8
FUTO
 10
25719.061601108951
 20
1605.092173181881
 30
0.0
 11
25719.061601108951
 21
3755.0921731818821
 31
0.0
  0
LINE
  5
5EB
  8
FUTO
 10
24066.861601108951
 20
1380.092173181881
 30
0.0
 11
24066.861601108951
 21
2680.0921731818812
 31
0.0
  0
LINE
  5
5EC
  8
FUTO
 10
24070.061601108951
 20
1380.092173181881
 30
0.0
 11
24070.061601108951
 21
2680.0921731818812
 31
0.0
  0
LINE
  5
5ED
  8
FUTO
 10
23976.86160110894
 20
1380.092173181881
 30
0.0
 11
23976.86160110894
 21
2671.0921731818812
 31
0.0
  0
LINE
  5
5EE
  8
FUTO
 10
23954.061601108951
 20
1380.092173181881
 30
0.0
 11
23954.061601108951
 21
2520.0921731818812
 31
0.0
  0
LINE
  5
5F0
  8
CT
 10
24820.061601108951
 20
1000.092173181881
 30
0.0
 11
24820.061601108951
 21
5252.7893773957458
 31
0.0
  0
LINE
  5
603
  8
KL
 10
24070.061601108951
 20
1238.092173181881
 30
0.0
 11
25573.261601108949
 21
1238.092173181881
 31
0.0
  0
LINE
  5
604
  8
KL
 10
24070.061601108951
 20
1218.092173181881
 30
0.0
 11
24070.061601108951
 21
1380.092173181881
 31
0.0
  0
LINE
  5
605
  8
KL
 10
24066.861601108951
 20
1218.092173181881
 30
0.0
 11
24066.861601108951
 21
1380.092173181881
 31
0.0
  0
LINE
  5
606
  8
KL
 10
24066.861601108951
 20
1218.092173181881
 30
0.0
 11
24070.061601108951
 21
1218.092173181881
 31
0.0
  0
ARC
  5
614
  8
FUTO
 10
25591.061601108951
 20
1223.1675427995669
 30
0.0
 40
10.0
 50
180.0
 51
265.0
  0
LINE
  5
615
  8
KL
 10
25570.061601108951
 20
1218.092173181881
 30
0.0
 11
25570.061601108951
 21
1380.092173181881
 31
0.0
  0
LINE
  5
616
  8
KL
 10
25573.261601108949
 20
1218.092173181881
 30
0.0
 11
25573.261601108949
 21
1380.092173181881
 31
0.0
  0
LINE
  5
617
  8
FUTO
 10
25574.061601108951
 20
1200.092173181881
 30
0.0
 11
25574.061601108951
 21
1380.092173181881
 31
0.0
  0
LINE
  5
618
  8
FUTO
 10
25574.061601108951
 20
1200.092173181881
 30
0.0
 11
25574.061601108951
 21
1380.092173181881
 31
0.0
  0
LINE
  5
61B
  8
FUTO
 10
25590.190043681469
 20
1213.205595818649
 30
0.0
 11
25644.040957694058
 21
1208.4942513220381
 31
0.0
  0
LINE
  5
61C
  8
FUTO
 10
25574.061601108951
 20
1200.092173181881
 30
0.0
 11
25649.061601108951
 21
1200.092173181881
 31
0.0
  0
LINE
  5
61D
  8
FUTO
 10
25574.061601108951
 20
1180.092173181881
 30
0.0
 11
25649.061601108951
 21
1180.092173181881
 31
0.0
  0
LINE
  5
61E
  8
FUTO
 10
25574.061601108951
 20
1180.092173181881
 30
0.0
 11
25649.061601108951
 21
1180.092173181881
 31
0.0
  0
LINE
  5
61F
  8
FUTO
 10
25590.190043681469
 20
1166.9787505451141
 30
0.0
 11
25644.040957694058
 21
1171.6900950417239
 31
0.0
  0
LINE
  5
620
  8
FUTO
 10
25590.190043681469
 20
1013.205595818649
 30
0.0
 11
25644.040957694058
 21
1008.4942513220381
 31
0.0
  0
LINE
  5
621
  8
FUTO
 10
25574.061601108951
 20
1000.092173181881
 30
0.0
 11
25649.061601108951
 21
1000.092173181881
 31
0.0
  0
LINE
  5
622
  8
KL
 10
25570.061601108951
 20
1218.092173181881
 30
0.0
 11
25573.261601108949
 21
1218.092173181881
 31
0.0
  0
ARC
  5
623
  8
FUTO
 10
25591.061601108951
 20
1157.0168035641959
 30
0.0
 40
10.0
 50
95.0
 51
180.0
  0
ARC
  5
624
  8
FUTO
 10
25591.061601108951
 20
1023.1675427995669
 30
0.0
 40
10.0
 50
180.0
 51
265.0
  0
LINE
  5
625
  8
FUTO
 10
25574.061601108951
 20
1000.092173181881
 30
0.0
 11
25574.061601108951
 21
1180.092173181881
 31
0.0
  0
LINE
  5
626
  8
FUTO
 10
25581.061601108951
 20
1023.1675427995669
 30
0.0
 11
25581.061601108951
 21
1157.0168035641959
 31
0.0
  0
LINE
  5
629
  8
FUTO
 10
25649.061601108951
 20
1203.0151804825341
 30
0.0
 11
25649.061601108951
 21
1200.092173181881
 31
0.0
  0
ARC
  5
62A
  8
FUTO
 10
25643.561601108951
 20
1203.0151804825341
 30
0.0
 40
5.5
 50
0.0
 51
84.999999999999986
  0
LINE
  5
62B
  8
FUTO
 10
25649.061601108951
 20
1177.169165881229
 30
0.0
 11
25649.061601108951
 21
1180.092173181881
 31
0.0
  0
ARC
  5
62C
  8
FUTO
 10
25643.561601108951
 20
1177.1691658812281
 30
0.0
 40
5.5
 50
275.0
 51
0.0000000000005598
  0
LINE
  5
62D
  8
FUTO
 10
25649.061601108951
 20
1003.015180482534
 30
0.0
 11
25649.061601108951
 21
1000.092173181881
 31
0.0
  0
ARC
  5
62E
  8
FUTO
 10
25643.561601108951
 20
1003.015180482534
 30
0.0
 40
5.5
 50
0.0
 51
84.999999999999986
  0
LINE
  5
62F
  8
0
 10
25574.061601108951
 20
1380.092173181881
 30
0.0
 11
25649.061601108951
 21
1380.092173181881
 31
0.0
  0
LINE
  5
630
  8
FUTO
 10
25590.190043681469
 20
1366.9787505451141
 30
0.0
 11
25644.040957694058
 21
1371.6900950417239
 31
0.0
  0
ARC
  5
631
  8
FUTO
 10
25591.061601108951
 20
1357.0168035641959
 30
0.0
 40
10.0
 50
95.0
 51
180.0
  0
LINE
  5
632
  8
FUTO
 10
25581.061601108951
 20
1223.1675427995669
 30
0.0
 11
25581.061601108951
 21
1357.0168035641959
 31
0.0
  0
LINE
  5
633
  8
FUTO
 10
25649.061601108951
 20
1377.169165881229
 30
0.0
 11
25649.061601108951
 21
1380.092173181881
 31
0.0
  0
ARC
  5
634
  8
FUTO
 10
25643.561601108951
 20
1377.1691658812281
 30
0.0
 40
5.5
 50
275.0
 51
0.0000000000005598
  0
LINE
  5
635
  8
KL
 10
25573.261601108949
 20
1680.092173181881
 30
0.0
 11
25725.061601108951
 21
1680.092173181881
 31
0.0
  0
LINE
  5
636
  8
FUTO
 10
25573.261601108949
 20
1674.092173181881
 30
0.0
 11
25663.261601108949
 21
1674.092173181881
 31
0.0
  0
LINE
  5
637
  8
HOSO
 10
25582.261601109862
 20
1680.0921731818919
 30
0.0
 11
25573.261601109862
 21
1680.0921731818939
 31
0.0
  0
LINE
  5
638
  8
HOSO
 10
25547.141857501749
 20
1640.092173181881
 30
0.0
 11
25605.34101360698
 21
1640.092173181881
 31
0.0
  0
LINE
  5
639
  8
KL
 10
25573.261601108949
 20
1605.092173181881
 30
0.0
 11
25582.26160110984
 21
1605.092173181881
 31
0.0
  0
LINE
  5
63A
  8
FUTO
 10
25663.261601108949
 20
1674.092173181881
 30
0.0
 11
25719.061601108951
 21
1674.092173181881
 31
0.0
  0
LINE
  5
63B
  8
HOSO
 10
25697.023411668961
 20
1640.092173181881
 30
0.0
 11
25755.222567774192
 21
1640.092173181881
 31
0.0
  0
LINE
  5
63C
  8
FUTO
 10
25719.061601108951
 20
1605.092173181881
 30
0.0
 11
25725.061601108951
 21
1605.092173181881
 31
0.0
  0
LINE
  5
68C
  8
FUTO
 10
25573.261601108949
 20
2680.0921731818812
 30
0.0
 11
25573.261601108949
 21
4834.0921731818798
 31
0.0
  0
LINE
  5
68D
  8
FUTO
 10
25570.061601108951
 20
2680.0921731818812
 30
0.0
 11
25570.061601108951
 21
4828.0921731818798
 31
0.0
  0
LINE
  5
68E
  8
FUTO
 10
25648.261601108949
 20
2671.0921731818812
 30
0.0
 11
25648.261601108949
 21
4903.0921731818798
 31
0.0
  0
LINE
  5
68F
  8
FUTO
 10
24070.061601108951
 20
2680.0921731818812
 30
0.0
 11
24070.061601108951
 21
4828.0921731818798
 31
0.0
  0
LINE
  5
690
  8
FUTO
 10
24066.861601108951
 20
2680.0921731818812
 30
0.0
 11
24066.861601108951
 21
4834.0921731818798
 31
0.0
  0
LINE
  5
691
  8
FUTO
 10
23991.861601108951
 20
2671.0921731818812
 30
0.0
 11
23991.861601108951
 21
4903.0921731818798
 31
0.0
  0
LINE
  5
69A
  8
FUTO
 10
23991.861601108951
 20
2689.0921731818812
 30
0.0
 11
25648.261601108941
 21
2689.0921731818812
 31
0.0
  0
LINE
  5
69B
  8
FUTO
 10
23976.86160110894
 20
2671.0921731818812
 30
0.0
 11
25663.261601108941
 21
2671.0921731818812
 31
0.0
  0
LINE
  5
6A4
  8
FUTO
 10
23799.061601108951
 20
2585.0921731818821
 30
0.0
 11
23799.061601108951
 21
2815.0921731818812
 31
0.0
  0
LINE
  5
6A5
  8
FUTO
 10
23786.061601108951
 20
2585.0921731818821
 30
0.0
 11
23786.061601108951
 21
2815.0921731818812
 31
0.0
  0
LINE
  5
6A6
  8
FUTO
 10
23762.061601108951
 20
2591.0921731818812
 30
0.0
 11
23762.061601108951
 21
2769.092173181883
 31
0.0
  0
LINE
  5
6A7
  8
CT
 10
23864.061601108951
 20
2449.8004641073821
 30
0.0
 11
23864.061601108951
 21
2909.4258749436772
 31
0.0
  0
LINE
  5
6A8
  8
FUTO
 10
23929.061601108951
 20
2585.0921731818821
 30
0.0
 11
23929.061601108951
 21
2815.0921731818812
 31
0.0
  0
LINE
  5
6A9
  8
FUTO
 10
23966.061601108951
 20
2591.0921731818812
 30
0.0
 11
23966.061601108951
 21
2769.092173181883
 31
0.0
  0
LINE
  5
6AA
  8
FUTO
 10
23942.061601108951
 20
2585.0921731818821
 30
0.0
 11
23942.061601108951
 21
2815.0921731818812
 31
0.0
  0
LINE
  5
6AB
  8
FUTO
 10
23929.061601108951
 20
2585.0921731818821
 30
0.0
 11
23929.061601108951
 21
2815.0921731818812
 31
0.0
  0
LINE
  5
6AF
  8
FUTO
 10
23784.061601108951
 20
2530.0921731818812
 30
0.0
 11
23944.061601108951
 21
2530.0921731818812
 31
0.0
  0
LINE
  5
6B0
  8
FUTO
 10
23784.061601108951
 20
2585.0921731818821
 30
0.0
 11
23944.061601108951
 21
2585.0921731818821
 31
0.0
  0
LINE
  5
6B1
  8
CT
 10
23814.061601108951
 20
2491.7274382487808
 30
0.0
 11
23814.061601108951
 21
2613.7857545125271
 31
0.0
  0
LINE
  5
6B2
  8
FUTO
 10
23784.061601108951
 20
2520.0921731818812
 30
0.0
 11
23784.061601108951
 21
2585.0921731818821
 31
0.0
  0
LINE
  5
6B3
  8
FUTO
 10
23762.061601108951
 20
2591.0921731818812
 30
0.0
 11
23784.061601108951
 21
2567.2588398485468
 31
0.0
  0
LINE
  5
6B6
  8
KL
 10
23966.061601108951
 20
2625.0921731818812
 30
0.0
 11
24059.705641433611
 21
2625.0921731818812
 31
0.0
  0
LINE
  5
6BA
  8
CT
 10
23914.061601108951
 20
2489.7987515358091
 30
0.0
 11
23914.061601108951
 21
2613.7857545125271
 31
0.0
  0
LINE
  5
6BB
  8
FUTO
 10
23944.061601108951
 20
2520.0921731818812
 30
0.0
 11
23944.061601108951
 21
2585.0921731818821
 31
0.0
  0
LINE
  5
6BC
  8
FUTO
 10
23966.061601108951
 20
2591.0921731818812
 30
0.0
 11
23944.061601108951
 21
2567.2588398485468
 31
0.0
  0
LINE
  5
6C2
  8
FUTO
 10
23804.061601108951
 20
2831.0921731818812
 30
0.0
 11
23924.061601108951
 21
2831.0921731818812
 31
0.0
  0
LINE
  5
6C3
  8
FUTO
 10
23804.061601108951
 20
2815.0921731818812
 30
0.0
 11
23804.061601108951
 21
2831.0921731818812
 31
0.0
  0
LINE
  5
6C4
  8
FUTO
 10
23762.061601108951
 20
2769.0921731818812
 30
0.0
 11
23786.061601108951
 21
2795.0921731818812
 31
0.0
  0
LINE
  5
6C5
  8
FUTO
 10
23786.061601108951
 20
2815.0921731818812
 30
0.0
 11
23804.061601108951
 21
2815.0921731818812
 31
0.0
  0
LINE
  5
6C6
  8
KL
 10
23966.061601108951
 20
2735.0921731818821
 30
0.0
 11
24062.1486783008
 21
2735.0921731818821
 31
0.0
  0
LINE
  5
6C7
  8
FUTO
 10
23942.061601108951
 20
2815.0921731818812
 30
0.0
 11
23924.061601108951
 21
2815.0921731818812
 31
0.0
  0
LINE
  5
6C8
  8
FUTO
 10
23924.061601108951
 20
2815.0921731818812
 30
0.0
 11
23924.061601108951
 21
2831.0921731818812
 31
0.0
  0
LINE
  5
6C9
  8
FUTO
 10
23966.061601108951
 20
2769.0921731818812
 30
0.0
 11
23942.061601108951
 21
2795.0921731818812
 31
0.0
  0
LINE
  5
6E2
  8
KL
 10
25573.261601108949
 20
3680.0921731818812
 30
0.0
 11
25725.061601108951
 21
3680.0921731818812
 31
0.0
  0
LINE
  5
6E3
  8
KL
 10
25573.261601108949
 20
3686.0921731818821
 30
0.0
 11
25648.261601108949
 21
3686.0921731818821
 31
0.0
  0
LINE
  5
6E4
  8
HOSO
 10
25582.261601110309
 20
3680.0921731818921
 30
0.0
 11
25573.26160111032
 21
3680.0921731818939
 31
0.0
  0
LINE
  5
6E5
  8
HOSO
 10
25539.455227264531
 20
3720.0921731818812
 30
0.0
 11
25610.082354402351
 21
3720.0921731818812
 31
0.0
  0
LINE
  5
6E6
  8
FUTO
 10
25648.261601108949
 20
3686.0921731818821
 30
0.0
 11
25719.061601108951
 21
3686.0921731818821
 31
0.0
  0
LINE
  5
6E7
  8
HOSO
 10
25689.01567366661
 20
3720.0921731818812
 30
0.0
 11
25759.642800804431
 21
3720.0921731818812
 31
0.0
  0
LINE
  5
6F6
  8
FUTO
 10
24070.061601108951
 20
4828.0921731818798
 30
0.0
 11
25570.061601108951
 21
4828.0921731818798
 31
0.0
  0
LINE
  5
6F7
  8
FUTO
 10
23991.861601108951
 20
4903.0921731818798
 30
0.0
 11
25648.261601108949
 21
4903.0921731818798
 31
0.0
  0
LINE
  5
6F8
  8
FUTO
 10
24066.861601108951
 20
4834.0921731818798
 30
0.0
 11
25573.261601108949
 21
4834.0921731818798
 31
0.0
  0
DIMENSION
  5
6F9
  8
SP
  2
*D13
 10
25725.061601108951
 20
5320.2296057386284
 30
0.0
 11
25272.561601108951
 21
5410.2296057386284
 31
0.0
 70
     0
  1
905
 13
24820.061601108951
 23
5204.2699424166194
 33
0.0
 14
25725.061601108951
 24
3755.0921731818821
 34
0.0
1001
ACAD
1000
DSTYLE
1002
{
1070
   287
1070
     0
1070
   287
1070
     0
1070
    40
1040
45.0
1070
   140
1040
3.0
1070
   143
1040
0.03937
1070
   147
1040
0.5
1070
   173
1070
     1
1070
   176
1070
   256
1070
   177
1070
   256
1070
   178
1070
   256
1070
   271
1070
     4
1070
   272
1070
     4
1070
   279
1070
     0
1070
   285
1070
     0
1070
   286
1070
     0
1070
   289
1070
     0
1070
     6
1000
OPEN
1070
     7
1000
OPEN
1002
}
  0
LINE
  5
706
  8
KL
 10
25573.261601108949
 20
3755.0921731818821
 30
0.0
 11
25582.261601110331
 21
3755.0921731818821
 31
0.0
  0
LINE
  5
707
  8
KL
 10
25573.261601108941
 20
3753.0921731818812
 30
0.0
 11
25573.261601108959
 21
3843.0921731818821
 31
0.0
  0
LINE
  5
708
  8
FUTO
 10
25719.061601108951
 20
3755.0921731818821
 30
0.0
 11
25725.061601108951
 21
3755.0921731818821
 31
0.0
  0
INSERT
  5
71C
  8
FUTO
  2
まっすぐの矢印
 10
25891.55788886498
 20
3231.0164243220729
 30
0.0
 41
40.0
 42
40.0
 43
40.0
 50
90.0
  0
DIMENSION
  5
A68
  8
SP
  2
*D6
 10
19291.321991538069
 20
332.47144616799591
 30
0.0
 11
20416.321991538069
 21
422.47144616799591
 31
0.0
 70
     0
 13
21541.321991538069
 23
1000.092173181881
 33
0.0
 14
19291.321991538069
 24
1000.092173181881
 34
0.0
 50
180.0
1001
ACAD
1000
DSTYLE
1002
{
1070
   140
1040
3.0
1070
    40
1040
45.0
1070
   173
1070
     1
1070
   147
1040
0.5
1070
     7
1000
_OPEN
1070
     6
1000
_OPEN
1002
}
  0
DIMENSION
  5
A75
  8
SP
  2
*D7
 10
18141.321991538069
 20
332.47144616799591
 30
0.0
 11
18716.321991538069
 21
422.47144616799591
 31
0.0
 70
     0
 13
19291.321991538069
 23
1000.092173181881
 33
0.0
 14
18141.321991538069
 24
1000.092173181881
 34
0.0
 50
180.0
1001
ACAD
1000
DSTYLE
1002
{
1070
   140
1040
3.0
1070
    40
1040
45.0
1070
   173
1070
     1
1070
   147
1040
0.5
1070
     7
1000
_OPEN
1070
     6
1000
_OPEN
1002
}
  0
LINE
  5
AB0
  8
SL
 10
23703.629866882849
 20
2827.295280676211
 30
0.0
 11
22773.451094004631
 21
2827.295280676211
 31
0.0
  0
LINE
  5
AB2
  8
CT
 10
21374.849312311249
 20
1287.700561326086
 30
0.0
 11
21374.849312311249
 21
1096.392167836229
 31
0.0
  0
LINE
  5
AB3
  8
SP
 10
21414.849312311249
 20
1200.092173181881
 30
0.0
 11
21414.849312311249
 21
1180.092173181881
 31
0.0
  0
LINE
  5
AB4
  8
SP
 10
21334.849312311249
 20
1200.092173181881
 30
0.0
 11
21334.849312311249
 21
1180.092173181881
 31
0.0
  0
POINT
  5
CAC
  8
DEFPOINTS
  6
BYBLOCK
 62
     0
 10
18491.321991538069
 20
6293.8812584720381
 30
0.0
  0
POINT
  5
CB7
  8
DEFPOINTS
  6
BYBLOCK
 62
     0
 10
18491.321991538069
 20
6293.8812584720381
 30
0.0
  0
LINE
  5
178C
  8
FUTO
 10
21256.321991538069
 20
1380.092173181871
 30
0.0
 11
21491.321991538069
 21
1380.092173181871
 31
0.0
  0
LINE
  5
178D
  8
FUTO
 10
21481.321991538069
 20
1450.092173181871
 30
0.0
 11
21256.321991538069
 21
1450.092173181871
 31
0.0
  0
LINE
  5
178F
  8
FUTO
 10
20791.321991538069
 20
1380.092173181871
 30
0.0
 11
21026.321991538069
 21
1380.092173181871
 31
0.0
  0
LINE
  5
1790
  8
FUTO
 10
21026.321991538069
 20
1450.092173181871
 30
0.0
 11
20801.321991538069
 21
1450.092173181871
 31
0.0
  0
LINE
  5
1791
  8
FUTO
 10
20801.321991538069
 20
1450.092173181871
 30
0.0
 11
20791.321991538069
 21
1380.092173181871
 31
0.0
  0
LINE
  5
1792
  8
FUTO
 10
21256.321991538069
 20
1390.092173181871
 30
0.0
 11
21026.321991538069
 21
1390.092173181871
 31
0.0
  0
LINE
  5
1793
  8
FUTO
 10
21256.321991538069
 20
1440.092173181871
 30
0.0
 11
21026.321991538069
 21
1440.092173181871
 31
0.0
  0
LINE
  5
1794
  8
FUTO
 10
21026.321991538069
 20
1450.092173181871
 30
0.0
 11
21026.321991538069
 21
1440.092173181871
 31
0.0
  0
LINE
  5
1795
  8
FUTO
 10
21026.321991538069
 20
1390.092173181871
 30
0.0
 11
21026.321991538069
 21
1380.092173181871
 31
0.0
  0
LINE
  5
1796
  8
FUTO
 10
21256.321991538069
 20
1450.092173181871
 30
0.0
 11
21256.321991538069
 21
1440.092173181871
 31
0.0
  0
LINE
  5
1797
  8
FUTO
 10
21256.321991538069
 20
1390.092173181871
 30
0.0
 11
21256.321991538069
 21
1380.092173181871
 31
0.0
  0
LINE
  5
1798
  8
FUTO
 10
21384.321991538069
 20
1450.092173181871
 30
0.0
 11
21284.321991538069
 21
1450.092173181871
 31
0.0
  0
LINE
  5
1799
  8
FUTO
 10
21481.321991538069
 20
1450.092173181871
 30
0.0
 11
21491.321991538069
 21
1380.092173181871
 31
0.0
  0
LINE
  5
179B
  8
CT
 10
21243.028406162339
 20
2180.0921731818698
 30
0.0
 11
21397.32534368202
 21
2180.0921731818698
 31
0.0
  0
LINE
  5
179C
  8
FUTO
 10
20931.321991538069
 20
2320.0921731818712
 30
0.0
 11
21321.321991538069
 21
2320.0921731818712
 31
0.0
  0
LINE
  5
179D
  8
FUTO
 10
20931.321991538069
 20
2055.0921731818698
 30
0.0
 11
21321.321991538069
 21
2055.0921731818698
 31
0.0
  0
LINE
  5
179E
  8
FUTO
 10
20985.842859262459
 20
1461.9014958143971
 30
0.0
 11
21296.801123813679
 21
1461.901495814398
 31
0.0
  0
LINE
  5
17A0
  8
CT
 10
20803.86302734831
 20
1730.092173181871
 30
0.0
 11
21484.5992137311
 21
1730.092173181871
 31
0.0
  0
ARC
  5
17A1
  8
FUTO
 10
21141.321991538069
 20
1730.092173181871
 30
0.0
 40
310.0
 50
300.10230806831191
 51
239.897691931688
  0
LINE
  5
17A3
  8
FUTO
 10
20971.321991538069
 20
1470.8625452455569
 30
0.0
 11
20971.321991538069
 21
1450.0921731818701
 31
0.0
  0
LINE
  5
17A4
  8
CT
 10
20912.821991538069
 20
1495.2616216715151
 30
0.0
 11
20912.821991538069
 21
1403.6360585992611
 31
0.0
  0
LINE
  5
17A5
  8
FUTO
 10
20861.321991538061
 20
1597.05082622534
 30
0.0
 11
20861.321991538069
 21
1450.092173181871
 31
0.0
  0
LINE
  5
17A6
  8
FUTO
 10
20861.321991538069
 20
1450.092173181871
 30
0.0
 11
20971.321991538069
 21
1450.092173181871
 31
0.0
  0
LINE
  5
17A7
  8
FUTO
 10
20861.321991538069
 20
1480.0921731818701
 30
0.0
 11
20958.01896373984
 21
1480.0921731818701
 31
0.0
  0
LINE
  5
17A8
  8
FUTO
 10
20911.321991538069
 20
2300.0921731818712
 30
0.0
 11
20911.321991538069
 21
2075.0921731818698
 31
0.0
  0
ARC
  5
17A9
  8
FUTO
 10
20931.321991538069
 20
2075.0921731818698
 30
0.0
 40
20.0
 50
180.0
 51
270.0
  0
ARC
  5
17AA
  8
FUTO
 10
20931.321991538069
 20
2300.0921731818712
 30
0.0
 40
20.0
 50
90.0
 51
180.0
  0
LINE
  5
17AB
  8
FUTO
 10
21421.321991538069
 20
1597.050826225324
 30
0.0
 11
21421.321991538069
 21
1450.0921731818701
 31
0.0
  0
LINE
  5
17AC
  8
FUTO
 10
21311.321991538069
 20
1470.8625452455569
 30
0.0
 11
21311.321991538069
 21
1450.0921731818701
 31
0.0
  0
LINE
  5
17AD
  8
CT
 10
21369.821991538069
 20
1495.2616216715151
 30
0.0
 11
21369.821991538069
 21
1407.800856920727
 31
0.0
  0
LINE
  5
17AE
  8
FUTO
 10
21311.321991538069
 20
1450.0921731818701
 30
0.0
 11
21421.321991538069
 21
1450.0921731818701
 31
0.0
  0
LINE
  5
17AF
  8
FUTO
 10
21324.625019336301
 20
1480.0921731818701
 30
0.0
 11
21421.321991538069
 21
1480.0921731818701
 31
0.0
  0
LINE
  5
17B0
  8
FUTO
 10
21341.321991538069
 20
2300.0921731818712
 30
0.0
 11
21341.321991538069
 21
2075.0921731818689
 31
0.0
  0
ARC
  5
17B1
  8
FUTO
 10
21321.321991538069
 20
2075.0921731818689
 30
0.0
 40
20.0
 50
270.0
 51
0.000000000000007
  0
ARC
  5
17B2
  8
FUTO
 10
21321.321991538069
 20
2300.0921731818712
 30
0.0
 40
20.0
 50
0.000000000000007
 51
90.0
  0
CIRCLE
  5
17B5
  8
SL
 10
21141.321991538069
 20
1730.092173181871
 30
0.0
 40
177.5
  0
CIRCLE
  5
17B6
  8
SL
 10
19291.321991538069
 20
2680.0921731818812
 30
0.0
 40
315.0
  0
LINE
  5
17B7
  8
SL
 10
21232.667074423651
 20
1882.2839135379979
 30
0.0
 11
19453.4273498984
 21
2950.178923673036
 31
0.0
  0
LINE
  5
17B8
  8
SL
 10
19166.270101385839
 20
2390.9779660433278
 30
0.0
 11
21070.856243912611
 21
1567.1786120164959
 31
0.0
  0
ARC
  5
17B9
  8
FUTO
 10
19291.321991538069
 20
2680.0921731818812
 30
0.0
 40
480.0
 50
57.300258797799358
 51
248.33751903124571
  0
ARC
  5
17BA
  8
FUTO
 10
21141.321991538069
 20
1730.092173181871
 30
0.0
 40
280.0
 50
248.33751903124571
 51
57.300258797799358
  0
LINE
  5
17BB
  8
FUTO
 10
19550.635520885698
 20
3084.018519806209
 30
0.0
 11
21292.588216990851
 21
1965.7158753793949
 31
0.0
  0
LINE
  5
17BD
  8
FUTO
 10
21037.963280536151
 20
1469.8673149149829
 30
0.0
 11
19114.135629820499
 21
2233.9924161529302
 31
0.0
  0
ARC
  5
17BE
  8
FUTO
 10
19438.321991538069
 20
2827.0921731818812
 30
0.0
 40
1609.0
 50
295.93165108678471
 51
313.69499590110451
  0
DIMENSION
  5
1B16
  8
SP
  2
*D14
 10
24820.061601108951
 20
327.01475291363562
 30
0.0
 11
23634.561601108951
 21
417.01475291363568
 31
0.0
 70
     0
 13
22449.061601108951
 23
1000.092173181881
 33
0.0
 14
24820.061601108951
 24
1000.092173181881
 34
0.0
1001
ACAD
1000
DSTYLE
1002
{
1070
   287
1070
     3
1070
    40
1040
45.0
1070
   140
1040
3.0
1070
   147
1040
0.5
1070
   173
1070
     1
1070
   279
1070
     0
1070
     6
1000
OPEN
1070
     7
1000
OPEN
1002
}
  0
DIMENSION
  5
1B22
  8
SP
  2
*D15
 10
25649.061601108951
 20
327.01475291363562
 30
0.0
 11
25234.561601108951
 21
417.01475291363568
 31
0.0
 70
     0
 13
24820.061601108951
 23
1000.092173181881
 33
0.0
 14
25649.061601108951
 24
1000.092173181881
 34
0.0
1001
ACAD
1000
DSTYLE
1002
{
1070
   287
1070
     4
1070
    40
1040
45.0
1070
    75
1070
     1
1070
   140
1040
3.0
1070
   147
1040
0.5
1070
   173
1070
     1
1070
   279
1070
     1
1070
     6
1000
OPEN
1070
     7
1000
OPEN
1002
}
  0
DIMENSION
  5
1B2F
  8
SP
  2
*D16
 10
22449.061601108951
 20
34.892452660738847
 30
0.0
 11
24049.061601108951
 21
124.8924526607388
 31
0.0
 70
     0
 13
25649.061601108951
 23
327.01475291363562
 33
0.0
 14
22449.061601108951
 24
327.01475291363562
 34
0.0
1001
ACAD
1000
DSTYLE
1002
{
1070
   287
1070
     3
1070
    40
1040
45.0
1070
   140
1040
3.0
1070
   147
1040
0.5
1070
   173
1070
     1
1070
   279
1070
     0
1070
     6
1000
OPEN
1070
     7
1000
OPEN
1002
}
  0
LINE
  5
1BAD
  8
FUTO
 10
24059.061601108951
 20
1023.1675427995669
 30
0.0
 11
24059.061601108951
 21
1157.0168035641959
 31
0.0
  0
LINE
  5
1BAE
  8
FUTO
 10
24066.061601108951
 20
1000.092173181881
 30
0.0
 11
24066.061601108951
 21
1180.092173181881
 31
0.0
  0
ARC
  5
1BAF
  8
FUTO
 10
23996.561601108951
 20
1003.015180482534
 30
0.0
 40
5.5
 50
95.000000000000014
 51
180.0
  0
LINE
  5
1BB0
  8
FUTO
 10
23991.061601108951
 20
1003.015180482534
 30
0.0
 11
23991.061601108951
 21
1000.092173181881
 31
0.0
  0
ARC
  5
1BB1
  8
FUTO
 10
24049.061601108951
 20
1023.1675427995669
 30
0.0
 40
10.0
 50
275.0
 51
0.0
  0
LINE
  5
1BB2
  8
FUTO
 10
24066.061601108951
 20
1000.092173181881
 30
0.0
 11
23991.061601108951
 21
1000.092173181881
 31
0.0
  0
LINE
  5
1BB3
  8
FUTO
 10
24049.93315853642
 20
1013.205595818649
 30
0.0
 11
23996.08224452383
 21
1008.4942513220381
 31
0.0
  0
ARC
  5
1BB4
  8
FUTO
 10
23996.561601108951
 20
1177.1691658812281
 30
0.0
 40
5.5
 50
179.9999999999994
 51
264.99999999999989
  0
LINE
  5
1BB5
  8
FUTO
 10
23991.061601108951
 20
1177.169165881229
 30
0.0
 11
23991.061601108951
 21
1180.092173181881
 31
0.0
  0
ARC
  5
1BB6
  8
FUTO
 10
23996.561601108951
 20
1203.0151804825341
 30
0.0
 40
5.5
 50
95.000000000000014
 51
180.0
  0
LINE
  5
1BB7
  8
FUTO
 10
23991.061601108951
 20
1203.0151804825341
 30
0.0
 11
23991.061601108951
 21
1200.092173181881
 31
0.0
  0
ARC
  5
1BB8
  8
FUTO
 10
24049.061601108951
 20
1157.0168035641959
 30
0.0
 40
10.0
 50
0.0
 51
85.0
  0
LINE
  5
1BB9
  8
KL
 10
24070.061601108951
 20
1218.092173181881
 30
0.0
 11
24066.861601108951
 21
1218.092173181881
 31
0.0
  0
LINE
  5
1BBA
  8
FUTO
 10
24049.93315853642
 20
1166.9787505451141
 30
0.0
 11
23996.08224452383
 21
1171.6900950417239
 31
0.0
  0
LINE
  5
1BBB
  8
FUTO
 10
24066.061601108951
 20
1180.092173181881
 30
0.0
 11
23991.061601108951
 21
1180.092173181881
 31
0.0
  0
LINE
  5
1BBC
  8
FUTO
 10
24066.061601108951
 20
1180.092173181881
 30
0.0
 11
23991.061601108951
 21
1180.092173181881
 31
0.0
  0
LINE
  5
1BBD
  8
FUTO
 10
24066.061601108951
 20
1200.092173181881
 30
0.0
 11
23991.061601108951
 21
1200.092173181881
 31
0.0
  0
LINE
  5
1BBE
  8
FUTO
 10
24049.93315853642
 20
1213.205595818649
 30
0.0
 11
23996.08224452383
 21
1208.4942513220381
 31
0.0
  0
ARC
  5
1BBF
  8
FUTO
 10
24049.061601108951
 20
1223.1675427995669
 30
0.0
 40
10.0
 50
275.0
 51
0.0
  0
LINE
  5
1BC0
  8
FUTO
 10
23991.061601108951
 20
1377.169165881229
 30
0.0
 11
23991.061601108951
 21
1380.092173181881
 31
0.0
  0
LINE
  5
1BC1
  8
FUTO
 10
24066.061601108951
 20
1200.092173181881
 30
0.0
 11
24066.061601108951
 21
1380.092173181881
 31
0.0
  0
LINE
  5
1BC2
  8
FUTO
 10
24066.061601108951
 20
1200.092173181881
 30
0.0
 11
24066.061601108951
 21
1380.092173181881
 31
0.0
  0
LINE
  5
1BC3
  8
KL
 10
24066.861601108951
 20
1218.092173181881
 30
0.0
 11
24066.861601108951
 21
1380.092173181881
 31
0.0
  0
LINE
  5
1BC4
  8
KL
 10
24070.061601108951
 20
1218.092173181881
 30
0.0
 11
24070.061601108951
 21
1380.092173181881
 31
0.0
  0
ARC
  5
1BC5
  8
FUTO
 10
23996.561601108951
 20
1377.1691658812281
 30
0.0
 40
5.5
 50
179.9999999999994
 51
264.99999999999989
  0
LINE
  5
1BC6
  8
FUTO
 10
24059.061601108951
 20
1223.1675427995669
 30
0.0
 11
24059.061601108951
 21
1357.0168035641959
 31
0.0
  0
ARC
  5
1BC7
  8
FUTO
 10
24049.061601108951
 20
1357.0168035641959
 30
0.0
 40
10.0
 50
0.0
 51
85.0
  0
LINE
  5
1BC8
  8
FUTO
 10
24049.93315853642
 20
1366.9787505451141
 30
0.0
 11
23996.08224452383
 21
1371.6900950417239
 31
0.0
  0
LINE
  5
1BC9
  8
0
 10
24066.061601108951
 20
1380.092173181881
 30
0.0
 11
23991.061601108951
 21
1380.092173181881
 31
0.0
  0
LINE
  5
1BCA
  8
FUTO
 10
24066.061601108951
 20
1212.092173181881
 30
0.0
 11
25574.061601108951
 21
1212.092173181881
 31
0.0
  0
LINE
  5
1BCB
  8
FUTO
 10
24066.061601108951
 20
1368.092173181881
 30
0.0
 11
25574.061601108951
 21
1368.092173181881
 31
0.0
  0
LINE
  5
1BCC
  8
FUTO
 10
24066.061601108951
 20
1168.092173181881
 30
0.0
 11
25574.061601108951
 21
1168.092173181881
 31
0.0
  0
LINE
  5
1BCD
  8
FUTO
 10
24066.061601108951
 20
1012.092173181881
 30
0.0
 11
25574.061601108951
 21
1012.092173181881
 31
0.0
  0
LINE
  5
1BCE
  8
FUTO
 10
24066.061601108951
 20
1000.092173181881
 30
0.0
 11
25574.061601108951
 21
1000.092173181881
 31
0.0
  0
LINE
  5
1BCF
  8
FUTO
 10
22524.061601108951
 20
1000.092173181881
 30
0.0
 11
24037.206679563089
 21
1000.092173181881
 31
0.0
  0
DIMENSION
  5
1BF2
  8
SP
  2
*D17
 10
24820.061601108951
 20
5320.2296057386284
 30
0.0
 11
23520.061601108951
 21
5410.2296057386284
 31
0.0
 70
     0
 13
22220.061601108951
 23
5320.2296057386284
 33
0.0
 14
24820.061601108951
 24
5320.2296057386284
 34
0.0
1001
ACAD
1000
DSTYLE
1002
{
1070
   287
1070
     3
1070
    40
1040
45.0
1070
   140
1040
3.0
1070
   147
1040
0.5
1070
   173
1070
     1
1070
   279
1070
     0
1070
   341
1005
24
1070
     6
1000
OPEN
1070
     7
1000
OPEN
1002
}
  0
LINE
  5
1C10
  8
FUTO
 10
20441.321991538069
 20
1180.092173181881
 30
0.0
 11
20441.321991538069
 21
1000.092173181881
 31
0.0
  0
LINE
  5
1C11
  8
FUTO
 10
20091.321991538069
 20
1180.092173181881
 30
0.0
 11
20091.321991538069
 21
1000.092173181881
 31
0.0
  0
LINE
  5
1C21
  8
SL
 10
22773.451094004631
 20
2827.295280676211
 30
0.0
 11
22773.451094004631
 21
2520.0921731818812
 31
0.0
  0
LINE
  5
1C22
  8
SL
 10
23703.629866882849
 20
2827.295280676211
 30
0.0
 11
23703.629866882849
 21
2520.0921731818812
 31
0.0
  0
DIMENSION
  5
1C23
  8
SP
  2
*D18
 10
17552.21614124265
 20
4907.0921731818826
 30
0.0
 11
17462.21614124265
 21
3793.5921731818848
 31
0.0
 70
     0
 13
17947.98042570888
 23
2680.0921731818812
 33
0.0
 14
18016.32199153661
 24
4907.0921731818826
 34
0.0
 50
90.0
1001
ACAD
1000
DSTYLE
1002
{
1070
   287
1070
     3
1070
    40
1040
45.0
1070
   140
1040
3.0
1070
   147
1040
0.5
1070
   173
1070
     1
1070
   279
1070
     0
1070
   341
1005
24
1070
     6
1000
OPEN
1070
     7
1000
OPEN
1002
}
  0
LINE
  5
1C5C
  8
FUTO
 10
19202.321991538069
 20
7606.8812584720399
 30
0.0
 11
19176.321991538069
 21
7630.8812584720399
 31
0.0
  0
LINE
  5
1C5D
  8
FUTO
 10
19380.321991538069
 20
7606.8812584720399
 30
0.0
 11
19404.155324871401
 21
7628.8812584720408
 31
0.0
  0
LINE
  5
1C61
  8
FUTO
 10
18811.321991538069
 20
6064.8812584720436
 30
0.0
 11
21421.321991538069
 21
6064.8812584720399
 31
0.0
  0
LINE
  5
1C62
  8
SL
 10
18916.321991538069
 20
6182.6812584720428
 30
0.0
 11
21318.821991538069
 21
6182.6812584720392
 31
0.0
  0
LINE
  5
1C63
  8
SL
 10
18916.321991538069
 20
6312.681258472041
 30
0.0
 11
21318.821991538069
 21
6312.6812584720419
 31
0.0
  0
LINE
  5
1C6B
  8
FUTO
 10
19348.821991538069
 20
7606.8812584720399
 30
0.0
 11
19348.821991538069
 21
6544.8812584720399
 31
0.0
  0
LINE
  5
1C6C
  8
FUTO
 10
19233.821991538069
 20
7606.8812584720399
 30
0.0
 11
19233.821991538069
 21
6544.8812584720399
 31
0.0
  0
LINE
  5
1C6D
  8
FUTO
 10
18811.321991538069
 20
6345.6302926345488
 30
0.0
 11
21421.321991538069
 21
6345.6302926345479
 31
0.0
  0
LINE
  5
1C6E
  8
FUTO
 10
19211.321991538069
 20
6544.8812584720399
 30
0.0
 11
19371.321991538069
 21
6544.8812584720399
 31
0.0
  0
LINE
  5
1C6F
  8
FUTO
 10
19211.321991538069
 20
6372.8812584720399
 30
0.0
 11
19371.321991538069
 21
6372.8812584720399
 31
0.0
  0
LINE
  5
1C70
  8
FUTO
 10
19176.321991538069
 20
6522.8812584720399
 30
0.0
 11
19371.321991538069
 21
6522.8812584720399
 31
0.0
  0
LINE
  5
1C71
  8
FUTO
 10
19176.321991538069
 20
6536.8812584720399
 30
0.0
 11
19406.321991538069
 21
6536.8812584720399
 31
0.0
  0
LINE
  5
1C72
  8
FUTO
 10
19176.321991538069
 20
6380.8812584720399
 30
0.0
 11
19406.321991538069
 21
6380.8812584720399
 31
0.0
  0
LINE
  5
1C73
  8
CT
 10
19127.830373028239
 20
6458.8812584720399
 30
0.0
 11
19442.479145300109
 21
6458.8812584720399
 31
0.0
  0
LINE
  5
1C74
  8
FUTO
 10
19176.321991538069
 20
6522.8812584720399
 30
0.0
 11
19406.321991538069
 21
6522.8812584720399
 31
0.0
  0
LINE
  5
1C75
  8
FUTO
 10
19176.321991538069
 20
6394.8812584720399
 30
0.0
 11
19406.321991538069
 21
6394.8812584720399
 31
0.0
  0
LINE
  5
1C76
  8
SL
 10
19666.321991538069
 20
6312.681258472041
 30
0.0
 11
19666.321991538069
 21
6182.681258472041
 31
0.0
  0
LINE
  5
1C7A
  8
FUTO
 10
19343.821991538069
 20
6372.8812584720399
 30
0.0
 11
19343.821991538069
 21
6312.6812584720392
 31
0.0
  0
LINE
  5
1C7B
  8
FUTO
 10
19406.321991538069
 20
6380.8812584720399
 30
0.0
 11
19406.321991538069
 21
6388.881258472039
 31
0.0
  0
LINE
  5
1C7C
  8
FUTO
 10
19371.321991538069
 20
6372.8812584720399
 30
0.0
 11
19391.321991538069
 21
6380.8812584720399
 31
0.0
  0
LINE
  5
1C7F
  8
FUTO
 10
19371.321991538069
 20
6544.8812584720399
 30
0.0
 11
19391.321991538069
 21
6536.8812584720399
 31
0.0
  0
LINE
  5
1C80
  8
FUTO
 10
19406.321991538069
 20
6536.8812584720399
 30
0.0
 11
19406.321991538069
 21
6528.8812584720399
 31
0.0
  0
LINE
  5
1C83
  8
SL
 10
18916.321991538069
 20
6312.6812584720392
 30
0.0
 11
18916.321991538069
 21
6182.6812584720428
 31
0.0
  0
LINE
  5
1C84
  8
FUTO
 10
19158.321991538069
 20
6404.881258472039
 30
0.0
 11
19158.321991538069
 21
6512.8812584720408
 31
0.0
  0
LINE
  5
1C85
  8
FUTO
 10
19176.321991538069
 20
6394.8812584720399
 30
0.0
 11
19176.321991538069
 21
6404.881258472039
 31
0.0
  0
LINE
  5
1C86
  8
FUTO
 10
19158.321991538069
 20
6404.881258472039
 30
0.0
 11
19176.321991538069
 21
6404.881258472039
 31
0.0
  0
LINE
  5
1C87
  8
FUTO
 10
19176.321991538069
 20
6380.8812584720399
 30
0.0
 11
19176.321991538069
 21
6394.8812584720399
 31
0.0
  0
LINE
  5
1C88
  8
FUTO
 10
19211.321991538069
 20
6372.8812584720399
 30
0.0
 11
19191.321991538069
 21
6380.8812584720399
 31
0.0
  0
LINE
  5
1C89
  8
FUTO
 10
19238.821991538069
 20
6372.8812584720399
 30
0.0
 11
19238.821991538069
 21
6312.6812584720392
 31
0.0
  0
LINE
  5
1C8A
  8
FUTO
 10
19211.321991538069
 20
6544.8812584720399
 30
0.0
 11
19191.321991538069
 21
6536.8812584720399
 31
0.0
  0
LINE
  5
1C8B
  8
FUTO
 10
19176.321991538069
 20
6536.8812584720399
 30
0.0
 11
19176.321991538069
 21
6522.8812584720399
 31
0.0
  0
LINE
  5
1C8C
  8
FUTO
 10
19176.321991538069
 20
6512.8812584720408
 30
0.0
 11
19176.321991538069
 21
6522.8812584720399
 31
0.0
  0
LINE
  5
1C8D
  8
FUTO
 10
19158.321991538069
 20
6512.8812584720408
 30
0.0
 11
19176.321991538069
 21
6512.8812584720408
 31
0.0
  0
LINE
  5
1C8E
  8
FUTO
 10
18811.321991538069
 20
6345.6302926345488
 30
0.0
 11
18811.321991538069
 21
6064.8812584720436
 31
0.0
  0
POINT
  5
1C8F
  8
DEFPOINTS
 10
18811.321991538069
 20
6064.8812584720436
 30
0.0
  0
LINE
  5
1C93
  8
FUTO
 10
19380.321991538069
 20
7606.8812584720399
 30
0.0
 11
19202.321991538069
 21
7606.8812584720417
 31
0.0
  0
LINE
  5
1C9A
  8
FUTO
 10
18216.321991538069
 20
9563.8812584720399
 30
0.0
 11
20366.321991538069
 21
9563.8812584720399
 31
0.0
  0
LINE
  5
1C9B
  8
FUTO
 10
18216.321991538069
 20
9569.8812584720399
 30
0.0
 11
20366.321991538069
 21
9569.8812584720417
 31
0.0
  0
LINE
  5
1C9C
  8
KL
 10
18216.321991538069
 20
9427.0812584729338
 30
0.0
 11
20366.321991538069
 21
9427.0812584734231
 31
0.0
  0
LINE
  5
1CA1
  8
HOSO
 10
18251.321991538069
 20
9391.9615148648409
 30
0.0
 11
18251.321991538069
 21
9450.1606709700682
 31
0.0
  0
LINE
  5
1CA2
  8
FUTO
 10
18285.321991538069
 20
9418.0812584720406
 30
0.0
 11
18285.321991538069
 21
9508.0812584720406
 31
0.0
  0
LINE
  5
1CA3
  8
KL
 10
18291.321991538069
 20
9418.0812584720406
 30
0.0
 11
18291.321991538069
 21
9569.8812584720399
 31
0.0
  0
LINE
  5
1CA4
  8
KL
 10
18216.321991538069
 20
9418.0812584720406
 30
0.0
 11
18216.321991538069
 21
9427.0812584729283
 31
0.0
  0
LINE
  5
1CA5
  8
HOSO
 10
18291.32199153808
 20
9427.0812584729501
 30
0.0
 11
18291.32199153808
 21
9418.0812584729501
 31
0.0
  0
LINE
  5
1CA6
  8
FUTO
 10
18216.321991538069
 20
9563.8812584720417
 30
0.0
 11
18216.321991538069
 21
9569.8812584720399
 31
0.0
  0
LINE
  5
1CA7
  8
HOSO
 10
18251.321991538069
 20
9541.8430690320565
 30
0.0
 11
18251.321991538069
 21
9600.0422251372856
 31
0.0
  0
LINE
  5
1CA8
  8
FUTO
 10
18285.321991538069
 20
9508.0812584720406
 30
0.0
 11
18285.321991538069
 21
9563.8812584720399
 31
0.0
  0
LINE
  5
1CBE
  8
FUTO
 10
19386.321991538069
 20
7773.8812584720408
 30
0.0
 11
19156.321991538069
 21
7773.8812584720408
 31
0.0
  0
LINE
  5
1CBF
  8
FUTO
 10
19426.321991538069
 20
7786.8812584720399
 30
0.0
 11
19156.321991538069
 21
7786.8812584720399
 31
0.0
  0
LINE
  5
1CC0
  8
FUTO
 10
19380.321991538069
 20
7810.8812584720399
 30
0.0
 11
19202.321991538069
 21
7810.8812584720399
 31
0.0
  0
LINE
  5
1CC1
  8
FUTO
 10
19426.321991538069
 20
7773.8812584720417
 30
0.0
 11
19156.321991538069
 21
7773.8812584720408
 31
0.0
  0
LINE
  5
1CC2
  8
CT
 10
19521.613700612568
 20
7708.8812584720399
 30
0.0
 11
19061.98828977628
 21
7708.8812584720399
 31
0.0
  0
LINE
  5
1CC3
  8
FUTO
 10
19426.321991538069
 20
7630.8812584720408
 30
0.0
 11
19156.321991538069
 21
7630.8812584720399
 31
0.0
  0
LINE
  5
1CC4
  8
FUTO
 10
19426.321991538069
 20
7643.8812584720417
 30
0.0
 11
19156.321991538069
 21
7643.881258472039
 31
0.0
  0
LINE
  5
1CC5
  8
KL
 10
19346.321991538069
 20
7810.8812584720399
 30
0.0
 11
19346.321991538069
 21
7904.5252987966996
 31
0.0
  0
LINE
  5
1CCB
  8
FUTO
 10
19380.321991538069
 20
7810.8812584720426
 30
0.0
 11
19404.155324871401
 21
7788.8812584720399
 31
0.0
  0
LINE
  5
1CCE
  8
KL
 10
19236.321991538069
 20
7810.8812584720399
 30
0.0
 11
19236.321991538069
 21
7906.9683356638889
 31
0.0
  0
LINE
  5
1CCF
  8
FUTO
 10
19140.321991538069
 20
7648.8812584720408
 30
0.0
 11
19140.321991538069
 21
7768.881258472039
 31
0.0
  0
LINE
  5
1CD0
  8
FUTO
 10
19156.321991538069
 20
7630.8812584720408
 30
0.0
 11
19156.321991538069
 21
7648.8812584720408
 31
0.0
  0
LINE
  5
1CD1
  8
FUTO
 10
19156.321991538069
 20
7648.8812584720408
 30
0.0
 11
19140.321991538069
 21
7648.8812584720408
 31
0.0
  0
LINE
  5
1CD2
  8
FUTO
 10
19202.321991538069
 20
7810.8812584720426
 30
0.0
 11
19176.321991538069
 21
7786.8812584720399
 31
0.0
  0
LINE
  5
1CD3
  8
FUTO
 10
19156.321991538069
 20
7768.881258472039
 30
0.0
 11
19140.321991538069
 21
7768.881258472039
 31
0.0
  0
LINE
  5
1CD4
  8
FUTO
 10
19156.321991538069
 20
7786.8812584720399
 30
0.0
 11
19156.321991538069
 21
7768.881258472039
 31
0.0
  0
LINE
  5
1CE0
  8
HOSO
 10
20331.321991538069
 20
9384.2748846276208
 30
0.0
 11
20331.321991538069
 21
9454.90201176544
 31
0.0
  0
LINE
  5
1CE1
  8
KL
 10
20297.321991538069
 20
9418.0812584720406
 30
0.0
 11
20297.321991538069
 21
9493.0812584720425
 31
0.0
  0
LINE
  5
1CE2
  8
KL
 10
20291.321991538069
 20
9418.0812584720406
 30
0.0
 11
20291.321991538069
 21
9569.8812584720399
 31
0.0
  0
LINE
  5
1CE4
  8
KL
 10
20366.321991538069
 20
9418.0812584720406
 30
0.0
 11
20366.321991538069
 21
9427.0812584734231
 31
0.0
  0
LINE
  5
1CE5
  8
HOSO
 10
20291.32199153808
 20
9427.0812584734049
 30
0.0
 11
20291.32199153808
 21
9418.0812584734085
 31
0.0
  0
LINE
  5
1CE6
  8
FUTO
 10
20366.321991538069
 20
9563.8812584720399
 30
0.0
 11
20366.321991538069
 21
9569.8812584720417
 31
0.0
  0
LINE
  5
1CE7
  8
HOSO
 10
20331.321991538069
 20
9533.8353310296989
 30
0.0
 11
20331.321991538069
 21
9604.4624581675198
 31
0.0
  0
LINE
  5
1CE8
  8
FUTO
 10
20297.321991538069
 20
9493.0812584720425
 30
0.0
 11
20297.321991538069
 21
9563.8812584720399
 31
0.0
  0
INSERT
  5
1CE9
  8
FUTO
  2
まっすぐの矢印
 10
19842.246242678259
 20
9736.3775462280682
 30
0.0
 41
-40.0
 42
40.0
 43
40.0
 50
180.0
  0
LINE
  5
1D14
  8
FUTO
 10
19424.321991538069
 20
6404.881258472039
 30
0.0
 11
19424.321991538069
 21
6512.8812584720408
 31
0.0
  0
LINE
  5
1D15
  8
FUTO
 10
19406.321991538069
 20
6380.8812584720399
 30
0.0
 11
19406.321991538069
 21
6394.8812584720399
 31
0.0
  0
LINE
  5
1D16
  8
FUTO
 10
19424.321991538069
 20
6404.881258472039
 30
0.0
 11
19406.321991538069
 21
6404.881258472039
 31
0.0
  0
LINE
  5
1D17
  8
FUTO
 10
19406.321991538069
 20
6394.8812584720399
 30
0.0
 11
19406.321991538069
 21
6404.881258472039
 31
0.0
  0
LINE
  5
1D18
  8
FUTO
 10
19424.321991538069
 20
6512.8812584720408
 30
0.0
 11
19406.321991538069
 21
6512.8812584720408
 31
0.0
  0
LINE
  5
1D19
  8
FUTO
 10
19406.321991538069
 20
6512.8812584720408
 30
0.0
 11
19406.321991538069
 21
6522.8812584720399
 31
0.0
  0
LINE
  5
1D1A
  8
FUTO
 10
19406.321991538069
 20
6536.8812584720399
 30
0.0
 11
19406.321991538069
 21
6522.8812584720399
 31
0.0
  0
LINE
  5
1D1B
  8
FUTO
 10
19442.321991538069
 20
7648.8812584720408
 30
0.0
 11
19442.321991538069
 21
7768.881258472039
 31
0.0
  0
LINE
  5
1D1C
  8
FUTO
 10
19426.321991538069
 20
7648.8812584720408
 30
0.0
 11
19442.321991538069
 21
7648.8812584720408
 31
0.0
  0
LINE
  5
1D1D
  8
FUTO
 10
19426.321991538069
 20
7630.8812584720408
 30
0.0
 11
19426.321991538069
 21
7648.8812584720408
 31
0.0
  0
LINE
  5
1D1E
  8
FUTO
 10
19426.321991538069
 20
7786.8812584720399
 30
0.0
 11
19426.321991538069
 21
7768.881258472039
 31
0.0
  0
LINE
  5
1D1F
  8
FUTO
 10
19426.321991538069
 20
7768.881258472039
 30
0.0
 11
19442.321991538069
 21
7768.881258472039
 31
0.0
  0
LINE
  5
1D20
  8
FUTO
 10
19640.908796015508
 20
6362.8812584720372
 30
0.0
 11
19640.908796015508
 21
7835.8812584720381
 31
0.0
  0
LINE
  5
1D21
  8
FUTO
 10
18941.735187060629
 20
6362.8812584720372
 30
0.0
 11
18941.735187060629
 21
7835.8812584720381
 31
0.0
  0
LINE
  5
1D22
  8
FUTO
 10
18016.321991537861
 20
7835.8812584720381
 30
0.0
 11
18016.32199153673
 21
9493.8812584720454
 31
0.0
  0
LINE
  5
1D23
  8
FUTO
 10
18016.321991537439
 20
7835.8812584720381
 30
0.0
 11
18016.32199153669
 21
9493.8812584720454
 31
0.0
  0
LINE
  5
1D24
  8
FUTO
 10
18016.321991538069
 20
7835.8812584720381
 30
0.0
 11
18016.321991538069
 21
9493.8812584720454
 31
0.0
  0
LINE
  5
1D25
  8
FUTO
 10
18022.321991538069
 20
7835.8812584720381
 30
0.0
 11
18022.321991538069
 21
9493.8812584720454
 31
0.0
  0
LINE
  5
1D26
  8
FUTO
 10
18091.321991538069
 20
7835.8812584720381
 30
0.0
 11
18091.321991538069
 21
9493.8812584720436
 31
0.0
  0
LINE
  5
1D35
  8
CT
 10
21141.321991538069
 20
7432.5950708325963
 30
0.0
 11
21141.321991538069
 21
6069.3799821007478
 31
0.0
  0
LINE
  5
1D3A
  8
SL
 10
21318.821991538069
 20
6312.6812584720428
 30
0.0
 11
21318.821991538069
 21
6182.6812584720392
 31
0.0
  0
LINE
  5
1D3B
  8
FUTO
 10
21421.321991538069
 20
6345.6302926345479
 30
0.0
 11
21421.321991538069
 21
6064.881258472039
 31
0.0
  0
LINE
  5
2121
  8
CT
 10
22541.361601108951
 20
1730.092173181871
 30
0.0
 11
22173.541601108951
 21
1730.092173181871
 31
0.0
  0
LINE
  5
2132
  8
FUTO
 10
22801.579601108951
 20
1455.0921731818701
 30
0.0
 11
22730.008601108952
 21
1455.0921731818701
 31
0.0
  0
LINE
  5
2306
  8
FUTO
 10
21428.821991538331
 20
7017.6812584719501
 30
0.0
 11
21428.821991538382
 21
7212.6812584719501
 31
0.0
  0
LINE
  5
2307
  8
FUTO
 10
20871.321991538389
 20
7230.9421284721211
 30
0.0
 11
20871.32199153832
 21
7017.6812584721229
 31
0.0
  0
LINE
  5
2308
  8
FUTO
 10
21428.821991538382
 20
7212.6812584719501
 30
0.0
 11
20871.321991538389
 21
7212.6812584721229
 31
0.0
  0
LINE
  5
2309
  8
FUTO
 10
20911.3219915384
 20
7272.6812584721101
 30
0.0
 11
21371.3219915384
 21
7272.6812584719682
 31
0.0
  0
LINE
  5
230A
  8
FUTO
 10
20871.321991538389
 20
7230.9421284721211
 30
0.0
 11
20911.3219915384
 21
7272.6812584721101
 31
0.0
  0
LINE
  5
230B
  8
FUTO
 10
21428.821991538382
 20
7212.6812584719501
 30
0.0
 11
21371.3219915384
 21
7272.6812584719682
 31
0.0
  0
LINE
  5
230C
  8
CT
 10
20831.00713188513
 20
6752.1812584721383
 30
0.0
 11
21474.082465634099
 21
6752.1812584719373
 31
0.0
  0
LINE
  5
230D
  8
FUTO
 10
21428.821991538331
 20
7017.6812584719501
 30
0.0
 11
20871.32199153832
 21
7017.6812584721229
 31
0.0
  0
LINE
  5
230E
  8
FUTO
 10
21428.821991538149
 20
6469.1812584719501
 30
0.0
 11
21376.75596967739
 21
6469.1812584719673
 31
0.0
  0
LINE
  5
230F
  8
FUTO
 10
21428.82199153812
 20
6369.1812584719501
 30
0.0
 11
21144.32199153812
 21
6369.1812584720374
 31
0.0
  0
LINE
  5
2310
  8
CT
 10
20837.191926571129
 20
6961.6812584721338
 30
0.0
 11
20800.506386571131
 21
6961.6812584721438
 31
0.0
  0
LINE
  5
2311
  8
CT
 10
20837.191926570998
 20
6542.6812584721329
 30
0.0
 11
20800.506386571
 21
6542.6812584721438
 31
0.0
  0
LINE
  5
2312
  8
FUTO
 10
21098.821991538069
 20
6182.6812584720537
 30
0.0
 11
21098.82199153812
 21
6352.6812584720537
 31
0.0
  0
LINE
  5
2313
  8
FUTO
 10
21183.82199153812
 20
6352.6812584720274
 30
0.0
 11
21183.821991538061
 21
6182.6812584720255
 31
0.0
  0
LINE
  5
2314
  8
FUTO
 10
21188.821991538061
 20
6182.6812584720246
 30
0.0
 11
21188.821991538109
 21
6322.6812584720246
 31
0.0
  0
LINE
  5
2315
  8
FUTO
 10
21091.32199153812
 20
6352.6812584720537
 30
0.0
 11
21191.321991538131
 21
6352.6812584720237
 31
0.0
  0
LINE
  5
2316
  8
FUTO
 10
21055.82199153812
 20
6362.6812584720647
 30
0.0
 11
21226.82199153812
 21
6362.6812584720137
 31
0.0
  0
LINE
  5
2317
  8
FUTO
 10
21053.82199153812
 20
6369.5296334720651
 30
0.0
 11
21053.82199153812
 21
6364.6812584720647
 31
0.0
  0
ARC
  5
2318
  8
FUTO
 10
21055.82199153812
 20
6364.6812584720647
 30
0.0
 40
2.0
 50
180.0
 51
270.0
  0
LINE
  5
2319
  8
FUTO
 10
21091.32199153812
 20
6352.6812584720537
 30
0.0
 11
21091.32199153812
 21
6362.6812584720537
 31
0.0
  0
LINE
  5
231A
  8
FUTO
 10
21191.321991538131
 20
6352.6812584720237
 30
0.0
 11
21191.321991538131
 21
6362.6812584720246
 31
0.0
  0
LINE
  5
231B
  8
FUTO
 10
21183.821991538109
 20
6322.6812584720274
 30
0.0
 11
21188.821991538109
 21
6322.6812584720246
 31
0.0
  0
LINE
  5
231C
  8
FUTO
 10
21228.82199153812
 20
6369.1812584720137
 30
0.0
 11
21228.82199153812
 21
6364.6812584720137
 31
0.0
  0
ARC
  5
231D
  8
FUTO
 10
21226.82199153812
 20
6364.6812584720137
 30
0.0
 40
2.0
 50
270.0
 51
0.000000000000007
  0
LINE
  5
231E
  8
FUTO
 10
21098.821991538069
 20
6182.6812584720537
 30
0.0
 11
21188.821991538061
 21
6182.6812584720246
 31
0.0
  0
LINE
  5
231F
  8
FUTO
 10
21427.136068538239
 20
6752.1812584719528
 30
0.0
 11
21427.136068538159
 21
6496.681258471951
 31
0.0
  0
LINE
  5
2320
  8
FUTO
 10
21376.755969677459
 20
6711.6812584719682
 30
0.0
 11
20978.838951478709
 21
6711.6812584720901
 31
0.0
  0
LINE
  5
2321
  8
FUTO
 10
21376.755969677452
 20
6693.2812644719634
 30
0.0
 11
20978.838951478701
 21
6693.2812644720871
 31
0.0
  0
LINE
  5
2322
  8
CT
 10
21193.8578610273
 20
6566.6812584720228
 30
0.0
 11
21050.713055027289
 21
6566.6812584720692
 31
0.0
  0
LINE
  5
2323
  8
FUTO
 10
21431.321991538331
 20
7007.681258471951
 30
0.0
 11
21431.321991538221
 21
6696.681258471951
 31
0.0
  0
LINE
  5
2324
  8
FUTO
 10
21427.136068538239
 20
6752.1812584719528
 30
0.0
 11
21427.136068538319
 21
7007.6812584719519
 31
0.0
  0
LINE
  5
2325
  8
FUTO
 10
21427.136068538319
 20
7007.6812584719519
 30
0.0
 11
21420.684206538332
 21
7017.6812584719537
 31
0.0
  0
LINE
  5
2326
  8
FUTO
 10
21431.321991538331
 20
7007.681258471951
 30
0.0
 11
21424.655325538319
 21
7017.681258471951
 31
0.0
  0
LINE
  5
2327
  8
FUTO
 10
21431.321991538221
 20
6696.681258471951
 30
0.0
 11
21427.136068538231
 21
6692.4953354719501
 31
0.0
  0
LINE
  5
2328
  8
FUTO
 10
20978.83895147861
 20
6421.6812584720901
 30
0.0
 11
21376.755969677371
 21
6421.6812584719692
 31
0.0
  0
LINE
  5
2329
  8
FUTO
 10
20978.838951478621
 20
6440.0812824720851
 30
0.0
 11
21376.755969677371
 21
6440.0812824719642
 31
0.0
  0
LINE
  5
232A
  8
FUTO
 10
21428.82199153812
 20
6369.1812584719501
 30
0.0
 11
21428.821991538149
 21
6469.1812584719501
 31
0.0
  0
LINE
  5
232B
  8
FUTO
 10
21423.837039538161
 20
6485.4538304719508
 30
0.0
 11
21412.988658538161
 21
6469.1812584719546
 31
0.0
  0
LINE
  5
232C
  8
FUTO
 10
21427.136068538159
 20
6496.681258471951
 30
0.0
 11
21409.393448538161
 21
6469.1812584719546
 31
0.0
  0
LINE
  5
232D
  8
FUTO
 10
21417.55059653816
 20
6481.8243504719549
 30
0.0
 11
21425.963007538161
 21
6486.6812584719528
 31
0.0
  0
LINE
  5
232E
  8
FUTO
 10
20978.83895147861
 20
6421.6812584720874
 30
0.0
 11
20978.838951478709
 21
6711.6812584720901
 31
0.0
  0
LINE
  5
232F
  8
FUTO
 10
21376.755969677371
 20
6421.6812584719664
 30
0.0
 11
21376.755969677459
 21
6711.6812584719682
 31
0.0
  0
LINE
  5
2330
  8
FUTO
 10
20853.821991538149
 20
6469.1812584721292
 30
0.0
 11
20978.838951478629
 21
6469.1812584720874
 31
0.0
  0
LINE
  5
2331
  8
FUTO
 10
20853.82199153812
 20
6369.1812584721283
 30
0.0
 11
21138.32199153812
 21
6369.1812584720392
 31
0.0
  0
LINE
  5
2332
  8
FUTO
 10
20853.82199153812
 20
6369.1812584721283
 30
0.0
 11
20853.821991538149
 21
6469.1812584721292
 31
0.0
  0
LINE
  5
2333
  8
FUTO
 10
20855.507914538241
 20
6752.1812584721256
 30
0.0
 11
20855.507914538321
 21
7007.6812584721274
 31
0.0
  0
LINE
  5
2334
  8
FUTO
 10
20851.321991538331
 20
7007.6812584721283
 30
0.0
 11
20851.321991538221
 21
6696.6812584721283
 31
0.0
  0
LINE
  5
2335
  8
FUTO
 10
20855.507914538241
 20
6752.1812584721256
 30
0.0
 11
20855.507914538161
 21
6496.6812584721256
 31
0.0
  0
LINE
  5
2336
  8
FUTO
 10
20855.507914538161
 20
6496.6812584721256
 30
0.0
 11
20873.250534538151
 21
6469.1812584721229
 31
0.0
  0
LINE
  5
2337
  8
FUTO
 10
20865.093386538159
 20
6481.8243504721249
 30
0.0
 11
20856.680975538158
 21
6486.6812584721256
 31
0.0
  0
LINE
  5
2338
  8
FUTO
 10
20858.806943538169
 20
6485.4538304721282
 30
0.0
 11
20869.655324538151
 21
6469.1812584721229
 31
0.0
  0
LINE
  5
2339
  8
FUTO
 10
20851.321991538331
 20
7007.6812584721283
 30
0.0
 11
20857.988657538332
 21
7017.6812584721256
 31
0.0
  0
LINE
  5
233A
  8
FUTO
 10
20855.507914538321
 20
7007.6812584721274
 30
0.0
 11
20861.95977653833
 21
7017.6812584721256
 31
0.0
  0
LINE
  5
233B
  8
FUTO
 10
20791.321991538181
 20
6448.1023249335758
 30
0.0
 11
20791.321991538371
 21
7056.2601920107172
 31
0.0
  0
LINE
  5
233C
  8
FUTO
 10
20791.321991538181
 20
6448.1023249335758
 30
0.0
 11
20853.821991538149
 21
6448.1023249335594
 31
0.0
  0
LINE
  5
233D
  8
FUTO
 10
20791.321991538371
 20
7056.2601920107172
 30
0.0
 11
20871.321991538342
 21
7056.260192010689
 31
0.0
  0
LINE
  5
233E
  8
FUTO
 10
21491.321991538109
 20
6448.1023249333621
 30
0.0
 11
21491.321991538309
 21
7056.2601920105017
 31
0.0
  0
LINE
  5
233F
  8
FUTO
 10
21491.321991538302
 20
7056.2601920105017
 30
0.0
 11
21411.321991538342
 21
7056.2601920105226
 31
0.0
  0
LINE
  5
2340
  8
FUTO
 10
21491.321991538109
 20
6448.1023249333621
 30
0.0
 11
21428.821991538149
 21
6448.1023249333812
 31
0.0
  0
LINE
  5
2370
  8
FUTO
 10
22517.861601108929
 20
1627.561690181833
 30
0.0
 11
22517.861601108911
 21
1542.7088761818329
 31
0.0
  0
LINE
  5
2371
  8
FUTO
 10
22601.86160110894
 20
1730.092173181815
 30
0.0
 11
22601.861601108889
 21
1472.092173181815
 31
0.0
  0
LINE
  5
2372
  8
FUTO
 10
22601.86160110894
 20
1733.092173181815
 30
0.0
 11
22601.861601108889
 21
1500.092173181815
 31
0.0
  0
LINE
  5
2373
  8
FUTO
 10
22766.861601108911
 20
1576.0982781817811
 30
0.0
 11
22766.861601108889
 21
1500.09217318178
 31
0.0
  0
LINE
  5
2374
  8
FUTO
 10
23047.861601108922
 20
1579.564210181718
 30
0.0
 11
23047.861601108889
 21
1500.092173181718
 31
0.0
  0
LINE
  5
2375
  8
FUTO
 10
23172.861601109009
 20
2017.5921731816929
 30
0.0
 11
23172.861601108889
 21
1460.0921731816929
 31
0.0
  0
LINE
  5
2376
  8
CT
 10
22907.361601108882
 20
1431.1420571817489
 30
0.0
 11
22907.36160110902
 21
2062.852647277607
 31
0.0
  0
LINE
  5
2377
  8
FUTO
 10
23427.861601108889
 20
1500.092173181637
 30
0.0
 11
23427.861601108991
 21
1960.092173181637
 31
0.0
  0
LINE
  5
2378
  8
FUTO
 10
23367.861601109009
 20
2017.5921731816491
 30
0.0
 11
23367.861601108889
 21
1460.0921731816491
 31
0.0
  0
LINE
  5
2379
  8
FUTO
 10
23162.861601108882
 20
1460.0432331816939
 30
0.0
 11
23152.361601108889
 21
1460.043233181696
 31
0.0
  0
LINE
  5
237C
  8
FUTO
 10
22782.361601108889
 20
1450.0921731817771
 30
0.0
 11
23211.361601108889
 21
1450.0921731816841
 31
0.0
  0
ARC
  5
237D
  8
KL
 10
22550.196302108889
 20
1502.899608181825
 30
0.0
 40
10.0
 50
183.0000000000033
 51
225.0000000001105
  0
LINE
  5
237E
  8
FUTO
 10
22540.21000610889
 20
1502.376249181827
 30
0.0
 11
22538.096263108899
 21
1542.708876181827
 31
0.0
  0
LINE
  5
237F
  8
FUTO
 10
22517.861601108911
 20
1542.7088761818329
 30
0.0
 11
22571.861601108911
 21
1542.70887618182
 31
0.0
  0
LINE
  5
2380
  8
FUTO
 10
22746.861601108889
 20
1480.0921731817839
 30
0.0
 11
22666.861601108889
 21
1480.0921731818
 31
0.0
  0
LINE
  5
2381
  8
FUTO
 10
22662.361601108889
 20
1450.0921731818021
 30
0.0
 11
22782.361601108889
 21
1450.0921731817771
 31
0.0
  0
LINE
  5
2383
  8
FUTO
 10
22601.861601108911
 20
1543.5134321818141
 30
0.0
 11
22766.8616011089
 21
1543.5134321817791
 31
0.0
  0
LINE
  5
2384
  8
FUTO
 10
22782.361601108889
 20
1450.0921731817771
 30
0.0
 11
22603.361601108889
 21
1450.092173181815
 31
0.0
  0
ARC
  5
238A
  8
FUTO
 10
22570.061771108889
 20
1483.034139181822
 30
0.0
 40
10.0
 50
225.0000000001105
 51
267.99999999999602
  0
LINE
  5
238B
  8
FUTO
 10
22611.861601108889
 20
1500.092173181813
 30
0.0
 11
22611.861601108889
 21
1498.2277411818129
 31
0.0
  0
LINE
  5
238C
  8
FUTO
 10
22611.861601108889
 20
1500.092173181813
 30
0.0
 11
22601.861601108889
 21
1500.092173181815
 31
0.0
  0
ARC
  5
238D
  8
FUTO
 10
22667.361601108889
 20
1475.0921731818
 30
0.0
 40
5.0
 50
90.0
 51
180.0
  0
LINE
  5
238E
  8
FUTO
 10
22651.861601108882
 20
1460.0432331818031
 30
0.0
 11
22662.361601108889
 21
1460.043233181802
 31
0.0
  0
LINE
  5
238F
  8
FUTO
 10
22621.861601108882
 20
1463.863342181809
 30
0.0
 11
22651.861601108882
 21
1460.0432331818031
 31
0.0
  0
LINE
  5
2390
  8
FUTO
 10
22611.861601108889
 20
1498.2277411818129
 30
0.0
 11
22621.861601108882
 21
1463.863342181809
 31
0.0
  0
LINE
  5
2391
  8
FUTO
 10
22569.712776108889
 20
1473.040231181822
 30
0.0
 11
22601.861601108889
 21
1472.092173181815
 31
0.0
  0
LINE
  5
2393
  8
FUTO
 10
22662.361601108889
 20
1475.0921731818021
 30
0.0
 11
22662.361601108889
 21
1450.0921731818021
 31
0.0
  0
LINE
  5
2394
  8
FUTO
 10
22603.361601108889
 20
1450.092173181815
 30
0.0
 11
22603.36160110886
 21
1386.8524040498551
 31
0.0
  0
ARC
  5
2398
  8
FUTO
 10
22746.861601108889
 20
1500.0921731817839
 30
0.0
 40
20.0
 50
270.0
 51
0.0
  0
LINE
  5
2399
  8
FUTO
 10
22787.361601108882
 20
1460.092173181775
 30
0.0
 11
22907.361601108882
 21
1460.09217318175
 31
0.0
  0
ARC
  5
239B
  8
FUTO
 10
22787.361601108882
 20
1455.092173181775
 30
0.0
 40
5.0
 50
90.0
 51
180.0
  0
LINE
  5
239C
  8
KL
 10
22697.861601108889
 20
1483.852545181792
 30
0.0
 11
22697.861601108882
 21
1447.167005181793
 31
0.0
  0
ARC
  5
239D
  8
FUTO
 10
23067.861601108889
 20
1500.092173181715
 30
0.0
 40
20.0
 50
180.0
 51
270.0
  0
ARC
  5
239E
  8
FUTO
 10
23147.361601108889
 20
1475.092173181697
 30
0.0
 40
5.0
 50
0.0
 51
90.0
  0
LINE
  5
239F
  8
FUTO
 10
23067.861601108889
 20
1480.092173181715
 30
0.0
 11
23147.861601108889
 21
1480.092173181697
 31
0.0
  0
LINE
  5
23A0
  8
FUTO
 10
23032.361601108889
 20
1455.092173181722
 30
0.0
 11
23032.361601108889
 21
1450.092173181722
 31
0.0
  0
LINE
  5
23A1
  8
FUTO
 10
23152.861601108882
 20
1450.092173181697
 30
0.0
 11
23032.361601108889
 21
1450.092173181722
 31
0.0
  0
LINE
  5
23A2
  8
FUTO
 10
23152.361601108889
 20
1475.092173181697
 30
0.0
 11
23152.361601108889
 21
1450.092173181697
 31
0.0
  0
LINE
  5
23A3
  8
FUTO
 10
23116.861601108889
 20
1483.8525451817029
 30
0.0
 11
23116.861601108882
 21
1447.1670051817041
 31
0.0
  0
ARC
  5
23A4
  8
FUTO
 10
23027.361601108882
 20
1455.0921731817241
 30
0.0
 40
5.0
 50
0.0
 51
90.0
  0
LINE
  5
23A5
  8
FUTO
 10
23027.361601108882
 20
1460.0921731817241
 30
0.0
 11
22907.361601108882
 21
1460.09217318175
 31
0.0
  0
LINE
  5
23A6
  8
FUTO
 10
22562.990703108881
 20
1475.9630721818221
 30
0.0
 11
22543.125234108891
 21
1495.8285401818271
 31
0.0
  0
LINE
  5
23A7
  8
FUTO
 10
23386.12247110888
 20
1460.0921731816461
 30
0.0
 11
23172.861601108889
 21
1460.0921731816929
 31
0.0
  0
LINE
  5
23A8
  8
FUTO
 10
23211.361601108889
 20
1450.0921731816841
 30
0.0
 11
23211.36160110886
 21
1386.908473834812
 31
0.0
  0
LINE
  5
23A9
  8
FUTO
 10
23386.12247110888
 20
1460.0921731816461
 30
0.0
 11
23427.861601108889
 21
1500.092173181637
 31
0.0
  0
LINE
  5
23AA
  8
FUTO
 10
23172.861601108889
 20
1461.316603181692
 30
0.0
 11
23162.861601108882
 21
1460.0432331816939
 31
0.0
  0
LINE
  5
23AB
  8
FUTO
 10
22907.361601109009
 20
2015.906250181748
 30
0.0
 11
23162.861601109009
 21
2015.9062501816941
 31
0.0
  0
LINE
  5
23AC
  8
FUTO
 10
23162.861601109009
 20
2020.092173181695
 30
0.0
 11
22851.861601109009
 21
2020.0921731817621
 31
0.0
  0
CIRCLE
  5
23AE
  8
FUTO
 10
22721.861601109042
 20
2155.0921731817898
 30
0.0
 40
59.0
  0
LINE
  5
23AF
  8
FUTO
 10
22595.261625109011
 20
2046.6921221818161
 30
0.0
 11
22595.261625109051
 21
2241.5635321818158
 31
0.0
  0
LINE
  5
23B0
  8
FUTO
 10
22576.86160110902
 20
2066.0341061818199
 30
0.0
 11
22576.86160110906
 21
2250.7574261818199
 31
0.0
  0
LINE
  5
23B1
  8
CT
 10
22721.861601109049
 20
2224.673823181789
 30
0.0
 11
22721.86160110902
 21
2081.5290171817892
 31
0.0
  0
LINE
  5
23B2
  8
FUTO
 10
22848.46160710905
 20
2241.5635321817608
 30
0.0
 11
22848.461607109009
 21
2046.692164181761
 31
0.0
  0
LINE
  5
23B3
  8
FUTO
 10
22866.86160110906
 20
2250.7574261817581
 30
0.0
 11
22866.86160110902
 21
2066.0341061817589
 31
0.0
  0
LINE
  5
23B4
  8
FUTO
 10
22524.361601109009
 20
2017.592173181831
 30
0.0
 11
22524.36160110894
 21
1733.092173181831
 31
0.0
  0
LINE
  5
23B5
  8
FUTO
 10
22624.361601109009
 20
2017.59217318181
 30
0.0
 11
22624.36160110894
 21
1733.0921731818089
 31
0.0
  0
LINE
  5
23B6
  8
CT
 10
22125.156588902439
 20
1730.0921731819369
 30
0.0
 11
23486.532958048971
 21
1730.092173181522
 31
0.0
  0
LINE
  5
23B7
  8
KL
 10
22524.36160110894
 20
1733.092173181831
 30
0.0
 11
22624.36160110894
 21
1733.0921731818089
 31
0.0
  0
LINE
  5
23B8
  8
FUTO
 10
22601.861601108922
 20
1620.4906221818151
 30
0.0
 11
22517.861601108922
 21
1620.490622181833
 31
0.0
  0
LINE
  5
23B9
  8
FUTO
 10
22337.86160110894
 20
1687.592173181871
 30
0.0
 11
22337.861601108962
 21
1777.592173181871
 31
0.0
  0
ARC
  5
23BA
  8
FUTO
 10
22519.861601108969
 20
1815.592173181833
 30
0.0
 40
2.0
 50
90.0
 51
180.0
  0
LINE
  5
23BB
  8
FUTO
 10
22524.361601108962
 20
1817.592173181831
 30
0.0
 11
22519.861601108969
 21
1817.592173181833
 31
0.0
  0
LINE
  5
23BC
  8
FUTO
 10
22477.861601108962
 20
1772.5921731818421
 30
0.0
 11
22477.861601108962
 21
1777.5921731818421
 31
0.0
  0
LINE
  5
23BD
  8
FUTO
 10
22507.861601108962
 20
1780.0921731818351
 30
0.0
 11
22517.861601108962
 21
1780.092173181833
 31
0.0
  0
LINE
  5
23BE
  8
FUTO
 10
22507.861601108929
 20
1680.0921731818351
 30
0.0
 11
22517.861601108929
 21
1680.092173181833
 31
0.0
  0
ARC
  5
23BF
  8
FUTO
 10
22519.861601108929
 20
1644.592173181833
 30
0.0
 40
2.0
 50
180.0
 51
270.0
  0
LINE
  5
23C0
  8
FUTO
 10
22524.709976108919
 20
1642.592173181831
 30
0.0
 11
22519.861601108929
 21
1642.592173181833
 31
0.0
  0
LINE
  5
23C1
  8
KL
 10
22522.861601108922
 20
1627.561690181831
 30
0.0
 11
22517.861601108929
 21
1627.561690181833
 31
0.0
  0
LINE
  5
23C3
  8
FUTO
 10
22517.861601108929
 20
1644.592173181833
 30
0.0
 11
22517.861601108969
 21
1815.592173181833
 31
0.0
  0
LINE
  5
23C4
  8
FUTO
 10
22507.861601108929
 20
1680.0921731818351
 30
0.0
 11
22507.861601108962
 21
1780.0921731818351
 31
0.0
  0
LINE
  5
23C6
  8
FUTO
 10
22337.861601108962
 20
1777.592173181871
 30
0.0
 11
22477.861601108962
 21
1777.5921731818421
 31
0.0
  0
LINE
  5
23C7
  8
FUTO
 10
22507.861601108962
 20
1772.5921731818351
 30
0.0
 11
22337.861601108962
 21
1772.592173181871
 31
0.0
  0
LINE
  5
23C8
  8
FUTO
 10
22337.86160110894
 20
1687.592173181871
 30
0.0
 11
22507.86160110894
 21
1687.5921731818351
 31
0.0
  0
ARC
  5
23CD
  8
FUTO
 10
23052.861601108911
 20
1579.564210181718
 30
0.0
 40
5.0
 50
90.0
 51
180.0
  0
LINE
  5
23CE
  8
FUTO
 10
22524.361601109009
 20
2017.592173181831
 30
0.0
 11
22624.361601109009
 21
2017.59217318181
 31
0.0
  0
LINE
  5
23CF
  8
FUTO
 10
22836.86160110902
 20
2065.0921731817639
 30
0.0
 11
22606.86160110902
 21
2065.092173181813
 31
0.0
  0
LINE
  5
23D0
  8
CT
 10
22628.380560109032
 20
2155.0921731818098
 30
0.0
 11
22808.303928109031
 21
2155.0921731817712
 31
0.0
  0
LINE
  5
23D1
  8
FUTO
 10
22836.861601109009
 20
2035.0921731817641
 30
0.0
 11
22606.861601109009
 21
2035.092173181813
 31
0.0
  0
LINE
  5
23D2
  8
FUTO
 10
22907.361601109009
 20
2015.906250181748
 30
0.0
 11
22651.861601109009
 21
2015.906250181803
 31
0.0
  0
LINE
  5
23D3
  8
FUTO
 10
22641.861601109009
 20
2025.0921731818059
 30
0.0
 11
22801.861601109009
 21
2025.0921731817709
 31
0.0
  0
LINE
  5
23D4
  8
FUTO
 10
22595.261625109011
 20
2066.0341061818172
 30
0.0
 11
22576.86160110902
 21
2066.0341061818199
 31
0.0
  0
ARC
  5
23D5
  8
FUTO
 10
22606.861479109011
 20
2076.6920611818118
 30
0.0
 40
11.599888
 50
179.99945399997631
 51
270.0006100000092
  0
LINE
  5
23D6
  8
FUTO
 10
22637.004693109011
 20
2006.320778181808
 30
0.0
 11
22641.861601109009
 21
2014.7331891818051
 31
0.0
  0
LINE
  5
23D7
  8
FUTO
 10
22651.861601109009
 20
2015.906250181803
 30
0.0
 11
22624.361601109009
 21
1998.1636301818089
 31
0.0
  0
LINE
  5
23D8
  8
FUTO
 10
22640.634173109
 20
2012.6072211818071
 30
0.0
 11
22624.361601109009
 21
2001.7588401818091
 31
0.0
  0
LINE
  5
23D9
  8
FUTO
 10
22641.861601109009
 20
2014.7331891818051
 30
0.0
 11
22641.861601109009
 21
2035.0921731818059
 31
0.0
  0
ARC
  5
23DA
  8
FUTO
 10
22606.86160110902
 20
2046.692122181812
 30
0.0
 40
11.599949000000001
 50
179.9997550000013
 51
270.0
  0
LINE
  5
23DB
  8
FUTO
 10
22801.861601109009
 20
2035.0921731817709
 30
0.0
 11
22801.861601109009
 21
2015.9062501817709
 31
0.0
  0
ARC
  5
23DC
  8
FUTO
 10
22836.861632109019
 20
2076.6921491817629
 30
0.0
 40
11.599976
 50
269.99984700005228
 51
0.0001069999742915
  0
LINE
  5
23DD
  8
FUTO
 10
22848.461607109009
 20
2066.0341061817621
 30
0.0
 11
22866.86160110902
 21
2066.0341061817589
 31
0.0
  0
ARC
  5
23DE
  8
FUTO
 10
22836.86160110902
 20
2046.692170181763
 30
0.0
 40
11.600006
 50
270.0
 51
0.0000150000275647
  0
LINE
  5
23DF
  8
KL
 10
22851.861601109009
 20
2020.0921731817621
 30
0.0
 11
22847.675678109001
 21
2015.9062501817609
 31
0.0
  0
LINE
  5
23E0
  8
FUTO
 10
22576.86160110906
 20
2250.7574261818199
 30
0.0
 11
22866.86160110906
 21
2250.7574261817581
 31
0.0
  0
LINE
  5
23E1
  8
FUTO
 10
22595.261625109051
 20
2241.5635321818158
 30
0.0
 11
22848.46160710905
 21
2241.5635321817608
 31
0.0
  0
LINE
  5
23E2
  8
FUTO
 10
22836.861601109071
 20
2283.1503241817632
 30
0.0
 11
22606.861601109071
 21
2283.1503241818118
 31
0.0
  0
ARC
  5
23E3
  8
FUTO
 10
22606.86160110906
 20
2271.5503791818128
 30
0.0
 40
11.599976
 50
90.0
 51
180.0003050000046
  0
LINE
  5
23E4
  8
FUTO
 10
22595.261625109051
 20
2250.7574261818158
 30
0.0
 11
22595.261625109059
 21
2271.5503181818149
 31
0.0
  0
ARC
  5
23E5
  8
FUTO
 10
22836.86160110906
 20
2271.550334181763
 30
0.0
 40
11.599990999999999
 50
359.99992399997137
 51
90.0
  0
LINE
  5
23E6
  8
FUTO
 10
22848.46160710906
 20
2271.5503181817612
 30
0.0
 11
22848.46160710905
 21
2250.7574261817608
 31
0.0
  0
LINE
  5
23E8
  8
FUTO
 10
23172.861601109009
 20
2017.5921731816929
 30
0.0
 11
23367.861601109009
 21
2017.5921731816491
 31
0.0
  0
LINE
  5
23E9
  8
FUTO
 10
23367.861601109009
 20
2017.5921731816491
 30
0.0
 11
23427.861601108991
 21
1960.092173181637
 31
0.0
  0
LINE
  5
23EA
  8
FUTO
 10
23162.861601109009
 20
2020.092173181695
 30
0.0
 11
23172.861601109009
 21
2013.425507181692
 31
0.0
  0
LINE
  5
23EB
  8
FUTO
 10
23162.861601109009
 20
2015.9062501816941
 30
0.0
 11
23172.861601109009
 21
2009.4543881816901
 31
0.0
  0
LINE
  5
2519
  8
SL
 10
21441.321991538069
 20
6368.8812584720381
 30
0.0
 11
21441.321991538069
 21
7056.2601920105153
 31
0.0
  0
LINE
  5
251A
  8
FUTO
 10
21541.321991538069
 20
7835.8812584720381
 30
0.0
 11
21541.321991538069
 21
7910.8812584720381
 31
0.0
  0
LINE
  5
251B
  8
FUTO
 10
21366.321991538069
 20
7272.6812584719692
 30
0.0
 11
21366.321991538069
 21
7835.8812584720381
 31
0.0
  0
LINE
  5
251C
  8
FUTO
 10
21441.321991538069
 20
7056.2601920105153
 30
0.0
 11
21441.321991538069
 21
7835.8812584720381
 31
0.0
  0
LINE
  5
251D
  8
SL
 10
20916.321991538069
 20
6368.8812584720372
 30
0.0
 11
20916.321991538061
 21
7272.6812584719692
 31
0.0
  0
LINE
  5
251E
  8
SL
 10
20841.321991538069
 20
6368.8812584720363
 30
0.0
 11
20841.321991538069
 21
7056.2601920105144
 31
0.0
  0
LINE
  5
251F
  8
FUTO
 10
20841.321991538069
 20
7056.2601920105144
 30
0.0
 11
20841.321991538069
 21
7835.8812584720381
 31
0.0
  0
LINE
  5
2520
  8
FUTO
 10
20916.321991538061
 20
7272.6812584719692
 30
0.0
 11
20916.321991538061
 21
7835.8812584720381
 31
0.0
  0
LINE
  5
2521
  8
FUTO
 10
21027.321991538069
 20
7910.8812584720381
 30
0.0
 11
21027.321991538069
 21
9418.8812584720436
 31
0.0
  0
LINE
  5
2522
  8
FUTO
 10
21077.321991538069
 20
7860.8812584720381
 30
0.0
 11
21077.321991538069
 21
9468.8812584720454
 31
0.0
  0
LINE
  5
2523
  8
FUTO
 10
18091.321991538069
 20
9468.8812584720436
 30
0.0
 11
21077.321991538069
 21
9468.8812584720436
 31
0.0
  0
LINE
  5
2524
  8
FUTO
 10
18091.321991538069
 20
7860.8812584720399
 30
0.0
 11
21077.321991538069
 21
7860.8812584720381
 31
0.0
  0
LINE
  5
2525
  8
FUTO
 10
21077.321991538069
 20
7910.8812584720381
 30
0.0
 11
21541.321991538069
 21
7910.8812584720381
 31
0.0
  0
DIMENSION
  5
253A
  8
SP
  2
*D20
 10
18016.32199153669
 20
10106.77734653484
 30
0.0
 11
18653.821991537381
 21
10196.77734653484
 31
0.0
 70
     0
 13
19291.321991538069
 23
9823.4996389060852
 33
0.0
 14
18016.32199153669
 24
9493.8812584720436
 34
0.0
 50
180.0
1001
ACAD
1000
DSTYLE
1002
{
1070
   287
1070
     3
1070
    40
1040
45.0
1070
   140
1040
3.0
1070
   147
1040
0.5
1070
   173
1070
     1
1070
   279
1070
     0
1070
   341
1005
24
1070
     6
1000
OPEN
1070
     7
1000
OPEN
1002
}
  0
DIMENSION
  5
2555
  8
SP
  2
*D21
 10
17450.318570883948
 20
8664.8812584720417
 30
0.0
 11
17360.318570883941
 21
9117.3812584720417
 31
0.0
 70
     0
 13
18216.321991538069
 23
9569.8812584720399
 33
0.0
 14
17795.415279855901
 24
8664.8812584720417
 34
0.0
 50
90.0
1001
ACAD
1000
DSTYLE
1002
{
1070
   287
1070
     3
1070
    40
1040
45.0
1070
   140
1040
3.0
1070
   147
1040
0.5
1070
   173
1070
     1
1070
   279
1070
     0
1070
   341
1005
24
1070
     6
1000
OPEN
1070
     7
1000
OPEN
1002
}
  0
DIMENSION
  5
2562
  8
SP
  2
*D22
 10
17450.318570883948
 20
6064.8812584720454
 30
0.0
 11
17360.318570883948
 21
7364.8812584720454
 31
0.0
 70
     0
 13
17795.415279855901
 23
8664.8812584720417
 33
0.0
 14
18811.321991538069
 24
6064.8812584720436
 34
0.0
 50
90.0
1001
ACAD
1000
DSTYLE
1002
{
1070
   287
1070
     3
1070
    40
1040
45.0
1070
   140
1040
3.0
1070
   147
1040
0.5
1070
   173
1070
     1
1070
   279
1070
     0
1070
   341
1005
24
1070
     6
1000
OPEN
1070
     7
1000
OPEN
1002
}
  0
LINE
  5
2599
  8
KL
 10
18892.042059555559
 20
2413.679831283016
 30
0.0
 11
18941.735187060629
 21
2540.0921731818812
 31
0.0
  0
LINE
  5
259A
  8
KL
 10
19880.96845763383
 20
1929.414086608976
 30
0.0
 11
19640.908796015508
 21
2540.0921731818812
 31
0.0
  0
LINE
  5
259B
  8
KL
 10
20432.321991538069
 20
1710.4219774375781
 30
0.0
 11
20432.321991538069
 21
2517.9914893991959
 31
0.0
  0
LINE
  5
259C
  8
KL
 10
20441.321991538069
 20
1770.8391033145281
 30
0.0
 11
20441.321991538069
 21
2512.2136494943902
 31
0.0
  0
LINE
  5
259D
  8
KL
 10
20450.321991538069
 20
1703.27255746892
 30
0.0
 11
20450.321991538069
 21
2506.4358095895841
 31
0.0
  0
LINE
  5
259E
  8
FUTO
 10
20450.321991538069
 20
2506.4358095895841
 30
0.0
 11
20450.321991538069
 21
2671.0921731818812
 31
0.0
  0
LINE
  5
259F
  8
FUTO
 10
20441.321991538069
 20
2512.2136494943902
 30
0.0
 11
20441.321991538069
 21
2671.0921731818812
 31
0.0
  0
LINE
  5
25A0
  8
FUTO
 10
20432.321991538069
 20
2517.9914893991959
 30
0.0
 11
20432.321991538069
 21
2671.0921731818812
 31
0.0
  0
LINE
  5
25A1
  8
FUTO
 10
20165.80263838618
 20
2689.0921731818812
 30
0.0
 11
21086.554984776591
 21
2689.0921731818812
 31
0.0
  0
LINE
  5
25A2
  8
FUTO
 10
20179.821718411669
 20
2680.0921731818812
 30
0.0
 11
21086.554984776591
 21
2680.0921731818812
 31
0.0
  0
LINE
  5
25A3
  8
FUTO
 10
20193.840798437181
 20
2671.0921731818812
 30
0.0
 11
21086.554984776591
 21
2671.0921731818812
 31
0.0
  0
LINE
  5
25A5
  8
KL
 10
18811.875540669422
 20
2657.0465499649558
 30
0.0
 11
19091.1672148691
 21
2675.7257814688091
 31
0.0
  0
LINE
  5
25A6
  8
KL
 10
18812.391931209699
 20
2648.0609803557309
 30
0.0
 11
19091.767799734582
 21
2666.7458428376522
 31
0.0
  0
LINE
  5
25A7
  8
KL
 10
18813.076710400401
 20
2639.0866727026419
 30
0.0
 11
19092.368384600079
 21
2657.7659042064952
 31
0.0
  0
INSERT
  5
2632
  8
FUTO
  2
まっすぐの矢印
 10
17643.197322358959
 20
8339.4222415184759
 30
0.0
 41
-40.0
 42
40.0
 43
40.0
 50
90.0
  0
DIMENSION
  5
26E9
  8
SP
  2
*D23
 10
21541.321991538069
 20
10106.77734653484
 30
0.0
 11
20416.321991538069
 21
10196.77734653484
 31
0.0
 70
     0
 13
19291.321991538069
 23
9823.4996389060852
 33
0.0
 14
21541.321991538069
 24
7910.8812584720381
 34
0.0
1001
ACAD
1000
DSTYLE
1002
{
1070
   287
1070
     3
1070
    40
1040
45.0
1070
   140
1040
3.0
1070
   147
1040
0.5
1070
   173
1070
     1
1070
   279
1070
     0
1070
   341
1005
24
1070
     6
1000
OPEN
1070
     7
1000
OPEN
1002
}
  0
LINE
  5
2D44
  8
4
 10
26164.887172517061
 20
-678.19152170545203
 30
0.0
 11
26164.887172517061
 21
-1878.191521705452
 31
0.0
  0
LINE
  5
2D45
  8
4
 10
21964.887172517061
 20
-678.19152170545203
 30
0.0
 11
21964.887172517061
 21
-1878.191521705452
 31
0.0
  0
LINE
  5
2D46
  8
4
 10
18964.887172517061
 20
-678.19152170545203
 30
0.0
 11
18964.887172517061
 21
-1878.191521705452
 31
0.0
  0
LINE
  5
2D49
  8
4
 10
18964.887172517061
 20
-1878.191521705452
 30
0.0
 11
26164.887172517061
 21
-1878.191521705452
 31
0.0
  0
LINE
  5
2D4A
  8
4
 10
18964.887172517061
 20
-1278.191521705452
 30
0.0
 11
26164.887172517061
 21
-1278.191521705452
 31
0.0
  0
TEXT
  5
2D4B
  8
4
 10
19195.899657598471
 20
-1088.9333665057741
 30
0.0
 40
300.0
  1
機器名称
  0
TEXT
  5
2D4C
  8
4
 10
19182.435808665839
 20
-1748.3205813133859
 30
0.0
 40
300.0
  1
機器型番
  0
TEXT
  5
2D4D
  8
4
 10
21993.645542723309
 20
-1145.067707563772
 30
0.0
 40
270.0
  1
ミツヤリミットロードファン
  0
TEXT
  5
2D4E
  8
4
 10
22184.814146029948
 20
-1775.234016025792
 30
0.0
 40
300.0
  1
LL#12-1
  0
TEXT
  5
2D50
  8
4
 10
16961.892732493729
 20
11525.09433549033
 30
0.0
 40
432.0
  1
遠心式片吸込片持リミットロードファン
  0
LINE
  5
2D51
  8
4
 10
16564.887172517061
 20
11138.26100388337
 30
0.0
 11
26164.887172517061
 21
11138.26100388337
 31
0.0
  0
LINE
  5
2D52
  8
4
 10
16564.887172517061
 20
12338.26100388337
 30
0.0
 11
26164.887172517061
 21
12338.26100388337
 31
0.0
  0
LINE
  5
2D53
  8
4
 10
18964.887172517061
 20
-678.19152170545203
 30
0.0
 11
26164.887172517061
 21
-678.19152170545203
 31
0.0
  0
LINE
  5
2D54
  8
4
 10
16564.887172517061
 20
12338.26100388337
 30
0.0
 11
16564.887172517061
 21
11138.26100388337
 31
0.0
  0
TEXT
  5
2D55
  8
4
 10
23878.7045280128
 20
12558.174967266399
 30
0.0
 40
336.00000000000011
  1
No.
  0
TEXT
  5
2D56
  8
4
 10
23963.95814339873
 20
9974.6095819369548
 30
0.0
 40
323.99999999999989
  1
縮尺：1/60
  0
LINE
  5
2D57
  8
4
 10
26164.887172517061
 20
12338.26100388337
 30
0.0
 11
26164.887172517061
 21
11138.26100388337
 31
0.0
  0
LINE
  5
2D58
  8
4
 10
27664.887172517061
 20
14021.808478294541
 30
0.0
 11
27664.887172517061
 21
14021.808478294541
 31
0.0
  0
LINE
  5
2D59
  8
4
 10
23708.591706676249
 20
12409.389977046951
 30
0.0
 11
23708.591706676249
 21
13041.722047593061
 31
0.0
  0
LINE
  5
2D5A
  8
4
 10
23708.591706676249
 20
13041.722047593061
 30
0.0
 11
26164.887172517061
 21
13041.722047593061
 31
0.0
  0
LINE
  5
2D5B
  8
4
 10
26164.887172517061
 20
13041.722047593061
 30
0.0
 11
26164.887172517061
 21
12409.389977046951
 31
0.0
  0
LINE
  5
2D5C
  8
4
 10
26164.887172517061
 20
12409.389977046951
 30
0.0
 11
23708.591706676249
 21
12409.389977046951
 31
0.0
  0
LINE
  5
2D5D
  8
4
 10
15064.887172517059
 20
-3678.191521705452
 30
0.0
 11
15064.887172517059
 21
14021.808478294541
 31
0.0
  0
LINE
  5
2D5E
  8
4
 10
15064.887172517059
 20
14021.808478294541
 30
0.0
 11
27664.887172517061
 21
14021.808478294541
 31
0.0
  0
LINE
  5
2D5F
  8
4
 10
27664.887172517061
 20
14021.808478294541
 30
0.0
 11
27664.887172517061
 21
-3678.191521705452
 31
0.0
  0
LINE
  5
2D60
  8
4
 10
27664.887172517061
 20
-3678.191521705452
 30
0.0
 11
15064.887172517059
 21
-3678.191521705452
 31
0.0
  0
TEXT
  5
2D61
  8
4
 10
20013.704248563859
 20
10582.37100555187
 30
0.0
 40
323.99999999999989
  1
床置防振ベット
  0
TEXT
  5
2D62
  8
4
 10
16845.597797769671
 20
10600.88014290184
 30
0.0
 40
323.99999999999989
  1
左回転左横向
  0
ENDSEC
  0
EOF
