  0
SECTION
  2
HEADER
  9
$ACADVER
  1
AC1009
  9
$INSBASE
 10
0.0
 20
0.0
 30
0.0
  9
$EXTMIN
 10
14793.45228292625
 20
-3882.7457653532729
 30
0.0
  9
$EXTMAX
 10
27393.45228292625
 20
13817.25423464672
 30
0.0
  9
$LIMMIN
 10
0.0
 20
0.0
  9
$LIMMAX
 10
297.0
 20
210.0
  9
$ORTHOMODE
 70
     0
  9
$REGENMODE
 70
     1
  9
$FILLMODE
 70
     1
  9
$QTEXTMODE
 70
     0
  9
$MIRRTEXT
 70
     0
  9
$DRAGMODE
 70
     2
  9
$LTSCALE
 40
225.0
  9
$OSMODE
 70
    37
  9
$ATTMODE
 70
     1
  9
$TEXTSIZE
 40
120.0
  9
$TRACEWID
 40
0.05
  9
$TEXTSTYLE
  7
STANDARD
  9
$CLAYER
  8
FUTO
  9
$CELTYPE
  6
BYLAYER
  9
$CECOLOR
 62
   256
  9
$DIMSCALE
 40
45.0
  9
$DIMASZ
 40
2.0
  9
$DIMEXO
 40
1.0
  9
$DIMDLI
 40
10.0
  9
$DIMRND
 40
0.0
  9
$DIMDLE
 40
0.0
  9
$DIMEXE
 40
1.0
  9
$DIMTP
 40
0.0
  9
$DIMTM
 40
0.0
  9
$DIMTXT
 40
3.0
  9
$DIMCEN
 40
0.0
  9
$DIMTSZ
 40
0.0
  9
$DIMTOL
 70
     0
  9
$DIMLIM
 70
     0
  9
$DIMTIH
 70
     0
  9
$DIMTOH
 70
     0
  9
$DIMSE1
 70
     0
  9
$DIMSE2
 70
     0
  9
$DIMTAD
 70
     1
  9
$DIMZIN
 70
     8
  9
$DIMBLK
  1

  9
$DIMASO
 70
     1
  9
$DIMSHO
 70
     1
  9
$DIMPOST
  1

  9
$DIMAPOST
  1

  9
$DIMALT
 70
     0
  9
$DIMALTD
 70
     2
  9
$DIMALTF
 40
25.399999999999999
  9
$DIMLFAC
 40
1.0
  9
$DIMTOFL
 70
     1
  9
$DIMTVP
 40
0.0
  9
$DIMTIX
 70
     0
  9
$DIMSOXD
 70
     0
  9
$DIMSAH
 70
     1
  9
$DIMBLK1
  1
OPEN
  9
$DIMBLK2
  1
OPEN
  9
$DIMSTYLE
  2
DIA1
  9
$DIMCLRD
 70
     2
  9
$DIMCLRE
 70
     2
  9
$DIMCLRT
 70
     2
  9
$DIMTFAC
 40
1.0
  9
$DIMGAP
 40
0.5
  9
$LUNITS
 70
     2
  9
$LUPREC
 70
     3
  9
$SKETCHINC
 40
0.1
  9
$FILLETRAD
 40
10.0
  9
$AUNITS
 70
     0
  9
$AUPREC
 70
     2
  9
$MENU
  1
acad
  9
$ELEVATION
 40
0.0
  9
$PELEVATION
 40
0.0
  9
$THICKNESS
 40
0.0
  9
$LIMCHECK
 70
     0
  9
$BLIPMODE
 70
     0
  9
$CHAMFERA
 40
10.0
  9
$CHAMFERB
 40
10.0
  9
$SKPOLY
 70
     0
  9
$TDCREATE
 40
2451270.426261805
  9
$TDUPDATE
 40
2454953.6369174882
  9
$TDINDWG
 40
0.8511331250000001
  9
$TDUSRTIMER
 40
0.8511331250000001
  9
$USRTIMER
 70
     1
  9
$ANGBASE
 50
0.0
  9
$ANGDIR
 70
     0
  9
$PDMODE
 70
     0
  9
$PDSIZE
 40
1.0
  9
$PLINEWID
 40
0.0
  9
$COORDS
 70
     1
  9
$SPLFRAME
 70
     0
  9
$SPLINETYPE
 70
     6
  9
$SPLINESEGS
 70
     8
  9
$ATTDIA
 70
     0
  9
$ATTREQ
 70
     1
  9
$HANDLING
 70
 10241
  9
$HANDSEED
  5
3052
  9
$SURFTAB1
 70
     6
  9
$SURFTAB2
 70
     6
  9
$SURFTYPE
 70
     6
  9
$SURFU
 70
     6
  9
$SURFV
 70
     6
  9
$UCSNAME
  2

  9
$UCSORG
 10
0.0
 20
0.0
 30
0.0
  9
$UCSXDIR
 10
1.0
 20
0.0
 30
0.0
  9
$UCSYDIR
 10
0.0
 20
1.0
 30
0.0
  9
$PUCSNAME
  2

  9
$PUCSORG
 10
0.0
 20
0.0
 30
0.0
  9
$PUCSXDIR
 10
1.0
 20
0.0
 30
0.0
  9
$PUCSYDIR
 10
0.0
 20
1.0
 30
0.0
  9
$USERI1
 70
     0
  9
$USERI2
 70
     0
  9
$USERI3
 70
     0
  9
$USERI4
 70
     0
  9
$USERI5
 70
     0
  9
$USERR1
 40
0.0
  9
$USERR2
 40
0.0
  9
$USERR3
 40
0.0
  9
$USERR4
 40
0.0
  9
$USERR5
 40
0.0
  9
$WORLDVIEW
 70
     1
  9
$SHADEDGE
 70
     3
  9
$SHADEDIF
 70
    70
  9
$TILEMODE
 70
     1
  9
$MAXACTVP
 70
    16
  9
$PLIMCHECK
 70
     0
  9
$PEXTMIN
 10
1.0000000000000000E+020
 20
1.0000000000000000E+020
 30
1.0000000000000000E+020
  9
$PEXTMAX
 10
-1.0000000000000000E+020
 20
-1.0000000000000000E+020
 30
-1.0000000000000000E+020
  9
$PLIMMIN
 10
0.0
 20
0.0
  9
$PLIMMAX
 10
12.0
 20
9.0
  9
$UNITMODE
 70
     0
  9
$VISRETAIN
 70
     0
  9
$PLINEGEN
 70
     0
  9
$PSLTSCALE
 70
     0
  0
ENDSEC
  0
SECTION
  2
TABLES
  0
TABLE
  2
VPORT
 70
     2
  0
VPORT
  2
*ACTIVE
 70
     0
 10
0.0
 20
0.0
 11
1.0
 21
1.0
 12
26586.143391434209
 22
-1792.5623541821619
 13
0.0
 23
0.0
 14
5.0
 24
5.0
 15
0.0
 25
0.0
 16
0.0
 26
0.0
 36
1.0
 17
0.0
 27
0.0
 37
0.0
 40
5276.0720538554069
 41
3.1666666666666661
 42
50.0
 43
0.0
 44
0.0
 50
0.0
 51
0.0
 71
     0
 72
   100
 73
     1
 74
     0
 75
     0
 76
     0
 77
     0
 78
     0
  0
ENDTAB
  0
TABLE
  2
LTYPE
 70
     4
  0
LTYPE
  2
CONTINUOUS
 70
     0
  3
Solid line
 72
    65
 73
     0
 40
0.0
  0
LTYPE
  2
CENTER
 70
     0
  3
____ _ ____ _ ____ _ ____ _ ____ _ ____ _ ____ 
 72
    65
 73
     4
 40
2.0
 49
1.25
 49
-0.25
 49
0.25
 49
-0.25
  0
LTYPE
  2
HIDDEN
 70
     0
  3
__ __ __ __ __ __ __ __ __ __ __ __ __ __ __ __
 72
    65
 73
     2
 40
0.375
 49
0.25
 49
-0.125
  0
LTYPE
  2
PHANTOM
 70
     0
  3
______  __  __  ______  __  __  ______  __  __ 
 72
    65
 73
     6
 40
2.5
 49
1.25
 49
-0.25
 49
0.25
 49
-0.25
 49
0.25
 49
-0.25
  0
ENDTAB
  0
TABLE
  2
LAYER
 70
     9
  0
LAYER
  2
0
 70
     0
 62
     7
  6
CONTINUOUS
  0
LAYER
  2
CT
 70
     0
 62
     3
  6
CENTER
  0
LAYER
  2
FUTO
 70
     0
 62
     4
  6
CONTINUOUS
  0
LAYER
  2
HOSO
 70
     0
 62
     7
  6
CONTINUOUS
  0
LAYER
  2
KL
 70
     0
 62
     7
  6
HIDDEN
  0
LAYER
  2
SL
 70
     0
 62
     1
  6
PHANTOM
  0
LAYER
  2
SP
 70
     0
 62
     2
  6
CONTINUOUS
  0
LAYER
  2
DEFPOINTS
 70
     0
 62
     7
  6
CONTINUOUS
  0
LAYER
  2
4
 70
     0
 62
     7
  6
CONTINUOUS
  0
ENDTAB
  0
TABLE
  2
STYLE
 70
     1
  0
STYLE
  2
STANDARD
 70
     0
 40
0.0
 41
1.0
 50
15.0
 71
     0
 42
120.0
  3
C:\Program Files\AutoCAD LT\simplex.shx
  4
C:\Program Files\AutoCAD LT\extfont.shx
  0
ENDTAB
  0
TABLE
  2
VIEW
 70
     0
  0
ENDTAB
  0
TABLE
  2
UCS
 70
     0
  0
ENDTAB
  0
TABLE
  2
APPID
 70
     2
  0
APPID
  2
ACAD
 70
     0
  0
APPID
  2
CONTENTBLOCKICON
 70
     0
  0
ENDTAB
  0
TABLE
  2
DIMSTYLE
 70
     2
  0
DIMSTYLE
  2
DIA1
 70
     0
  3

  4

  5

  6

  7

 40
1.0
 41
2.0
 42
1.0
 43
10.0
 44
1.0
 45
0.0
 46
0.0
 47
0.0
 48
0.0
140
2.5
141
0.0
142
0.0
143
25.399999999999999
144
1.0
145
0.0
146
1.0
147
0.09
 71
     0
 72
     0
 73
     0
 74
     0
 75
     0
 76
     0
 77
     1
 78
     8
170
     0
171
     2
172
     1
173
     0
174
     0
175
     0
176
     2
177
     2
178
     2
  0
DIMSTYLE
  2
STANDARD
 70
     0
  3

  4

  5

  6

  7

 40
1.0
 41
0.18
 42
0.0625
 43
0.38
 44
0.18
 45
0.0
 46
0.0
 47
0.0
 48
0.0
140
0.18
141
0.09
142
0.0
143
25.399999999999999
144
1.0
145
0.0
146
1.0
147
0.09
 71
     0
 72
     0
 73
     1
 74
     1
 75
     0
 76
     0
 77
     0
 78
     0
170
     0
171
     2
172
     0
173
     0
174
     0
175
     0
176
     0
177
     0
178
     0
  0
ENDTAB
  0
ENDSEC
  0
SECTION
  2
BLOCKS
  0
BLOCK
  8
0
  2
$MODEL_SPACE
 70
     0
 10
0.0
 20
0.0
 30
0.0
  3
$MODEL_SPACE
  1

  0
ENDBLK
  5
7
  8
0
  0
BLOCK
 67
     1
  8
0
  2
$PAPER_SPACE
 70
     0
 10
0.0
 20
0.0
 30
0.0
  3
$PAPER_SPACE
  1

  0
ENDBLK
  5
A
 67
     1
  8
0
  0
BLOCK
  8
0
  2
_OPEN
 70
     0
 10
0.0
 20
0.0
 30
0.0
  3
_OPEN
  1

  0
LINE
  5
25
  8
0
  6
BYBLOCK
 62
     0
 10
-1.0
 20
0.1666666666666666
 30
0.0
 11
0.0
 21
0.0
 31
0.0
  0
LINE
  5
26
  8
0
  6
BYBLOCK
 62
     0
 10
0.0
 20
0.0
 30
0.0
 11
-1.0
 21
-0.1666666666666666
 31
0.0
  0
LINE
  5
27
  8
0
  6
BYBLOCK
 62
     0
 10
0.0
 20
0.0
 30
0.0
 11
-1.0
 21
0.0
 31
0.0
  0
ENDBLK
  5
29
  8
0
  0
BLOCK
  8
0
  2
L-75-6
 70
     0
 10
0.0
 20
0.0
 30
0.0
  3
L-75-6
  1

  0
LINE
  5
293
  8
0
 10
114.6064614035558
 20
81.429596884474719
 30
0.0
 11
189.60646140355581
 21
81.429596884474719
 31
0.0
  0
LINE
  5
294
  8
0
 10
114.6064614035558
 20
81.429596884474719
 30
0.0
 11
114.6064614035558
 21
156.42959688447471
 31
0.0
  0
LINE
  5
295
  8
0
 10
189.60646140355581
 20
81.429596884474719
 30
0.0
 11
189.60646140355581
 21
83.429596884474705
 31
0.0
  0
LINE
  5
296
  8
0
 10
114.6064614035558
 20
156.42959688447471
 30
0.0
 11
116.6064614035558
 21
156.42959688447471
 31
0.0
  0
LINE
  5
297
  8
0
 10
120.6064614035558
 20
95.929596884474705
 30
0.0
 11
120.6064614035558
 21
152.42959688447471
 31
0.0
  0
LINE
  5
298
  8
0
 10
129.10646140355581
 20
87.429596884474719
 30
0.0
 11
185.60646140355581
 21
87.429596884474719
 31
0.0
  0
ARC
  5
299
  8
0
 10
185.60646140355581
 20
83.429596884474705
 30
0.0
 40
4.0
 50
0.0
 51
90.0
  0
ARC
  5
29A
  8
0
 10
116.6064614035558
 20
152.42959688447471
 30
0.0
 40
4.0
 50
0.0
 51
90.0
  0
ARC
  5
29B
  8
0
 10
129.10646140355581
 20
95.929596884474705
 30
0.0
 40
8.5
 50
180.0
 51
270.0
  0
ENDBLK
  5
29D
  8
0
  0
BLOCK
  8
0
  2
22222F
 70
     0
 10
0.0
 20
0.0
 30
0.0
  3
22222F
  1

  0
ARC
  5
228
  8
FUTO
 10
-0.0000000000000568
 20
0.0
 30
0.0
 40
130.0
 50
124.6637959032814
 51
175.3362040967184
  0
ARC
  5
229
  8
FUTO
 10
-0.0000000000000568
 20
0.0
 30
0.0
 40
130.0
 50
4.6637959032815717
 51
55.336204096718511
  0
ARC
  5
22A
  8
FUTO
 10
-0.0000000000000568
 20
0.0
 30
0.0
 40
115.0
 50
8.9772148936872895
 51
51.022785106312661
  0
ARC
  5
22B
  8
FUTO
 10
-0.0000000000000568
 20
0.0
 30
0.0
 40
115.0
 50
128.9772148936872
 51
171.02278510631271
  0
ARC
  5
22C
  8
FUTO
 10
-57.499999999999829
 20
99.592921435210386
 30
0.0
 40
18.0
 50
25.51139255315622
 51
214.4886074468437
  0
ARC
  5
22D
  8
FUTO
 10
57.5
 20
99.592921435210243
 30
0.0
 40
18.0
 50
325.51139255315621
 51
154.4886074468437
  0
LINE
  5
22E
  8
FUTO
 10
-110.0
 20
-127.0
 30
0.0
 11
-0.0000000000000568
 21
-127.0
 31
0.0
  0
ARC
  5
22F
  8
FUTO
 10
-0.0000000000000568
 20
0.0
 30
0.0
 40
115.0
 50
248.9772148936872
 51
291.0227851063126
  0
CIRCLE
  5
230
  8
FUTO
 10
-0.0000000000000568
 20
0.0
 30
0.0
 40
54.0
  0
LINE
  5
231
  8
CT
 10
-190.0
 20
-140.0
 30
0.0
 11
-190.0
 21
-70.0
 31
0.0
  0
LINE
  5
232
  8
FUTO
 10
-225.0
 20
-130.0
 30
0.0
 11
-110.0
 21
-130.0
 31
0.0
  0
LINE
  5
233
  8
FUTO
 10
-125.0000000000001
 20
-80.0
 30
0.0
 11
-222.0
 21
-80.0
 31
0.0
  0
ARC
  5
234
  8
FUTO
 10
-222.0
 20
-83.0
 30
0.0
 40
3.0
 50
90.0
 51
180.0
  0
LINE
  5
235
  8
FUTO
 10
-225.0
 20
-83.0
 30
0.0
 11
-225.0
 21
-130.0
 31
0.0
  0
LINE
  5
236
  8
FUTO
 10
-129.99999999999929
 20
-9.9498743710669828
 30
0.0
 11
-130.0
 21
-60.0
 31
0.0
  0
ARC
  5
237
  8
FUTO
 10
-0.0000000000000568
 20
0.0
 30
0.0
 40
115.0
 50
188.9772148936872
 51
231.02278510631271
  0
LINE
  5
238
  8
FUTO
 10
-125.0000000000001
 20
-80.0
 30
0.0
 11
-110.0000000000001
 21
-95.0
 31
0.0
  0
ARC
  5
239
  8
FUTO
 10
-150.0
 20
-60.0
 30
0.0
 40
20.0
 50
270.0
 51
0.0
  0
LINE
  5
23A
  8
FUTO
 10
-110.0
 20
-130.0
 30
0.0
 11
-110.0000000000001
 21
-95.0
 31
0.0
  0
ARC
  5
23B
  8
FUTO
 10
-57.500000000000057
 20
-99.592921435210542
 30
0.0
 40
18.0
 50
145.51139255315621
 51
334.48860744684367
  0
ARC
  5
23C
  8
FUTO
 10
-115.0
 20
0.0
 30
0.0
 40
18.0
 50
85.511392553156256
 51
274.48860744684367
  0
LINE
  5
23D
  8
CT
 10
190.0
 20
-140.0
 30
0.0
 11
190.0
 21
-70.0
 31
0.0
  0
ARC
  5
23E
  8
FUTO
 10
150.0
 20
-60.0
 30
0.0
 40
20.0
 50
180.0
 51
270.0
  0
LINE
  5
23F
  8
FUTO
 10
222.0000000000004
 20
-80.0
 30
0.0
 11
124.9999999999997
 21
-80.0
 31
0.0
  0
LINE
  5
240
  8
FUTO
 10
110.0
 20
-130.0
 30
0.0
 11
225.0
 21
-130.0
 31
0.0
  0
LINE
  5
241
  8
FUTO
 10
130.0
 20
-60.0
 30
0.0
 11
130.0
 21
-9.9498743710661302
 31
0.0
  0
ARC
  5
242
  8
FUTO
 10
-0.0000000000000568
 20
0.0
 30
0.0
 40
115.0
 50
308.97721489368718
 51
351.02278510631271
  0
LINE
  5
243
  8
FUTO
 10
-0.0000000000000568
 20
-127.0
 30
0.0
 11
110.0
 21
-127.0
 31
0.0
  0
ARC
  5
244
  8
FUTO
 10
57.5
 20
-99.592921435210542
 30
0.0
 40
18.0
 50
205.51139255315621
 51
34.488607446843737
  0
LINE
  5
245
  8
FUTO
 10
109.9999999999997
 20
-95.0
 30
0.0
 11
124.9999999999997
 21
-80.0
 31
0.0
  0
LINE
  5
246
  8
FUTO
 10
109.9999999999997
 20
-95.0
 30
0.0
 11
110.0
 21
-130.0
 31
0.0
  0
ARC
  5
247
  8
FUTO
 10
115.0
 20
0.0
 30
0.0
 40
18.0
 50
265.51139255315621
 51
94.488607446843773
  0
ARC
  5
248
  8
FUTO
 10
222.0000000000004
 20
-83.0
 30
0.0
 40
3.0
 50
0.0
 51
90.0
  0
LINE
  5
249
  8
FUTO
 10
225.0
 20
-130.0
 30
0.0
 11
225.0000000000004
 21
-83.0
 31
0.0
  0
LINE
  5
24A
  8
FUTO
 10
19.227247756821669
 20
132.99999999999989
 30
0.0
 11
-19.227247756821779
 21
132.99999999999989
 31
0.0
  0
ARC
  5
24B
  8
FUTO
 10
-0.0000000000000568
 20
0.0
 30
0.0
 40
115.0
 50
68.977214893687218
 51
111.0227851063126
  0
ARC
  5
24C
  8
FUTO
 10
-0.0000000000000568
 20
0.0
 30
0.0
 40
130.0
 50
98.505358450480756
 51
115.3362040967184
  0
LINE
  5
24D
  8
FUTO
 10
-19.227247756821779
 20
113.3812724558063
 30
0.0
 11
-19.227247756821779
 21
132.99999999999989
 31
0.0
  0
ARC
  5
24E
  8
FUTO
 10
-0.0000000000000568
 20
0.0
 30
0.0
 40
130.0
 50
64.663795903281382
 51
81.494641549519287
  0
LINE
  5
24F
  8
FUTO
 10
19.227247756821669
 20
113.3812724558063
 30
0.0
 11
19.227247756821669
 21
132.99999999999989
 31
0.0
  0
ENDBLK
  5
251
  8
0
  0
BLOCK
  8
0
  2
まっすぐの矢印
 70
     0
 10
0.0
 20
0.0
 30
0.0
  3
まっすぐの矢印
  1

  0
LINE
  5
2CF
  8
SP
 10
0.6962157491662495
 20
-2.216890595009601
 30
0.0
 11
0.6962157491662495
 21
-5.0
 31
0.0
  0
LINE
  5
2D0
  8
SP
 10
0.6962157491662495
 20
-5.0
 30
0.0
 11
-0.6962157491662495
 21
-5.0
 31
0.0
  0
LINE
  5
2D1
  8
SP
 10
-0.6962157491662495
 20
-5.0
 30
0.0
 11
-0.6962157491662495
 21
-2.216890595009601
 31
0.0
  0
LINE
  5
2D2
  8
SP
 10
-0.6962157491662495
 20
-2.216890595009601
 30
0.0
 11
-1.7145256852758151
 21
-2.216890595009601
 31
0.0
  0
LINE
  5
2D3
  8
SP
 10
-1.7145256852758151
 20
-2.216890595009601
 30
0.0
 11
0.0
 21
0.0
 31
0.0
  0
LINE
  5
2D4
  8
SP
 10
0.0
 20
0.0
 30
0.0
 11
1.7145256852758151
 21
-2.216890595009601
 31
0.0
  0
LINE
  5
2D5
  8
SP
 10
1.7145256852758151
 20
-2.216890595009601
 30
0.0
 11
0.6962157491662495
 21
-2.216890595009601
 31
0.0
  0
ENDBLK
  5
2D7
  8
0
  0
BLOCK
  8
0
  2
右回転矢印
 70
     0
 10
0.0
 20
0.0
 30
0.0
  3
右回転矢印
  1

  0
LINE
  5
1E3
  8
SP
 10
-2.7705290305565882
 20
1.567794835092901
 30
0.0
 11
-2.4288000558398148
 21
2.8051227455822878
 31
0.0
  0
LINE
  5
1E4
  8
SP
 10
-2.4288000558398148
 20
2.8051227455822878
 30
0.0
 11
0.0
 21
0.0
 31
0.0
  0
LINE
  5
1E5
  8
SP
 10
0.0
 20
0.0
 30
0.0
 11
-3.3160037613098718
 21
-0.4072531086382499
 31
0.0
  0
LINE
  5
1E6
  8
SP
 10
-3.3160037613098718
 20
-0.4072531086382499
 30
0.0
 11
-3.0391574735299112
 21
0.5951483970269315
 31
0.0
  0
ARC
  5
1E7
  8
SP
 10
-5.9215210782018062
 20
-9.8412769578768184
 30
0.0
 40
10.82714154973578
 50
74.560750721316467
 51
112.11861101078711
  0
LINE
  5
1E8
  8
SP
 10
-9.9982127316752951
 20
0.1890560027239694
 30
0.0
 11
-10.37814929817227
 21
1.1238557349100611
 31
0.0
  0
ARC
  5
1E9
  8
SP
 10
-5.9215210782018062
 20
-9.8412769578768291
 30
0.0
 40
11.83620167374065
 50
74.560750721316396
 51
112.11861101078701
  0
ENDBLK
  5
1EB
  8
0
  0
BLOCK
  8
0
  2
*D5
 70
     1
 10
0.0
 20
0.0
 30
0.0
  3
*D5
  1

  0
LINE
  5
2F57
  8
SP
 62
     2
 10
17069.051608319209
 20
1101.1725159201631
 30
0.0
 11
17069.051608319209
 21
433.55178890627752
 31
0.0
  0
LINE
  5
2F58
  8
SP
 62
     2
 10
19319.051608319209
 20
1101.1725159201631
 30
0.0
 11
19319.051608319209
 21
433.55178890627752
 31
0.0
  0
LINE
  5
2F59
  8
SP
 62
     2
 10
17159.051608319209
 20
478.55178890627752
 30
0.0
 11
19229.051608319209
 21
478.55178890627752
 31
0.0
  0
INSERT
  5
2F5A
  8
SP
 62
     2
  2
_OPEN
 10
17069.051608319209
 20
478.55178890627752
 30
0.0
 41
90.0
 42
90.0
 43
90.0
 50
180.0
  0
INSERT
  5
2F5B
  8
SP
 62
     2
  2
_OPEN
 10
19319.051608319209
 20
478.55178890627752
 30
0.0
 41
90.0
 42
90.0
 43
90.0
  0
TEXT
  5
2F5C
  8
FUTO
 62
     2
 10
17944.767241732789
 20
501.05178890627752
 30
0.0
 40
135.0
  1
2250
 51
15.0
  0
POINT
  5
2F5D
  8
DEFPOINTS
 62
     0
 10
17069.051608319209
 20
1146.1725159201631
 30
0.0
  0
POINT
  5
2F5E
  8
DEFPOINTS
 62
     0
 10
19319.051608319209
 20
1146.1725159201631
 30
0.0
  0
POINT
  5
2F5F
  8
DEFPOINTS
 62
     0
 10
19319.051608319209
 20
478.55178890627752
 30
0.0
  0
ENDBLK
  5
A67
  8
0
  0
BLOCK
  8
0
  2
*D6
 70
     1
 10
0.0
 20
0.0
 30
0.0
  3
*D6
  1

  0
LINE
  5
2F45
  8
SP
 62
     2
 10
19319.051608319209
 20
1101.1725159201631
 30
0.0
 11
19319.051608319209
 21
433.55178890627752
 31
0.0
  0
LINE
  5
2F46
  8
SP
 62
     2
 10
20469.051608319209
 20
1101.1725159201631
 30
0.0
 11
20469.051608319209
 21
433.55178890627752
 31
0.0
  0
LINE
  5
2F47
  8
SP
 62
     2
 10
19409.051608319209
 20
478.55178890627752
 30
0.0
 11
20379.051608319209
 21
478.55178890627752
 31
0.0
  0
INSERT
  5
2F48
  8
SP
 62
     2
  2
_OPEN
 10
19319.051608319209
 20
478.55178890627752
 30
0.0
 41
90.0
 42
90.0
 43
90.0
 50
180.0
  0
INSERT
  5
2F49
  8
SP
 62
     2
  2
_OPEN
 10
20469.051608319209
 20
478.55178890627752
 30
0.0
 41
90.0
 42
90.0
 43
90.0
  0
TEXT
  5
2F4A
  8
FUTO
 62
     2
 10
19655.840018003521
 20
501.05178890627752
 30
0.0
 40
135.0
  1
1150
 51
15.0
  0
POINT
  5
2F4B
  8
DEFPOINTS
 62
     0
 10
19319.051608319209
 20
1146.1725159201631
 30
0.0
  0
POINT
  5
2F4C
  8
DEFPOINTS
 62
     0
 10
20469.051608319209
 20
1146.1725159201631
 30
0.0
  0
POINT
  5
2F4D
  8
DEFPOINTS
 62
     0
 10
20469.051608319209
 20
478.55178890627752
 30
0.0
  0
ENDBLK
  5
A74
  8
0
  0
BLOCK
  8
0
  2
*D7
 70
     1
 10
0.0
 20
0.0
 30
0.0
  3
*D7
  1

  0
LINE
  5
2FC9
  8
SP
 10
20469.051608319209
 20
1101.1725159201631
 30
0.0
 11
20469.051608319209
 21
138.2188920060743
 31
0.0
  0
LINE
  5
2FCA
  8
SP
 10
17069.051608319209
 20
1101.1725159201631
 30
0.0
 11
17069.051608319209
 21
138.2188920060743
 31
0.0
  0
LINE
  5
2FCB
  8
SP
 10
20379.051608319209
 20
183.21889200607441
 30
0.0
 11
17159.051608319209
 21
183.21889200607441
 31
0.0
  0
INSERT
  5
2FCC
  8
SP
  2
_OPEN
 10
20469.051608319209
 20
183.21889200607441
 30
0.0
 41
90.0
 42
90.0
 43
90.0
  0
INSERT
  5
2FCD
  8
SP
  2
_OPEN
 10
17069.051608319209
 20
183.21889200607441
 30
0.0
 41
90.0
 42
90.0
 43
90.0
 50
180.0
  0
TEXT
  8
0
  40
135
  5
3044
  72
0
  71
0
 10
18499.1
 20
34.2689
 30
0.000000
  1
3400
  0
POINT
  5
2FCF
  8
DEFPOINTS
 62
     0
 10
20469.051608319209
 20
1146.1725159201631
 30
0.0
  0
POINT
  5
2FD0
  8
DEFPOINTS
 62
     0
 10
17069.051608319209
 20
1146.1725159201631
 30
0.0
  0
POINT
  5
2FD1
  8
DEFPOINTS
 62
     0
 10
17069.051608319209
 20
183.21889200607441
 30
0.0
  0
ENDBLK
  5
14BE
  8
0
  0
BLOCK
  8
0
  2
*D8
 70
     1
 10
0.0
 20
0.0
 30
0.0
  3
*D8
  1

  0
LINE
  5
2FD2
  8
SP
 10
25797.791217890081
 20
3946.1725159201628
 30
0.0
 11
26291.980936269108
 21
3946.1725159201628
 31
0.0
  0
LINE
  5
2FD3
  8
SP
 10
25797.791217890081
 20
1946.1725159201631
 30
0.0
 11
26291.980936269108
 21
1946.1725159201631
 31
0.0
  0
LINE
  5
2FD4
  8
SP
 10
26246.980936269108
 20
3856.1725159201628
 30
0.0
 11
26246.980936269108
 21
2036.1725159201631
 31
0.0
  0
INSERT
  5
2FD5
  8
SP
  2
_OPEN
 10
26246.980936269108
 20
3946.1725159201628
 30
0.0
 41
90.0
 42
90.0
 43
90.0
 50
90.0
  0
INSERT
  5
2FD6
  8
SP
  2
_OPEN
 10
26246.980936269108
 20
1946.1725159201631
 30
0.0
 41
90.0
 42
90.0
 43
90.0
 50
270.0
  0
TEXT
  8
0
  40
135
  5
3045
  72
0
  71
0
 10
25887.0
 20
2707.22
 30
0.000000
  1
%%C2000
  0
POINT
  5
2FD8
  8
DEFPOINTS
 62
     0
 10
25752.791217890081
 20
3946.1725159201628
 30
0.0
  0
POINT
  5
2FD9
  8
DEFPOINTS
 62
     0
 10
25752.791217890081
 20
1946.1725159201631
 30
0.0
  0
POINT
  5
2FDA
  8
DEFPOINTS
 62
     0
 10
26246.980936269108
 20
1946.1725159201631
 30
0.0
  0
ENDBLK
  5
1561
  8
0
  0
BLOCK
  8
0
  2
*D9
 70
     1
 10
0.0
 20
0.0
 30
0.0
  3
*D9
  1

  0
LINE
  5
2FDB
  8
SP
 62
     2
 10
22476.791217890081
 20
1101.1725159201631
 30
0.0
 11
22476.791217890081
 21
428.09509565191729
 31
0.0
  0
LINE
  5
2FDC
  8
SP
 62
     2
 10
24847.791217890081
 20
1101.1725159201631
 30
0.0
 11
24847.791217890081
 21
428.09509565191729
 31
0.0
  0
LINE
  5
2FDD
  8
SP
 62
     2
 10
22566.791217890081
 20
473.09509565191729
 30
0.0
 11
24757.791217890081
 21
473.09509565191729
 31
0.0
  0
INSERT
  5
2FDE
  8
SP
 62
     2
  2
_OPEN
 10
22476.791217890081
 20
473.09509565191729
 30
0.0
 41
90.0
 42
90.0
 43
90.0
 50
180.0
  0
INSERT
  5
2FDF
  8
SP
 62
     2
  2
_OPEN
 10
24847.791217890081
 20
473.09509565191729
 30
0.0
 41
90.0
 42
90.0
 43
90.0
  0
TEXT
  8
0
  40
135
  5
3046
  62
2
  72
0
  71
0
 10
23392.3
 20
324.145
 30
0.000000
  1
2371
  0
POINT
  5
2FE1
  8
DEFPOINTS
 62
     0
 10
22476.791217890081
 20
1146.1725159201631
 30
0.0
  0
POINT
  5
2FE2
  8
DEFPOINTS
 62
     0
 10
24847.791217890081
 20
1146.1725159201631
 30
0.0
  0
POINT
  5
2FE3
  8
DEFPOINTS
 62
     0
 10
24847.791217890081
 20
473.09509565191729
 30
0.0
  0
ENDBLK
  5
1B15
  8
0
  0
BLOCK
  8
0
  2
*D10
 70
     1
 10
0.0
 20
0.0
 30
0.0
  3
*D10
  1

  0
LINE
  5
2FE4
  8
SP
 62
     2
 10
25676.791217890081
 20
1101.1725159201631
 30
0.0
 11
25676.791217890081
 21
428.09509565191729
 31
0.0
  0
LINE
  5
2FE5
  8
SP
 62
     2
 10
24937.791217890092
 20
473.09509565191729
 30
0.0
 11
25586.791217890081
 21
473.09509565191729
 31
0.0
  0
INSERT
  5
2FE6
  8
SP
 62
     2
  2
_OPEN
 10
24847.791217890081
 20
473.09509565191729
 30
0.0
 41
90.0
 42
90.0
 43
90.0
 50
180.0
  0
INSERT
  5
2FE7
  8
SP
 62
     2
  2
_OPEN
 10
25676.791217890081
 20
473.09509565191729
 30
0.0
 41
90.0
 42
90.0
 43
90.0
  0
TEXT
  8
0
  40
135
  5
3047
  62
2
  72
0
  71
0
 10
24992.3
 20
324.145
 30
0.000000
  1
829
  0
POINT
  5
2FE9
  8
DEFPOINTS
 62
     0
 10
24847.791217890081
 20
1146.1725159201631
 30
0.0
  0
POINT
  5
2FEA
  8
DEFPOINTS
 62
     0
 10
25676.791217890081
 20
1146.1725159201631
 30
0.0
  0
POINT
  5
2FEB
  8
DEFPOINTS
 62
     0
 10
25676.791217890081
 20
473.09509565191729
 30
0.0
  0
ENDBLK
  5
1B21
  8
0
  0
BLOCK
  8
0
  2
*D11
 70
     1
 10
0.0
 20
0.0
 30
0.0
  3
*D11
  1

  0
LINE
  5
2FEC
  8
SP
 62
     2
 10
25676.791217890081
 20
428.09509565191729
 30
0.0
 11
25676.791217890081
 21
135.97279539902041
 31
0.0
  0
LINE
  5
2FED
  8
SP
 62
     2
 10
22476.791217890081
 20
428.09509565191729
 30
0.0
 11
22476.791217890081
 21
135.97279539902041
 31
0.0
  0
LINE
  5
2FEE
  8
SP
 62
     2
 10
25586.791217890081
 20
180.97279539902041
 30
0.0
 11
22566.791217890081
 21
180.97279539902041
 31
0.0
  0
INSERT
  5
2FEF
  8
SP
 62
     2
  2
_OPEN
 10
25676.791217890081
 20
180.97279539902041
 30
0.0
 41
90.0
 42
90.0
 43
90.0
  0
INSERT
  5
2FF0
  8
SP
 62
     2
  2
_OPEN
 10
22476.791217890081
 20
180.97279539902041
 30
0.0
 41
90.0
 42
90.0
 43
90.0
 50
180.0
  0
TEXT
  8
0
  40
135
  5
3048
  62
2
  72
0
  71
0
 10
23806.8
 20
32.0228
 30
0.000000
  1
3200
  0
POINT
  5
2FF2
  8
DEFPOINTS
 62
     0
 10
25676.791217890081
 20
473.09509565191729
 30
0.0
  0
POINT
  5
2FF3
  8
DEFPOINTS
 62
     0
 10
22476.791217890081
 20
473.09509565191729
 30
0.0
  0
POINT
  5
2FF4
  8
DEFPOINTS
 62
     0
 10
22476.791217890081
 20
180.97279539902041
 30
0.0
  0
ENDBLK
  5
1B2E
  8
0
  0
BLOCK
  8
0
  2
*D12
 70
     1
 10
0.0
 20
0.0
 30
0.0
  3
*D12
  1

  0
LINE
  5
2FF5
  8
SP
 62
     2
 10
22337.791217890092
 20
4697.3045213335481
 30
0.0
 11
24757.791217890081
 21
4697.3045213335481
 31
0.0
  0
INSERT
  5
2FF6
  8
SP
 62
     2
  2
_OPEN
 10
22247.791217890092
 20
4697.3045213335481
 30
0.0
 41
90.0
 42
90.0
 43
90.0
 50
180.0
  0
INSERT
  5
2FF7
  8
SP
 62
     2
  2
_OPEN
 10
24847.791217890081
 20
4697.3045213335481
 30
0.0
 41
90.0
 42
90.0
 43
90.0
  0
TEXT
  8
0
  40
135
  5
3049
  62
2
  72
0
  71
0
 10
23277.8
 20
4548.35
 30
0.000000
  1
2600
  0
POINT
  5
2FF9
  8
DEFPOINTS
 62
     0
 10
22247.791217890092
 20
4697.3045213335481
 30
0.0
  0
POINT
  5
2FFA
  8
DEFPOINTS
 62
     0
 10
24847.791217890081
 20
4697.3045213335481
 30
0.0
  0
POINT
  5
2FFB
  8
DEFPOINTS
 62
     0
 10
24847.791217890081
 20
4697.3045213335481
 30
0.0
  0
ENDBLK
  5
1BFE
  8
0
  0
BLOCK
  8
0
  2
*D13
 70
     1
 10
0.0
 20
0.0
 30
0.0
  3
*D13
  1

  0
LINE
  5
2FFC
  8
SP
 62
     2
 10
19319.051608319209
 20
4334.5140817493593
 30
0.0
 11
19319.051608319209
 21
4730.2783662155789
 31
0.0
  0
LINE
  5
2FFD
  8
SP
 62
     2
 10
17092.051608319209
 20
4266.172515921623
 30
0.0
 11
17092.051608319209
 21
4730.2783662155789
 31
0.0
  0
LINE
  5
2FFE
  8
SP
 62
     2
 10
19229.051608319209
 20
4685.2783662155789
 30
0.0
 11
17182.051608319209
 21
4685.2783662155789
 31
0.0
  0
INSERT
  5
2FFF
  8
SP
 62
     2
  2
_OPEN
 10
19319.051608319209
 20
4685.2783662155789
 30
0.0
 41
90.0
 42
90.0
 43
90.0
  0
INSERT
  5
3000
  8
SP
 62
     2
  2
_OPEN
 10
17092.051608319209
 20
4685.2783662155789
 30
0.0
 41
90.0
 42
90.0
 43
90.0
 50
180.0
  0
TEXT
  8
0
  40
135
  5
304A
  62
2
  72
0
  71
0
 10
17935.6
 20
4536.33
 30
0.000000
  1
2227
  0
POINT
  5
3002
  8
DEFPOINTS
 62
     0
 10
19319.051608319209
 20
4289.5140817493584
 30
0.0
  0
POINT
  5
3003
  8
DEFPOINTS
 62
     0
 10
17092.051608319209
 20
4221.1725159216221
 30
0.0
  0
POINT
  5
3004
  8
DEFPOINTS
 62
     0
 10
17092.051608319209
 20
4685.2783662155789
 30
0.0
  0
ENDBLK
  5
1C2F
  8
0
  0
BLOCK
  8
0
  2
*D14
 70
     1
 10
0.0
 20
0.0
 30
0.0
  3
*D14
  1

  0
LINE
  5
3005
  8
SP
 62
     2
 10
20439.051608319209
 20
9003.4799934350158
 30
0.0
 11
21203.318916800821
 21
9003.479993435014
 31
0.0
  0
LINE
  5
3006
  8
SP
 62
     2
 10
20859.958320001391
 20
8098.4799934350167
 30
0.0
 11
21203.318916800821
 21
8098.4799934350167
 31
0.0
  0
LINE
  5
3007
  8
SP
 62
     2
 10
21158.318916800821
 20
8913.479993435014
 30
0.0
 11
21158.318916800821
 21
8188.4799934350149
 31
0.0
  0
INSERT
  5
3008
  8
SP
 62
     2
  2
_OPEN
 10
21158.318916800821
 20
9003.479993435014
 30
0.0
 41
90.0
 42
90.0
 43
90.0
 50
90.0
  0
INSERT
  5
3009
  8
SP
 62
     2
  2
_OPEN
 10
21158.318916800821
 20
8098.4799934350167
 30
0.0
 41
90.0
 42
90.0
 43
90.0
 50
270.0
  0
TEXT
  8
0
  40
135
  5
304B
  62
2
  72
0
  71
0
 10
20798.3
 20
8295.32
 30
0.000000
  1
905
  0
POINT
  5
300B
  8
DEFPOINTS
 62
     0
 10
20394.051608319209
 20
9003.4799934350158
 30
0.0
  0
POINT
  5
300C
  8
DEFPOINTS
 62
     0
 10
20814.95832000138
 20
8098.4799934350167
 30
0.0
  0
POINT
  5
300D
  8
DEFPOINTS
 62
     0
 10
21158.318916800821
 20
8098.4799934350167
 30
0.0
  0
ENDBLK
  5
2561
  8
0
  0
BLOCK
  8
0
  2
*D15
 70
     1
 10
0.0
 20
0.0
 30
0.0
  3
*D15
  1

  0
LINE
  5
300E
  8
SP
 62
     2
 10
20859.958320001391
 20
8098.4799934350167
 30
0.0
 11
21203.31891680081
 21
8098.4799934350167
 31
0.0
  0
LINE
  5
300F
  8
SP
 62
     2
 10
19844.051608319209
 20
5498.4799934350194
 30
0.0
 11
21203.31891680081
 21
5498.4799934350194
 31
0.0
  0
LINE
  5
3010
  8
SP
 62
     2
 10
21158.31891680081
 20
8008.4799934350149
 30
0.0
 11
21158.31891680081
 21
5588.4799934350194
 31
0.0
  0
INSERT
  5
3011
  8
SP
 62
     2
  2
_OPEN
 10
21158.31891680081
 20
8098.4799934350167
 30
0.0
 41
90.0
 42
90.0
 43
90.0
 50
90.0
  0
INSERT
  5
3012
  8
SP
 62
     2
  2
_OPEN
 10
21158.31891680081
 20
5498.4799934350194
 30
0.0
 41
90.0
 42
90.0
 43
90.0
 50
270.0
  0
TEXT
  8
0
  40
135
  5
304C
  62
2
  72
0
  71
0
 10
20798.3
 20
6559.53
 30
0.000000
  1
2600
  0
POINT
  5
3014
  8
DEFPOINTS
 62
     0
 10
20814.95832000138
 20
8098.4799934350167
 30
0.0
  0
POINT
  5
3015
  8
DEFPOINTS
 62
     0
 10
19799.051608319209
 20
5498.4799934350194
 30
0.0
  0
POINT
  5
3016
  8
DEFPOINTS
 62
     0
 10
21158.31891680081
 20
5498.4799934350194
 30
0.0
  0
ENDBLK
  5
256E
  8
0
  0
BLOCK
  8
0
  2
*D16
 70
     1
 10
0.0
 20
0.0
 30
0.0
  3
*D16
  1

  0
LINE
  5
3017
  8
FUTO
 62
     2
 10
17069.051608319209
 20
7389.479993435014
 30
0.0
 11
17069.051608319209
 21
9478.4457829409203
 31
0.0
  0
LINE
  5
3018
  8
FUTO
 62
     2
 10
19319.051608319209
 20
9302.0983738690611
 30
0.0
 11
19319.051608319209
 21
9478.4457829409203
 31
0.0
  0
LINE
  5
3019
  8
FUTO
 62
     2
 10
17159.051608319209
 20
9433.4457829409184
 30
0.0
 11
19229.051608319209
 21
9433.4457829409184
 31
0.0
  0
INSERT
  5
301A
  8
FUTO
 62
     2
  2
_OPEN
 10
17069.051608319209
 20
9433.4457829409184
 30
0.0
 41
90.0
 42
90.0
 43
90.0
 50
180.0
  0
INSERT
  5
301B
  8
FUTO
 62
     2
  2
_OPEN
 10
19319.051608319209
 20
9433.4457829409184
 30
0.0
 41
90.0
 42
90.0
 43
90.0
  0
TEXT
  8
0
  40
135
  5
304D
  62
2
  72
0
  71
0
 10
17924.1
 20
9284.50
 30
0.000000
  1
2250
  0
POINT
  5
301D
  8
DEFPOINTS
 62
     0
 10
17069.051608319209
 20
7344.479993435014
 30
0.0
  0
POINT
  5
301E
  8
DEFPOINTS
 62
     0
 10
19319.051608319209
 20
9257.0983738690611
 30
0.0
  0
POINT
  5
301F
  8
DEFPOINTS
 62
     0
 10
19319.051608319209
 20
9433.4457829409184
 30
0.0
  0
ENDBLK
  5
2703
  8
0
  0
BLOCK
  8
0
  2
*D17
 70
     1
 10
0.0
 20
0.0
 30
0.0
  3
*D17
  1

  0
LINE
  5
3020
  8
FUTO
 62
     2
 10
19319.051608319209
 20
9302.0983738690611
 30
0.0
 11
19319.051608319209
 21
9478.4457829409203
 31
0.0
  0
LINE
  5
3021
  8
FUTO
 62
     2
 10
20811.051608319209
 20
8947.4799934350194
 30
0.0
 11
20811.051608319209
 21
9478.4457829409203
 31
0.0
  0
LINE
  5
3022
  8
FUTO
 62
     2
 10
19409.051608319209
 20
9433.4457829409184
 30
0.0
 11
20721.051608319209
 21
9433.4457829409184
 31
0.0
  0
INSERT
  5
3023
  8
FUTO
 62
     2
  2
_OPEN
 10
19319.051608319209
 20
9433.4457829409184
 30
0.0
 41
90.0
 42
90.0
 43
90.0
 50
180.0
  0
INSERT
  5
3024
  8
FUTO
 62
     2
  2
_OPEN
 10
20811.051608319209
 20
9433.4457829409184
 30
0.0
 41
90.0
 42
90.0
 43
90.0
  0
TEXT
  8
0
  40
135
  5
304E
  62
2
  72
0
  71
0
 10
19795.1
 20
9284.50
 30
0.000000
  1
1492
  0
POINT
  5
3026
  8
DEFPOINTS
 62
     0
 10
19319.051608319209
 20
9257.0983738690611
 30
0.0
  0
POINT
  5
3027
  8
DEFPOINTS
 62
     0
 10
20811.051608319209
 20
8902.4799934350194
 30
0.0
  0
POINT
  5
3028
  8
DEFPOINTS
 62
     0
 10
20811.051608319209
 20
9433.4457829409184
 30
0.0
  0
ENDBLK
  5
2710
  8
0
  0
BLOCK
  8
0
  2
*D18
 70
     1
 10
0.0
 20
0.0
 30
0.0
  3
*D18
  1

  0
LINE
  5
3029
  8
FUTO
 62
     2
 10
20514.051608319209
 20
1176.1725159201631
 30
0.0
 11
21103.157458614631
 21
1176.1725159201631
 31
0.0
  0
LINE
  5
302A
  8
FUTO
 62
     2
 10
20927.89518615339
 20
2946.1725159201628
 30
0.0
 11
21103.157458614631
 21
2946.1725159201628
 31
0.0
  0
LINE
  5
302B
  8
FUTO
 62
     2
 10
21058.157458614631
 20
1266.1725159201631
 30
0.0
 11
21058.157458614631
 21
2856.1725159201628
 31
0.0
  0
INSERT
  5
302C
  8
FUTO
 62
     2
  2
_OPEN
 10
21058.157458614631
 20
1176.1725159201631
 30
0.0
 41
90.0
 42
90.0
 43
90.0
 50
270.0
  0
INSERT
  5
302D
  8
FUTO
 62
     2
  2
_OPEN
 10
21058.157458614631
 20
2946.1725159201628
 30
0.0
 41
90.0
 42
90.0
 43
90.0
 50
90.0
  0
TEXT
  8
0
  40
135
  5
304F
  62
2
  72
0
  71
0
 10
20698.2
 20
1822.22
 30
0.000000
  1
1770
  0
POINT
  5
302F
  8
DEFPOINTS
 62
     0
 10
20469.051608319209
 20
1176.1725159201631
 30
0.0
  0
POINT
  5
3030
  8
DEFPOINTS
 62
     0
 10
20882.89518615339
 20
2946.1725159201628
 30
0.0
  0
POINT
  5
3031
  8
DEFPOINTS
 62
     0
 10
21058.157458614631
 20
2946.1725159201628
 30
0.0
  0
ENDBLK
  5
271D
  8
0
  0
BLOCK
  8
0
  2
*D19
 70
     1
 10
0.0
 20
0.0
 30
0.0
  3
*D19
  1

  0
LINE
  5
3032
  8
FUTO
 62
     2
 10
20927.89518615339
 20
2946.1725159201628
 30
0.0
 11
21103.157458614631
 21
2946.1725159201628
 31
0.0
  0
LINE
  5
3033
  8
FUTO
 62
     2
 10
19355.051608319209
 20
4221.1725159206189
 30
0.0
 11
21103.157458614631
 21
4221.1725159206189
 31
0.0
  0
LINE
  5
3034
  8
FUTO
 62
     2
 10
21058.157458614631
 20
3036.1725159201628
 30
0.0
 11
21058.157458614631
 21
4131.1725159206189
 31
0.0
  0
INSERT
  5
3035
  8
FUTO
 62
     2
  2
_OPEN
 10
21058.157458614631
 20
2946.1725159201628
 30
0.0
 41
90.0
 42
90.0
 43
90.0
 50
270.0
  0
INSERT
  5
3036
  8
FUTO
 62
     2
  2
_OPEN
 10
21058.157458614631
 20
4221.1725159206189
 30
0.0
 41
90.0
 42
90.0
 43
90.0
 50
90.0
  0
TEXT
  8
0
  40
135
  5
3050
  62
2
  72
0
  71
0
 10
20698.2
 20
3344.72
 30
0.000000
  1
1275
  0
POINT
  5
3038
  8
DEFPOINTS
 62
     0
 10
20882.89518615339
 20
2946.1725159201628
 30
0.0
  0
POINT
  5
3039
  8
DEFPOINTS
 62
     0
 10
19310.051608319209
 20
4221.1725159206189
 30
0.0
  0
POINT
  5
303A
  8
DEFPOINTS
 62
     0
 10
21058.157458614631
 20
4221.1725159206189
 30
0.0
  0
ENDBLK
  5
272A
  8
0
  0
BLOCK
  8
0
  2
*D20
 70
     1
 10
0.0
 20
0.0
 30
0.0
  3
*D20
  1

  0
LINE
  5
303B
  8
FUTO
 62
     2
 10
24847.791217890081
 20
4674.8642929906646
 30
0.0
 11
24847.791217890081
 21
4742.3045213335481
 31
0.0
  0
LINE
  5
303C
  8
FUTO
 62
     2
 10
25752.791217890092
 20
4066.1725159201628
 30
0.0
 11
25752.791217890092
 21
4742.3045213335481
 31
0.0
  0
LINE
  5
303D
  8
FUTO
 62
     2
 10
24937.791217890092
 20
4697.3045213335481
 30
0.0
 11
25662.791217890092
 21
4697.3045213335481
 31
0.0
  0
INSERT
  5
303E
  8
FUTO
 62
     2
  2
_OPEN
 10
24847.791217890081
 20
4697.3045213335481
 30
0.0
 41
90.0
 42
90.0
 43
90.0
 50
180.0
  0
INSERT
  5
303F
  8
FUTO
 62
     2
  2
_OPEN
 10
25752.791217890092
 20
4697.3045213335481
 30
0.0
 41
90.0
 42
90.0
 43
90.0
  0
TEXT
  8
0
  40
135
  5
3051
  62
2
  72
0
  71
0
 10
25030.3
 20
4548.35
 30
0.000000
  1
905
  0
POINT
  5
3041
  8
DEFPOINTS
 62
     0
 10
24847.791217890081
 20
4629.8642929906646
 30
0.0
  0
POINT
  5
3042
  8
DEFPOINTS
 62
     0
 10
25752.791217890092
 20
4021.1725159201628
 30
0.0
  0
POINT
  5
3043
  8
DEFPOINTS
 62
     0
 10
25752.791217890092
 20
4697.3045213335481
 30
0.0
  0
ENDBLK
  5
279C
  8
0
  0
ENDSEC
  0
SECTION
  2
ENTITIES
  0
LINE
  5
46
  8
FUTO
 10
22731.791217890081
 20
2786.1725159201628
 30
0.0
 11
23981.791217890092
 21
2786.1725159201628
 31
0.0
  0
LINE
  5
49
  8
FUTO
 10
23789.791217890081
 20
3003.6725159201628
 30
0.0
 11
22727.791217890081
 21
3003.6725159201628
 31
0.0
  0
LINE
  5
4A
  8
FUTO
 10
23789.791217890081
 20
2888.6725159201628
 30
0.0
 11
22727.791217890081
 21
2888.6725159201628
 31
0.0
  0
LINE
  5
4B
  8
FUTO
 10
22476.791217890081
 20
1356.1725159201631
 30
0.0
 11
25690.991217890089
 21
1356.1725159201631
 31
0.0
  0
LINE
  5
4C
  8
CT
 10
25875.05442988906
 20
2946.1725159201628
 30
0.0
 11
22143.013794891682
 21
2946.1725159201628
 31
0.0
  0
LINE
  5
50
  8
FUTO
 10
22551.791217890081
 20
1176.1725159201631
 30
0.0
 11
25601.791217890081
 21
1176.1725159201631
 31
0.0
  0
LINE
  5
53
  8
FUTO
 10
22551.791217890081
 20
1188.1725159201631
 30
0.0
 11
24064.936296344229
 21
1188.1725159201631
 31
0.0
  0
LINE
  5
54
  8
FUTO
 10
22551.791217890081
 20
1344.1725159201631
 30
0.0
 11
24064.936296344229
 21
1344.1725159201631
 31
0.0
  0
DIMENSION
  5
6B
  8
SP
  2
*D7
 10
17069.051608319209
 20
183.21889200607441
 30
0.0
 11
18769.051608319209
 21
273.21889200607433
 31
0.0
 70
     0
 13
20469.051608319209
 23
1146.1725159201631
 33
0.0
 14
17069.051608319209
 24
1146.1725159201631
 34
0.0
1001
ACAD
1000
DSTYLE
1002
{
1070
   287
1070
     0
1070
   287
1070
     0
1070
    40
1040
45.0
1070
   140
1040
3.0
1070
   143
1040
0.03937
1070
   147
1040
0.5
1070
   173
1070
     1
1070
   176
1070
   256
1070
   177
1070
   256
1070
   178
1070
   256
1070
   271
1070
     4
1070
   272
1070
     4
1070
   279
1070
     0
1070
   285
1070
     0
1070
   286
1070
     0
1070
   289
1070
     0
1070
     6
1000
OPEN
1070
     7
1000
OPEN
1002
}
  0
LINE
  5
78
  8
CT
 10
17207.424975955761
 20
2946.1725159201628
 30
0.0
 11
17226.018408179061
 21
2946.1725159201628
 31
0.0
  0
LINE
  5
80
  8
FUTO
 10
17793.818615080691
 20
1176.1725159201631
 30
0.0
 11
17228.284917504519
 21
1176.1725159201631
 31
0.0
  0
ARC
  5
86
  8
KL
 10
19172.051608319209
 20
2799.1725159201628
 30
0.0
 40
1589.0
 50
270.0
 51
0.0
  0
LINE
  5
89
  8
FUTO
 10
20469.051608319209
 20
1176.1725159201631
 30
0.0
 11
17069.051608319209
 21
1176.1725159201631
 31
0.0
  0
LINE
  5
8A
  8
FUTO
 10
20469.051608319209
 20
1356.1725159201631
 30
0.0
 11
17069.051608319209
 21
1356.1725159201631
 31
0.0
  0
LINE
  5
8E
  8
FUTO
 10
20469.051608319209
 20
1340.1725159201631
 30
0.0
 11
17069.051608319209
 21
1340.1725159201631
 31
0.0
  0
LINE
  5
8F
  8
FUTO
 10
20469.051608319209
 20
1192.1725159201631
 30
0.0
 11
17069.051608319209
 21
1192.1725159201631
 31
0.0
  0
ARC
  5
92
  8
KL
 10
19172.051608319209
 20
3093.1725159201628
 30
0.0
 40
1883.0
 50
185.57161837836699
 51
270.0
  0
ARC
  5
93
  8
FUTO
 10
19172.051608319209
 20
3093.1725159201628
 30
0.0
 40
1903.0
 50
185.48736012707101
 51
204.75963211347539
  0
LINE
  5
A6
  8
FUTO
 10
17069.051608319209
 20
1176.1725159201631
 30
0.0
 11
17069.051608319209
 21
1356.1725159201631
 31
0.0
  0
LINE
  5
FF
  8
FUTO
 10
22731.791217890081
 20
2806.1725159201628
 30
0.0
 11
22731.791217890081
 21
2786.1725159201628
 31
0.0
  0
LINE
  5
100
  8
FUTO
 10
22551.791217890081
 20
2806.1725159201628
 30
0.0
 11
22551.791217890081
 21
1356.1725159201631
 31
0.0
  0
LINE
  5
101
  8
SL
 10
22495.591217890091
 20
3321.1725159201628
 30
0.0
 11
22495.591217890091
 21
1551.1725159201631
 31
0.0
  0
LINE
  5
102
  8
SL
 10
22365.591217890091
 20
3321.1725159201628
 30
0.0
 11
22365.591217890091
 21
1551.1725159201631
 31
0.0
  0
LINE
  5
103
  8
FUTO
 10
22247.791217890092
 20
3426.1725159201628
 30
0.0
 11
22247.791217890092
 21
1456.1725159201631
 31
0.0
  0
LINE
  5
104
  8
FUTO
 10
20460.051608319209
 20
1356.1725159201631
 30
0.0
 11
20460.051608319209
 21
3693.6828606862459
 31
0.0
  0
LINE
  5
105
  8
FUTO
 10
20469.051608319209
 20
1176.1725159201631
 30
0.0
 11
20469.051608319209
 21
3683.0350703754962
 31
0.0
  0
ARC
  5
10A
  8
KL
 10
19441.551608319209
 20
2823.6725159201628
 30
0.0
 40
1319.5
 50
358.9360914973721
 51
90.0
  0
ARC
  5
10B
  8
FUTO
 10
19441.551608319209
 20
2823.6725159201628
 30
0.0
 40
1339.5
 50
5.2471470658387798
 51
90.0
  0
LINE
  5
10D
  8
CT
 10
19319.051608319209
 20
913.842497001011
 30
0.0
 11
19319.051608319209
 21
4365.7899140507016
 31
0.0
  0
LINE
  5
10E
  8
FUTO
 10
18160.051608319209
 20
1511.210207908523
 30
0.0
 11
18160.051608319209
 21
1765.0216503129509
 31
0.0
  0
LINE
  5
110
  8
CT
 10
17469.051608319209
 20
2382.4559931807398
 30
0.0
 11
17469.051608319209
 21
1102.1090117504259
 31
0.0
  0
LINE
  5
111
  8
FUTO
 10
18178.051608319209
 20
1356.1725159201631
 30
0.0
 11
18178.051608319209
 21
1774.868430081031
 31
0.0
  0
LINE
  5
112
  8
FUTO
 10
18169.051608319209
 20
1356.1725159201631
 30
0.0
 11
18169.051608319209
 21
1769.9450401969909
 31
0.0
  0
LINE
  5
127
  8
FUTO
 10
18169.051608319209
 20
1486.80952477404
 30
0.0
 11
18133.696269259879
 21
1451.454185714713
 31
0.0
  0
LINE
  5
128
  8
FUTO
 10
18169.051608319209
 20
1520.210207908523
 30
0.0
 11
18115.696269259879
 21
1466.854868849196
 31
0.0
  0
LINE
  5
129
  8
FUTO
 10
18169.051608319209
 20
1503.4517672000729
 30
0.0
 11
18124.696269259879
 21
1459.0964281407471
 31
0.0
  0
LINE
  5
156
  8
FUTO
 10
18115.696269259879
 20
1466.854868849196
 30
0.0
 11
18133.696269259879
 21
1451.454185714713
 31
0.0
  0
LINE
  5
157
  8
FUTO
 10
18519.051608319209
 20
1176.172515920164
 30
0.0
 11
18519.051608319209
 21
1370.3845623978741
 31
0.0
  0
LINE
  5
160
  8
FUTO
 10
20119.051608319209
 20
1176.1725159201631
 30
0.0
 11
20119.051608319209
 21
1370.384562397873
 31
0.0
  0
ARC
  5
19A
  8
FUTO
 10
22534.791217890092
 20
1199.2478855378481
 30
0.0
 40
10.0
 50
275.0
 51
0.0
  0
LINE
  5
19B
  8
FUTO
 10
22551.791217890081
 20
1356.1725159201631
 30
0.0
 11
22551.791217890081
 21
1176.1725159201631
 31
0.0
  0
LINE
  5
1A1
  8
FUTO
 10
22476.791217890081
 20
1179.095523220815
 30
0.0
 11
22476.791217890081
 21
1176.1725159201631
 31
0.0
  0
ARC
  5
1A2
  8
FUTO
 10
22482.291217890081
 20
1179.0955232208159
 30
0.0
 40
5.5
 50
95.000000000000057
 51
180.00000000000051
  0
LINE
  5
1A5
  8
FUTO
 10
22551.791217890081
 20
1176.1725159201631
 30
0.0
 11
22476.791217890081
 21
1176.1725159201631
 31
0.0
  0
LINE
  5
1A6
  8
FUTO
 10
22535.66277531756
 20
1189.28593855693
 30
0.0
 11
22481.811861304981
 21
1184.5745940603199
 31
0.0
  0
LINE
  5
1B0
  8
CT
 10
22624.187525896668
 20
1706.172515920153
 30
0.0
 11
22149.983168975421
 21
1706.172515920153
 31
0.0
  0
LINE
  5
1B1
  8
SL
 10
22495.591217890091
 20
1551.1725159201631
 30
0.0
 11
22365.591217890091
 21
1551.1725159201631
 31
0.0
  0
LINE
  5
1B2
  8
FUTO
 10
22528.540252052589
 20
1456.1725159201631
 30
0.0
 11
22247.791217890092
 21
1456.1725159201631
 31
0.0
  0
ARC
  5
1B3
  8
FUTO
 10
22534.791217890092
 20
1333.097146302478
 30
0.0
 40
10.0
 50
0.0
 51
85.000000000000014
  0
LINE
  5
1B4
  8
FUTO
 10
22476.791217890081
 20
1353.2495086195099
 30
0.0
 11
22476.791217890081
 21
1356.1725159201631
 31
0.0
  0
ARC
  5
1B5
  8
FUTO
 10
22482.291217890081
 20
1353.2495086195099
 30
0.0
 40
5.5
 50
180.0
 51
265.0
  0
LINE
  5
1B6
  8
FUTO
 10
22535.66277531756
 20
1343.059093283395
 30
0.0
 11
22481.811861304981
 21
1347.770437780006
 31
0.0
  0
LINE
  5
1B7
  8
FUTO
 10
22551.791217890081
 20
1356.1725159201631
 30
0.0
 11
22476.791217890081
 21
1356.1725159201631
 31
0.0
  0
LINE
  5
1B8
  8
FUTO
 10
22544.791217890081
 20
1333.097146302478
 30
0.0
 11
22544.791217890081
 21
1199.2478855378481
 31
0.0
  0
LINE
  5
1B9
  8
FUTO
 10
22528.540252052589
 20
1577.694231880263
 30
0.0
 11
22528.540252052589
 21
1456.1725159201631
 31
0.0
  0
LINE
  5
1C7
  8
KL
 10
17171.051608319209
 20
4221.1725159201633
 30
0.0
 11
17297.947623701079
 21
2910.3522357583702
 31
0.0
  0
LINE
  5
1C8
  8
FUTO
 10
17158.218604499161
 20
4146.1725159201633
 30
0.0
 11
17278.041393727941
 21
2908.417794670811
 31
0.0
  0
LINE
  5
1CD
  8
CT
 10
20663.635500739769
 20
2946.1725159201628
 30
0.0
 11
19119.051608319209
 21
2946.1725159201628
 31
0.0
  0
ARC
  5
1D3
  8
KL
 10
19441.551608319209
 20
3068.6725159201628
 30
0.0
 40
1074.5
 50
90.0
 51
123.15191494409029
  0
INSERT
  5
1E1
  8
FUTO
  2
右回転矢印
 10
19530.19576124828
 20
3764.434929726151
 30
0.0
 41
40.0
 42
40.0
 43
40.0
 50
0.996954535217047
  0
LINE
  5
1F0
  8
FUTO
 10
18169.051608319209
 20
2955.1725159201628
 30
0.0
 11
18169.051608319209
 21
4146.1725159201633
 31
0.0
  0
LINE
  5
1F1
  8
FUTO
 10
18178.051608319209
 20
2955.1725159201628
 30
0.0
 11
18178.051608319209
 21
4146.1725159201633
 31
0.0
  0
LINE
  5
1F3
  8
KL
 10
19119.051608319209
 20
2946.1725159201628
 30
0.0
 11
18556.076927163391
 21
2946.1725159201628
 31
0.0
  0
LINE
  5
1F4
  8
KL
 10
19119.051608319209
 20
2955.1725159201628
 30
0.0
 11
18567.19696340989
 21
2955.1725159201628
 31
0.0
  0
LINE
  5
1F5
  8
KL
 10
19119.051608319209
 20
2937.1725159201628
 30
0.0
 11
18544.956890916881
 21
2937.1725159201628
 31
0.0
  0
INSERT
  5
226
  8
FUTO
  2
22222F
 10
19319.051608319209
 20
2946.1725159201628
 30
0.0
  0
LINE
  5
259
  8
KL
 10
19319.051608319209
 20
2806.1725159201628
 30
0.0
 11
18969.464803841762
 21
2806.1725159201628
 31
0.0
  0
LINE
  5
25C
  8
KL
 10
19119.051608319209
 20
2937.1725159201628
 30
0.0
 11
19119.051608319209
 21
2955.1725159201628
 31
0.0
  0
LINE
  5
25E
  8
KL
 10
19319.051608319209
 20
2806.1725159201628
 30
0.0
 11
19668.638412796659
 21
2806.1725159201628
 31
0.0
  0
CIRCLE
  5
265
  8
KL
 10
18840.551608319209
 20
3988.7812051520382
 30
0.0
 40
24.5
  0
LINE
  5
26C
  8
SP
 10
22247.791217890092
 20
3466.1725159201628
 30
0.0
 11
22247.791217890092
 21
4737.3045213335472
 31
0.0
  0
LINE
  5
289
  8
FUTO
 10
19235.051608319209
 20
4146.1725159201633
 30
0.0
 11
17158.218604499161
 21
4146.1725159201642
 31
0.0
  0
LINE
  5
28A
  8
FUTO
 10
19235.051608319209
 20
4215.1725159201633
 30
0.0
 11
17167.051608319209
 21
4215.1725159201633
 31
0.0
  0
LINE
  5
28B
  8
FUTO
 10
19310.051608319209
 20
4221.1725159201633
 30
0.0
 11
17092.051608319209
 21
4221.1725159201633
 31
0.0
  0
LINE
  5
28E
  8
FUTO
 10
19310.051608319311
 20
4221.1725159206189
 30
0.0
 11
17092.051608319311
 21
4221.1725159216221
 31
0.0
  0
LINE
  5
28F
  8
FUTO
 10
19310.051608319311
 20
4221.1725159201087
 30
0.0
 11
17092.051608319311
 21
4221.1725159216221
 31
0.0
  0
INSERT
  5
291
  8
FUTO
  2
L-75-6
 10
19120.445146915648
 20
4302.6021128046368
 30
0.0
 41
-1.0
 50
180.0
  0
ARC
  5
29E
  8
FUTO
 10
19441.551608319209
 20
3068.6725159201628
 30
0.0
 40
1094.5
 50
92.629005839964307
 51
100.0234996675966
  0
LINE
  5
2A1
  8
CT
 10
19319.051608319209
 20
4317.4559229445013
 30
0.0
 11
19319.051608319209
 21
4185.4571863020592
 31
0.0
  0
LINE
  5
2A2
  8
FUTO
 10
19274.819668975771
 20
4181.8369640322444
 30
0.0
 11
19274.819668975731
 21
4276.5332752608656
 31
0.0
  0
ARC
  5
2A3
  8
FUTO
 10
19441.551608319209
 20
3068.6725159201628
 30
0.0
 40
1094.5
 50
90.0
 51
91.681558003073349
  0
LINE
  5
2A5
  8
KL
 10
19231.051608319209
 20
4122.3517840088916
 30
0.0
 11
19231.051608319209
 21
4221.1725159201633
 31
0.0
  0
LINE
  5
2A6
  8
FUTO
 10
19235.051608319209
 20
4146.1725159201633
 30
0.0
 11
19235.051608319209
 21
4221.1725159201633
 31
0.0
  0
LINE
  5
2A7
  8
FUTO
 10
19251.051608319209
 20
4146.4665593254877
 30
0.0
 11
19238.128826349181
 21
4146.4665593254877
 31
0.0
  0
LINE
  5
2A8
  8
FUTO
 10
22577.791217890081
 20
3061.1725159201628
 30
0.0
 11
22577.791217890081
 21
2866.1725159201628
 31
0.0
  0
LINE
  5
2A9
  8
FUTO
 10
22705.791217890081
 20
3061.1725159201628
 30
0.0
 11
22705.791217890081
 21
2866.1725159201628
 31
0.0
  0
LINE
  5
2AA
  8
CT
 10
22641.791217890092
 20
3109.6641344299928
 30
0.0
 11
22641.791217890092
 21
2795.0153621581239
 31
0.0
  0
LINE
  5
2AB
  8
FUTO
 10
22563.791217890092
 20
3061.1725159201628
 30
0.0
 11
22563.791217890092
 21
2831.1725159201628
 31
0.0
  0
LINE
  5
2AC
  8
FUTO
 10
22719.791217890092
 20
3061.1725159201628
 30
0.0
 11
22719.791217890092
 21
2831.1725159201628
 31
0.0
  0
LINE
  5
2AD
  8
FUTO
 10
22705.791217890081
 20
3061.1725159201628
 30
0.0
 11
22705.791217890081
 21
2866.1725159201628
 31
0.0
  0
LINE
  5
2AE
  8
FUTO
 10
22555.791217890092
 20
3026.1725159201628
 30
0.0
 11
22555.791217890092
 21
2866.1725159201628
 31
0.0
  0
LINE
  5
2AF
  8
FUTO
 10
22727.791217890081
 20
3026.1725159201628
 30
0.0
 11
22727.791217890081
 21
2866.1725159201628
 31
0.0
  0
LINE
  5
2B1
  8
SL
 10
22495.591217890091
 20
1831.172515920153
 30
0.0
 11
22365.591217890091
 21
1831.172515920153
 31
0.0
  0
LINE
  5
2B2
  8
SL
 10
22495.591217890091
 20
2571.1725159201628
 30
0.0
 11
22365.591217890091
 21
2571.1725159201628
 31
0.0
  0
LINE
  5
2B3
  8
FUTO
 10
22571.791217890081
 20
2816.1725159201628
 30
0.0
 11
22711.791217890081
 21
2816.1725159201628
 31
0.0
  0
LINE
  5
2B4
  8
FUTO
 10
22571.791217890081
 20
2866.1725159201628
 30
0.0
 11
22711.791217890081
 21
2866.1725159201628
 31
0.0
  0
LINE
  5
2B5
  8
FUTO
 10
22551.791217890081
 20
2806.1725159201628
 30
0.0
 11
22731.791217890092
 21
2806.1725159201628
 31
0.0
  0
LINE
  5
2B6
  8
CT
 10
22596.791217890081
 20
2892.9191733975158
 30
0.0
 11
22596.791217890081
 21
2795.0153621581239
 31
0.0
  0
LINE
  5
2B7
  8
FUTO
 10
22571.791217890081
 20
2866.1725159201628
 30
0.0
 11
22571.791217890092
 21
2806.1725159201628
 31
0.0
  0
LINE
  5
2B8
  8
FUTO
 10
22555.791217890092
 20
2866.1725159201628
 30
0.0
 11
22563.791217890092
 21
2846.1725159201628
 31
0.0
  0
LINE
  5
2B9
  8
FUTO
 10
22563.791217890092
 20
2831.1725159201628
 30
0.0
 11
22571.791217890081
 21
2831.1725159201628
 31
0.0
  0
LINE
  5
2BA
  8
FUTO
 10
22555.791217890092
 20
2998.6725159201628
 30
0.0
 11
22495.591217890091
 21
2998.6725159201628
 31
0.0
  0
LINE
  5
2BB
  8
FUTO
 10
22555.791217890092
 20
2893.6725159201628
 30
0.0
 11
22495.591217890091
 21
2893.6725159201628
 31
0.0
  0
LINE
  5
2BC
  8
CT
 10
22686.791217890081
 20
2892.9191733975158
 30
0.0
 11
22686.791217890081
 21
2795.0153621581239
 31
0.0
  0
LINE
  5
2BD
  8
FUTO
 10
22711.791217890081
 20
2866.1725159201628
 30
0.0
 11
22711.791217890081
 21
2806.1725159201628
 31
0.0
  0
LINE
  5
2BE
  8
FUTO
 10
22719.791217890092
 20
2831.1725159201628
 30
0.0
 11
22711.791217890081
 21
2831.1725159201628
 31
0.0
  0
LINE
  5
2BF
  8
FUTO
 10
22727.791217890081
 20
2866.1725159201628
 30
0.0
 11
22719.791217890092
 21
2846.1725159201628
 31
0.0
  0
LINE
  5
2C0
  8
SL
 10
22495.591217890091
 20
3321.1725159201628
 30
0.0
 11
22365.591217890091
 21
3321.1725159201628
 31
0.0
  0
LINE
  5
2C1
  8
FUTO
 10
22528.540252052589
 20
3426.1725159201628
 30
0.0
 11
22247.791217890092
 21
3426.1725159201628
 31
0.0
  0
POINT
  5
2C2
  8
DEFPOINTS
 10
22247.791217890092
 20
3426.1725159201628
 30
0.0
  0
LINE
  5
2C3
  8
FUTO
 10
22528.540252052589
 20
3426.1725159201628
 30
0.0
 11
22528.540252052589
 21
3158.8947624244452
 31
0.0
  0
LINE
  5
2C4
  8
FUTO
 10
22587.791217890081
 20
3079.1725159201628
 30
0.0
 11
22695.791217890081
 21
3079.1725159201628
 31
0.0
  0
LINE
  5
2C5
  8
FUTO
 10
22555.791217890092
 20
3026.1725159201628
 30
0.0
 11
22563.791217890092
 21
3046.1725159201628
 31
0.0
  0
LINE
  5
2C6
  8
FUTO
 10
22563.791217890092
 20
3061.1725159201628
 30
0.0
 11
22577.791217890081
 21
3061.1725159201628
 31
0.0
  0
LINE
  5
2C7
  8
FUTO
 10
22587.791217890081
 20
3079.1725159201628
 30
0.0
 11
22587.791217890081
 21
3061.1725159201628
 31
0.0
  0
LINE
  5
2C8
  8
FUTO
 10
22577.791217890081
 20
3061.1725159201628
 30
0.0
 11
22587.791217890081
 21
3061.1725159201628
 31
0.0
  0
LINE
  5
2C9
  8
FUTO
 10
22695.791217890081
 20
3079.1725159201628
 30
0.0
 11
22695.791217890081
 21
3061.1725159201628
 31
0.0
  0
LINE
  5
2CA
  8
FUTO
 10
22695.791217890081
 20
3061.1725159201628
 30
0.0
 11
22705.791217890081
 21
3061.1725159201628
 31
0.0
  0
LINE
  5
2CB
  8
FUTO
 10
22719.791217890092
 20
3061.1725159201628
 30
0.0
 11
22705.791217890081
 21
3061.1725159201628
 31
0.0
  0
LINE
  5
2CC
  8
FUTO
 10
22727.791217890081
 20
3026.1725159201628
 30
0.0
 11
22719.791217890092
 21
3046.1725159201628
 31
0.0
  0
INSERT
  5
2CD
  8
FUTO
  2
まっすぐの矢印
 10
17777.483026097529
 20
4594.2971850992726
 30
0.0
 41
40.0
 42
40.0
 43
40.0
  0
LINE
  5
2D8
  8
FUTO
 10
17127.05160831922
 20
4181.8369640322462
 30
0.0
 11
17127.05160831926
 21
4276.5332752608629
 31
0.0
  0
INSERT
  5
2D9
  8
FUTO
  2
L-75-6
 10
17281.658069722758
 20
4302.6021128046368
 30
0.0
 50
180.0
  0
LINE
  5
2DA
  8
FUTO
 10
17167.051608319311
 20
4221.1725159215857
 30
0.0
 11
17092.051608319311
 21
4221.1725159216221
 31
0.0
  0
LINE
  5
2DB
  8
FUTO
 10
17167.051608319311
 20
4221.1725159215721
 30
0.0
 11
17092.051608319311
 21
4221.1725159216221
 31
0.0
  0
LINE
  5
33E
  8
FUTO
 10
20761.051608319209
 20
7344.4799934350131
 30
0.0
 11
19310.051608319209
 21
7344.479993435014
 31
0.0
  0
LINE
  5
33F
  8
FUTO
 10
20469.051608319209
 20
7269.4799934350121
 30
0.0
 11
17069.051608319209
 21
7269.479993435014
 31
0.0
  0
LINE
  5
340
  8
FUTO
 10
20119.051608319209
 20
5727.479993435014
 30
0.0
 11
17069.051608319209
 21
5727.479993435014
 31
0.0
  0
LINE
  5
341
  8
FUTO
 10
20119.051608319209
 20
5802.4799934350149
 30
0.0
 11
17069.051608319209
 21
5802.479993435014
 31
0.0
  0
LINE
  5
35D
  8
FUTO
 10
17069.051608319209
 20
5727.479993435014
 30
0.0
 11
17069.051608319209
 21
5802.479993435014
 31
0.0
  0
LINE
  5
35E
  8
SL
 10
17244.051608319209
 20
5802.479993435014
 30
0.0
 11
17244.051608319209
 21
6706.2799934349459
 31
0.0
  0
POINT
  5
388
  8
DEFPOINTS
 10
17069.051608319209
 20
7344.479993435014
 30
0.0
  0
LINE
  5
3AB
  8
CT
 10
19319.051608319209
 20
5277.7054322042259
 30
0.0
 11
19319.051608319209
 21
9257.0983738690611
 31
0.0
  0
LINE
  5
3AE
  8
FUTO
 10
18169.051608319209
 20
7344.4799934350131
 30
0.0
 11
18169.051608319209
 21
7269.479993435014
 31
0.0
  0
LINE
  5
44F
  8
FUTO
 10
20119.051608319209
 20
5727.479993435014
 30
0.0
 11
20119.051608319209
 21
7269.479993435014
 31
0.0
  0
LINE
  5
450
  8
FUTO
 10
20044.051608319209
 20
5802.479993435014
 30
0.0
 11
20044.051608319209
 21
7269.479993435014
 31
0.0
  0
LINE
  5
452
  8
FUTO
 10
18594.051608319209
 20
5802.479993435014
 30
0.0
 11
18594.051608319209
 21
7269.479993435014
 31
0.0
  0
LINE
  5
454
  8
FUTO
 10
18519.051608319209
 20
5727.479993435014
 30
0.0
 11
18519.051608319209
 21
7269.479993435014
 31
0.0
  0
LINE
  5
546
  8
CT
 10
20814.95832000138
 20
8098.4799934350167
 30
0.0
 11
16901.666177849282
 21
8098.4799934350167
 31
0.0
  0
LINE
  5
547
  8
FUTO
 10
20761.051608319209
 20
8852.4799934350176
 30
0.0
 11
19310.051608319209
 21
8852.4799934350176
 31
0.0
  0
LINE
  5
548
  8
FUTO
 10
20469.051608319209
 20
8927.4799934350194
 30
0.0
 11
17092.051608319209
 21
8927.479993435014
 31
0.0
  0
LINE
  5
568
  8
FUTO
 10
18169.051608319209
 20
8852.4799934350194
 30
0.0
 11
18169.051608319209
 21
8927.4799934350194
 31
0.0
  0
DIMENSION
  5
5CF
  8
SP
  2
*D8
 10
26246.980936269108
 20
1946.1725159201631
 30
0.0
 11
26246.980936269108
 21
2946.1725159201628
 31
0.0
 70
   128
  1
%%C<>
 13
25752.791217890081
 23
3946.1725159201628
 33
0.0
 14
25752.791217890081
 24
1946.1725159201631
 34
0.0
 50
90.0
1001
ACAD
1000
DSTYLE
1002
{
1070
   287
1070
     0
1070
   287
1070
     0
1070
    40
1040
45.0
1070
   140
1040
3.0
1070
   143
1040
0.03937
1070
   147
1040
0.5
1070
   173
1070
     1
1070
   176
1070
   256
1070
   177
1070
   256
1070
   178
1070
   256
1070
   271
1070
     4
1070
   272
1070
     4
1070
   279
1070
     0
1070
   285
1070
     0
1070
   286
1070
     0
1070
   289
1070
     0
1070
     6
1000
OPEN
1070
     7
1000
OPEN
1002
}
  0
LINE
  5
5DE
  8
FUTO
 10
25600.991217890089
 20
1356.1725159201631
 30
0.0
 11
25600.991217890081
 21
2959.1725159201619
 31
0.0
  0
LINE
  5
5DF
  8
FUTO
 10
25597.791217890092
 20
1356.1725159201631
 30
0.0
 11
25597.791217890081
 21
2959.1725159201619
 31
0.0
  0
LINE
  5
5E0
  8
FUTO
 10
25690.991217890089
 20
1356.1725159201631
 30
0.0
 11
25690.991217890089
 21
2937.1725159201628
 31
0.0
  0
LINE
  5
5E5
  8
KL
 10
25609.99121789098
 20
1871.1725159201631
 30
0.0
 11
25609.991217891471
 21
4021.1725159201628
 31
0.0
  0
LINE
  5
5E6
  8
FUTO
 10
25752.791217890081
 20
1871.1725159201631
 30
0.0
 11
25752.791217890092
 21
4021.1725159201628
 31
0.0
  0
LINE
  5
5E7
  8
FUTO
 10
25746.791217890081
 20
1871.1725159201631
 30
0.0
 11
25746.791217890081
 21
4021.1725159201628
 31
0.0
  0
LINE
  5
5EB
  8
FUTO
 10
24094.591217890091
 20
1356.1725159201631
 30
0.0
 11
24094.591217890091
 21
2857.1725159201628
 31
0.0
  0
LINE
  5
5EC
  8
FUTO
 10
24097.791217890081
 20
1356.1725159201631
 30
0.0
 11
24097.791217890081
 21
2857.1725159201628
 31
0.0
  0
LINE
  5
5ED
  8
FUTO
 10
24004.591217890091
 20
1356.1725159201631
 30
0.0
 11
24004.59121789008
 21
2937.1725159201628
 31
0.0
  0
LINE
  5
5EE
  8
FUTO
 10
23981.791217890081
 20
1356.1725159201631
 30
0.0
 11
23981.791217890092
 21
2786.1725159201628
 31
0.0
  0
LINE
  5
5F0
  8
CT
 10
24847.791217890081
 20
939.18466291879486
 30
0.0
 11
24847.791217890081
 21
4629.8642929906646
 31
0.0
  0
LINE
  5
603
  8
KL
 10
24097.791217890081
 20
1214.1725159201631
 30
0.0
 11
25600.991217890089
 21
1214.1725159201631
 31
0.0
  0
LINE
  5
604
  8
KL
 10
24097.791217890081
 20
1194.1725159201631
 30
0.0
 11
24097.791217890081
 21
1356.1725159201631
 31
0.0
  0
LINE
  5
605
  8
KL
 10
24094.591217890091
 20
1194.1725159201631
 30
0.0
 11
24094.591217890091
 21
1356.1725159201631
 31
0.0
  0
LINE
  5
606
  8
KL
 10
24094.591217890091
 20
1194.1725159201631
 30
0.0
 11
24097.791217890081
 21
1194.1725159201631
 31
0.0
  0
ARC
  5
614
  8
FUTO
 10
25618.791217890081
 20
1199.2478855378481
 30
0.0
 40
10.0
 50
180.0
 51
265.0
  0
LINE
  5
615
  8
KL
 10
25597.791217890081
 20
1194.1725159201631
 30
0.0
 11
25597.791217890081
 21
1356.1725159201631
 31
0.0
  0
LINE
  5
616
  8
KL
 10
25600.991217890089
 20
1194.1725159201631
 30
0.0
 11
25600.991217890089
 21
1356.1725159201631
 31
0.0
  0
LINE
  5
617
  8
FUTO
 10
25601.791217890081
 20
1176.1725159201631
 30
0.0
 11
25601.791217890081
 21
1356.1725159201631
 31
0.0
  0
LINE
  5
618
  8
FUTO
 10
25601.791217890081
 20
1176.1725159201631
 30
0.0
 11
25601.791217890081
 21
1356.1725159201631
 31
0.0
  0
LINE
  5
61B
  8
FUTO
 10
25617.919660462609
 20
1189.28593855693
 30
0.0
 11
25671.770574475198
 21
1184.5745940603199
 31
0.0
  0
LINE
  5
61C
  8
FUTO
 10
25601.791217890081
 20
1176.1725159201631
 30
0.0
 11
25676.791217890081
 21
1176.1725159201631
 31
0.0
  0
LINE
  5
622
  8
KL
 10
25597.791217890081
 20
1194.1725159201631
 30
0.0
 11
25600.991217890089
 21
1194.1725159201631
 31
0.0
  0
LINE
  5
629
  8
FUTO
 10
25676.791217890081
 20
1179.0955232208159
 30
0.0
 11
25676.791217890081
 21
1176.1725159201631
 31
0.0
  0
ARC
  5
62A
  8
FUTO
 10
25671.291217890092
 20
1179.0955232208159
 30
0.0
 40
5.5
 50
0.0
 51
84.999999999999986
  0
LINE
  5
62F
  8
0
 10
25601.791217890081
 20
1356.1725159201631
 30
0.0
 11
25676.791217890081
 21
1356.1725159201631
 31
0.0
  0
LINE
  5
630
  8
FUTO
 10
25617.919660462609
 20
1343.059093283395
 30
0.0
 11
25671.770574475198
 21
1347.770437780006
 31
0.0
  0
ARC
  5
631
  8
FUTO
 10
25618.791217890081
 20
1333.097146302478
 30
0.0
 40
10.0
 50
95.0
 51
180.0
  0
LINE
  5
632
  8
FUTO
 10
25608.791217890092
 20
1199.2478855378481
 30
0.0
 11
25608.791217890092
 21
1333.097146302478
 31
0.0
  0
LINE
  5
633
  8
FUTO
 10
25676.791217890081
 20
1353.2495086195111
 30
0.0
 11
25676.791217890081
 21
1356.1725159201631
 31
0.0
  0
ARC
  5
634
  8
FUTO
 10
25671.291217890092
 20
1353.2495086195099
 30
0.0
 40
5.5
 50
275.0
 51
0.0000000000005598
  0
LINE
  5
635
  8
KL
 10
25600.991217890089
 20
1946.1725159201631
 30
0.0
 11
25752.791217890081
 21
1946.1725159201631
 31
0.0
  0
LINE
  5
636
  8
FUTO
 10
25600.991217890089
 20
1940.1725159201631
 30
0.0
 11
25690.991217890089
 21
1940.1725159201631
 31
0.0
  0
LINE
  5
637
  8
HOSO
 10
25609.991217891002
 20
1946.172515920174
 30
0.0
 11
25600.991217891002
 21
1946.1725159201751
 31
0.0
  0
LINE
  5
638
  8
HOSO
 10
25574.871474282889
 20
1906.1725159201631
 30
0.0
 11
25633.070630388109
 21
1906.1725159201631
 31
0.0
  0
LINE
  5
639
  8
KL
 10
25600.991217890089
 20
1871.1725159201631
 30
0.0
 11
25609.99121789098
 21
1871.1725159201631
 31
0.0
  0
LINE
  5
63A
  8
FUTO
 10
25690.991217890089
 20
1940.1725159201631
 30
0.0
 11
25746.791217890081
 21
1940.1725159201631
 31
0.0
  0
LINE
  5
63B
  8
HOSO
 10
25724.753028450101
 20
1906.1725159201631
 30
0.0
 11
25782.952184555332
 21
1906.1725159201631
 31
0.0
  0
LINE
  5
63C
  8
FUTO
 10
25746.791217890092
 20
1871.1725159201631
 30
0.0
 11
25752.791217890081
 21
1871.1725159201631
 31
0.0
  0
LINE
  5
68C
  8
FUTO
 10
25600.991217890089
 20
2946.1725159201628
 30
0.0
 11
25600.991217890089
 21
4221.172515920357
 31
0.0
  0
LINE
  5
68D
  8
FUTO
 10
25597.791217890081
 20
2946.1725159201628
 30
0.0
 11
25597.791217890092
 21
4221.1725159203588
 31
0.0
  0
LINE
  5
68E
  8
FUTO
 10
25675.991217890089
 20
2937.1725159201628
 30
0.0
 11
25675.991217890089
 21
4221.1725159203061
 31
0.0
  0
LINE
  5
68F
  8
FUTO
 10
24097.791217890092
 20
2955.1725159201628
 30
0.0
 11
24097.791217890081
 21
4221.1725159201633
 31
0.0
  0
LINE
  5
690
  8
FUTO
 10
24094.591217890091
 20
2955.1725159201628
 30
0.0
 11
24094.591217890091
 21
4221.1725159201633
 31
0.0
  0
LINE
  5
691
  8
FUTO
 10
24019.591217890091
 20
2937.1725159201628
 30
0.0
 11
24019.591217890091
 21
4221.1725159201633
 31
0.0
  0
LINE
  5
69A
  8
FUTO
 10
24019.591217890091
 20
2955.1725159201628
 30
0.0
 11
25675.991217890089
 21
2955.1725159201628
 31
0.0
  0
LINE
  5
69B
  8
FUTO
 10
24004.591217890091
 20
2937.1725159201628
 30
0.0
 11
25690.991217890089
 21
2937.1725159201628
 31
0.0
  0
LINE
  5
6A4
  8
FUTO
 10
23826.791217890092
 20
2851.1725159201628
 30
0.0
 11
23826.791217890092
 21
3081.1725159201628
 31
0.0
  0
LINE
  5
6A5
  8
FUTO
 10
23813.791217890092
 20
2851.1725159201628
 30
0.0
 11
23813.791217890092
 21
3081.1725159201628
 31
0.0
  0
LINE
  5
6A6
  8
FUTO
 10
23789.791217890081
 20
2857.1725159201619
 30
0.0
 11
23789.791217890092
 21
3035.1725159201651
 31
0.0
  0
LINE
  5
6A7
  8
CT
 10
23891.791217890092
 20
2715.8808068456628
 30
0.0
 11
23891.791217890092
 21
3175.5062176819588
 31
0.0
  0
LINE
  5
6A8
  8
FUTO
 10
23956.791217890092
 20
2851.1725159201628
 30
0.0
 11
23956.791217890081
 21
3081.1725159201628
 31
0.0
  0
LINE
  5
6A9
  8
FUTO
 10
23993.791217890081
 20
2857.1725159201619
 30
0.0
 11
23993.791217890081
 21
3035.1725159201651
 31
0.0
  0
LINE
  5
6AA
  8
FUTO
 10
23969.791217890092
 20
2851.1725159201628
 30
0.0
 11
23969.791217890092
 21
3081.1725159201628
 31
0.0
  0
LINE
  5
6AB
  8
FUTO
 10
23956.791217890081
 20
2851.1725159201628
 30
0.0
 11
23956.791217890081
 21
3081.1725159201628
 31
0.0
  0
LINE
  5
6AF
  8
FUTO
 10
23811.791217890092
 20
2796.1725159201628
 30
0.0
 11
23971.791217890092
 21
2796.1725159201628
 31
0.0
  0
LINE
  5
6B0
  8
FUTO
 10
23811.791217890092
 20
2851.1725159201628
 30
0.0
 11
23971.791217890092
 21
2851.1725159201628
 31
0.0
  0
LINE
  5
6B1
  8
CT
 10
23841.791217890081
 20
2757.8077809870629
 30
0.0
 11
23841.791217890081
 21
2879.8660972508078
 31
0.0
  0
LINE
  5
6B2
  8
FUTO
 10
23811.791217890092
 20
2786.1725159201628
 30
0.0
 11
23811.791217890092
 21
2851.1725159201628
 31
0.0
  0
LINE
  5
6B3
  8
FUTO
 10
23789.791217890081
 20
2857.1725159201628
 30
0.0
 11
23811.791217890092
 21
2833.3391825868289
 31
0.0
  0
LINE
  5
6B6
  8
KL
 10
23993.791217890081
 20
2891.1725159201628
 30
0.0
 11
24087.43525821474
 21
2891.1725159201628
 31
0.0
  0
LINE
  5
6B7
  8
FUTO
 10
24097.791217890081
 20
2875.1725159201628
 30
0.0
 11
24097.791217890081
 21
2959.1725159201619
 31
0.0
  0
LINE
  5
6B8
  8
FUTO
 10
24094.591217890091
 20
2875.1725159201628
 30
0.0
 11
24094.591217890091
 21
2959.1725159201619
 31
0.0
  0
LINE
  5
6BA
  8
CT
 10
23941.791217890081
 20
2755.8790942740911
 30
0.0
 11
23941.791217890081
 21
2879.8660972508078
 31
0.0
  0
LINE
  5
6BB
  8
FUTO
 10
23971.791217890092
 20
2786.1725159201628
 30
0.0
 11
23971.791217890092
 21
2851.1725159201628
 31
0.0
  0
LINE
  5
6BC
  8
FUTO
 10
23993.791217890092
 20
2857.1725159201628
 30
0.0
 11
23971.791217890092
 21
2833.3391825868289
 31
0.0
  0
LINE
  5
6C2
  8
FUTO
 10
23831.791217890081
 20
3097.1725159201628
 30
0.0
 11
23951.791217890081
 21
3097.1725159201628
 31
0.0
  0
LINE
  5
6C3
  8
FUTO
 10
23831.791217890081
 20
3081.1725159201628
 30
0.0
 11
23831.791217890081
 21
3097.1725159201628
 31
0.0
  0
LINE
  5
6C4
  8
FUTO
 10
23789.791217890081
 20
3035.1725159201628
 30
0.0
 11
23813.791217890092
 21
3061.1725159201628
 31
0.0
  0
LINE
  5
6C5
  8
FUTO
 10
23813.791217890092
 20
3081.1725159201628
 30
0.0
 11
23831.791217890081
 21
3081.1725159201628
 31
0.0
  0
LINE
  5
6C6
  8
KL
 10
23993.791217890081
 20
3001.1725159201628
 30
0.0
 11
24089.87829508193
 21
3001.1725159201628
 31
0.0
  0
LINE
  5
6C7
  8
FUTO
 10
23969.791217890092
 20
3081.1725159201628
 30
0.0
 11
23951.791217890081
 21
3081.1725159201628
 31
0.0
  0
LINE
  5
6C8
  8
FUTO
 10
23951.791217890081
 20
3081.1725159201628
 30
0.0
 11
23951.791217890081
 21
3097.1725159201628
 31
0.0
  0
LINE
  5
6C9
  8
FUTO
 10
23993.791217890092
 20
3035.1725159201628
 30
0.0
 11
23969.791217890092
 21
3061.1725159201628
 31
0.0
  0
LINE
  5
6E2
  8
KL
 10
25600.991217890089
 20
3946.1725159201628
 30
0.0
 11
25751.791217890081
 21
3946.1725159201628
 31
0.0
  0
LINE
  5
6E3
  8
KL
 10
25600.991217890089
 20
3952.1725159201642
 30
0.0
 11
25675.991217890089
 21
3952.1725159201642
 31
0.0
  0
LINE
  5
6E4
  8
HOSO
 10
25609.991217891449
 20
3946.1725159201728
 30
0.0
 11
25600.99121789146
 21
3946.172515920176
 31
0.0
  0
LINE
  5
6E5
  8
HOSO
 10
25567.18484404566
 20
3986.1725159201628
 30
0.0
 11
25637.811971183481
 21
3986.1725159201628
 31
0.0
  0
LINE
  5
6E6
  8
FUTO
 10
25675.991217890089
 20
3952.1725159201642
 30
0.0
 11
25745.791217890092
 21
3952.1725159201642
 31
0.0
  0
LINE
  5
6E7
  8
HOSO
 10
25715.74529044774
 20
3986.1725159201628
 30
0.0
 11
25786.37241758556
 21
3986.1725159201628
 31
0.0
  0
LINE
  5
706
  8
KL
 10
25600.991217890089
 20
4021.1725159201628
 30
0.0
 11
25609.991217891471
 21
4021.1725159201628
 31
0.0
  0
LINE
  5
707
  8
KL
 10
25600.99121789007
 20
4019.1725159201628
 30
0.0
 11
25600.9912178901
 21
4109.1725159201633
 31
0.0
  0
LINE
  5
708
  8
FUTO
 10
25746.791217890081
 20
4021.1725159201628
 30
0.0
 11
25752.791217890092
 21
4021.1725159201628
 31
0.0
  0
INSERT
  5
71C
  8
FUTO
  2
まっすぐの矢印
 10
25920.28750564612
 20
3497.096767060355
 30
0.0
 41
40.0
 42
40.0
 43
40.0
 50
90.0
  0
DIMENSION
  5
A68
  8
SP
  2
*D5
 10
19319.051608319209
 20
478.55178890627752
 30
0.0
 11
18194.051608319209
 21
568.55178890627758
 31
0.0
 70
     0
 13
17069.051608319209
 23
1146.1725159201631
 33
0.0
 14
19319.051608319209
 24
1146.1725159201631
 34
0.0
1001
ACAD
1000
DSTYLE
1002
{
1070
   140
1040
3.0
1070
    40
1040
45.0
1070
   173
1070
     1
1070
   147
1040
0.5
1070
     7
1000
_OPEN
1070
     6
1000
_OPEN
1002
}
  0
DIMENSION
  5
A75
  8
SP
  2
*D6
 10
20469.051608319209
 20
478.55178890627752
 30
0.0
 11
19894.051608319209
 21
568.55178890627758
 31
0.0
 70
     0
 13
19319.051608319209
 23
1146.1725159201631
 33
0.0
 14
20469.051608319209
 24
1146.1725159201631
 34
0.0
1001
ACAD
1000
DSTYLE
1002
{
1070
   140
1040
3.0
1070
    40
1040
45.0
1070
   173
1070
     1
1070
   147
1040
0.5
1070
     7
1000
_OPEN
1070
     6
1000
_OPEN
1002
}
  0
LINE
  5
AB0
  8
SL
 10
23731.35948366399
 20
3093.375623414493
 30
0.0
 11
22801.180710785771
 21
3093.375623414493
 31
0.0
  0
POINT
  5
CAC
  8
DEFPOINTS
  6
BYBLOCK
 62
     0
 10
20119.051608319209
 20
5727.479993435014
 30
0.0
  0
POINT
  5
CB7
  8
DEFPOINTS
  6
BYBLOCK
 62
     0
 10
20119.051608319209
 20
5727.479993435014
 30
0.0
  0
LINE
  5
178C
  8
FUTO
 10
17354.051608319209
 20
1356.172515920153
 30
0.0
 11
17119.051608319209
 21
1356.172515920153
 31
0.0
  0
LINE
  5
178D
  8
FUTO
 10
17129.051608319209
 20
1426.172515920153
 30
0.0
 11
17354.051608319209
 21
1426.172515920153
 31
0.0
  0
LINE
  5
178F
  8
FUTO
 10
17819.051608319209
 20
1356.172515920153
 30
0.0
 11
17584.051608319209
 21
1356.172515920153
 31
0.0
  0
LINE
  5
1790
  8
FUTO
 10
17584.051608319209
 20
1426.172515920153
 30
0.0
 11
17809.051608319209
 21
1426.172515920153
 31
0.0
  0
LINE
  5
1791
  8
FUTO
 10
17809.051608319209
 20
1426.172515920153
 30
0.0
 11
17819.051608319209
 21
1356.172515920153
 31
0.0
  0
LINE
  5
1792
  8
FUTO
 10
17354.051608319209
 20
1366.172515920153
 30
0.0
 11
17584.051608319209
 21
1366.172515920153
 31
0.0
  0
LINE
  5
1793
  8
FUTO
 10
17354.051608319209
 20
1416.172515920153
 30
0.0
 11
17584.051608319209
 21
1416.172515920153
 31
0.0
  0
LINE
  5
1794
  8
FUTO
 10
17584.051608319209
 20
1426.172515920153
 30
0.0
 11
17584.051608319209
 21
1416.172515920153
 31
0.0
  0
LINE
  5
1795
  8
FUTO
 10
17584.051608319209
 20
1366.172515920153
 30
0.0
 11
17584.051608319209
 21
1356.172515920153
 31
0.0
  0
LINE
  5
1796
  8
FUTO
 10
17354.051608319209
 20
1426.172515920153
 30
0.0
 11
17354.051608319209
 21
1416.172515920153
 31
0.0
  0
LINE
  5
1797
  8
FUTO
 10
17354.051608319209
 20
1366.172515920153
 30
0.0
 11
17354.051608319209
 21
1356.172515920153
 31
0.0
  0
LINE
  5
1798
  8
FUTO
 10
17226.051608319209
 20
1426.172515920153
 30
0.0
 11
17326.051608319209
 21
1426.172515920153
 31
0.0
  0
LINE
  5
1799
  8
FUTO
 10
17129.051608319209
 20
1426.172515920153
 30
0.0
 11
17119.051608319209
 21
1356.172515920153
 31
0.0
  0
LINE
  5
179B
  8
CT
 10
17367.345193694939
 20
2156.1725159201519
 30
0.0
 11
17213.048256175251
 21
2156.1725159201519
 31
0.0
  0
LINE
  5
179C
  8
FUTO
 10
17679.051608319209
 20
2296.1725159201528
 30
0.0
 11
17289.051608319209
 21
2296.1725159201528
 31
0.0
  0
LINE
  5
179D
  8
FUTO
 10
17679.051608319209
 20
2031.1725159201519
 30
0.0
 11
17289.051608319209
 21
2031.172515920151
 31
0.0
  0
LINE
  5
179E
  8
FUTO
 10
17624.530740594812
 20
1437.9818385526789
 30
0.0
 11
17313.572476043599
 21
1437.9818385526801
 31
0.0
  0
LINE
  5
17A0
  8
CT
 10
17806.510572508971
 20
1706.172515920153
 30
0.0
 11
17125.774386126181
 21
1706.172515920153
 31
0.0
  0
ARC
  5
17A1
  8
FUTO
 10
17469.051608319209
 20
1706.172515920153
 30
0.0
 40
310.0
 50
300.10230806831191
 51
0.0
  0
LINE
  5
17A3
  8
FUTO
 10
17639.051608319209
 20
1446.9428879838381
 30
0.0
 11
17639.051608319209
 21
1426.1725159201519
 31
0.0
  0
LINE
  5
17A4
  8
CT
 10
17697.551608319209
 20
1471.3419644097969
 30
0.0
 11
17697.551608319209
 21
1379.716401337542
 31
0.0
  0
LINE
  5
17A5
  8
FUTO
 10
17749.051608319209
 20
1573.1311689636209
 30
0.0
 11
17749.051608319209
 21
1426.172515920153
 31
0.0
  0
LINE
  5
17A6
  8
FUTO
 10
17749.051608319209
 20
1426.172515920153
 30
0.0
 11
17639.051608319209
 21
1426.172515920153
 31
0.0
  0
LINE
  5
17A7
  8
FUTO
 10
17749.051608319209
 20
1456.1725159201519
 30
0.0
 11
17652.354636117441
 21
1456.1725159201519
 31
0.0
  0
LINE
  5
17A8
  8
FUTO
 10
17699.051608319209
 20
2276.1725159201528
 30
0.0
 11
17699.051608319209
 21
2051.1725159201519
 31
0.0
  0
ARC
  5
17A9
  8
FUTO
 10
17679.051608319209
 20
2051.1725159201519
 30
0.0
 40
20.0
 50
270.0
 51
0.0
  0
ARC
  5
17AA
  8
FUTO
 10
17679.051608319209
 20
2276.1725159201528
 30
0.0
 40
20.0
 50
0.0
 51
90.0
  0
LINE
  5
17AB
  8
FUTO
 10
17189.051608319209
 20
1573.1311689636059
 30
0.0
 11
17189.051608319209
 21
1426.1725159201519
 31
0.0
  0
LINE
  5
17AC
  8
FUTO
 10
17299.051608319209
 20
1446.9428879838381
 30
0.0
 11
17299.051608319209
 21
1426.1725159201519
 31
0.0
  0
LINE
  5
17AD
  8
CT
 10
17240.551608319209
 20
1471.3419644097969
 30
0.0
 11
17240.551608319209
 21
1383.8811996590091
 31
0.0
  0
LINE
  5
17AE
  8
FUTO
 10
17299.051608319209
 20
1426.1725159201519
 30
0.0
 11
17189.051608319209
 21
1426.1725159201519
 31
0.0
  0
LINE
  5
17AF
  8
FUTO
 10
17285.74858052098
 20
1456.1725159201519
 30
0.0
 11
17189.051608319209
 21
1456.1725159201519
 31
0.0
  0
LINE
  5
17B0
  8
FUTO
 10
17269.051608319209
 20
2276.1725159201528
 30
0.0
 11
17269.051608319209
 21
2051.172515920151
 31
0.0
  0
ARC
  5
17B1
  8
FUTO
 10
17289.051608319209
 20
2051.172515920151
 30
0.0
 40
20.0
 50
180.0
 51
270.0
  0
ARC
  5
17B2
  8
FUTO
 10
17289.051608319209
 20
2276.1725159201528
 30
0.0
 40
20.0
 50
90.0
 51
180.0
  0
CIRCLE
  5
17B5
  8
SL
 10
17469.051608319209
 20
1706.172515920153
 30
0.0
 40
177.5
  0
CIRCLE
  5
17B6
  8
SL
 10
19319.051608319209
 20
2946.1725159201628
 30
0.0
 40
315.0
  0
ARC
  5
17B9
  8
FUTO
 10
19319.051608319209
 20
2946.1725159201628
 30
0.0
 40
480.0
 50
298.68056976234618
 51
128.98497331470739
  0
ARC
  5
17BA
  8
FUTO
 10
17469.051608319209
 20
1706.172515920153
 30
0.0
 40
280.0
 50
128.9849733147073
 51
298.68056976234629
  0
ARC
  5
17BE
  8
FUTO
 10
19172.051608319209
 20
2799.1725159201628
 30
0.0
 40
1609.0
 50
304.47559625067748
 51
5.2419146546739741
  0
DIMENSION
  5
1B16
  8
SP
  2
*D9
 10
24847.791217890081
 20
473.09509565191729
 30
0.0
 11
23662.291217890081
 21
563.09509565191718
 31
0.0
 70
     0
 13
22476.791217890081
 23
1146.1725159201631
 33
0.0
 14
24847.791217890081
 24
1146.1725159201631
 34
0.0
1001
ACAD
1000
DSTYLE
1002
{
1070
   287
1070
     3
1070
    40
1040
45.0
1070
   140
1040
3.0
1070
   147
1040
0.5
1070
   173
1070
     1
1070
   279
1070
     0
1070
     6
1000
OPEN
1070
     7
1000
OPEN
1002
}
  0
DIMENSION
  5
1B22
  8
SP
  2
*D10
 10
25676.791217890081
 20
473.09509565191729
 30
0.0
 11
25262.291217890081
 21
563.09509565191718
 31
0.0
 70
     0
 13
24847.791217890081
 23
1146.1725159201631
 33
0.0
 14
25676.791217890081
 24
1146.1725159201631
 34
0.0
1001
ACAD
1000
DSTYLE
1002
{
1070
   287
1070
     4
1070
    40
1040
45.0
1070
    75
1070
     1
1070
   140
1040
3.0
1070
   147
1040
0.5
1070
   173
1070
     1
1070
   279
1070
     1
1070
     6
1000
OPEN
1070
     7
1000
OPEN
1002
}
  0
DIMENSION
  5
1B2F
  8
SP
  2
*D11
 10
22476.791217890081
 20
180.97279539902041
 30
0.0
 11
24076.791217890092
 21
270.97279539902041
 31
0.0
 70
     0
 13
25676.791217890081
 23
473.09509565191729
 33
0.0
 14
22476.791217890081
 24
473.09509565191729
 34
0.0
1001
ACAD
1000
DSTYLE
1002
{
1070
   287
1070
     3
1070
    40
1040
45.0
1070
   140
1040
3.0
1070
   147
1040
0.5
1070
   173
1070
     1
1070
   279
1070
     0
1070
     6
1000
OPEN
1070
     7
1000
OPEN
1002
}
  0
ARC
  5
1BB6
  8
FUTO
 10
24024.291217890081
 20
1179.0955232208159
 30
0.0
 40
5.5
 50
95.000000000000014
 51
180.0
  0
LINE
  5
1BB7
  8
FUTO
 10
24018.791217890081
 20
1179.0955232208159
 30
0.0
 11
24018.791217890081
 21
1176.1725159201631
 31
0.0
  0
LINE
  5
1BB9
  8
KL
 10
24097.791217890081
 20
1194.1725159201631
 30
0.0
 11
24094.591217890091
 21
1194.1725159201631
 31
0.0
  0
LINE
  5
1BBD
  8
FUTO
 10
24093.791217890092
 20
1176.1725159201631
 30
0.0
 11
24018.791217890081
 21
1176.1725159201631
 31
0.0
  0
LINE
  5
1BBE
  8
FUTO
 10
24077.66277531756
 20
1189.28593855693
 30
0.0
 11
24023.81186130497
 21
1184.5745940603199
 31
0.0
  0
ARC
  5
1BBF
  8
FUTO
 10
24076.791217890092
 20
1199.2478855378481
 30
0.0
 40
10.0
 50
275.0
 51
0.0
  0
LINE
  5
1BC0
  8
FUTO
 10
24018.791217890081
 20
1353.2495086195111
 30
0.0
 11
24018.791217890081
 21
1356.1725159201631
 31
0.0
  0
LINE
  5
1BC1
  8
FUTO
 10
24093.791217890092
 20
1176.1725159201631
 30
0.0
 11
24093.791217890092
 21
1356.1725159201631
 31
0.0
  0
LINE
  5
1BC2
  8
FUTO
 10
24093.791217890092
 20
1176.1725159201631
 30
0.0
 11
24093.791217890092
 21
1356.1725159201631
 31
0.0
  0
LINE
  5
1BC3
  8
KL
 10
24094.591217890091
 20
1194.1725159201631
 30
0.0
 11
24094.591217890091
 21
1356.1725159201631
 31
0.0
  0
LINE
  5
1BC4
  8
KL
 10
24097.791217890081
 20
1194.1725159201631
 30
0.0
 11
24097.791217890081
 21
1356.1725159201631
 31
0.0
  0
ARC
  5
1BC5
  8
FUTO
 10
24024.291217890081
 20
1353.2495086195099
 30
0.0
 40
5.5
 50
179.9999999999994
 51
264.99999999999989
  0
LINE
  5
1BC6
  8
FUTO
 10
24086.791217890081
 20
1199.2478855378481
 30
0.0
 11
24086.791217890081
 21
1333.097146302478
 31
0.0
  0
ARC
  5
1BC7
  8
FUTO
 10
24076.791217890092
 20
1333.097146302478
 30
0.0
 40
10.0
 50
0.0
 51
85.0
  0
LINE
  5
1BC8
  8
FUTO
 10
24077.66277531756
 20
1343.059093283395
 30
0.0
 11
24023.81186130497
 21
1347.770437780006
 31
0.0
  0
LINE
  5
1BC9
  8
0
 10
24093.791217890092
 20
1356.1725159201631
 30
0.0
 11
24018.791217890081
 21
1356.1725159201631
 31
0.0
  0
LINE
  5
1BCA
  8
FUTO
 10
24093.791217890092
 20
1188.1725159201631
 30
0.0
 11
25601.791217890081
 21
1188.1725159201631
 31
0.0
  0
LINE
  5
1BCB
  8
FUTO
 10
24093.791217890092
 20
1344.1725159201631
 30
0.0
 11
25601.791217890081
 21
1344.1725159201631
 31
0.0
  0
DIMENSION
  5
1BF2
  8
SP
  2
*D12
 10
24847.791217890081
 20
4697.3045213335481
 30
0.0
 11
23547.791217890092
 21
4787.3045213335481
 31
0.0
 70
     0
 13
22247.791217890092
 23
4697.3045213335481
 33
0.0
 14
24847.791217890081
 24
4697.3045213335481
 34
0.0
1001
ACAD
1000
DSTYLE
1002
{
1070
   287
1070
     3
1070
    40
1040
45.0
1070
   140
1040
3.0
1070
   147
1040
0.5
1070
   173
1070
     1
1070
   279
1070
     0
1070
   341
1005
24
1070
     6
1000
OPEN
1070
     7
1000
OPEN
1002
}
  0
LINE
  5
1C21
  8
SL
 10
22801.18071078576
 20
3093.375623414493
 30
0.0
 11
22801.18071078576
 21
2786.1725159201628
 31
0.0
  0
LINE
  5
1C22
  8
SL
 10
23731.35948366399
 20
3093.375623414493
 30
0.0
 11
23731.35948366399
 21
2786.1725159201628
 31
0.0
  0
DIMENSION
  5
1C23
  8
SP
  2
*D13
 10
17092.051608319209
 20
4685.2783662155789
 30
0.0
 11
18205.551608319209
 21
4775.2783662155789
 31
0.0
 70
     0
 13
19319.051608319209
 23
4289.5140817493584
 33
0.0
 14
17092.051608319209
 24
4221.1725159216221
 34
0.0
 50
180.0
1001
ACAD
1000
DSTYLE
1002
{
1070
   287
1070
     3
1070
    40
1040
45.0
1070
   140
1040
3.0
1070
   147
1040
0.5
1070
   173
1070
     1
1070
   279
1070
     0
1070
   341
1005
24
1070
     6
1000
OPEN
1070
     7
1000
OPEN
1002
}
  0
LINE
  5
1C5C
  8
FUTO
 10
19408.051608319209
 20
7040.4799934350167
 30
0.0
 11
19434.051608319209
 21
7064.4799934350158
 31
0.0
  0
LINE
  5
1C5D
  8
FUTO
 10
19230.051608319209
 20
7040.4799934350167
 30
0.0
 11
19206.21827498588
 21
7062.4799934350176
 31
0.0
  0
LINE
  5
1C61
  8
FUTO
 10
19799.051608319209
 20
5498.4799934350194
 30
0.0
 11
17189.051608319209
 21
5498.4799934350149
 31
0.0
  0
LINE
  5
1C62
  8
SL
 10
19694.051608319209
 20
5616.2799934350187
 30
0.0
 11
17291.551608319209
 21
5616.2799934350151
 31
0.0
  0
LINE
  5
1C63
  8
SL
 10
19694.051608319209
 20
5746.2799934350169
 30
0.0
 11
17291.551608319209
 21
5746.2799934350178
 31
0.0
  0
LINE
  5
1C6B
  8
FUTO
 10
19261.551608319209
 20
7040.4799934350167
 30
0.0
 11
19261.551608319209
 21
5978.4799934350158
 31
0.0
  0
LINE
  5
1C6C
  8
FUTO
 10
19376.551608319209
 20
7040.4799934350167
 30
0.0
 11
19376.551608319209
 21
5978.4799934350158
 31
0.0
  0
LINE
  5
1C6D
  8
FUTO
 10
19799.051608319209
 20
5779.2290275975247
 30
0.0
 11
17189.051608319209
 21
5779.2290275975238
 31
0.0
  0
LINE
  5
1C6E
  8
FUTO
 10
19399.051608319209
 20
5978.4799934350158
 30
0.0
 11
19239.051608319209
 21
5978.4799934350158
 31
0.0
  0
LINE
  5
1C6F
  8
FUTO
 10
19399.051608319209
 20
5806.4799934350158
 30
0.0
 11
19239.051608319209
 21
5806.4799934350158
 31
0.0
  0
LINE
  5
1C70
  8
FUTO
 10
19434.051608319209
 20
5956.4799934350158
 30
0.0
 11
19239.051608319209
 21
5956.4799934350158
 31
0.0
  0
LINE
  5
1C71
  8
FUTO
 10
19434.051608319209
 20
5970.4799934350158
 30
0.0
 11
19204.051608319209
 21
5970.4799934350158
 31
0.0
  0
LINE
  5
1C72
  8
FUTO
 10
19434.051608319209
 20
5814.4799934350158
 30
0.0
 11
19204.051608319209
 21
5814.4799934350158
 31
0.0
  0
LINE
  5
1C73
  8
CT
 10
19482.543226829039
 20
5892.4799934350158
 30
0.0
 11
19167.894454557169
 21
5892.4799934350158
 31
0.0
  0
LINE
  5
1C74
  8
FUTO
 10
19434.051608319209
 20
5956.4799934350158
 30
0.0
 11
19204.051608319209
 21
5956.4799934350158
 31
0.0
  0
LINE
  5
1C75
  8
FUTO
 10
19434.051608319209
 20
5828.4799934350158
 30
0.0
 11
19204.051608319209
 21
5828.4799934350158
 31
0.0
  0
LINE
  5
1C76
  8
SL
 10
18944.051608319209
 20
5746.2799934350169
 30
0.0
 11
18944.051608319209
 21
5616.2799934350169
 31
0.0
  0
LINE
  5
1C7A
  8
FUTO
 10
19266.551608319209
 20
5806.4799934350158
 30
0.0
 11
19266.551608319209
 21
5746.2799934350151
 31
0.0
  0
LINE
  5
1C7B
  8
FUTO
 10
19204.051608319209
 20
5814.4799934350158
 30
0.0
 11
19204.051608319209
 21
5822.4799934350158
 31
0.0
  0
LINE
  5
1C7C
  8
FUTO
 10
19239.051608319209
 20
5806.4799934350158
 30
0.0
 11
19219.051608319209
 21
5814.4799934350158
 31
0.0
  0
LINE
  5
1C7F
  8
FUTO
 10
19239.051608319209
 20
5978.4799934350158
 30
0.0
 11
19219.051608319209
 21
5970.4799934350158
 31
0.0
  0
LINE
  5
1C80
  8
FUTO
 10
19204.051608319209
 20
5970.4799934350158
 30
0.0
 11
19204.051608319209
 21
5962.4799934350158
 31
0.0
  0
LINE
  5
1C83
  8
SL
 10
19694.051608319209
 20
5746.2799934350151
 30
0.0
 11
19694.051608319209
 21
5616.2799934350187
 31
0.0
  0
LINE
  5
1C84
  8
FUTO
 10
19452.051608319209
 20
5838.4799934350149
 30
0.0
 11
19452.051608319209
 21
5946.4799934350158
 31
0.0
  0
LINE
  5
1C85
  8
FUTO
 10
19434.051608319209
 20
5828.4799934350158
 30
0.0
 11
19434.051608319209
 21
5838.4799934350149
 31
0.0
  0
LINE
  5
1C86
  8
FUTO
 10
19452.051608319209
 20
5838.4799934350149
 30
0.0
 11
19434.051608319209
 21
5838.4799934350149
 31
0.0
  0
LINE
  5
1C87
  8
FUTO
 10
19434.051608319209
 20
5814.4799934350158
 30
0.0
 11
19434.051608319209
 21
5828.4799934350158
 31
0.0
  0
LINE
  5
1C88
  8
FUTO
 10
19399.051608319209
 20
5806.4799934350158
 30
0.0
 11
19419.051608319209
 21
5814.4799934350158
 31
0.0
  0
LINE
  5
1C89
  8
FUTO
 10
19371.551608319209
 20
5806.4799934350158
 30
0.0
 11
19371.551608319209
 21
5746.2799934350151
 31
0.0
  0
LINE
  5
1C8A
  8
FUTO
 10
19399.051608319209
 20
5978.4799934350158
 30
0.0
 11
19419.051608319209
 21
5970.4799934350158
 31
0.0
  0
LINE
  5
1C8B
  8
FUTO
 10
19434.051608319209
 20
5970.4799934350158
 30
0.0
 11
19434.051608319209
 21
5956.4799934350158
 31
0.0
  0
LINE
  5
1C8C
  8
FUTO
 10
19434.051608319209
 20
5946.4799934350158
 30
0.0
 11
19434.051608319209
 21
5956.4799934350158
 31
0.0
  0
LINE
  5
1C8D
  8
FUTO
 10
19452.051608319209
 20
5946.4799934350158
 30
0.0
 11
19434.051608319209
 21
5946.4799934350158
 31
0.0
  0
LINE
  5
1C8E
  8
FUTO
 10
19799.051608319209
 20
5779.2290275975247
 30
0.0
 11
19799.051608319209
 21
5498.4799934350194
 31
0.0
  0
POINT
  5
1C8F
  8
DEFPOINTS
 10
19799.051608319209
 20
5498.4799934350194
 30
0.0
  0
LINE
  5
1C93
  8
FUTO
 10
19230.051608319209
 20
7040.4799934350167
 30
0.0
 11
19408.051608319209
 21
7040.4799934350176
 31
0.0
  0
LINE
  5
1C9A
  8
FUTO
 10
20394.051608319209
 20
8997.4799934350158
 30
0.0
 11
18244.051608319209
 21
8997.4799934350158
 31
0.0
  0
LINE
  5
1C9B
  8
FUTO
 10
20394.051608319209
 20
9003.4799934350158
 30
0.0
 11
18244.051608319209
 21
9003.4799934350176
 31
0.0
  0
LINE
  5
1C9C
  8
KL
 10
20394.051608319209
 20
8860.6799934359078
 30
0.0
 11
18244.051608319209
 21
8860.6799934363989
 31
0.0
  0
LINE
  5
1CA1
  8
HOSO
 10
20359.051608319209
 20
8825.5602498278167
 30
0.0
 11
20359.051608319209
 21
8883.759405933044
 31
0.0
  0
LINE
  5
1CA2
  8
FUTO
 10
20325.051608319209
 20
8851.6799934350165
 30
0.0
 11
20325.051608319209
 21
8941.6799934350165
 31
0.0
  0
LINE
  5
1CA3
  8
KL
 10
20319.051608319209
 20
8851.6799934350165
 30
0.0
 11
20319.051608319209
 21
9003.4799934350158
 31
0.0
  0
LINE
  5
1CA4
  8
KL
 10
20394.051608319209
 20
8851.6799934350165
 30
0.0
 11
20394.051608319209
 21
8860.6799934359078
 31
0.0
  0
LINE
  5
1CA5
  8
HOSO
 10
20319.051608319201
 20
8860.679993435926
 30
0.0
 11
20319.051608319201
 21
8851.679993435926
 31
0.0
  0
LINE
  5
1CA6
  8
FUTO
 10
20394.051608319209
 20
8997.4799934350176
 30
0.0
 11
20394.051608319209
 21
9003.4799934350158
 31
0.0
  0
LINE
  5
1CA7
  8
HOSO
 10
20359.051608319209
 20
8975.4418039950324
 30
0.0
 11
20359.051608319209
 21
9033.6409601002597
 31
0.0
  0
LINE
  5
1CA8
  8
FUTO
 10
20325.051608319209
 20
8941.6799934350165
 30
0.0
 11
20325.051608319209
 21
8997.4799934350158
 31
0.0
  0
LINE
  5
1CBE
  8
FUTO
 10
19224.051608319209
 20
7207.4799934350149
 30
0.0
 11
19454.051608319209
 21
7207.4799934350149
 31
0.0
  0
LINE
  5
1CBF
  8
FUTO
 10
19184.051608319209
 20
7220.4799934350167
 30
0.0
 11
19454.051608319209
 21
7220.4799934350167
 31
0.0
  0
LINE
  5
1CC0
  8
FUTO
 10
19230.051608319209
 20
7244.4799934350158
 30
0.0
 11
19408.051608319209
 21
7244.4799934350158
 31
0.0
  0
LINE
  5
1CC1
  8
FUTO
 10
19184.051608319209
 20
7207.4799934350176
 30
0.0
 11
19454.051608319209
 21
7207.4799934350149
 31
0.0
  0
LINE
  5
1CC2
  8
CT
 10
19088.759899244709
 20
7142.4799934350158
 30
0.0
 11
19548.385310081001
 21
7142.4799934350158
 31
0.0
  0
LINE
  5
1CC3
  8
FUTO
 10
19184.051608319209
 20
7064.4799934350176
 30
0.0
 11
19454.051608319209
 21
7064.4799934350158
 31
0.0
  0
LINE
  5
1CC4
  8
FUTO
 10
19184.051608319209
 20
7077.4799934350176
 30
0.0
 11
19454.051608319209
 21
7077.4799934350158
 31
0.0
  0
LINE
  5
1CC5
  8
KL
 10
19264.051608319209
 20
7244.4799934350158
 30
0.0
 11
19264.051608319209
 21
7338.1240337596746
 31
0.0
  0
LINE
  5
1CCB
  8
FUTO
 10
19230.051608319209
 20
7244.4799934350167
 30
0.0
 11
19206.21827498588
 21
7222.4799934350149
 31
0.0
  0
LINE
  5
1CCE
  8
KL
 10
19374.051608319209
 20
7244.4799934350158
 30
0.0
 11
19374.051608319209
 21
7340.5670706268647
 31
0.0
  0
LINE
  5
1CCF
  8
FUTO
 10
19470.051608319209
 20
7082.4799934350149
 30
0.0
 11
19470.051608319209
 21
7202.4799934350158
 31
0.0
  0
LINE
  5
1CD0
  8
FUTO
 10
19454.051608319209
 20
7064.4799934350176
 30
0.0
 11
19454.051608319209
 21
7082.4799934350149
 31
0.0
  0
LINE
  5
1CD1
  8
FUTO
 10
19454.051608319209
 20
7082.4799934350149
 30
0.0
 11
19470.051608319209
 21
7082.4799934350149
 31
0.0
  0
LINE
  5
1CD2
  8
FUTO
 10
19408.051608319209
 20
7244.4799934350167
 30
0.0
 11
19434.051608319209
 21
7220.4799934350167
 31
0.0
  0
LINE
  5
1CD3
  8
FUTO
 10
19454.051608319209
 20
7202.4799934350158
 30
0.0
 11
19470.051608319209
 21
7202.4799934350158
 31
0.0
  0
LINE
  5
1CD4
  8
FUTO
 10
19454.051608319209
 20
7220.4799934350167
 30
0.0
 11
19454.051608319209
 21
7202.4799934350158
 31
0.0
  0
LINE
  5
1CE0
  8
HOSO
 10
18279.051608319209
 20
8817.8736195905967
 30
0.0
 11
18279.051608319209
 21
8888.5007467284158
 31
0.0
  0
LINE
  5
1CE1
  8
KL
 10
18313.051608319209
 20
8851.6799934350165
 30
0.0
 11
18313.051608319209
 21
8926.6799934350165
 31
0.0
  0
LINE
  5
1CE2
  8
KL
 10
18319.051608319209
 20
8851.6799934350165
 30
0.0
 11
18319.051608319209
 21
9003.4799934350158
 31
0.0
  0
LINE
  5
1CE4
  8
KL
 10
18244.051608319209
 20
8851.6799934350165
 30
0.0
 11
18244.051608319209
 21
8860.6799934363989
 31
0.0
  0
LINE
  5
1CE5
  8
HOSO
 10
18319.051608319201
 20
8860.6799934363808
 30
0.0
 11
18319.051608319201
 21
8851.6799934363844
 31
0.0
  0
LINE
  5
1CE6
  8
FUTO
 10
18244.051608319209
 20
8997.4799934350158
 30
0.0
 11
18244.051608319209
 21
9003.4799934350176
 31
0.0
  0
LINE
  5
1CE7
  8
HOSO
 10
18279.051608319209
 20
8967.4340659926747
 30
0.0
 11
18279.051608319209
 21
9038.0611931304957
 31
0.0
  0
LINE
  5
1CE8
  8
FUTO
 10
18313.051608319209
 20
8926.6799934350165
 30
0.0
 11
18313.051608319209
 21
8997.4799934350158
 31
0.0
  0
INSERT
  5
1CE9
  8
FUTO
  2
まっすぐの矢印
 10
18768.127357179019
 20
9169.9762811910441
 30
0.0
 41
40.0
 42
40.0
 43
40.0
 50
180.0
  0
LINE
  5
1D14
  8
FUTO
 10
19186.051608319209
 20
5838.4799934350149
 30
0.0
 11
19186.051608319209
 21
5946.4799934350158
 31
0.0
  0
LINE
  5
1D15
  8
FUTO
 10
19204.051608319209
 20
5814.4799934350158
 30
0.0
 11
19204.051608319209
 21
5828.4799934350158
 31
0.0
  0
LINE
  5
1D16
  8
FUTO
 10
19186.051608319209
 20
5838.4799934350149
 30
0.0
 11
19204.051608319209
 21
5838.4799934350149
 31
0.0
  0
LINE
  5
1D17
  8
FUTO
 10
19204.051608319209
 20
5828.4799934350158
 30
0.0
 11
19204.051608319209
 21
5838.4799934350149
 31
0.0
  0
LINE
  5
1D18
  8
FUTO
 10
19186.051608319209
 20
5946.4799934350158
 30
0.0
 11
19204.051608319209
 21
5946.4799934350158
 31
0.0
  0
LINE
  5
1D19
  8
FUTO
 10
19204.051608319209
 20
5946.4799934350158
 30
0.0
 11
19204.051608319209
 21
5956.4799934350158
 31
0.0
  0
LINE
  5
1D1A
  8
FUTO
 10
19204.051608319209
 20
5970.4799934350158
 30
0.0
 11
19204.051608319209
 21
5956.4799934350158
 31
0.0
  0
LINE
  5
1D1B
  8
FUTO
 10
19168.051608319209
 20
7082.4799934350149
 30
0.0
 11
19168.051608319209
 21
7202.4799934350158
 31
0.0
  0
LINE
  5
1D1C
  8
FUTO
 10
19184.051608319209
 20
7082.4799934350149
 30
0.0
 11
19168.051608319209
 21
7082.4799934350149
 31
0.0
  0
LINE
  5
1D1D
  8
FUTO
 10
19184.051608319209
 20
7064.4799934350176
 30
0.0
 11
19184.051608319209
 21
7082.4799934350149
 31
0.0
  0
LINE
  5
1D1E
  8
FUTO
 10
19184.051608319209
 20
7220.4799934350167
 30
0.0
 11
19184.051608319209
 21
7202.4799934350158
 31
0.0
  0
LINE
  5
1D1F
  8
FUTO
 10
19184.051608319209
 20
7202.4799934350158
 30
0.0
 11
19168.051608319209
 21
7202.4799934350158
 31
0.0
  0
LINE
  5
1D20
  8
FUTO
 10
18969.464803841762
 20
5796.4799934350131
 30
0.0
 11
18969.464803841762
 21
7269.479993435014
 31
0.0
  0
LINE
  5
1D21
  8
FUTO
 10
19668.638412796648
 20
5796.4799934350131
 30
0.0
 11
19668.638412796659
 21
7269.479993435014
 31
0.0
  0
LINE
  5
1D22
  8
FUTO
 10
17167.05160831946
 20
7344.479993435014
 30
0.0
 11
17167.051608320489
 21
8852.4799934350194
 31
0.0
  0
LINE
  5
1D23
  8
FUTO
 10
17167.051608319871
 20
7344.479993435014
 30
0.0
 11
17167.051608320551
 21
8852.4799934350194
 31
0.0
  0
LINE
  5
1D24
  8
FUTO
 10
17167.051608319209
 20
7344.479993435014
 30
0.0
 11
17167.051608319209
 21
8852.4799934350194
 31
0.0
  0
LINE
  5
1D26
  8
FUTO
 10
17092.051608319209
 20
7269.479993435014
 30
0.0
 11
17092.051608319209
 21
8927.479993435014
 31
0.0
  0
LINE
  5
1D35
  8
CT
 10
17469.051608319209
 20
6866.1938057955722
 30
0.0
 11
17469.051608319209
 21
5502.9787170637246
 31
0.0
  0
LINE
  5
1D3A
  8
SL
 10
17291.551608319209
 20
5746.2799934350187
 30
0.0
 11
17291.551608319209
 21
5616.2799934350151
 31
0.0
  0
LINE
  5
1D3B
  8
FUTO
 10
17189.051608319209
 20
5779.2290275975238
 30
0.0
 11
17189.051608319209
 21
5498.4799934350149
 31
0.0
  0
LINE
  5
2121
  8
CT
 10
22569.091217890091
 20
1706.172515920153
 30
0.0
 11
22201.271217890091
 21
1706.172515920153
 31
0.0
  0
LINE
  5
2132
  8
KL
 10
22829.309217890092
 20
1431.172515920151
 30
0.0
 11
22757.738217890092
 21
1431.172515920151
 31
0.0
  0
LINE
  5
2306
  8
FUTO
 10
17181.55160831895
 20
6451.2799934349259
 30
0.0
 11
17181.5516083189
 21
6646.2799934349268
 31
0.0
  0
LINE
  5
2307
  8
FUTO
 10
17739.051608318889
 20
6664.540863435097
 30
0.0
 11
17739.05160831895
 21
6451.2799934350987
 31
0.0
  0
LINE
  5
2308
  8
FUTO
 10
17181.5516083189
 20
6646.2799934349268
 30
0.0
 11
17739.0516083189
 21
6646.2799934350978
 31
0.0
  0
LINE
  5
2309
  8
FUTO
 10
17699.051608318881
 20
6706.279993435086
 30
0.0
 11
17239.051608318881
 21
6706.2799934349441
 31
0.0
  0
LINE
  5
230A
  8
FUTO
 10
17739.051608318889
 20
6664.540863435097
 30
0.0
 11
17699.051608318881
 21
6706.279993435086
 31
0.0
  0
LINE
  5
230B
  8
FUTO
 10
17181.5516083189
 20
6646.2799934349268
 30
0.0
 11
17239.051608318881
 21
6706.2799934349441
 31
0.0
  0
LINE
  5
230C
  8
CT
 10
17779.366467972151
 20
6185.7799934351133
 30
0.0
 11
17136.291134223178
 21
6185.7799934349132
 31
0.0
  0
LINE
  5
230D
  8
FUTO
 10
17181.55160831895
 20
6451.2799934349259
 30
0.0
 11
17739.05160831895
 21
6451.2799934350987
 31
0.0
  0
LINE
  5
230E
  8
FUTO
 10
17181.551608319129
 20
5902.7799934349259
 30
0.0
 11
17233.617630179899
 21
5902.7799934349423
 31
0.0
  0
LINE
  5
230F
  8
FUTO
 10
17181.551608319161
 20
5802.7799934349259
 30
0.0
 11
17466.051608319161
 21
5802.7799934350132
 31
0.0
  0
LINE
  5
2310
  8
CT
 10
17773.181673286152
 20
6395.2799934351096
 30
0.0
 11
17809.86721328615
 21
6395.2799934351206
 31
0.0
  0
LINE
  5
2311
  8
CT
 10
17773.181673286279
 20
5976.2799934351096
 30
0.0
 11
17809.867213286281
 21
5976.2799934351196
 31
0.0
  0
LINE
  5
2312
  8
FUTO
 10
17511.551608319209
 20
5616.2799934350287
 30
0.0
 11
17511.551608319161
 21
5786.2799934350296
 31
0.0
  0
LINE
  5
2313
  8
FUTO
 10
17426.551608319161
 20
5786.2799934350023
 30
0.0
 11
17426.55160831922
 21
5616.2799934350032
 31
0.0
  0
LINE
  5
2314
  8
FUTO
 10
17421.55160831922
 20
5616.2799934349996
 30
0.0
 11
17421.551608319169
 21
5756.2799934350014
 31
0.0
  0
LINE
  5
2315
  8
FUTO
 10
17519.051608319161
 20
5786.2799934350296
 30
0.0
 11
17419.051608319161
 21
5786.2799934350014
 31
0.0
  0
LINE
  5
2316
  8
FUTO
 10
17554.551608319161
 20
5796.2799934350414
 30
0.0
 11
17383.551608319161
 21
5796.2799934349887
 31
0.0
  0
LINE
  5
2317
  8
FUTO
 10
17556.551608319161
 20
5803.1283684350419
 30
0.0
 11
17556.551608319161
 21
5798.2799934350396
 31
0.0
  0
ARC
  5
2318
  8
FUTO
 10
17554.551608319161
 20
5798.2799934350396
 30
0.0
 40
2.0
 50
270.0
 51
0.0
  0
LINE
  5
2319
  8
FUTO
 10
17519.051608319161
 20
5786.2799934350296
 30
0.0
 11
17519.051608319161
 21
5796.2799934350296
 31
0.0
  0
LINE
  5
231A
  8
FUTO
 10
17419.051608319161
 20
5786.2799934350014
 30
0.0
 11
17419.051608319161
 21
5796.2799934350014
 31
0.0
  0
LINE
  5
231B
  8
FUTO
 10
17426.551608319169
 20
5756.2799934350023
 30
0.0
 11
17421.551608319169
 21
5756.2799934350014
 31
0.0
  0
LINE
  5
231C
  8
FUTO
 10
17381.551608319161
 20
5802.7799934349896
 30
0.0
 11
17381.551608319161
 21
5798.2799934349896
 31
0.0
  0
ARC
  5
231D
  8
FUTO
 10
17383.551608319161
 20
5798.2799934349896
 30
0.0
 40
2.0
 50
180.0
 51
270.0
  0
LINE
  5
231E
  8
FUTO
 10
17511.551608319209
 20
5616.2799934350287
 30
0.0
 11
17421.55160831922
 21
5616.2799934349996
 31
0.0
  0
LINE
  5
231F
  8
FUTO
 10
17183.237531319039
 20
6185.7799934349277
 30
0.0
 11
17183.237531319119
 21
5930.2799934349277
 31
0.0
  0
LINE
  5
2320
  8
FUTO
 10
17233.617630179819
 20
6145.2799934349441
 30
0.0
 11
17631.534648378569
 21
6145.279993435066
 31
0.0
  0
LINE
  5
2321
  8
FUTO
 10
17233.61763017983
 20
6126.8799994349392
 30
0.0
 11
17631.53464837858
 21
6126.8799994350629
 31
0.0
  0
LINE
  5
2322
  8
CT
 10
17416.515738829981
 20
6000.2799934349987
 30
0.0
 11
17559.660544829982
 21
6000.2799934350442
 31
0.0
  0
LINE
  5
2323
  8
FUTO
 10
17179.05160831895
 20
6441.2799934349259
 30
0.0
 11
17179.05160831906
 21
6130.2799934349259
 31
0.0
  0
LINE
  5
2324
  8
FUTO
 10
17183.237531319039
 20
6185.7799934349277
 30
0.0
 11
17183.237531318959
 21
6441.2799934349277
 31
0.0
  0
LINE
  5
2325
  8
FUTO
 10
17183.237531318959
 20
6441.2799934349277
 30
0.0
 11
17189.689393318949
 21
6451.2799934349296
 31
0.0
  0
LINE
  5
2326
  8
FUTO
 10
17179.05160831895
 20
6441.2799934349259
 30
0.0
 11
17185.718274318959
 21
6451.2799934349268
 31
0.0
  0
LINE
  5
2327
  8
FUTO
 10
17179.05160831906
 20
6130.2799934349259
 30
0.0
 11
17183.23753131905
 21
6126.0940704349268
 31
0.0
  0
LINE
  5
2328
  8
FUTO
 10
17631.534648378671
 20
5855.279993435066
 30
0.0
 11
17233.61763017991
 21
5855.2799934349441
 31
0.0
  0
LINE
  5
2329
  8
FUTO
 10
17631.53464837866
 20
5873.680017435061
 30
0.0
 11
17233.61763017991
 21
5873.6800174349391
 31
0.0
  0
LINE
  5
232A
  8
FUTO
 10
17181.551608319161
 20
5802.7799934349259
 30
0.0
 11
17181.551608319129
 21
5902.7799934349259
 31
0.0
  0
LINE
  5
232B
  8
FUTO
 10
17186.53656031912
 20
5919.0525654349267
 30
0.0
 11
17197.38494131912
 21
5902.7799934349323
 31
0.0
  0
LINE
  5
232C
  8
FUTO
 10
17183.237531319119
 20
5930.2799934349277
 30
0.0
 11
17200.98015131912
 21
5902.7799934349323
 31
0.0
  0
LINE
  5
232D
  8
FUTO
 10
17192.823003319121
 20
5915.4230854349298
 30
0.0
 11
17184.41059231912
 21
5920.2799934349268
 31
0.0
  0
LINE
  5
232E
  8
FUTO
 10
17631.534648378671
 20
5855.2799934350624
 30
0.0
 11
17631.534648378569
 21
6145.279993435066
 31
0.0
  0
LINE
  5
232F
  8
FUTO
 10
17233.61763017991
 20
5855.2799934349423
 30
0.0
 11
17233.617630179819
 21
6145.2799934349441
 31
0.0
  0
LINE
  5
2330
  8
FUTO
 10
17756.551608319129
 20
5902.7799934351042
 30
0.0
 11
17631.534648378649
 21
5902.7799934350624
 31
0.0
  0
LINE
  5
2331
  8
FUTO
 10
17756.551608319161
 20
5802.7799934351042
 30
0.0
 11
17472.051608319161
 21
5802.7799934350151
 31
0.0
  0
LINE
  5
2332
  8
FUTO
 10
17756.551608319161
 20
5802.7799934351042
 30
0.0
 11
17756.551608319129
 21
5902.7799934351042
 31
0.0
  0
LINE
  5
2333
  8
FUTO
 10
17754.86568531904
 20
6185.7799934351033
 30
0.0
 11
17754.86568531896
 21
6441.2799934351024
 31
0.0
  0
LINE
  5
2334
  8
FUTO
 10
17759.05160831895
 20
6441.2799934351042
 30
0.0
 11
17759.05160831906
 21
6130.2799934351042
 31
0.0
  0
LINE
  5
2335
  8
FUTO
 10
17754.86568531904
 20
6185.7799934351033
 30
0.0
 11
17754.865685319121
 21
5930.2799934351024
 31
0.0
  0
LINE
  5
2336
  8
FUTO
 10
17754.865685319121
 20
5930.2799934351024
 30
0.0
 11
17737.123065319131
 21
5902.7799934350987
 31
0.0
  0
LINE
  5
2337
  8
FUTO
 10
17745.280213319129
 20
5915.4230854351008
 30
0.0
 11
17753.692624319119
 21
5920.2799934351024
 31
0.0
  0
LINE
  5
2338
  8
FUTO
 10
17751.566656319119
 20
5919.052565435104
 30
0.0
 11
17740.71827531913
 21
5902.7799934350987
 31
0.0
  0
LINE
  5
2339
  8
FUTO
 10
17759.05160831895
 20
6441.2799934351042
 30
0.0
 11
17752.384942318949
 21
6451.2799934351024
 31
0.0
  0
LINE
  5
233A
  8
FUTO
 10
17754.86568531896
 20
6441.2799934351024
 30
0.0
 11
17748.413823318959
 21
6451.2799934351024
 31
0.0
  0
LINE
  5
233B
  8
FUTO
 10
17819.0516083191
 20
5881.7010598965517
 30
0.0
 11
17819.05160831891
 21
6489.8589269736931
 31
0.0
  0
LINE
  5
233C
  8
FUTO
 10
17819.0516083191
 20
5881.7010598965517
 30
0.0
 11
17756.551608319129
 21
5881.7010598965353
 31
0.0
  0
LINE
  5
233D
  8
FUTO
 10
17819.05160831891
 20
6489.8589269736931
 30
0.0
 11
17739.05160831894
 21
6489.8589269736658
 31
0.0
  0
LINE
  5
233E
  8
FUTO
 10
17119.051608319161
 20
5881.701059896337
 30
0.0
 11
17119.051608318969
 21
6489.8589269734794
 31
0.0
  0
LINE
  5
233F
  8
FUTO
 10
17119.05160831898
 20
6489.8589269734794
 30
0.0
 11
17199.05160831894
 21
6489.8589269734975
 31
0.0
  0
LINE
  5
2340
  8
FUTO
 10
17119.051608319161
 20
5881.701059896337
 30
0.0
 11
17181.551608319129
 21
5881.701059896357
 31
0.0
  0
LINE
  5
2370
  8
KL
 10
22545.591217890062
 20
1603.6420329201139
 30
0.0
 11
22545.59121789004
 21
1518.7892189201141
 31
0.0
  0
LINE
  5
2371
  8
KL
 10
22629.59121789008
 20
1706.172515920096
 30
0.0
 11
22629.591217890029
 21
1448.1725159200971
 31
0.0
  0
LINE
  5
2372
  8
KL
 10
22629.59121789008
 20
1709.1725159200971
 30
0.0
 11
22629.591217890029
 21
1476.172515920096
 31
0.0
  0
LINE
  5
2373
  8
KL
 10
22794.591217890051
 20
1552.178620920062
 30
0.0
 11
22794.591217890029
 21
1476.1725159200621
 31
0.0
  0
LINE
  5
2374
  8
KL
 10
23075.591217890051
 20
1555.64455292
 30
0.0
 11
23075.591217890029
 21
1476.17251592
 31
0.0
  0
LINE
  5
2375
  8
KL
 10
23200.591217890142
 20
1993.672515919975
 30
0.0
 11
23200.591217890022
 21
1436.172515919975
 31
0.0
  0
LINE
  5
2376
  8
CT
 10
22935.091217890022
 20
1407.222399920031
 30
0.0
 11
22935.09121789016
 21
2038.9329900158889
 31
0.0
  0
LINE
  5
2377
  8
KL
 10
23455.591217890029
 20
1476.1725159199179
 30
0.0
 11
23455.591217890131
 21
1936.1725159199179
 31
0.0
  0
LINE
  5
2378
  8
KL
 10
23395.591217890142
 20
1993.6725159199309
 30
0.0
 11
23395.591217890022
 21
1436.1725159199309
 31
0.0
  0
LINE
  5
2379
  8
KL
 10
23190.591217890022
 20
1436.123575919976
 30
0.0
 11
23180.091217890022
 21
1436.1235759199781
 31
0.0
  0
LINE
  5
237C
  8
KL
 10
22810.091217890022
 20
1426.172515920058
 30
0.0
 11
23239.091217890022
 21
1426.1725159199659
 31
0.0
  0
ARC
  5
237D
  8
KL
 10
22577.925918890029
 20
1478.9799509201059
 30
0.0
 40
10.0
 50
183.0000000000033
 51
225.0000000001105
  0
LINE
  5
237E
  8
KL
 10
22567.93962289003
 20
1478.4565919201091
 30
0.0
 11
22565.825879890039
 21
1518.7892189201091
 31
0.0
  0
LINE
  5
237F
  8
KL
 10
22545.59121789004
 20
1518.7892189201141
 30
0.0
 11
22599.59121789004
 21
1518.789218920102
 31
0.0
  0
LINE
  5
2380
  8
KL
 10
22774.591217890029
 20
1456.172515920066
 30
0.0
 11
22694.591217890029
 21
1456.1725159200821
 31
0.0
  0
LINE
  5
2381
  8
KL
 10
22690.091217890022
 20
1426.1725159200839
 30
0.0
 11
22810.091217890022
 21
1426.172515920058
 31
0.0
  0
LINE
  5
2383
  8
KL
 10
22629.59121789004
 20
1519.593774920095
 30
0.0
 11
22794.59121789004
 21
1519.5937749200609
 31
0.0
  0
LINE
  5
2384
  8
KL
 10
22810.091217890022
 20
1426.172515920058
 30
0.0
 11
22631.091217890022
 21
1426.1725159200971
 31
0.0
  0
ARC
  5
238A
  8
KL
 10
22597.791387890022
 20
1459.114481920104
 30
0.0
 40
10.0
 50
225.0000000001105
 51
267.99999999999602
  0
LINE
  5
238B
  8
KL
 10
22639.591217890029
 20
1476.1725159200951
 30
0.0
 11
22639.591217890029
 21
1474.3080839200941
 31
0.0
  0
LINE
  5
238C
  8
KL
 10
22639.591217890029
 20
1476.1725159200951
 30
0.0
 11
22629.591217890029
 21
1476.172515920096
 31
0.0
  0
ARC
  5
238D
  8
KL
 10
22695.091217890029
 20
1451.1725159200821
 30
0.0
 40
5.0
 50
90.0
 51
180.0
  0
LINE
  5
238E
  8
KL
 10
22679.591217890022
 20
1436.1235759200849
 30
0.0
 11
22690.091217890022
 21
1436.1235759200831
 31
0.0
  0
LINE
  5
238F
  8
KL
 10
22649.591217890022
 20
1439.9436849200911
 30
0.0
 11
22679.591217890022
 21
1436.1235759200849
 31
0.0
  0
LINE
  5
2390
  8
KL
 10
22639.591217890029
 20
1474.3080839200941
 30
0.0
 11
22649.591217890022
 21
1439.9436849200911
 31
0.0
  0
LINE
  5
2391
  8
KL
 10
22597.442392890021
 20
1449.1205739201041
 30
0.0
 11
22629.591217890029
 21
1448.1725159200971
 31
0.0
  0
LINE
  5
2393
  8
KL
 10
22690.091217890029
 20
1451.1725159200839
 30
0.0
 11
22690.091217890022
 21
1426.1725159200839
 31
0.0
  0
LINE
  5
2394
  8
KL
 10
22631.091217890022
 20
1426.1725159200971
 30
0.0
 11
22631.09121789
 21
1362.932746788136
 31
0.0
  0
ARC
  5
2398
  8
KL
 10
22774.591217890029
 20
1476.1725159200651
 30
0.0
 40
20.0
 50
270.0
 51
0.0
  0
LINE
  5
2399
  8
KL
 10
22815.091217890022
 20
1436.172515920056
 30
0.0
 11
22935.091217890022
 21
1436.1725159200309
 31
0.0
  0
ARC
  5
239B
  8
KL
 10
22815.091217890022
 20
1431.1725159200571
 30
0.0
 40
5.0
 50
90.0
 51
180.0
  0
LINE
  5
239C
  8
KL
 10
22725.591217890029
 20
1459.932887920073
 30
0.0
 11
22725.591217890022
 21
1423.2473479200751
 31
0.0
  0
ARC
  5
239D
  8
KL
 10
23095.591217890029
 20
1476.1725159199959
 30
0.0
 40
20.0
 50
180.0
 51
270.0
  0
ARC
  5
239E
  8
KL
 10
23175.091217890029
 20
1451.172515919978
 30
0.0
 40
5.0
 50
0.0
 51
90.0
  0
LINE
  5
239F
  8
KL
 10
23095.591217890029
 20
1456.1725159199959
 30
0.0
 11
23175.591217890029
 21
1456.172515919978
 31
0.0
  0
LINE
  5
23A0
  8
KL
 10
23060.091217890022
 20
1431.1725159200039
 30
0.0
 11
23060.091217890022
 21
1426.1725159200039
 31
0.0
  0
LINE
  5
23A1
  8
KL
 10
23180.591217890022
 20
1426.172515919978
 30
0.0
 11
23060.091217890022
 21
1426.1725159200039
 31
0.0
  0
LINE
  5
23A2
  8
KL
 10
23180.091217890029
 20
1451.172515919978
 30
0.0
 11
23180.091217890022
 21
1426.172515919978
 31
0.0
  0
LINE
  5
23A3
  8
KL
 10
23144.591217890029
 20
1459.9328879199841
 30
0.0
 11
23144.591217890022
 21
1423.2473479199859
 31
0.0
  0
ARC
  5
23A4
  8
KL
 10
23055.091217890022
 20
1431.1725159200059
 30
0.0
 40
5.0
 50
0.0
 51
90.0
  0
LINE
  5
23A5
  8
KL
 10
23055.091217890022
 20
1436.1725159200059
 30
0.0
 11
22935.091217890022
 21
1436.1725159200309
 31
0.0
  0
LINE
  5
23A6
  8
KL
 10
22590.720319890021
 20
1452.043414920103
 30
0.0
 11
22570.85485089002
 21
1471.9088829201089
 31
0.0
  0
LINE
  5
23A7
  8
KL
 10
23413.85208789002
 20
1436.172515919927
 30
0.0
 11
23200.591217890022
 21
1436.172515919975
 31
0.0
  0
LINE
  5
23A8
  8
KL
 10
23239.091217890022
 20
1426.1725159199659
 30
0.0
 11
23239.09121789
 21
1362.988816573094
 31
0.0
  0
LINE
  5
23A9
  8
KL
 10
23413.85208789002
 20
1436.172515919927
 30
0.0
 11
23455.591217890029
 21
1476.1725159199179
 31
0.0
  0
LINE
  5
23AA
  8
KL
 10
23200.591217890022
 20
1437.3969459199729
 30
0.0
 11
23190.591217890022
 21
1436.123575919976
 31
0.0
  0
LINE
  5
23AB
  8
KL
 10
22935.091217890149
 20
1991.98659292003
 30
0.0
 11
23190.591217890149
 21
1991.9865929199759
 31
0.0
  0
LINE
  5
23AC
  8
KL
 10
23190.591217890149
 20
1996.1725159199759
 30
0.0
 11
22879.591217890149
 21
1996.1725159200439
 31
0.0
  0
CIRCLE
  5
23AE
  8
KL
 10
22749.591217890171
 20
2131.172515920071
 30
0.0
 40
59.0
  0
LINE
  5
23AF
  8
KL
 10
22622.991241890151
 20
2022.7724649200979
 30
0.0
 11
22622.991241890191
 21
2217.643874920097
 31
0.0
  0
LINE
  5
23B0
  8
KL
 10
22604.59121789016
 20
2042.1144489201019
 30
0.0
 11
22604.5912178902
 21
2226.8377689201011
 31
0.0
  0
LINE
  5
23B1
  8
CT
 10
22749.5912178902
 20
2200.754165920071
 30
0.0
 11
22749.59121789016
 21
2057.6093599200708
 31
0.0
  0
LINE
  5
23B2
  8
KL
 10
22876.19122389019
 20
2217.6438749200429
 30
0.0
 11
22876.19122389015
 21
2022.772506920043
 31
0.0
  0
LINE
  5
23B3
  8
KL
 10
22894.5912178902
 20
2226.8377689200388
 30
0.0
 11
22894.59121789016
 21
2042.1144489200401
 31
0.0
  0
LINE
  5
23B4
  8
FUTO
 10
22552.091217890149
 20
1993.672515920113
 30
0.0
 11
22552.09121789008
 21
1709.172515920113
 31
0.0
  0
LINE
  5
23B5
  8
KL
 10
22652.091217890142
 20
1993.672515920091
 30
0.0
 11
22652.09121789008
 21
1709.172515920091
 31
0.0
  0
LINE
  5
23B6
  8
CT
 10
22152.886205683579
 20
1706.1725159202181
 30
0.0
 11
23514.2625748301
 21
1706.172515919804
 31
0.0
  0
LINE
  5
23B7
  8
KL
 10
22552.09121789008
 20
1709.172515920113
 30
0.0
 11
22652.09121789008
 21
1709.172515920091
 31
0.0
  0
LINE
  5
23B8
  8
KL
 10
22629.591217890062
 20
1596.5709649200969
 30
0.0
 11
22545.591217890062
 21
1596.5709649201151
 31
0.0
  0
LINE
  5
23B9
  8
FUTO
 10
22365.591217890069
 20
1663.672515920153
 30
0.0
 11
22365.591217890091
 21
1753.672515920153
 31
0.0
  0
ARC
  5
23BA
  8
FUTO
 10
22547.591217890102
 20
1791.6725159201139
 30
0.0
 40
2.0
 50
90.0
 51
180.0
  0
LINE
  5
23BB
  8
FUTO
 10
22552.091217890102
 20
1793.672515920113
 30
0.0
 11
22547.591217890102
 21
1793.6725159201151
 31
0.0
  0
LINE
  5
23BC
  8
FUTO
 10
22505.591217890091
 20
1748.6725159201239
 30
0.0
 11
22505.591217890091
 21
1753.6725159201239
 31
0.0
  0
LINE
  5
23BD
  8
FUTO
 10
22535.591217890102
 20
1756.1725159201169
 30
0.0
 11
22545.591217890091
 21
1756.1725159201151
 31
0.0
  0
LINE
  5
23BE
  8
FUTO
 10
22535.591217890069
 20
1656.1725159201169
 30
0.0
 11
22545.591217890069
 21
1656.1725159201151
 31
0.0
  0
ARC
  5
23BF
  8
FUTO
 10
22547.591217890062
 20
1620.6725159201151
 30
0.0
 40
2.0
 50
180.0
 51
270.0
  0
LINE
  5
23C0
  8
FUTO
 10
22552.439592890059
 20
1618.672515920113
 30
0.0
 11
22547.591217890062
 21
1618.6725159201151
 31
0.0
  0
LINE
  5
23C1
  8
KL
 10
22550.591217890069
 20
1603.6420329201119
 30
0.0
 11
22545.591217890062
 21
1603.6420329201139
 31
0.0
  0
LINE
  5
23C3
  8
FUTO
 10
22545.591217890062
 20
1620.6725159201151
 30
0.0
 11
22545.591217890102
 21
1791.6725159201139
 31
0.0
  0
LINE
  5
23C4
  8
FUTO
 10
22535.591217890069
 20
1656.1725159201169
 30
0.0
 11
22535.591217890102
 21
1756.1725159201169
 31
0.0
  0
LINE
  5
23C6
  8
FUTO
 10
22365.591217890091
 20
1753.672515920153
 30
0.0
 11
22505.591217890091
 21
1753.6725159201239
 31
0.0
  0
LINE
  5
23C7
  8
FUTO
 10
22535.591217890102
 20
1748.672515920116
 30
0.0
 11
22365.591217890091
 21
1748.672515920153
 31
0.0
  0
LINE
  5
23C8
  8
FUTO
 10
22365.591217890069
 20
1663.672515920153
 30
0.0
 11
22535.591217890069
 21
1663.6725159201169
 31
0.0
  0
ARC
  5
23CD
  8
KL
 10
23080.591217890051
 20
1555.64455292
 30
0.0
 40
5.0
 50
90.0
 51
180.0
  0
LINE
  5
23CE
  8
KL
 10
22552.091217890149
 20
1993.672515920113
 30
0.0
 11
22652.091217890142
 21
1993.672515920091
 31
0.0
  0
LINE
  5
23CF
  8
KL
 10
22864.59121789016
 20
2041.172515920046
 30
0.0
 11
22634.59121789016
 21
2041.1725159200951
 31
0.0
  0
LINE
  5
23D0
  8
CT
 10
22656.110176890172
 20
2131.172515920091
 30
0.0
 11
22836.033544890171
 21
2131.1725159200528
 31
0.0
  0
LINE
  5
23D1
  8
KL
 10
22864.591217890149
 20
2011.172515920045
 30
0.0
 11
22634.591217890149
 21
2011.1725159200951
 31
0.0
  0
LINE
  5
23D2
  8
KL
 10
22935.091217890149
 20
1991.98659292003
 30
0.0
 11
22679.591217890149
 21
1991.9865929200851
 31
0.0
  0
LINE
  5
23D3
  8
KL
 10
22669.591217890149
 20
2001.1725159200871
 30
0.0
 11
22829.591217890149
 21
2001.172515920053
 31
0.0
  0
LINE
  5
23D4
  8
KL
 10
22622.991241890159
 20
2042.1144489200981
 30
0.0
 11
22604.59121789016
 21
2042.1144489201019
 31
0.0
  0
ARC
  5
23D5
  8
KL
 10
22634.591095890151
 20
2052.7724039200939
 30
0.0
 40
11.599888
 50
179.99945399997631
 51
270.0006100000092
  0
LINE
  5
23D6
  8
KL
 10
22664.73430989014
 20
1982.4011209200901
 30
0.0
 11
22669.591217890142
 21
1990.8135319200869
 31
0.0
  0
LINE
  5
23D7
  8
KL
 10
22679.591217890149
 20
1991.9865929200851
 30
0.0
 11
22652.091217890142
 21
1974.243972920091
 31
0.0
  0
LINE
  5
23D8
  8
KL
 10
22668.36378989014
 20
1988.6875639200889
 30
0.0
 11
22652.091217890142
 21
1977.83918292009
 31
0.0
  0
LINE
  5
23D9
  8
KL
 10
22669.591217890142
 20
1990.8135319200869
 30
0.0
 11
22669.591217890149
 21
2011.172515920088
 31
0.0
  0
ARC
  5
23DA
  8
KL
 10
22634.591217890149
 20
2022.7724649200941
 30
0.0
 40
11.599949000000001
 50
179.9997550000013
 51
270.0
  0
LINE
  5
23DB
  8
KL
 10
22829.591217890149
 20
2011.172515920053
 30
0.0
 11
22829.591217890142
 21
1991.9865929200521
 31
0.0
  0
ARC
  5
23DC
  8
KL
 10
22864.591248890159
 20
2052.772491920045
 30
0.0
 40
11.599976
 50
269.99984700005228
 51
0.0001069999742915
  0
LINE
  5
23DD
  8
KL
 10
22876.19122389015
 20
2042.114448920044
 30
0.0
 11
22894.59121789016
 21
2042.1144489200401
 31
0.0
  0
ARC
  5
23DE
  8
KL
 10
22864.591217890149
 20
2022.7725129200451
 30
0.0
 40
11.600006
 50
270.0
 51
0.0000150000275647
  0
LINE
  5
23DF
  8
KL
 10
22879.591217890149
 20
1996.1725159200439
 30
0.0
 11
22875.405294890141
 21
1991.986592920043
 31
0.0
  0
LINE
  5
23E0
  8
KL
 10
22604.5912178902
 20
2226.8377689201011
 30
0.0
 11
22894.5912178902
 21
2226.8377689200388
 31
0.0
  0
LINE
  5
23E1
  8
KL
 10
22622.991241890191
 20
2217.643874920097
 30
0.0
 11
22876.19122389019
 21
2217.6438749200429
 31
0.0
  0
LINE
  5
23E2
  8
KL
 10
22864.5912178902
 20
2259.2306669200452
 30
0.0
 11
22634.5912178902
 21
2259.2306669200939
 31
0.0
  0
ARC
  5
23E3
  8
KL
 10
22634.5912178902
 20
2247.6307219200939
 30
0.0
 40
11.599976
 50
90.0
 51
180.0003050000046
  0
LINE
  5
23E4
  8
KL
 10
22622.991241890191
 20
2226.837768920097
 30
0.0
 11
22622.991241890199
 21
2247.6306609200969
 31
0.0
  0
ARC
  5
23E5
  8
KL
 10
22864.5912178902
 20
2247.6306769200442
 30
0.0
 40
11.599990999999999
 50
359.99992399997137
 51
90.0
  0
LINE
  5
23E6
  8
KL
 10
22876.1912238902
 20
2247.6306609200419
 30
0.0
 11
22876.19122389019
 21
2226.8377689200429
 31
0.0
  0
LINE
  5
23E8
  8
KL
 10
23200.591217890142
 20
1993.672515919975
 30
0.0
 11
23395.591217890142
 21
1993.6725159199309
 31
0.0
  0
LINE
  5
23E9
  8
KL
 10
23395.591217890142
 20
1993.6725159199309
 30
0.0
 11
23455.591217890131
 21
1936.1725159199179
 31
0.0
  0
LINE
  5
23EA
  8
KL
 10
23190.591217890149
 20
1996.1725159199759
 30
0.0
 11
23200.591217890142
 21
1989.505849919974
 31
0.0
  0
LINE
  5
23EB
  8
KL
 10
23190.591217890149
 20
1991.9865929199759
 30
0.0
 11
23200.591217890142
 21
1985.5347309199719
 31
0.0
  0
LINE
  5
2519
  8
SL
 10
17169.051608319209
 20
5802.479993435014
 30
0.0
 11
17169.051608319209
 21
6489.8589269734912
 31
0.0
  0
LINE
  5
251A
  8
FUTO
 10
17069.051608319209
 20
7269.479993435014
 30
0.0
 11
17069.051608319209
 21
7344.479993435014
 31
0.0
  0
LINE
  5
251B
  8
FUTO
 10
17244.051608319209
 20
6706.2799934349459
 30
0.0
 11
17244.051608319209
 21
7269.479993435014
 31
0.0
  0
LINE
  5
251C
  8
FUTO
 10
17169.051608319209
 20
6489.8589269734912
 30
0.0
 11
17169.051608319209
 21
7269.479993435014
 31
0.0
  0
LINE
  5
251D
  8
SL
 10
17694.051608319209
 20
5802.479993435014
 30
0.0
 11
17694.05160831922
 21
6706.2799934349459
 31
0.0
  0
LINE
  5
251E
  8
SL
 10
17769.051608319209
 20
5802.4799934350121
 30
0.0
 11
17769.051608319209
 21
6489.8589269734894
 31
0.0
  0
LINE
  5
251F
  8
FUTO
 10
17769.051608319209
 20
6489.8589269734894
 30
0.0
 11
17769.05160831922
 21
7269.479993435014
 31
0.0
  0
LINE
  5
2520
  8
FUTO
 10
17694.05160831922
 20
6706.2799934349459
 30
0.0
 11
17694.05160831922
 21
7269.479993435014
 31
0.0
  0
LINE
  5
2523
  8
FUTO
 10
20811.051608319209
 20
8902.4799934350194
 30
0.0
 11
19310.051608319209
 21
8902.4799934350194
 31
0.0
  0
LINE
  5
2524
  8
FUTO
 10
20811.051608319209
 20
7294.4799934350167
 30
0.0
 11
19310.051608319209
 21
7294.4799934350149
 31
0.0
  0
LINE
  5
2525
  8
FUTO
 10
17092.051608319209
 20
7344.4799934350131
 30
0.0
 11
17069.051608319209
 21
7344.479993435014
 31
0.0
  0
DIMENSION
  5
2555
  8
SP
  2
*D14
 10
21158.318916800821
 20
8098.4799934350167
 30
0.0
 11
21158.318916800821
 21
8534.2668021751615
 31
0.0
 70
   128
 13
20394.051608319209
 23
9003.4799934350158
 33
0.0
 14
20814.95832000138
 24
8098.4799934350167
 34
0.0
 50
90.0
1001
ACAD
1000
DSTYLE
1002
{
1070
   287
1070
     3
1070
    40
1040
45.0
1070
   140
1040
3.0
1070
   147
1040
0.5
1070
   173
1070
     1
1070
   279
1070
     0
1070
   341
1005
24
1070
     6
1000
OPEN
1070
     7
1000
OPEN
1002
}
  0
DIMENSION
  5
2562
  8
SP
  2
*D15
 10
21158.31891680081
 20
5498.4799934350194
 30
0.0
 11
21158.31891680081
 21
6798.4799934350194
 31
0.0
 70
   128
 13
20814.95832000138
 23
8098.4799934350167
 33
0.0
 14
19799.051608319209
 24
5498.4799934350194
 34
0.0
 50
90.0
1001
ACAD
1000
DSTYLE
1002
{
1070
   287
1070
     3
1070
    40
1040
45.0
1070
   140
1040
3.0
1070
   147
1040
0.5
1070
   173
1070
     1
1070
   279
1070
     0
1070
   341
1005
24
1070
     6
1000
OPEN
1070
     7
1000
OPEN
1002
}
  0
LINE
  5
259B
  8
KL
 10
18178.051608319209
 20
1774.868430081031
 30
0.0
 11
18178.051608319209
 21
2640.2177695345949
 31
0.0
  0
LINE
  5
259C
  8
KL
 10
18169.051608319209
 20
1769.9450401969909
 30
0.0
 11
18169.051608319209
 21
2632.9336206159751
 31
0.0
  0
LINE
  5
259D
  8
KL
 10
18160.051608319209
 20
1765.0216503129509
 30
0.0
 11
18160.051608319209
 21
2625.6494716973548
 31
0.0
  0
LINE
  5
259E
  8
FUTO
 10
18160.051608319209
 20
2625.6494716973539
 30
0.0
 11
18160.051608319209
 21
2937.1725159201628
 31
0.0
  0
LINE
  5
259F
  8
FUTO
 10
18169.051608319209
 20
2632.9336206159751
 30
0.0
 11
18169.051608319209
 21
2937.1725159201628
 31
0.0
  0
LINE
  5
25A0
  8
FUTO
 10
18178.051608319209
 20
2640.2177695345949
 30
0.0
 11
18178.051608319209
 21
2937.1725159201628
 31
0.0
  0
LINE
  5
25A1
  8
FUTO
 10
18567.19696340989
 20
2955.1725159201628
 30
0.0
 11
17244.479985237449
 21
2955.1725159201628
 31
0.0
  0
LINE
  5
25A2
  8
FUTO
 10
18556.076927163391
 20
2946.1725159201628
 30
0.0
 11
17207.424975955761
 21
2946.1725159201628
 31
0.0
  0
LINE
  5
25A3
  8
FUTO
 10
18544.956890916881
 20
2937.1725159201619
 30
0.0
 11
17244.479985237449
 21
2937.1725159201628
 31
0.0
  0
LINE
  5
26BF
  8
SP
 10
17244.479985237449
 20
2955.1725159201628
 30
0.0
 11
17244.479985237449
 21
2937.1725159201628
 31
0.0
  0
LINE
  5
26C0
  8
FUTO
 10
18519.051608319209
 20
1356.1725159201631
 30
0.0
 11
18745.54382167009
 21
2085.3112548013892
 31
0.0
  0
LINE
  5
26C1
  8
FUTO
 10
20119.051608319209
 20
1356.1725159201631
 30
0.0
 11
19711.153717160261
 21
2669.3044313701348
 31
0.0
  0
LINE
  5
26C3
  8
KL
 10
19519.051608319209
 20
2937.1725159201628
 30
0.0
 11
19798.967225902132
 21
2937.1725159201628
 31
0.0
  0
LINE
  5
26C4
  8
KL
 10
19519.051608319209
 20
2955.1725159201628
 30
0.0
 11
19798.967225902132
 21
2955.1725159201628
 31
0.0
  0
LINE
  5
26C5
  8
KL
 10
19519.051608319209
 20
2946.1725159201628
 30
0.0
 11
19799.051608319209
 21
2946.1725159201628
 31
0.0
  0
LINE
  5
26C6
  8
KL
 10
19519.051608319209
 20
2937.1725159201628
 30
0.0
 11
19519.051608319209
 21
2955.1725159201628
 31
0.0
  0
LINE
  5
26C7
  8
FUTO
 10
19798.967225902132
 20
2955.1725159201628
 30
0.0
 11
20811.051608319209
 21
2955.1725159201628
 31
0.0
  0
LINE
  5
26C8
  8
FUTO
 10
19798.967225902132
 20
2937.1725159201628
 30
0.0
 11
20811.051608319209
 21
2937.1725159201628
 31
0.0
  0
LINE
  5
26C9
  8
CT
 10
20207.55133519282
 20
2946.1725159201628
 30
0.0
 11
20882.89518615339
 21
2946.1725159201628
 31
0.0
  0
LINE
  5
26CD
  8
FUTO
 10
20811.051608319209
 20
2937.1725159201628
 30
0.0
 11
20811.051608319209
 21
2955.1725159201628
 31
0.0
  0
LINE
  5
26CE
  8
FUTO
 10
20811.051608319209
 20
7294.4799934350149
 30
0.0
 11
20811.051608319209
 21
8902.4799934350194
 31
0.0
  0
LINE
  5
26CF
  8
FUTO
 10
20761.051608319209
 20
7344.479993435014
 30
0.0
 11
20761.051608319209
 21
8852.4799934350194
 31
0.0
  0
LINE
  5
26EE
  8
FUTO
 10
19235.051608319209
 20
7344.4799934350131
 30
0.0
 11
19235.051608319209
 21
8852.4799934350194
 31
0.0
  0
LINE
  5
26EF
  8
FUTO
 10
19310.051608319209
 20
7269.4799934350121
 30
0.0
 11
19310.051608319209
 21
8927.4799934350194
 31
0.0
  0
LINE
  5
26F0
  8
FUTO
 10
20469.051608319209
 20
7269.4799934350121
 30
0.0
 11
20469.051608319209
 21
7344.479993435014
 31
0.0
  0
LINE
  5
26F1
  8
FUTO
 10
20469.051608319209
 20
8852.4799934350194
 30
0.0
 11
20469.051608319209
 21
8927.4799934350194
 31
0.0
  0
LINE
  5
26F2
  8
FUTO
 10
19235.051608319209
 20
7344.479993435014
 30
0.0
 11
17167.051608319471
 21
7344.479993435014
 31
0.0
  0
LINE
  5
26F3
  8
FUTO
 10
19235.051608319209
 20
8852.4799934350176
 30
0.0
 11
17167.051608320489
 21
8852.4799934350194
 31
0.0
  0
LINE
  5
26F5
  8
SL
 10
17167.051608320551
 20
8852.4799934350194
 30
0.0
 11
19235.051608319209
 21
7344.479993435014
 31
0.0
  0
LINE
  5
26F6
  8
SL
 10
19235.051608319209
 20
8852.4799934350176
 30
0.0
 11
17167.051608319871
 21
7344.479993435014
 31
0.0
  0
DIMENSION
  5
26F7
  8
FUTO
  2
*D16
 10
19319.051608319209
 20
9433.4457829409184
 30
0.0
 11
18194.051608319209
 21
9523.4457829409203
 31
0.0
 70
     0
 13
17069.051608319209
 23
7344.479993435014
 33
0.0
 14
19319.051608319209
 24
9257.0983738690611
 34
0.0
1001
ACAD
1000
DSTYLE
1002
{
1070
   287
1070
     3
1070
    40
1040
45.0
1070
   140
1040
3.0
1070
   147
1040
0.5
1070
   173
1070
     1
1070
   279
1070
     0
1070
   341
1005
24
1070
     6
1000
OPEN
1070
     7
1000
OPEN
1002
}
  0
DIMENSION
  5
2704
  8
FUTO
  2
*D17
 10
20811.051608319209
 20
9433.4457829409184
 30
0.0
 11
20065.051608319209
 21
9523.4457829409203
 31
0.0
 70
     0
 13
19319.051608319209
 23
9257.0983738690611
 33
0.0
 14
20811.051608319209
 24
8902.4799934350194
 34
0.0
1001
ACAD
1000
DSTYLE
1002
{
1070
   287
1070
     3
1070
    40
1040
45.0
1070
   140
1040
3.0
1070
   147
1040
0.5
1070
   173
1070
     1
1070
   279
1070
     0
1070
   341
1005
24
1070
     6
1000
OPEN
1070
     7
1000
OPEN
1002
}
  0
DIMENSION
  5
2711
  8
FUTO
  2
*D18
 10
21058.157458614631
 20
2946.1725159201628
 30
0.0
 11
20968.157458614631
 21
2061.172515920166
 31
0.0
 70
     0
 13
20469.051608319209
 23
1176.1725159201631
 33
0.0
 14
20882.89518615339
 24
2946.1725159201628
 34
0.0
 50
90.0
1001
ACAD
1000
DSTYLE
1002
{
1070
   287
1070
     3
1070
    40
1040
45.0
1070
   140
1040
3.0
1070
   147
1040
0.5
1070
   173
1070
     1
1070
   279
1070
     0
1070
   341
1005
24
1070
     6
1000
OPEN
1070
     7
1000
OPEN
1002
}
  0
DIMENSION
  5
271E
  8
FUTO
  2
*D19
 10
21058.157458614631
 20
4221.1725159206189
 30
0.0
 11
20968.157458614631
 21
3583.6725159203938
 31
0.0
 70
     0
 13
20882.89518615339
 23
2946.1725159201628
 33
0.0
 14
19310.051608319209
 24
4221.1725159206189
 34
0.0
 50
90.0
1001
ACAD
1000
DSTYLE
1002
{
1070
   287
1070
     3
1070
    40
1040
45.0
1070
   140
1040
3.0
1070
   147
1040
0.5
1070
   173
1070
     1
1070
   279
1070
     0
1070
   341
1005
24
1070
     6
1000
OPEN
1070
     7
1000
OPEN
1002
}
  0
LINE
  5
272B
  8
SL
 10
17361.31036033258
 20
1847.233047190535
 30
0.0
 11
19127.848830202081
 21
3196.5052897239402
 31
0.0
  0
LINE
  5
272C
  8
SL
 10
17558.586948158831
 20
1552.9091056755569
 30
0.0
 11
19477.945310006431
 21
2674.1839287255279
 31
0.0
  0
LINE
  5
272D
  8
FUTO
 10
17292.898974005839
 20
1923.8195913070299
 30
0.0
 11
19017.075663782009
 21
3319.2817880119519
 31
0.0
  0
LINE
  5
272E
  8
FUTO
 10
17603.430891288859
 20
1460.526005038023
 30
0.0
 11
19549.416093410029
 21
2525.0642115507981
 31
0.0
  0
ARC
  5
272F
  8
FUTO
 10
17469.051608319209
 20
1706.172515920153
 30
0.0
 40
310.0
 50
0.0
 51
239.897691931688
  0
ARC
  5
2730
  8
FUTO
 10
19172.051608319209
 20
3093.1725159201628
 30
0.0
 40
1903.0
 50
229.60123389991489
 51
245.89089985454851
  0
LINE
  5
2731
  8
KL
 10
19711.153717160261
 20
2669.3044313701348
 30
0.0
 11
19668.638412796659
 21
2806.1725159201628
 31
0.0
  0
LINE
  5
2732
  8
KL
 10
18745.54382167009
 20
2085.3112548013892
 30
0.0
 11
18969.464803841762
 21
2806.1725159201628
 31
0.0
  0
LINE
  5
2733
  8
FUTO
 10
25675.991217890089
 20
4146.1725159201633
 30
0.0
 11
24019.591217890091
 21
4146.1725159201651
 31
0.0
  0
LINE
  5
2734
  8
FUTO
 10
25675.991217890089
 20
4215.1725159201633
 30
0.0
 11
24019.591217890091
 21
4215.1725159201633
 31
0.0
  0
LINE
  5
2735
  8
FUTO
 10
25675.991217890089
 20
4221.1725159201633
 30
0.0
 11
24019.591217890091
 21
4221.1725159201633
 31
0.0
  0
LINE
  5
2736
  8
FUTO
 10
25675.991217890089
 20
4221.1725159207481
 30
0.0
 11
24019.591217890091
 21
4221.1725159214984
 31
0.0
  0
LINE
  5
2737
  8
FUTO
 10
25675.991217890089
 20
4221.1725159203061
 30
0.0
 11
24019.591217890091
 21
4221.1725159214366
 31
0.0
  0
DIMENSION
  5
2790
  8
FUTO
  2
*D20
 10
25752.791217890092
 20
4697.3045213335481
 30
0.0
 11
25300.291217890081
 21
4787.3045213335481
 31
0.0
 70
     0
 13
24847.791217890081
 23
4629.8642929906646
 33
0.0
 14
25752.791217890092
 24
4021.1725159201628
 34
0.0
1001
ACAD
1000
DSTYLE
1002
{
1070
   287
1070
     3
1070
    40
1040
45.0
1070
   140
1040
3.0
1070
   147
1040
0.5
1070
   173
1070
     1
1070
   279
1070
     0
1070
   341
1005
24
1070
     6
1000
OPEN
1070
     7
1000
OPEN
1002
}
  0
LINE
  5
2DC1
  8
4
 10
25893.45228292625
 20
-882.74576535327287
 30
0.0
 11
25893.45228292625
 21
-2082.745765353272
 31
0.0
  0
LINE
  5
2DC2
  8
4
 10
21693.45228292625
 20
-882.74576535327287
 30
0.0
 11
21693.45228292625
 21
-2082.745765353272
 31
0.0
  0
LINE
  5
2DC3
  8
4
 10
18693.45228292625
 20
-882.74576535327287
 30
0.0
 11
18693.45228292625
 21
-2082.745765353272
 31
0.0
  0
LINE
  5
2DC6
  8
4
 10
18693.45228292625
 20
-2082.745765353272
 30
0.0
 11
25893.45228292625
 21
-2082.745765353272
 31
0.0
  0
LINE
  5
2DC7
  8
4
 10
18693.45228292625
 20
-1482.745765353272
 30
0.0
 11
25893.45228292625
 21
-1482.745765353272
 31
0.0
  0
TEXT
  5
2DC8
  8
4
 10
18924.464768007671
 20
-1293.4876101535949
 30
0.0
 40
300.0
  1
機器名称
  0
TEXT
  5
2DC9
  8
4
 10
18911.000919075039
 20
-1952.874824961207
 30
0.0
 40
300.0
  1
機器型番
  0
TEXT
  5
2DCA
  8
4
 10
21722.210653132512
 20
-1349.6219512115929
 30
0.0
 40
270.0
  1
ミツヤリミットロードファン
  0
TEXT
  5
2DCB
  8
4
 10
21913.379256439141
 20
-1979.7882596736119
 30
0.0
 40
300.0
  1
LL#12-1
  0
TEXT
  5
2DCD
  8
4
 10
16690.457842902932
 20
11320.540091842509
 30
0.0
 40
432.0
  1
遠心式片吸込片持リミットロードファン
  0
LINE
  5
2DCE
  8
4
 10
16293.45228292625
 20
10933.706760235549
 30
0.0
 11
25893.45228292625
 21
10933.706760235549
 31
0.0
  0
LINE
  5
2DCF
  8
4
 10
16293.45228292625
 20
12133.706760235549
 30
0.0
 11
25893.45228292625
 21
12133.706760235549
 31
0.0
  0
LINE
  5
2DD0
  8
4
 10
18693.45228292625
 20
-882.74576535327287
 30
0.0
 11
25893.45228292625
 21
-882.74576535327287
 31
0.0
  0
LINE
  5
2DD1
  8
4
 10
16293.45228292625
 20
12133.706760235549
 30
0.0
 11
16293.45228292625
 21
10933.706760235549
 31
0.0
  0
TEXT
  5
2DD2
  8
4
 10
23607.269638422
 20
12353.62072361858
 30
0.0
 40
336.00000000000011
  1
No.
  0
TEXT
  5
2DD3
  8
4
 10
23692.523253807922
 20
9770.0553382891339
 30
0.0
 40
323.99999999999989
  1
縮尺：1/60
  0
LINE
  5
2DD4
  8
4
 10
25893.45228292625
 20
12133.706760235549
 30
0.0
 11
25893.45228292625
 21
10933.706760235549
 31
0.0
  0
LINE
  5
2DD5
  8
4
 10
27393.45228292625
 20
13817.25423464672
 30
0.0
 11
27393.45228292625
 21
13817.25423464672
 31
0.0
  0
LINE
  5
2DD6
  8
4
 10
23437.156817085441
 20
12204.83573339913
 30
0.0
 11
23437.156817085441
 21
12837.16780394524
 31
0.0
  0
LINE
  5
2DD7
  8
4
 10
23437.156817085441
 20
12837.16780394524
 30
0.0
 11
25893.45228292625
 21
12837.16780394524
 31
0.0
  0
LINE
  5
2DD8
  8
4
 10
25893.45228292625
 20
12837.16780394524
 30
0.0
 11
25893.45228292625
 21
12204.83573339913
 31
0.0
  0
LINE
  5
2DD9
  8
4
 10
25893.45228292625
 20
12204.83573339913
 30
0.0
 11
23437.156817085441
 21
12204.83573339913
 31
0.0
  0
LINE
  5
2DDA
  8
4
 10
14793.45228292625
 20
-3882.7457653532729
 30
0.0
 11
14793.45228292625
 21
13817.25423464672
 31
0.0
  0
LINE
  5
2DDB
  8
4
 10
14793.45228292625
 20
13817.25423464672
 30
0.0
 11
27393.45228292625
 21
13817.25423464672
 31
0.0
  0
LINE
  5
2DDC
  8
4
 10
27393.45228292625
 20
13817.25423464672
 30
0.0
 11
27393.45228292625
 21
-3882.7457653532729
 31
0.0
  0
LINE
  5
2DDD
  8
4
 10
27393.45228292625
 20
-3882.7457653532729
 30
0.0
 11
14793.45228292625
 21
-3882.7457653532729
 31
0.0
  0
TEXT
  5
2DDE
  8
4
 10
19742.269358973059
 20
10377.816761904051
 30
0.0
 40
323.99999999999989
  1
床置ベット
  0
TEXT
  5
2DDF
  8
4
 10
16574.162908178871
 20
10396.32589925402
 30
0.0
 40
323.99999999999989
  1
右回転上向
  0
ENDSEC
  0
EOF
