  0
SECTION
  2
HEADER
  9
$ACADVER
  1
AC1009
  9
$INSBASE
 10
0.0
 20
0.0
 30
0.0
  9
$EXTMIN
 10
14876.9855190034
 20
-6352.4748155562957
 30
0.0
  9
$EXTMAX
 10
27476.9855190034
 20
11347.525184443701
 30
0.0
  9
$LIMMIN
 10
0.0
 20
0.0
  9
$LIMMAX
 10
297.0
 20
210.0
  9
$ORTHOMODE
 70
     0
  9
$REGENMODE
 70
     1
  9
$FILLMODE
 70
     1
  9
$QTEXTMODE
 70
     0
  9
$MIRRTEXT
 70
     0
  9
$DRAGMODE
 70
     2
  9
$LTSCALE
 40
225.0
  9
$OSMODE
 70
    37
  9
$ATTMODE
 70
     1
  9
$TEXTSIZE
 40
120.0
  9
$TRACEWID
 40
0.05
  9
$TEXTSTYLE
  7
STANDARD
  9
$CLAYER
  8
SP
  9
$CELTYPE
  6
BYLAYER
  9
$CECOLOR
 62
   256
  9
$DIMSCALE
 40
45.0
  9
$DIMASZ
 40
2.0
  9
$DIMEXO
 40
1.0
  9
$DIMDLI
 40
10.0
  9
$DIMRND
 40
0.0
  9
$DIMDLE
 40
0.0
  9
$DIMEXE
 40
1.0
  9
$DIMTP
 40
0.0
  9
$DIMTM
 40
0.0
  9
$DIMTXT
 40
3.0
  9
$DIMCEN
 40
0.0
  9
$DIMTSZ
 40
0.0
  9
$DIMTOL
 70
     0
  9
$DIMLIM
 70
     0
  9
$DIMTIH
 70
     0
  9
$DIMTOH
 70
     0
  9
$DIMSE1
 70
     0
  9
$DIMSE2
 70
     0
  9
$DIMTAD
 70
     1
  9
$DIMZIN
 70
     8
  9
$DIMBLK
  1

  9
$DIMASO
 70
     1
  9
$DIMSHO
 70
     1
  9
$DIMPOST
  1

  9
$DIMAPOST
  1

  9
$DIMALT
 70
     0
  9
$DIMALTD
 70
     2
  9
$DIMALTF
 40
25.399999999999999
  9
$DIMLFAC
 40
1.0
  9
$DIMTOFL
 70
     1
  9
$DIMTVP
 40
0.0
  9
$DIMTIX
 70
     0
  9
$DIMSOXD
 70
     0
  9
$DIMSAH
 70
     1
  9
$DIMBLK1
  1
OPEN
  9
$DIMBLK2
  1
OPEN
  9
$DIMSTYLE
  2
DIA1
  9
$DIMCLRD
 70
     2
  9
$DIMCLRE
 70
     2
  9
$DIMCLRT
 70
     2
  9
$DIMTFAC
 40
1.0
  9
$DIMGAP
 40
0.5
  9
$LUNITS
 70
     2
  9
$LUPREC
 70
     3
  9
$SKETCHINC
 40
0.1
  9
$FILLETRAD
 40
10.0
  9
$AUNITS
 70
     0
  9
$AUPREC
 70
     2
  9
$MENU
  1
acad
  9
$ELEVATION
 40
0.0
  9
$PELEVATION
 40
0.0
  9
$THICKNESS
 40
0.0
  9
$LIMCHECK
 70
     0
  9
$BLIPMODE
 70
     0
  9
$CHAMFERA
 40
10.0
  9
$CHAMFERB
 40
10.0
  9
$SKPOLY
 70
     0
  9
$TDCREATE
 40
2451270.426261805
  9
$TDUPDATE
 40
2454953.651259583
  9
$TDINDWG
 40
0.8533131713
  9
$TDUSRTIMER
 40
0.8533131713
  9
$USRTIMER
 70
     1
  9
$ANGBASE
 50
0.0
  9
$ANGDIR
 70
     0
  9
$PDMODE
 70
     0
  9
$PDSIZE
 40
1.0
  9
$PLINEWID
 40
0.0
  9
$COORDS
 70
     1
  9
$SPLFRAME
 70
     0
  9
$SPLINETYPE
 70
     6
  9
$SPLINESEGS
 70
     8
  9
$ATTDIA
 70
     0
  9
$ATTREQ
 70
     1
  9
$HANDLING
 70
 10241
  9
$HANDSEED
  5
30A1
  9
$SURFTAB1
 70
     6
  9
$SURFTAB2
 70
     6
  9
$SURFTYPE
 70
     6
  9
$SURFU
 70
     6
  9
$SURFV
 70
     6
  9
$UCSNAME
  2

  9
$UCSORG
 10
0.0
 20
0.0
 30
0.0
  9
$UCSXDIR
 10
1.0
 20
0.0
 30
0.0
  9
$UCSYDIR
 10
0.0
 20
1.0
 30
0.0
  9
$PUCSNAME
  2

  9
$PUCSORG
 10
0.0
 20
0.0
 30
0.0
  9
$PUCSXDIR
 10
1.0
 20
0.0
 30
0.0
  9
$PUCSYDIR
 10
0.0
 20
1.0
 30
0.0
  9
$USERI1
 70
     0
  9
$USERI2
 70
     0
  9
$USERI3
 70
     0
  9
$USERI4
 70
     0
  9
$USERI5
 70
     0
  9
$USERR1
 40
0.0
  9
$USERR2
 40
0.0
  9
$USERR3
 40
0.0
  9
$USERR4
 40
0.0
  9
$USERR5
 40
0.0
  9
$WORLDVIEW
 70
     1
  9
$SHADEDGE
 70
     3
  9
$SHADEDIF
 70
    70
  9
$TILEMODE
 70
     1
  9
$MAXACTVP
 70
    16
  9
$PLIMCHECK
 70
     0
  9
$PEXTMIN
 10
1.0000000000000000E+020
 20
1.0000000000000000E+020
 30
1.0000000000000000E+020
  9
$PEXTMAX
 10
-1.0000000000000000E+020
 20
-1.0000000000000000E+020
 30
-1.0000000000000000E+020
  9
$PLIMMIN
 10
0.0
 20
0.0
  9
$PLIMMAX
 10
12.0
 20
9.0
  9
$UNITMODE
 70
     0
  9
$VISRETAIN
 70
     0
  9
$PLINEGEN
 70
     0
  9
$PSLTSCALE
 70
     0
  0
ENDSEC
  0
SECTION
  2
TABLES
  0
TABLE
  2
VPORT
 70
     2
  0
VPORT
  2
*ACTIVE
 70
     0
 10
0.0
 20
0.0
 11
1.0
 21
1.0
 12
26646.888502357659
 22
-4155.5730543695572
 13
0.0
 23
0.0
 14
5.0
 24
5.0
 15
0.0
 25
0.0
 16
0.0
 26
0.0
 36
1.0
 17
0.0
 27
0.0
 37
0.0
 40
5346.2181723452541
 41
3.1666666666666661
 42
50.0
 43
0.0
 44
0.0
 50
0.0
 51
0.0
 71
     0
 72
   100
 73
     1
 74
     0
 75
     0
 76
     0
 77
     0
 78
     0
  0
ENDTAB
  0
TABLE
  2
LTYPE
 70
     4
  0
LTYPE
  2
CONTINUOUS
 70
     0
  3
Solid line
 72
    65
 73
     0
 40
0.0
  0
LTYPE
  2
CENTER
 70
     0
  3
____ _ ____ _ ____ _ ____ _ ____ _ ____ _ ____ 
 72
    65
 73
     4
 40
2.0
 49
1.25
 49
-0.25
 49
0.25
 49
-0.25
  0
LTYPE
  2
HIDDEN
 70
     0
  3
__ __ __ __ __ __ __ __ __ __ __ __ __ __ __ __
 72
    65
 73
     2
 40
0.375
 49
0.25
 49
-0.125
  0
LTYPE
  2
PHANTOM
 70
     0
  3
______  __  __  ______  __  __  ______  __  __ 
 72
    65
 73
     6
 40
2.5
 49
1.25
 49
-0.25
 49
0.25
 49
-0.25
 49
0.25
 49
-0.25
  0
ENDTAB
  0
TABLE
  2
LAYER
 70
     9
  0
LAYER
  2
0
 70
     0
 62
     7
  6
CONTINUOUS
  0
LAYER
  2
CT
 70
     0
 62
     3
  6
CENTER
  0
LAYER
  2
FUTO
 70
     0
 62
     4
  6
CONTINUOUS
  0
LAYER
  2
HOSO
 70
     0
 62
     7
  6
CONTINUOUS
  0
LAYER
  2
KL
 70
     0
 62
     7
  6
HIDDEN
  0
LAYER
  2
SL
 70
     0
 62
     1
  6
PHANTOM
  0
LAYER
  2
SP
 70
     0
 62
     2
  6
CONTINUOUS
  0
LAYER
  2
DEFPOINTS
 70
     0
 62
     7
  6
CONTINUOUS
  0
LAYER
  2
4
 70
     0
 62
     7
  6
CONTINUOUS
  0
ENDTAB
  0
TABLE
  2
STYLE
 70
     1
  0
STYLE
  2
STANDARD
 70
     0
 40
0.0
 41
1.0
 50
15.0
 71
     0
 42
120.0
  3
C:\Program Files\AutoCAD LT\simplex.shx
  4
C:\Program Files\AutoCAD LT\extfont.shx
  0
ENDTAB
  0
TABLE
  2
VIEW
 70
     0
  0
ENDTAB
  0
TABLE
  2
UCS
 70
     0
  0
ENDTAB
  0
TABLE
  2
APPID
 70
     2
  0
APPID
  2
ACAD
 70
     0
  0
APPID
  2
CONTENTBLOCKICON
 70
     0
  0
ENDTAB
  0
TABLE
  2
DIMSTYLE
 70
     2
  0
DIMSTYLE
  2
DIA1
 70
     0
  3

  4

  5

  6

  7

 40
1.0
 41
2.0
 42
1.0
 43
10.0
 44
1.0
 45
0.0
 46
0.0
 47
0.0
 48
0.0
140
2.5
141
0.0
142
0.0
143
25.399999999999999
144
1.0
145
0.0
146
1.0
147
0.09
 71
     0
 72
     0
 73
     0
 74
     0
 75
     0
 76
     0
 77
     1
 78
     8
170
     0
171
     2
172
     1
173
     0
174
     0
175
     0
176
     2
177
     2
178
     2
  0
DIMSTYLE
  2
STANDARD
 70
     0
  3

  4

  5

  6

  7

 40
1.0
 41
0.18
 42
0.0625
 43
0.38
 44
0.18
 45
0.0
 46
0.0
 47
0.0
 48
0.0
140
0.18
141
0.09
142
0.0
143
25.399999999999999
144
1.0
145
0.0
146
1.0
147
0.09
 71
     0
 72
     0
 73
     1
 74
     1
 75
     0
 76
     0
 77
     0
 78
     0
170
     0
171
     2
172
     0
173
     0
174
     0
175
     0
176
     0
177
     0
178
     0
  0
ENDTAB
  0
ENDSEC
  0
SECTION
  2
BLOCKS
  0
BLOCK
  8
0
  2
$MODEL_SPACE
 70
     0
 10
0.0
 20
0.0
 30
0.0
  3
$MODEL_SPACE
  1

  0
ENDBLK
  5
7
  8
0
  0
BLOCK
 67
     1
  8
0
  2
$PAPER_SPACE
 70
     0
 10
0.0
 20
0.0
 30
0.0
  3
$PAPER_SPACE
  1

  0
ENDBLK
  5
A
 67
     1
  8
0
  0
BLOCK
  8
0
  2
_OPEN
 70
     0
 10
0.0
 20
0.0
 30
0.0
  3
_OPEN
  1

  0
LINE
  5
25
  8
0
  6
BYBLOCK
 62
     0
 10
-1.0
 20
0.1666666666666666
 30
0.0
 11
0.0
 21
0.0
 31
0.0
  0
LINE
  5
26
  8
0
  6
BYBLOCK
 62
     0
 10
0.0
 20
0.0
 30
0.0
 11
-1.0
 21
-0.1666666666666666
 31
0.0
  0
LINE
  5
27
  8
0
  6
BYBLOCK
 62
     0
 10
0.0
 20
0.0
 30
0.0
 11
-1.0
 21
0.0
 31
0.0
  0
ENDBLK
  5
29
  8
0
  0
BLOCK
  8
0
  2
L-75-6
 70
     0
 10
0.0
 20
0.0
 30
0.0
  3
L-75-6
  1

  0
LINE
  5
293
  8
0
 10
114.6064614035558
 20
81.429596884474719
 30
0.0
 11
189.60646140355581
 21
81.429596884474719
 31
0.0
  0
LINE
  5
294
  8
0
 10
114.6064614035558
 20
81.429596884474719
 30
0.0
 11
114.6064614035558
 21
156.42959688447471
 31
0.0
  0
LINE
  5
295
  8
0
 10
189.60646140355581
 20
81.429596884474719
 30
0.0
 11
189.60646140355581
 21
83.429596884474705
 31
0.0
  0
LINE
  5
296
  8
0
 10
114.6064614035558
 20
156.42959688447471
 30
0.0
 11
116.6064614035558
 21
156.42959688447471
 31
0.0
  0
LINE
  5
297
  8
0
 10
120.6064614035558
 20
95.929596884474705
 30
0.0
 11
120.6064614035558
 21
152.42959688447471
 31
0.0
  0
LINE
  5
298
  8
0
 10
129.10646140355581
 20
87.429596884474719
 30
0.0
 11
185.60646140355581
 21
87.429596884474719
 31
0.0
  0
ARC
  5
299
  8
0
 10
185.60646140355581
 20
83.429596884474705
 30
0.0
 40
4.0
 50
0.0
 51
90.0
  0
ARC
  5
29A
  8
0
 10
116.6064614035558
 20
152.42959688447471
 30
0.0
 40
4.0
 50
0.0
 51
90.0
  0
ARC
  5
29B
  8
0
 10
129.10646140355581
 20
95.929596884474705
 30
0.0
 40
8.5
 50
180.0
 51
270.0
  0
ENDBLK
  5
29D
  8
0
  0
BLOCK
  8
0
  2
22222F
 70
     0
 10
0.0
 20
0.0
 30
0.0
  3
22222F
  1

  0
ARC
  5
228
  8
FUTO
 10
-0.0000000000000568
 20
0.0
 30
0.0
 40
130.0
 50
124.6637959032814
 51
175.3362040967184
  0
ARC
  5
229
  8
FUTO
 10
-0.0000000000000568
 20
0.0
 30
0.0
 40
130.0
 50
4.6637959032815717
 51
55.336204096718511
  0
ARC
  5
22A
  8
FUTO
 10
-0.0000000000000568
 20
0.0
 30
0.0
 40
115.0
 50
8.9772148936872895
 51
51.022785106312661
  0
ARC
  5
22B
  8
FUTO
 10
-0.0000000000000568
 20
0.0
 30
0.0
 40
115.0
 50
128.9772148936872
 51
171.02278510631271
  0
ARC
  5
22C
  8
FUTO
 10
-57.499999999999829
 20
99.592921435210386
 30
0.0
 40
18.0
 50
25.51139255315622
 51
214.4886074468437
  0
ARC
  5
22D
  8
FUTO
 10
57.5
 20
99.592921435210243
 30
0.0
 40
18.0
 50
325.51139255315621
 51
154.4886074468437
  0
LINE
  5
22E
  8
FUTO
 10
-110.0
 20
-127.0
 30
0.0
 11
-0.0000000000000568
 21
-127.0
 31
0.0
  0
ARC
  5
22F
  8
FUTO
 10
-0.0000000000000568
 20
0.0
 30
0.0
 40
115.0
 50
248.9772148936872
 51
291.0227851063126
  0
CIRCLE
  5
230
  8
FUTO
 10
-0.0000000000000568
 20
0.0
 30
0.0
 40
54.0
  0
LINE
  5
231
  8
CT
 10
-190.0
 20
-140.0
 30
0.0
 11
-190.0
 21
-70.0
 31
0.0
  0
LINE
  5
232
  8
FUTO
 10
-225.0
 20
-130.0
 30
0.0
 11
-110.0
 21
-130.0
 31
0.0
  0
LINE
  5
233
  8
FUTO
 10
-125.0000000000001
 20
-80.0
 30
0.0
 11
-222.0
 21
-80.0
 31
0.0
  0
ARC
  5
234
  8
FUTO
 10
-222.0
 20
-83.0
 30
0.0
 40
3.0
 50
90.0
 51
180.0
  0
LINE
  5
235
  8
FUTO
 10
-225.0
 20
-83.0
 30
0.0
 11
-225.0
 21
-130.0
 31
0.0
  0
LINE
  5
236
  8
FUTO
 10
-129.99999999999929
 20
-9.9498743710669828
 30
0.0
 11
-130.0
 21
-60.0
 31
0.0
  0
ARC
  5
237
  8
FUTO
 10
-0.0000000000000568
 20
0.0
 30
0.0
 40
115.0
 50
188.9772148936872
 51
231.02278510631271
  0
LINE
  5
238
  8
FUTO
 10
-125.0000000000001
 20
-80.0
 30
0.0
 11
-110.0000000000001
 21
-95.0
 31
0.0
  0
ARC
  5
239
  8
FUTO
 10
-150.0
 20
-60.0
 30
0.0
 40
20.0
 50
270.0
 51
0.0
  0
LINE
  5
23A
  8
FUTO
 10
-110.0
 20
-130.0
 30
0.0
 11
-110.0000000000001
 21
-95.0
 31
0.0
  0
ARC
  5
23B
  8
FUTO
 10
-57.500000000000057
 20
-99.592921435210542
 30
0.0
 40
18.0
 50
145.51139255315621
 51
334.48860744684367
  0
ARC
  5
23C
  8
FUTO
 10
-115.0
 20
0.0
 30
0.0
 40
18.0
 50
85.511392553156256
 51
274.48860744684367
  0
LINE
  5
23D
  8
CT
 10
190.0
 20
-140.0
 30
0.0
 11
190.0
 21
-70.0
 31
0.0
  0
ARC
  5
23E
  8
FUTO
 10
150.0
 20
-60.0
 30
0.0
 40
20.0
 50
180.0
 51
270.0
  0
LINE
  5
23F
  8
FUTO
 10
222.0000000000004
 20
-80.0
 30
0.0
 11
124.9999999999997
 21
-80.0
 31
0.0
  0
LINE
  5
240
  8
FUTO
 10
110.0
 20
-130.0
 30
0.0
 11
225.0
 21
-130.0
 31
0.0
  0
LINE
  5
241
  8
FUTO
 10
130.0
 20
-60.0
 30
0.0
 11
130.0
 21
-9.9498743710661302
 31
0.0
  0
ARC
  5
242
  8
FUTO
 10
-0.0000000000000568
 20
0.0
 30
0.0
 40
115.0
 50
308.97721489368718
 51
351.02278510631271
  0
LINE
  5
243
  8
FUTO
 10
-0.0000000000000568
 20
-127.0
 30
0.0
 11
110.0
 21
-127.0
 31
0.0
  0
ARC
  5
244
  8
FUTO
 10
57.5
 20
-99.592921435210542
 30
0.0
 40
18.0
 50
205.51139255315621
 51
34.488607446843737
  0
LINE
  5
245
  8
FUTO
 10
109.9999999999997
 20
-95.0
 30
0.0
 11
124.9999999999997
 21
-80.0
 31
0.0
  0
LINE
  5
246
  8
FUTO
 10
109.9999999999997
 20
-95.0
 30
0.0
 11
110.0
 21
-130.0
 31
0.0
  0
ARC
  5
247
  8
FUTO
 10
115.0
 20
0.0
 30
0.0
 40
18.0
 50
265.51139255315621
 51
94.488607446843773
  0
ARC
  5
248
  8
FUTO
 10
222.0000000000004
 20
-83.0
 30
0.0
 40
3.0
 50
0.0
 51
90.0
  0
LINE
  5
249
  8
FUTO
 10
225.0
 20
-130.0
 30
0.0
 11
225.0000000000004
 21
-83.0
 31
0.0
  0
LINE
  5
24A
  8
FUTO
 10
19.227247756821669
 20
132.99999999999989
 30
0.0
 11
-19.227247756821779
 21
132.99999999999989
 31
0.0
  0
ARC
  5
24B
  8
FUTO
 10
-0.0000000000000568
 20
0.0
 30
0.0
 40
115.0
 50
68.977214893687218
 51
111.0227851063126
  0
ARC
  5
24C
  8
FUTO
 10
-0.0000000000000568
 20
0.0
 30
0.0
 40
130.0
 50
98.505358450480756
 51
115.3362040967184
  0
LINE
  5
24D
  8
FUTO
 10
-19.227247756821779
 20
113.3812724558063
 30
0.0
 11
-19.227247756821779
 21
132.99999999999989
 31
0.0
  0
ARC
  5
24E
  8
FUTO
 10
-0.0000000000000568
 20
0.0
 30
0.0
 40
130.0
 50
64.663795903281382
 51
81.494641549519287
  0
LINE
  5
24F
  8
FUTO
 10
19.227247756821669
 20
113.3812724558063
 30
0.0
 11
19.227247756821669
 21
132.99999999999989
 31
0.0
  0
ENDBLK
  5
251
  8
0
  0
BLOCK
  8
0
  2
まっすぐの矢印
 70
     0
 10
0.0
 20
0.0
 30
0.0
  3
まっすぐの矢印
  1

  0
LINE
  5
2CF
  8
SP
 10
0.6962157491662495
 20
-2.216890595009601
 30
0.0
 11
0.6962157491662495
 21
-5.0
 31
0.0
  0
LINE
  5
2D0
  8
SP
 10
0.6962157491662495
 20
-5.0
 30
0.0
 11
-0.6962157491662495
 21
-5.0
 31
0.0
  0
LINE
  5
2D1
  8
SP
 10
-0.6962157491662495
 20
-5.0
 30
0.0
 11
-0.6962157491662495
 21
-2.216890595009601
 31
0.0
  0
LINE
  5
2D2
  8
SP
 10
-0.6962157491662495
 20
-2.216890595009601
 30
0.0
 11
-1.7145256852758151
 21
-2.216890595009601
 31
0.0
  0
LINE
  5
2D3
  8
SP
 10
-1.7145256852758151
 20
-2.216890595009601
 30
0.0
 11
0.0
 21
0.0
 31
0.0
  0
LINE
  5
2D4
  8
SP
 10
0.0
 20
0.0
 30
0.0
 11
1.7145256852758151
 21
-2.216890595009601
 31
0.0
  0
LINE
  5
2D5
  8
SP
 10
1.7145256852758151
 20
-2.216890595009601
 30
0.0
 11
0.6962157491662495
 21
-2.216890595009601
 31
0.0
  0
ENDBLK
  5
2D7
  8
0
  0
BLOCK
  8
0
  2
右回転矢印
 70
     0
 10
0.0
 20
0.0
 30
0.0
  3
右回転矢印
  1

  0
LINE
  5
1E3
  8
SP
 10
-2.7705290305565882
 20
1.567794835092901
 30
0.0
 11
-2.4288000558398148
 21
2.8051227455822878
 31
0.0
  0
LINE
  5
1E4
  8
SP
 10
-2.4288000558398148
 20
2.8051227455822878
 30
0.0
 11
0.0
 21
0.0
 31
0.0
  0
LINE
  5
1E5
  8
SP
 10
0.0
 20
0.0
 30
0.0
 11
-3.3160037613098718
 21
-0.4072531086382499
 31
0.0
  0
LINE
  5
1E6
  8
SP
 10
-3.3160037613098718
 20
-0.4072531086382499
 30
0.0
 11
-3.0391574735299112
 21
0.5951483970269315
 31
0.0
  0
ARC
  5
1E7
  8
SP
 10
-5.9215210782018062
 20
-9.8412769578768184
 30
0.0
 40
10.82714154973578
 50
74.560750721316467
 51
112.11861101078711
  0
LINE
  5
1E8
  8
SP
 10
-9.9982127316752951
 20
0.1890560027239694
 30
0.0
 11
-10.37814929817227
 21
1.1238557349100611
 31
0.0
  0
ARC
  5
1E9
  8
SP
 10
-5.9215210782018062
 20
-9.8412769578768291
 30
0.0
 40
11.83620167374065
 50
74.560750721316396
 51
112.11861101078701
  0
ENDBLK
  5
1EB
  8
0
  0
BLOCK
  8
0
  2
*D5
 70
     1
 10
0.0
 20
0.0
 30
0.0
  3
*D5
  1

  0
LINE
  5
2FB7
  8
SP
 62
     2
 10
17499.382836916699
 20
-1637.697152744958
 30
0.0
 11
17499.382836916699
 21
-2305.3178797588439
 31
0.0
  0
LINE
  5
2FB8
  8
SP
 62
     2
 10
19749.382836916699
 20
-1637.697152744958
 30
0.0
 11
19749.382836916699
 21
-2305.3178797588439
 31
0.0
  0
LINE
  5
2FB9
  8
SP
 62
     2
 10
17589.382836916699
 20
-2260.3178797588439
 30
0.0
 11
19659.382836916699
 21
-2260.3178797588439
 31
0.0
  0
INSERT
  5
2FBA
  8
SP
 62
     2
  2
_OPEN
 10
17499.382836916699
 20
-2260.3178797588439
 30
0.0
 41
90.0
 42
90.0
 43
90.0
 50
180.0
  0
INSERT
  5
2FBB
  8
SP
 62
     2
  2
_OPEN
 10
19749.382836916699
 20
-2260.3178797588439
 30
0.0
 41
90.0
 42
90.0
 43
90.0
  0
TEXT
  5
2FBC
  8
SP
 62
     2
 10
18375.098470330278
 20
-2237.8178797588439
 30
0.0
 40
135.0
  1
2250
 51
15.0
  0
POINT
  5
2FBD
  8
DEFPOINTS
 62
     0
 10
17499.382836916699
 20
-1592.697152744958
 30
0.0
  0
POINT
  5
2FBE
  8
DEFPOINTS
 62
     0
 10
19749.382836916699
 20
-1592.697152744958
 30
0.0
  0
POINT
  5
2FBF
  8
DEFPOINTS
 62
     0
 10
19749.382836916699
 20
-2260.3178797588439
 30
0.0
  0
ENDBLK
  5
A67
  8
0
  0
BLOCK
  8
0
  2
*D6
 70
     1
 10
0.0
 20
0.0
 30
0.0
  3
*D6
  1

  0
LINE
  5
2FA5
  8
SP
 62
     2
 10
19749.382836916699
 20
-1637.697152744958
 30
0.0
 11
19749.382836916699
 21
-2305.3178797588439
 31
0.0
  0
LINE
  5
2FA6
  8
SP
 62
     2
 10
20899.382836916699
 20
-1637.697152744958
 30
0.0
 11
20899.382836916699
 21
-2305.3178797588439
 31
0.0
  0
LINE
  5
2FA7
  8
SP
 62
     2
 10
19839.382836916699
 20
-2260.3178797588439
 30
0.0
 11
20809.382836916699
 21
-2260.3178797588439
 31
0.0
  0
INSERT
  5
2FA8
  8
SP
 62
     2
  2
_OPEN
 10
19749.382836916699
 20
-2260.3178797588439
 30
0.0
 41
90.0
 42
90.0
 43
90.0
 50
180.0
  0
INSERT
  5
2FA9
  8
SP
 62
     2
  2
_OPEN
 10
20899.382836916699
 20
-2260.3178797588439
 30
0.0
 41
90.0
 42
90.0
 43
90.0
  0
TEXT
  5
2FAA
  8
SP
 62
     2
 10
20086.17124660101
 20
-2237.8178797588439
 30
0.0
 40
135.0
  1
1150
 51
15.0
  0
POINT
  5
2FAB
  8
DEFPOINTS
 62
     0
 10
19749.382836916699
 20
-1592.697152744958
 30
0.0
  0
POINT
  5
2FAC
  8
DEFPOINTS
 62
     0
 10
20899.382836916699
 20
-1592.697152744958
 30
0.0
  0
POINT
  5
2FAD
  8
DEFPOINTS
 62
     0
 10
20899.382836916699
 20
-2260.3178797588439
 30
0.0
  0
ENDBLK
  5
A74
  8
0
  0
BLOCK
  8
0
  2
*D7
 70
     1
 10
0.0
 20
0.0
 30
0.0
  3
*D7
  1

  0
LINE
  5
3022
  8
SP
 10
20899.382836916699
 20
-1637.697152744958
 30
0.0
 11
20899.382836916699
 21
-2600.650776659048
 31
0.0
  0
LINE
  5
3023
  8
SP
 10
17499.382836916699
 20
-1637.697152744958
 30
0.0
 11
17499.382836916699
 21
-2600.650776659048
 31
0.0
  0
LINE
  5
3024
  8
SP
 10
20809.382836916699
 20
-2555.6507766590471
 30
0.0
 11
17589.382836916699
 21
-2555.6507766590471
 31
0.0
  0
INSERT
  5
3025
  8
SP
  2
_OPEN
 10
20899.382836916699
 20
-2555.6507766590471
 30
0.0
 41
90.0
 42
90.0
 43
90.0
  0
INSERT
  5
3026
  8
SP
  2
_OPEN
 10
17499.382836916699
 20
-2555.6507766590471
 30
0.0
 41
90.0
 42
90.0
 43
90.0
 50
180.0
  0
TEXT
  8
0
  40
135
  5
3094
  72
0
  71
0
 10
18929.4
 20
-2704.60
 30
0.000000
  1
3400
  0
POINT
  5
3028
  8
DEFPOINTS
 62
     0
 10
20899.382836916699
 20
-1592.697152744958
 30
0.0
  0
POINT
  5
3029
  8
DEFPOINTS
 62
     0
 10
17499.382836916699
 20
-1592.697152744958
 30
0.0
  0
POINT
  5
302A
  8
DEFPOINTS
 62
     0
 10
17499.382836916699
 20
-2555.6507766590471
 30
0.0
  0
ENDBLK
  5
14BE
  8
0
  0
BLOCK
  8
0
  2
*D8
 70
     1
 10
0.0
 20
0.0
 30
0.0
  3
*D8
  1

  0
LINE
  5
302B
  8
SP
 10
26228.12244648757
 20
1787.3028472550409
 30
0.0
 11
26722.312164866598
 21
1787.3028472550409
 31
0.0
  0
LINE
  5
302C
  8
SP
 10
26228.12244648757
 20
-212.6971527449586
 30
0.0
 11
26722.312164866598
 21
-212.6971527449588
 31
0.0
  0
LINE
  5
302D
  8
SP
 10
26677.312164866598
 20
1697.3028472550409
 30
0.0
 11
26677.312164866598
 21
-122.6971527449587
 31
0.0
  0
INSERT
  5
302E
  8
SP
  2
_OPEN
 10
26677.312164866598
 20
1787.3028472550409
 30
0.0
 41
90.0
 42
90.0
 43
90.0
 50
90.0
  0
INSERT
  5
302F
  8
SP
  2
_OPEN
 10
26677.312164866598
 20
-212.69715274495869
 30
0.0
 41
90.0
 42
90.0
 43
90.0
 50
270.0
  0
TEXT
  8
0
  40
135
  5
3095
  72
0
  71
0
 10
26317.3
 20
548.353
 30
0.000000
  1
%%C2000
  0
POINT
  5
3031
  8
DEFPOINTS
 62
     0
 10
26183.122446487581
 20
1787.3028472550409
 30
0.0
  0
POINT
  5
3032
  8
DEFPOINTS
 62
     0
 10
26183.122446487581
 20
-212.6971527449586
 30
0.0
  0
POINT
  5
3033
  8
DEFPOINTS
 62
     0
 10
26677.312164866598
 20
-212.69715274495869
 30
0.0
  0
ENDBLK
  5
1561
  8
0
  0
BLOCK
  8
0
  2
*D9
 70
     1
 10
0.0
 20
0.0
 30
0.0
  3
*D9
  1

  0
LINE
  5
3034
  8
SP
 10
25278.122446487581
 20
2491.1736299067888
 30
0.0
 11
25278.122446487581
 21
2607.1332932287978
 31
0.0
  0
LINE
  5
3035
  8
SP
 10
26183.122446487581
 20
1907.3028472550409
 30
0.0
 11
26183.122446487581
 21
2607.1332932287978
 31
0.0
  0
LINE
  5
3036
  8
SP
 10
25368.12244648757
 20
2562.1332932287978
 30
0.0
 11
26093.12244648757
 21
2562.1332932287978
 31
0.0
  0
INSERT
  5
3037
  8
SP
  2
_OPEN
 10
25278.122446487581
 20
2562.1332932287978
 30
0.0
 41
90.0
 42
90.0
 43
90.0
 50
180.0
  0
INSERT
  5
3038
  8
SP
  2
_OPEN
 10
26183.122446487581
 20
2562.1332932287978
 30
0.0
 41
90.0
 42
90.0
 43
90.0
  0
TEXT
  8
0
  40
135
  5
3096
  72
0
  71
0
 10
25460.6
 20
2413.18
 30
0.000000
  1
905
  0
POINT
  5
303A
  8
DEFPOINTS
 62
     0
 10
25278.122446487581
 20
2446.1736299067888
 30
0.0
  0
POINT
  5
303B
  8
DEFPOINTS
 62
     0
 10
26183.122446487581
 20
1862.3028472550409
 30
0.0
  0
POINT
  5
303C
  8
DEFPOINTS
 62
     0
 10
26183.122446487581
 20
2562.1332932287978
 30
0.0
  0
ENDBLK
  5
1576
  8
0
  0
BLOCK
  8
0
  2
*D10
 70
     1
 10
0.0
 20
0.0
 30
0.0
  3
*D10
  1

  0
LINE
  5
303D
  8
SP
 62
     2
 10
22907.12244648757
 20
-1637.697152744958
 30
0.0
 11
22907.12244648757
 21
-2310.7745730132042
 31
0.0
  0
LINE
  5
303E
  8
SP
 62
     2
 10
25278.122446487581
 20
-1637.6971527449591
 30
0.0
 11
25278.122446487581
 21
-2310.7745730132042
 31
0.0
  0
LINE
  5
303F
  8
SP
 62
     2
 10
22997.12244648757
 20
-2265.7745730132042
 30
0.0
 11
25188.12244648757
 21
-2265.7745730132042
 31
0.0
  0
INSERT
  5
3040
  8
SP
 62
     2
  2
_OPEN
 10
22907.12244648757
 20
-2265.7745730132042
 30
0.0
 41
90.0
 42
90.0
 43
90.0
 50
180.0
  0
INSERT
  5
3041
  8
SP
 62
     2
  2
_OPEN
 10
25278.122446487581
 20
-2265.7745730132042
 30
0.0
 41
90.0
 42
90.0
 43
90.0
  0
TEXT
  8
0
  40
135
  5
3097
  62
2
  72
0
  71
0
 10
23822.6
 20
-2414.72
 30
0.000000
  1
2371
  0
POINT
  5
3043
  8
DEFPOINTS
 62
     0
 10
22907.12244648757
 20
-1592.697152744958
 30
0.0
  0
POINT
  5
3044
  8
DEFPOINTS
 62
     0
 10
25278.122446487581
 20
-1592.6971527449591
 30
0.0
  0
POINT
  5
3045
  8
DEFPOINTS
 62
     0
 10
25278.122446487581
 20
-2265.7745730132042
 30
0.0
  0
ENDBLK
  5
1B15
  8
0
  0
BLOCK
  8
0
  2
*D11
 70
     1
 10
0.0
 20
0.0
 30
0.0
  3
*D11
  1

  0
LINE
  5
3046
  8
SP
 62
     2
 10
26107.122446487581
 20
-1637.697152744958
 30
0.0
 11
26107.122446487581
 21
-2310.7745730132042
 31
0.0
  0
LINE
  5
3047
  8
SP
 62
     2
 10
25368.12244648757
 20
-2265.7745730132042
 30
0.0
 11
26017.12244648757
 21
-2265.7745730132042
 31
0.0
  0
INSERT
  5
3048
  8
SP
 62
     2
  2
_OPEN
 10
25278.122446487581
 20
-2265.7745730132042
 30
0.0
 41
90.0
 42
90.0
 43
90.0
 50
180.0
  0
INSERT
  5
3049
  8
SP
 62
     2
  2
_OPEN
 10
26107.122446487581
 20
-2265.7745730132042
 30
0.0
 41
90.0
 42
90.0
 43
90.0
  0
TEXT
  8
0
  40
135
  5
3098
  62
2
  72
0
  71
0
 10
25422.6
 20
-2414.72
 30
0.000000
  1
829
  0
POINT
  5
304B
  8
DEFPOINTS
 62
     0
 10
25278.122446487581
 20
-1592.6971527449591
 30
0.0
  0
POINT
  5
304C
  8
DEFPOINTS
 62
     0
 10
26107.122446487581
 20
-1592.697152744958
 30
0.0
  0
POINT
  5
304D
  8
DEFPOINTS
 62
     0
 10
26107.122446487581
 20
-2265.7745730132042
 30
0.0
  0
ENDBLK
  5
1B21
  8
0
  0
BLOCK
  8
0
  2
*D12
 70
     1
 10
0.0
 20
0.0
 30
0.0
  3
*D12
  1

  0
LINE
  5
304E
  8
SP
 62
     2
 10
26107.122446487581
 20
-2310.7745730132042
 30
0.0
 11
26107.122446487581
 21
-2602.896873266101
 31
0.0
  0
LINE
  5
304F
  8
SP
 62
     2
 10
22907.12244648757
 20
-2310.7745730132042
 30
0.0
 11
22907.12244648757
 21
-2602.896873266101
 31
0.0
  0
LINE
  5
3050
  8
SP
 62
     2
 10
26017.12244648757
 20
-2557.896873266101
 30
0.0
 11
22997.12244648757
 21
-2557.896873266101
 31
0.0
  0
INSERT
  5
3051
  8
SP
 62
     2
  2
_OPEN
 10
26107.122446487581
 20
-2557.896873266101
 30
0.0
 41
90.0
 42
90.0
 43
90.0
  0
INSERT
  5
3052
  8
SP
 62
     2
  2
_OPEN
 10
22907.12244648757
 20
-2557.896873266101
 30
0.0
 41
90.0
 42
90.0
 43
90.0
 50
180.0
  0
TEXT
  8
0
  40
135
  5
3099
  62
2
  72
0
  71
0
 10
24237.1
 20
-2706.85
 30
0.000000
  1
3200
  0
POINT
  5
3054
  8
DEFPOINTS
 62
     0
 10
26107.122446487581
 20
-2265.7745730132042
 30
0.0
  0
POINT
  5
3055
  8
DEFPOINTS
 62
     0
 10
22907.12244648757
 20
-2265.7745730132042
 30
0.0
  0
POINT
  5
3056
  8
DEFPOINTS
 62
     0
 10
22907.12244648757
 20
-2557.896873266101
 30
0.0
  0
ENDBLK
  5
1B2E
  8
0
  0
BLOCK
  8
0
  2
*D13
 70
     1
 10
0.0
 20
0.0
 30
0.0
  3
*D13
  1

  0
LINE
  5
3057
  8
SP
 62
     2
 10
22768.122446487581
 20
2562.1332932287978
 30
0.0
 11
25188.12244648757
 21
2562.1332932287978
 31
0.0
  0
INSERT
  5
3058
  8
SP
 62
     2
  2
_OPEN
 10
22678.122446487581
 20
2562.1332932287978
 30
0.0
 41
90.0
 42
90.0
 43
90.0
 50
180.0
  0
INSERT
  5
3059
  8
SP
 62
     2
  2
_OPEN
 10
25278.122446487581
 20
2562.1332932287978
 30
0.0
 41
90.0
 42
90.0
 43
90.0
  0
TEXT
  8
0
  40
135
  5
309A
  62
2
  72
0
  71
0
 10
23708.1
 20
2413.18
 30
0.000000
  1
2600
  0
POINT
  5
305B
  8
DEFPOINTS
 62
     0
 10
22678.122446487581
 20
2562.1332932287978
 30
0.0
  0
POINT
  5
305C
  8
DEFPOINTS
 62
     0
 10
25278.122446487581
 20
2562.1332932287978
 30
0.0
  0
POINT
  5
305D
  8
DEFPOINTS
 62
     0
 10
25278.122446487581
 20
2562.1332932287978
 30
0.0
  0
ENDBLK
  5
1BFE
  8
0
  0
BLOCK
  8
0
  2
*D14
 70
     1
 10
0.0
 20
0.0
 30
0.0
  3
*D14
  1

  0
LINE
  5
305E
  8
SP
 62
     2
 10
19749.382836916699
 20
7033.0620388948746
 30
0.0
 11
19749.382836916699
 21
7316.3397465236303
 31
0.0
  0
LINE
  5
305F
  8
SP
 62
     2
 10
21024.38283691807
 20
6703.4436584608311
 30
0.0
 11
21024.38283691807
 21
7316.3397465236303
 31
0.0
  0
LINE
  5
3060
  8
SP
 62
     2
 10
19839.382836916699
 20
7271.3397465236294
 30
0.0
 11
20934.38283691807
 21
7271.3397465236294
 31
0.0
  0
INSERT
  5
3061
  8
SP
 62
     2
  2
_OPEN
 10
19749.382836916699
 20
7271.3397465236294
 30
0.0
 41
90.0
 42
90.0
 43
90.0
 50
180.0
  0
INSERT
  5
3062
  8
SP
 62
     2
  2
_OPEN
 10
21024.38283691807
 20
7271.3397465236294
 30
0.0
 41
90.0
 42
90.0
 43
90.0
  0
TEXT
  8
0
  40
135
  5
309B
  62
2
  72
0
  71
0
 10
20116.9
 20
7122.39
 30
0.000000
  1
1275
  0
POINT
  5
3064
  8
DEFPOINTS
 62
     0
 10
19749.382836916699
 20
6988.0620388948737
 30
0.0
  0
POINT
  5
3065
  8
DEFPOINTS
 62
     0
 10
21024.38283691807
 20
6658.443658460832
 30
0.0
  0
POINT
  5
3066
  8
DEFPOINTS
 62
     0
 10
21024.38283691807
 20
7271.3397465236294
 30
0.0
  0
ENDBLK
  5
2546
  8
0
  0
BLOCK
  8
0
  2
*D15
 70
     1
 10
0.0
 20
0.0
 30
0.0
  3
*D15
  1

  0
LINE
  5
3067
  8
SP
 62
     2
 10
20869.382836916699
 20
6734.4436584608293
 30
0.0
 11
21635.386257570819
 21
6734.4436584608293
 31
0.0
  0
LINE
  5
3068
  8
SP
 62
     2
 10
21290.28954859887
 20
5829.4436584608284
 30
0.0
 11
21635.386257570819
 21
5829.4436584608284
 31
0.0
  0
LINE
  5
3069
  8
SP
 62
     2
 10
21590.386257570819
 20
6644.4436584608284
 30
0.0
 11
21590.386257570819
 21
5919.4436584608284
 31
0.0
  0
INSERT
  5
306A
  8
SP
 62
     2
  2
_OPEN
 10
21590.386257570819
 20
6734.4436584608293
 30
0.0
 41
90.0
 42
90.0
 43
90.0
 50
90.0
  0
INSERT
  5
306B
  8
SP
 62
     2
  2
_OPEN
 10
21590.386257570819
 20
5829.4436584608284
 30
0.0
 41
90.0
 42
90.0
 43
90.0
 50
270.0
  0
TEXT
  8
0
  40
135
  5
309C
  62
2
  72
0
  71
0
 10
21230.4
 20
6042.99
 30
0.000000
  1
905
  0
POINT
  5
306D
  8
DEFPOINTS
 62
     0
 10
20824.382836916699
 20
6734.4436584608293
 30
0.0
  0
POINT
  5
306E
  8
DEFPOINTS
 62
     0
 10
21245.28954859887
 20
5829.4436584608284
 30
0.0
  0
POINT
  5
306F
  8
DEFPOINTS
 62
     0
 10
21590.386257570819
 20
5829.4436584608284
 30
0.0
  0
ENDBLK
  5
2561
  8
0
  0
BLOCK
  8
0
  2
*D16
 70
     1
 10
0.0
 20
0.0
 30
0.0
  3
*D16
  1

  0
LINE
  5
3070
  8
SP
 62
     2
 10
21290.28954859887
 20
5829.4436584608284
 30
0.0
 11
21635.386257570819
 21
5829.4436584608284
 31
0.0
  0
LINE
  5
3071
  8
SP
 62
     2
 10
20274.382836916699
 20
3229.443658460832
 30
0.0
 11
21635.386257570819
 21
3229.4436584608311
 31
0.0
  0
LINE
  5
3072
  8
SP
 62
     2
 10
21590.386257570819
 20
5739.4436584608284
 30
0.0
 11
21590.386257570819
 21
3319.443658460832
 31
0.0
  0
INSERT
  5
3073
  8
SP
 62
     2
  2
_OPEN
 10
21590.386257570819
 20
5829.4436584608284
 30
0.0
 41
90.0
 42
90.0
 43
90.0
 50
90.0
  0
INSERT
  5
3074
  8
SP
 62
     2
  2
_OPEN
 10
21590.386257570819
 20
3229.4436584608311
 30
0.0
 41
90.0
 42
90.0
 43
90.0
 50
270.0
  0
TEXT
  8
0
  40
135
  5
309D
  62
2
  72
0
  71
0
 10
21230.4
 20
4290.49
 30
0.000000
  1
2600
  0
POINT
  5
3076
  8
DEFPOINTS
 62
     0
 10
21245.28954859887
 20
5829.4436584608284
 30
0.0
  0
POINT
  5
3077
  8
DEFPOINTS
 62
     0
 10
20229.382836916699
 20
3229.443658460832
 30
0.0
  0
POINT
  5
3078
  8
DEFPOINTS
 62
     0
 10
21590.386257570819
 20
3229.4436584608311
 30
0.0
  0
ENDBLK
  5
256E
  8
0
  0
BLOCK
  8
0
  2
*D17
 70
     1
 10
0.0
 20
0.0
 30
0.0
  3
*D17
  1

  0
LINE
  5
3079
  8
SP
 62
     2
 10
20944.382836916699
 20
-1562.697152744958
 30
0.0
 11
21533.48868721211
 21
-1562.697152744958
 31
0.0
  0
LINE
  5
307A
  8
SP
 62
     2
 10
21165.666243941039
 20
787.30284725504134
 30
0.0
 11
21533.48868721211
 21
787.30284725504123
 31
0.0
  0
LINE
  5
307B
  8
SP
 62
     2
 10
21488.48868721211
 20
-1472.6971527449591
 30
0.0
 11
21488.48868721211
 21
697.30284725504123
 31
0.0
  0
INSERT
  5
307C
  8
SP
 62
     2
  2
_OPEN
 10
21488.48868721211
 20
-1562.697152744958
 30
0.0
 41
90.0
 42
90.0
 43
90.0
 50
270.0
  0
INSERT
  5
307D
  8
SP
 62
     2
  2
_OPEN
 10
21488.48868721211
 20
787.30284725504123
 30
0.0
 41
90.0
 42
90.0
 43
90.0
 50
90.0
  0
TEXT
  8
0
  40
135
  5
309E
  62
2
  72
0
  71
0
 10
21128.5
 20
-626.647
 30
0.000000
  1
2350
  0
POINT
  5
307F
  8
DEFPOINTS
 62
     0
 10
20899.382836916699
 20
-1562.697152744958
 30
0.0
  0
POINT
  5
3080
  8
DEFPOINTS
 62
     0
 10
21120.666243941028
 20
787.30284725504134
 30
0.0
  0
POINT
  5
3081
  8
DEFPOINTS
 62
     0
 10
21488.48868721211
 20
787.30284725504123
 30
0.0
  0
ENDBLK
  5
2751
  8
0
  0
BLOCK
  8
0
  2
*D18
 70
     1
 10
0.0
 20
0.0
 30
0.0
  3
*D18
  1

  0
LINE
  5
3082
  8
SP
 62
     2
 10
19794.382836916699
 20
2229.3028472550359
 30
0.0
 11
21533.48868721211
 21
2229.3028472550359
 31
0.0
  0
LINE
  5
3083
  8
SP
 62
     2
 10
21165.666243941039
 20
787.30284725504134
 30
0.0
 11
21533.48868721211
 21
787.30284725504123
 31
0.0
  0
LINE
  5
3084
  8
SP
 62
     2
 10
21488.48868721211
 20
2139.3028472550359
 30
0.0
 11
21488.48868721211
 21
877.30284725504134
 31
0.0
  0
INSERT
  5
3085
  8
SP
 62
     2
  2
_OPEN
 10
21488.48868721211
 20
2229.3028472550359
 30
0.0
 41
90.0
 42
90.0
 43
90.0
 50
90.0
  0
INSERT
  5
3086
  8
SP
 62
     2
  2
_OPEN
 10
21488.48868721211
 20
787.30284725504123
 30
0.0
 41
90.0
 42
90.0
 43
90.0
 50
270.0
  0
TEXT
  8
0
  40
135
  5
309F
  62
2
  72
0
  71
0
 10
21128.5
 20
1269.35
 30
0.000000
  1
1442
  0
POINT
  5
3088
  8
DEFPOINTS
 62
     0
 10
19749.382836916699
 20
2229.3028472550359
 30
0.0
  0
POINT
  5
3089
  8
DEFPOINTS
 62
     0
 10
21120.666243941028
 20
787.30284725504134
 30
0.0
  0
POINT
  5
308A
  8
DEFPOINTS
 62
     0
 10
21488.48868721211
 20
787.30284725504123
 30
0.0
  0
ENDBLK
  5
275F
  8
0
  0
BLOCK
  8
0
  2
*D19
 70
     1
 10
0.0
 20
0.0
 30
0.0
  3
*D19
  1

  0
LINE
  5
308B
  8
SP
 62
     2
 10
19749.382836916699
 20
7078.0620388948737
 30
0.0
 11
19749.382836916699
 21
7316.3397465236303
 31
0.0
  0
LINE
  5
308C
  8
SP
 62
     2
 10
17499.382836916699
 20
5120.4436584608266
 30
0.0
 11
17499.382836916699
 21
7316.3397465236303
 31
0.0
  0
LINE
  5
308D
  8
SP
 62
     2
 10
19659.382836916699
 20
7271.3397465236294
 30
0.0
 11
17589.382836916699
 21
7271.3397465236294
 31
0.0
  0
INSERT
  5
308E
  8
SP
 62
     2
  2
_OPEN
 10
19749.382836916699
 20
7271.3397465236294
 30
0.0
 41
90.0
 42
90.0
 43
90.0
  0
INSERT
  5
308F
  8
SP
 62
     2
  2
_OPEN
 10
17499.382836916699
 20
7271.3397465236294
 30
0.0
 41
90.0
 42
90.0
 43
90.0
 50
180.0
  0
TEXT
  8
0
  40
135
  5
30A0
  62
2
  72
0
  71
0
 10
18354.4
 20
7122.39
 30
0.000000
  1
2250
  0
POINT
  5
3091
  8
DEFPOINTS
 62
     0
 10
19749.382836916699
 20
7033.0620388948746
 30
0.0
  0
POINT
  5
3092
  8
DEFPOINTS
 62
     0
 10
17499.382836916699
 20
5075.4436584608266
 30
0.0
  0
POINT
  5
3093
  8
DEFPOINTS
 62
     0
 10
17499.382836916699
 20
7271.3397465236294
 30
0.0
  0
ENDBLK
  5
27A0
  8
0
  0
ENDSEC
  0
SECTION
  2
ENTITIES
  0
LINE
  5
46
  8
FUTO
 10
23162.12244648757
 20
627.30284725504134
 30
0.0
 11
24412.12244648757
 21
627.30284725504134
 31
0.0
  0
LINE
  5
49
  8
FUTO
 10
24220.12244648757
 20
844.80284725504134
 30
0.0
 11
23158.12244648757
 21
844.80284725504134
 31
0.0
  0
LINE
  5
4A
  8
FUTO
 10
24220.12244648757
 20
729.80284725504134
 30
0.0
 11
23158.12244648757
 21
729.80284725504134
 31
0.0
  0
LINE
  5
4B
  8
FUTO
 10
22907.12244648757
 20
-1382.697152744958
 30
0.0
 11
24449.922446487581
 21
-1382.697152744958
 31
0.0
  0
LINE
  5
4C
  8
CT
 10
26304.38565848655
 20
787.30284725504134
 30
0.0
 11
22573.345023489172
 21
787.30284725504134
 31
0.0
  0
LINE
  5
50
  8
FUTO
 10
22982.122446487581
 20
-1562.697152744958
 30
0.0
 11
26032.12244648757
 21
-1562.697152744958
 31
0.0
  0
LINE
  5
53
  8
FUTO
 10
22982.122446487581
 20
-1550.697152744958
 30
0.0
 11
24495.267524941719
 21
-1550.697152744958
 31
0.0
  0
LINE
  5
54
  8
FUTO
 10
22997.12244648757
 20
-1394.697152744958
 30
0.0
 11
24449.922446487581
 21
-1394.697152744958
 31
0.0
  0
DIMENSION
  5
6B
  8
SP
  2
*D7
 10
17499.382836916699
 20
-2555.6507766590471
 30
0.0
 11
19199.382836916699
 21
-2465.6507766590471
 31
0.0
 70
     0
 13
20899.382836916699
 23
-1592.697152744958
 33
0.0
 14
17499.382836916699
 24
-1592.697152744958
 34
0.0
1001
ACAD
1000
DSTYLE
1002
{
1070
   287
1070
     0
1070
   287
1070
     0
1070
    40
1040
45.0
1070
   140
1040
3.0
1070
   143
1040
0.03937
1070
   147
1040
0.5
1070
   173
1070
     1
1070
   176
1070
   256
1070
   177
1070
   256
1070
   178
1070
   256
1070
   271
1070
     4
1070
   272
1070
     4
1070
   279
1070
     0
1070
   285
1070
     0
1070
   286
1070
     0
1070
   289
1070
     0
1070
     6
1000
OPEN
1070
     7
1000
OPEN
1002
}
  0
LINE
  5
78
  8
CT
 10
17954.14984367818
 20
787.30284725504134
 30
0.0
 11
17656.349636776551
 21
787.30284725504134
 31
0.0
  0
LINE
  5
80
  8
FUTO
 10
18224.14984367818
 20
-1562.697152744958
 30
0.0
 11
17658.616146102009
 21
-1562.697152744958
 31
0.0
  0
ARC
  5
86
  8
KL
 10
19602.382836916699
 20
640.30284725504134
 30
0.0
 40
1589.0
 50
89.999999999999986
 51
180.0
  0
LINE
  5
89
  8
FUTO
 10
20899.382836916699
 20
-1562.697152744958
 30
0.0
 11
17499.382836916699
 21
-1562.697152744958
 31
0.0
  0
LINE
  5
8A
  8
FUTO
 10
20899.382836916699
 20
-1382.697152744958
 30
0.0
 11
17499.382836916699
 21
-1382.697152744958
 31
0.0
  0
LINE
  5
8E
  8
FUTO
 10
20899.382836916699
 20
-1398.697152744958
 30
0.0
 11
17499.382836916699
 21
-1398.697152744958
 31
0.0
  0
LINE
  5
8F
  8
FUTO
 10
20899.382836916699
 20
-1546.697152744958
 30
0.0
 11
17499.382836916699
 21
-1546.697152744958
 31
0.0
  0
ARC
  5
92
  8
KL
 10
19896.382836916699
 20
640.30284725504134
 30
0.0
 40
1883.0
 50
180.0
 51
264.42838162163292
  0
ARC
  5
93
  8
FUTO
 10
19896.382836916699
 20
640.30284725504134
 30
0.0
 40
1903.0
 50
228.35562174952449
 51
242.68374042314471
  0
LINE
  5
A6
  8
FUTO
 10
17499.382836916699
 20
-1562.697152744958
 30
0.0
 11
17499.382836916691
 21
-1382.697152744958
 31
0.0
  0
LINE
  5
FF
  8
FUTO
 10
23162.12244648757
 20
647.30284725504134
 30
0.0
 11
23162.12244648757
 21
627.30284725504134
 31
0.0
  0
LINE
  5
100
  8
FUTO
 10
22982.122446487581
 20
647.30284725504134
 30
0.0
 11
22982.122446487581
 21
-1382.697152744958
 31
0.0
  0
LINE
  5
101
  8
SL
 10
22925.922446487581
 20
1162.3028472550409
 30
0.0
 11
22925.922446487581
 21
-1187.697152744958
 31
0.0
  0
LINE
  5
102
  8
SL
 10
22795.922446487581
 20
1162.3028472550409
 30
0.0
 11
22795.922446487581
 21
-1187.697152744958
 31
0.0
  0
LINE
  5
103
  8
FUTO
 10
22678.122446487581
 20
1267.3028472550409
 30
0.0
 11
22678.12244648757
 21
-1282.697152744958
 31
0.0
  0
LINE
  5
104
  8
FUTO
 10
20890.382836916699
 20
-1382.697152744958
 30
0.0
 11
20890.382836916699
 21
699.96540435003214
 31
0.0
  0
LINE
  5
105
  8
FUTO
 10
20899.382836916699
 20
-1562.697152744958
 30
0.0
 11
20899.382836916699
 21
699.363477765516
 31
0.0
  0
ARC
  5
10A
  8
KL
 10
19626.882836916699
 20
909.80284725504146
 30
0.0
 40
1319.5
 50
0.000000000000007
 51
91.063908502627825
  0
ARC
  5
10B
  8
FUTO
 10
19626.882836916699
 20
909.80284725504146
 30
0.0
 40
1339.5
 50
0.000000000000007
 51
84.75285293416124
  0
LINE
  5
10C
  8
CT
 10
19749.382836916699
 20
-892.69715274495854
 30
0.0
 11
19749.382836916699
 21
2384.4059774620318
 31
0.0
  0
LINE
  5
10D
  8
CT
 10
19749.382836916699
 20
-1752.700296527189
 30
0.0
 11
19749.382836916699
 21
2122.378707968724
 31
0.0
  0
LINE
  5
10E
  8
KL
 10
18590.382836916699
 20
-709.77295971048261
 30
0.0
 11
18590.382836916699
 21
-189.51676845792051
 31
0.0
  0
ARC
  5
10F
  8
FUTO
 10
19602.382836916699
 20
640.30284725504134
 30
0.0
 40
1609.0
 50
84.758085345326023
 51
174.43616870097301
  0
LINE
  5
110
  8
CT
 10
17899.382836916699
 20
-399.48206401311108
 30
0.0
 11
17899.382836916699
 21
-1638.4206507954109
 31
0.0
  0
LINE
  5
111
  8
FUTO
 10
18608.382836916699
 20
-1382.697152744958
 30
0.0
 11
18608.382836916699
 21
-801.52991798704795
 31
0.0
  0
LINE
  5
112
  8
FUTO
 10
18599.382836916691
 20
-1562.697152744958
 30
0.0
 11
18599.382836916691
 21
-809.11176251958125
 31
0.0
  0
LINE
  5
127
  8
KL
 10
18599.382836916699
 20
-734.1736428449658
 30
0.0
 11
18564.027497857369
 21
-769.52898190429266
 31
0.0
  0
LINE
  5
128
  8
KL
 10
18599.382836916699
 20
-700.77295971048261
 30
0.0
 11
18546.027497857369
 21
-754.12829876980959
 31
0.0
  0
LINE
  5
129
  8
KL
 10
18599.382836916699
 20
-717.53140041893312
 30
0.0
 11
18555.027497857369
 21
-761.88673947825919
 31
0.0
  0
LINE
  5
156
  8
KL
 10
18546.027497857369
 20
-754.12829876980959
 30
0.0
 11
18564.027497857369
 21
-769.52898190429266
 31
0.0
  0
LINE
  5
157
  8
FUTO
 10
18949.382836916699
 20
-1562.697152744958
 30
0.0
 11
18949.382836916699
 21
-1368.4851062672481
 31
0.0
  0
LINE
  5
160
  8
FUTO
 10
20549.382836916699
 20
-1562.697152744958
 30
0.0
 11
20549.382836916699
 21
-1368.4851062672481
 31
0.0
  0
ARC
  5
19A
  8
FUTO
 10
22965.122446487581
 20
-1539.6217831272729
 30
0.0
 40
10.0
 50
275.0
 51
0.0
  0
LINE
  5
19B
  8
FUTO
 10
22982.122446487581
 20
-1382.697152744958
 30
0.0
 11
22982.122446487581
 21
-1562.697152744958
 31
0.0
  0
LINE
  5
1A1
  8
FUTO
 10
22907.12244648757
 20
-1559.774145444306
 30
0.0
 11
22907.12244648757
 21
-1562.697152744958
 31
0.0
  0
ARC
  5
1A2
  8
FUTO
 10
22912.62244648757
 20
-1559.7741454443051
 30
0.0
 40
5.5
 50
95.000000000000057
 51
180.00000000000051
  0
LINE
  5
1A5
  8
FUTO
 10
22982.122446487581
 20
-1562.697152744958
 30
0.0
 11
22907.12244648757
 21
-1562.697152744958
 31
0.0
  0
LINE
  5
1A6
  8
FUTO
 10
22965.99400391505
 20
-1549.583730108191
 30
0.0
 11
22912.14308990246
 21
-1554.295074604802
 31
0.0
  0
LINE
  5
1B0
  8
CT
 10
23054.518754494158
 20
-1032.697152744968
 30
0.0
 11
22580.3143975729
 21
-1032.697152744968
 31
0.0
  0
LINE
  5
1B1
  8
SL
 10
22925.922446487581
 20
-1187.697152744958
 30
0.0
 11
22795.922446487581
 21
-1187.697152744958
 31
0.0
  0
LINE
  5
1B2
  8
FUTO
 10
22958.871480650079
 20
-1282.697152744958
 30
0.0
 11
22678.12244648757
 21
-1282.697152744958
 31
0.0
  0
ARC
  5
1B3
  8
FUTO
 10
22965.122446487581
 20
-1405.7725223626439
 30
0.0
 40
10.0
 50
0.0
 51
85.000000000000014
  0
LINE
  5
1B4
  8
FUTO
 10
22907.12244648757
 20
-1385.6201600456111
 30
0.0
 11
22907.12244648757
 21
-1382.697152744958
 31
0.0
  0
ARC
  5
1B5
  8
FUTO
 10
22912.62244648757
 20
-1385.6201600456111
 30
0.0
 40
5.5
 50
180.0
 51
265.0
  0
LINE
  5
1B6
  8
FUTO
 10
22965.99400391505
 20
-1395.810575381726
 30
0.0
 11
22912.14308990246
 21
-1391.099230885115
 31
0.0
  0
LINE
  5
1B7
  8
FUTO
 10
22982.122446487581
 20
-1382.697152744958
 30
0.0
 11
22907.12244648757
 21
-1382.697152744958
 31
0.0
  0
LINE
  5
1B8
  8
FUTO
 10
22975.12244648757
 20
-1405.7725223626439
 30
0.0
 11
22975.12244648757
 21
-1539.6217831272729
 31
0.0
  0
LINE
  5
1B9
  8
FUTO
 10
22958.871480650079
 20
-1161.175436784858
 30
0.0
 11
22958.871480650079
 21
-1282.697152744958
 31
0.0
  0
LINE
  5
1C7
  8
KL
 10
21024.382836916699
 20
-1360.6971527449559
 30
0.0
 11
19713.5625567549
 21
-1233.80113736309
 31
0.0
  0
LINE
  5
1C8
  8
FUTO
 10
20949.382836916699
 20
-1373.530156565007
 30
0.0
 11
20538.52392089348
 21
-1333.756314096669
 31
0.0
  0
LINE
  5
1CD
  8
CT
 10
21093.966729337259
 20
787.30284725504134
 30
0.0
 11
19549.382836916699
 21
787.30284725504134
 31
0.0
  0
LINE
  5
1CE
  8
FUTO
 10
21010.405612590719
 20
862.6208668862364
 30
0.0
 11
20228.829287785349
 21
810.34847047196695
 31
0.0
  0
LINE
  5
1CF
  8
FUTO
 10
21009.20444285974
 20
880.58074414855025
 30
0.0
 11
20244.471157482021
 21
829.43482253378716
 31
0.0
  0
LINE
  5
1D0
  8
FUTO
 10
21009.80502772523
 20
871.60080551739327
 30
0.0
 11
20228.312897245069
 21
819.33404008119123
 31
0.0
  0
ARC
  5
1D3
  8
KL
 10
19871.882836916699
 20
909.80284725504146
 30
0.0
 40
1074.5
 50
326.84808505590962
 51
0.000000000000007
  0
INSERT
  5
1E1
  8
FUTO
  2
右回転矢印
 10
19538.238683987631
 20
1695.078137584349
 30
0.0
 41
-40.0
 42
40.0
 43
40.0
 50
359.00304546478287
  0
LINE
  5
1F0
  8
FUTO
 10
18599.382836916699
 20
796.30284725504134
 30
0.0
 11
18599.382836916699
 21
1898.4252578336
 31
0.0
  0
LINE
  5
1F1
  8
FUTO
 10
18608.382836916699
 20
796.30284725504134
 30
0.0
 11
18608.382836916699
 21
1905.5478828113951
 31
0.0
  0
LINE
  5
1F3
  8
KL
 10
19549.382836916699
 20
787.30284725504134
 30
0.0
 11
19112.909074046918
 21
787.30284725504134
 31
0.0
  0
LINE
  5
1F4
  8
KL
 10
19549.382836916699
 20
796.30284725504134
 30
0.0
 11
19120.746009975079
 21
796.30284725504089
 31
0.0
  0
LINE
  5
1F5
  8
KL
 10
19549.382836916699
 20
778.30284725504134
 30
0.0
 11
19105.072138118769
 21
778.30284725504134
 31
0.0
  0
LINE
  5
21D
  8
FUTO
 10
17954.14984367818
 20
796.30284725504134
 30
0.0
 11
17954.14984367818
 21
778.30284725504134
 31
0.0
  0
INSERT
  5
226
  8
FUTO
  2
22222F
 10
19749.382836916699
 20
787.30284725504134
 30
0.0
  0
LINE
  5
259
  8
KL
 10
19749.382836916699
 20
647.30284725504134
 30
0.0
 11
19399.796032439252
 21
647.30284725504134
 31
0.0
  0
LINE
  5
25C
  8
KL
 10
19549.382836916699
 20
778.30284725504134
 30
0.0
 11
19549.382836916699
 21
796.30284725504134
 31
0.0
  0
LINE
  5
25E
  8
KL
 10
19749.382836916699
 20
647.30284725504134
 30
0.0
 11
20098.969641394138
 21
647.30284725504134
 31
0.0
  0
LINE
  5
25F
  8
FUTO
 10
19948.336443854689
 20
809.62911623042794
 30
0.0
 11
19949.537613585671
 21
791.66923896811386
 31
0.0
  0
CIRCLE
  5
265
  8
KL
 10
20791.991526148569
 20
308.80284725504129
 30
0.0
 40
24.5
  0
LINE
  5
26B
  8
FUTO
 10
19740.382836916699
 20
-1256.4910132754769
 30
0.0
 11
19711.635434320098
 21
-1253.708075829901
 31
0.0
  0
LINE
  5
26C
  8
SP
 10
22678.122446487581
 20
1307.3028472550409
 30
0.0
 11
22678.122446487581
 21
2602.1332932287978
 31
0.0
  0
LINE
  5
289
  8
FUTO
 10
20949.382836916699
 20
703.30284725504134
 30
0.0
 11
20949.382836916699
 21
-1373.530156565007
 31
0.0
  0
LINE
  5
28A
  8
FUTO
 10
21018.382836916699
 20
703.30284725504134
 30
0.0
 11
21018.382836916699
 21
-1364.6971527449559
 31
0.0
  0
LINE
  5
28B
  8
FUTO
 10
21024.382836916699
 20
778.30284725504134
 30
0.0
 11
21024.382836916699
 21
-1439.69715274496
 31
0.0
  0
LINE
  5
28C
  8
FUTO
 10
20899.382836916699
 20
1328.137641409196
 30
0.0
 11
20899.382836916699
 21
-1368.6898280584101
 31
0.0
  0
LINE
  5
28D
  8
FUTO
 10
20890.382836916699
 20
1354.581443862387
 30
0.0
 11
20890.382836916699
 21
-1367.8185689272209
 31
0.0
  0
LINE
  5
28E
  8
FUTO
 10
21024.38283691715
 20
778.30284725513957
 30
0.0
 11
21024.382836918161
 21
-1439.69715274486
 31
0.0
  0
LINE
  5
28F
  8
FUTO
 10
21024.382836916651
 20
778.30284725514321
 30
0.0
 11
21024.382836918161
 21
-1439.6971527448561
 31
0.0
  0
INSERT
  5
291
  8
FUTO
  2
L-75-6
 10
21105.812433801169
 20
588.6963858514855
 30
0.0
 50
90.0
  0
ARC
  5
29E
  8
FUTO
 10
19871.882836916699
 20
909.80284725504146
 30
0.0
 40
1094.5
 50
349.97650033240342
 51
357.37099416003571
  0
LINE
  5
2A1
  8
CT
 10
21120.666243941028
 20
787.30284725504134
 30
0.0
 11
20988.667507298589
 21
787.30284725504134
 31
0.0
  0
LINE
  5
2A2
  8
FUTO
 10
20985.047285028781
 20
743.07090791160408
 30
0.0
 11
21079.743596257402
 21
743.07090791156395
 31
0.0
  0
ARC
  5
2A3
  8
FUTO
 10
19871.882836916699
 20
909.80284725504146
 30
0.0
 40
1094.5
 50
358.31844199692659
 51
0.000000000000007
  0
LINE
  5
2A4
  8
FUTO
 10
21010.405612590719
 20
862.6208668862364
 30
0.0
 11
21009.20444285974
 21
880.58074414855025
 31
0.0
  0
LINE
  5
2A5
  8
KL
 10
20925.562105005429
 20
699.30284725504134
 30
0.0
 11
21024.382836916699
 21
699.30284725504134
 31
0.0
  0
LINE
  5
2A6
  8
FUTO
 10
20949.382836916699
 20
703.30284725504134
 30
0.0
 11
21024.382836916699
 21
703.30284725504134
 31
0.0
  0
LINE
  5
2A7
  8
FUTO
 10
20949.676880322018
 20
719.30284725504134
 30
0.0
 11
20949.676880322018
 21
706.38006528500864
 31
0.0
  0
LINE
  5
2A8
  8
FUTO
 10
23008.12244648757
 20
902.30284725504134
 30
0.0
 11
23008.12244648757
 21
707.30284725504134
 31
0.0
  0
LINE
  5
2A9
  8
FUTO
 10
23136.12244648757
 20
902.30284725504134
 30
0.0
 11
23136.12244648757
 21
707.30284725504134
 31
0.0
  0
LINE
  5
2AA
  8
CT
 10
23072.12244648757
 20
950.79446576487135
 30
0.0
 11
23072.12244648757
 21
636.145693493002
 31
0.0
  0
LINE
  5
2AB
  8
FUTO
 10
22994.12244648757
 20
902.30284725504134
 30
0.0
 11
22994.12244648757
 21
672.30284725504134
 31
0.0
  0
LINE
  5
2AC
  8
FUTO
 10
23150.12244648757
 20
902.30284725504134
 30
0.0
 11
23150.12244648757
 21
672.30284725504134
 31
0.0
  0
LINE
  5
2AD
  8
FUTO
 10
23136.12244648757
 20
902.30284725504134
 30
0.0
 11
23136.12244648757
 21
707.30284725504134
 31
0.0
  0
LINE
  5
2AE
  8
FUTO
 10
22986.122446487581
 20
867.30284725504134
 30
0.0
 11
22986.122446487581
 21
707.30284725504134
 31
0.0
  0
LINE
  5
2AF
  8
FUTO
 10
23158.12244648757
 20
867.30284725504134
 30
0.0
 11
23158.12244648757
 21
707.30284725504134
 31
0.0
  0
LINE
  5
2B1
  8
SL
 10
22925.922446487581
 20
-907.69715274496855
 30
0.0
 11
22795.922446487581
 21
-907.69715274496855
 31
0.0
  0
LINE
  5
2B2
  8
SL
 10
22925.922446487581
 20
412.30284725504129
 30
0.0
 11
22795.922446487581
 21
412.30284725504129
 31
0.0
  0
LINE
  5
2B3
  8
FUTO
 10
23002.12244648757
 20
657.30284725504134
 30
0.0
 11
23142.122446487581
 21
657.30284725504134
 31
0.0
  0
LINE
  5
2B4
  8
FUTO
 10
23002.12244648757
 20
707.30284725504134
 30
0.0
 11
23142.122446487581
 21
707.30284725504134
 31
0.0
  0
LINE
  5
2B5
  8
FUTO
 10
22982.122446487581
 20
647.30284725504134
 30
0.0
 11
23162.12244648757
 21
647.30284725504134
 31
0.0
  0
LINE
  5
2B6
  8
CT
 10
23027.12244648757
 20
734.04950473239478
 30
0.0
 11
23027.12244648757
 21
636.145693493002
 31
0.0
  0
LINE
  5
2B7
  8
FUTO
 10
23002.12244648757
 20
707.30284725504134
 30
0.0
 11
23002.12244648757
 21
647.30284725504134
 31
0.0
  0
LINE
  5
2B8
  8
FUTO
 10
22986.122446487581
 20
707.30284725504134
 30
0.0
 11
22994.12244648757
 21
687.30284725504134
 31
0.0
  0
LINE
  5
2B9
  8
FUTO
 10
22994.12244648757
 20
672.30284725504134
 30
0.0
 11
23002.12244648757
 21
672.30284725504134
 31
0.0
  0
LINE
  5
2BA
  8
FUTO
 10
22986.122446487581
 20
839.80284725504134
 30
0.0
 11
22925.92244648757
 21
839.80284725504134
 31
0.0
  0
LINE
  5
2BB
  8
FUTO
 10
22986.122446487581
 20
734.80284725504134
 30
0.0
 11
22925.92244648757
 21
734.80284725504134
 31
0.0
  0
LINE
  5
2BC
  8
CT
 10
23117.12244648757
 20
734.04950473239478
 30
0.0
 11
23117.12244648757
 21
636.145693493002
 31
0.0
  0
LINE
  5
2BD
  8
FUTO
 10
23142.122446487581
 20
707.30284725504134
 30
0.0
 11
23142.122446487581
 21
647.30284725504134
 31
0.0
  0
LINE
  5
2BE
  8
FUTO
 10
23150.12244648757
 20
672.30284725504134
 30
0.0
 11
23142.122446487581
 21
672.30284725504134
 31
0.0
  0
LINE
  5
2BF
  8
FUTO
 10
23158.12244648757
 20
707.30284725504134
 30
0.0
 11
23150.12244648757
 21
687.30284725504134
 31
0.0
  0
LINE
  5
2C0
  8
SL
 10
22925.92244648757
 20
1162.3028472550409
 30
0.0
 11
22795.922446487581
 21
1162.3028472550409
 31
0.0
  0
LINE
  5
2C1
  8
FUTO
 10
22958.871480650079
 20
1267.3028472550409
 30
0.0
 11
22678.122446487581
 21
1267.3028472550409
 31
0.0
  0
POINT
  5
2C2
  8
DEFPOINTS
 10
22678.122446487581
 20
1267.3028472550409
 30
0.0
  0
LINE
  5
2C3
  8
FUTO
 10
22958.871480650079
 20
1267.3028472550409
 30
0.0
 11
22958.871480650079
 21
1000.025093759322
 31
0.0
  0
LINE
  5
2C4
  8
FUTO
 10
23018.12244648757
 20
920.30284725504123
 30
0.0
 11
23126.12244648757
 21
920.30284725504123
 31
0.0
  0
LINE
  5
2C5
  8
FUTO
 10
22986.122446487581
 20
867.30284725504134
 30
0.0
 11
22994.12244648757
 21
887.30284725504146
 31
0.0
  0
LINE
  5
2C6
  8
FUTO
 10
22994.12244648757
 20
902.30284725504134
 30
0.0
 11
23008.12244648757
 21
902.30284725504134
 31
0.0
  0
LINE
  5
2C7
  8
FUTO
 10
23018.12244648757
 20
920.30284725504123
 30
0.0
 11
23018.12244648757
 21
902.30284725504134
 31
0.0
  0
LINE
  5
2C8
  8
FUTO
 10
23008.12244648757
 20
902.30284725504134
 30
0.0
 11
23018.12244648757
 21
902.30284725504134
 31
0.0
  0
LINE
  5
2C9
  8
FUTO
 10
23126.12244648757
 20
920.30284725504123
 30
0.0
 11
23126.12244648757
 21
902.30284725504134
 31
0.0
  0
LINE
  5
2CA
  8
FUTO
 10
23126.12244648757
 20
902.30284725504134
 30
0.0
 11
23136.12244648757
 21
902.30284725504134
 31
0.0
  0
LINE
  5
2CB
  8
FUTO
 10
23150.12244648757
 20
902.30284725504134
 30
0.0
 11
23136.12244648757
 21
902.30284725504134
 31
0.0
  0
LINE
  5
2CC
  8
FUTO
 10
23158.12244648757
 20
867.30284725504134
 30
0.0
 11
23150.12244648757
 21
887.30284725504146
 31
0.0
  0
INSERT
  5
2CD
  8
FUTO
  2
まっすぐの矢印
 10
21397.507506095812
 20
-754.26573496663332
 30
0.0
 41
-40.0
 42
40.0
 43
40.0
 50
270.0
  0
LINE
  5
2D8
  8
FUTO
 10
20985.047285028781
 20
-1404.6971527449471
 30
0.0
 11
21079.743596257402
 21
-1404.697152744907
 31
0.0
  0
INSERT
  5
2D9
  8
FUTO
  2
L-75-6
 10
21105.812433801169
 20
-1250.090691341403
 30
0.0
 41
-1.0
 50
90.0
  0
LINE
  5
2DA
  8
FUTO
 10
21024.382836918121
 20
-1364.69715274486
 30
0.0
 11
21024.382836918161
 21
-1439.69715274486
 31
0.0
  0
LINE
  5
2DB
  8
FUTO
 10
21024.38283691811
 20
-1364.697152744857
 30
0.0
 11
21024.382836918161
 21
-1439.6971527448561
 31
0.0
  0
LINE
  5
33E
  8
FUTO
 10
21024.38283691695
 20
5075.4436584608266
 30
0.0
 11
18013.382836916699
 21
5075.4436584608266
 31
0.0
  0
LINE
  5
33F
  8
FUTO
 10
21024.382836916899
 20
5000.4436584608256
 30
0.0
 11
17499.382836916699
 21
5000.4436584608256
 31
0.0
  0
LINE
  5
340
  8
FUTO
 10
20549.382836916699
 20
3458.443658460827
 30
0.0
 11
17499.382836916699
 21
3458.443658460827
 31
0.0
  0
LINE
  5
341
  8
FUTO
 10
20549.382836916699
 20
3533.4436584608279
 30
0.0
 11
17499.382836916699
 21
3533.443658460827
 31
0.0
  0
LINE
  5
35D
  8
FUTO
 10
17499.382836916699
 20
3458.443658460827
 30
0.0
 11
17499.382836916699
 21
3533.443658460827
 31
0.0
  0
LINE
  5
35E
  8
SL
 10
17674.382836916699
 20
3533.443658460827
 30
0.0
 11
17674.382836916699
 21
4437.2436584607576
 31
0.0
  0
POINT
  5
388
  8
DEFPOINTS
 10
17499.382836916699
 20
5075.4436584608266
 30
0.0
  0
LINE
  5
3AB
  8
CT
 10
19749.382836916699
 20
3008.669097230038
 30
0.0
 11
19749.382836916699
 21
6988.0620388948737
 31
0.0
  0
LINE
  5
3AE
  8
FUTO
 10
18599.382836916699
 20
5025.4436584608256
 30
0.0
 11
18599.382836916699
 21
5000.4436584608256
 31
0.0
  0
LINE
  5
44F
  8
FUTO
 10
20549.382836916699
 20
3458.443658460827
 30
0.0
 11
20549.382836916699
 21
5000.4436584608256
 31
0.0
  0
LINE
  5
450
  8
FUTO
 10
20474.382836916699
 20
3533.443658460827
 30
0.0
 11
20474.382836916699
 21
5000.4436584608256
 31
0.0
  0
LINE
  5
452
  8
FUTO
 10
19024.382836916699
 20
3533.443658460827
 30
0.0
 11
19024.382836916699
 21
5000.4436584608256
 31
0.0
  0
LINE
  5
454
  8
FUTO
 10
18949.382836916699
 20
3458.443658460827
 30
0.0
 11
18949.382836916699
 21
5000.4436584608256
 31
0.0
  0
LINE
  5
546
  8
CT
 10
21245.28954859887
 20
5829.4436584608284
 30
0.0
 11
17810.317846270958
 21
5829.4436584608284
 31
0.0
  0
LINE
  5
547
  8
FUTO
 10
21024.382836916699
 20
6583.4436584608329
 30
0.0
 11
18013.382836916699
 21
6583.4436584608329
 31
0.0
  0
LINE
  5
548
  8
FUTO
 10
21024.382836916699
 20
6658.443658460832
 30
0.0
 11
18599.382836916699
 21
6658.4436584608293
 31
0.0
  0
LINE
  5
568
  8
FUTO
 10
18599.382836916699
 20
6633.4436584608329
 30
0.0
 11
18599.382836916699
 21
6658.4436584608293
 31
0.0
  0
DIMENSION
  5
5CF
  8
SP
  2
*D8
 10
26677.312164866598
 20
-212.69715274495869
 30
0.0
 11
26677.312164866598
 21
787.30284725504134
 31
0.0
 70
   128
  1
%%C<>
 13
26183.122446487581
 23
1787.3028472550409
 33
0.0
 14
26183.122446487581
 24
-212.6971527449586
 34
0.0
 50
90.0
1001
ACAD
1000
DSTYLE
1002
{
1070
   287
1070
     0
1070
   287
1070
     0
1070
    40
1040
45.0
1070
   140
1040
3.0
1070
   143
1040
0.03937
1070
   147
1040
0.5
1070
   173
1070
     1
1070
   176
1070
   256
1070
   177
1070
   256
1070
   178
1070
   256
1070
   271
1070
     4
1070
   272
1070
     4
1070
   279
1070
     0
1070
   285
1070
     0
1070
   286
1070
     0
1070
   289
1070
     0
1070
     6
1000
OPEN
1070
     7
1000
OPEN
1002
}
  0
LINE
  5
5DE
  8
FUTO
 10
26031.322446487578
 20
-1366.6971527449559
 30
0.0
 11
26031.322446487571
 21
787.302847255041
 31
0.0
  0
LINE
  5
5DF
  8
FUTO
 10
26028.12244648757
 20
-1366.6971527449559
 30
0.0
 11
26028.12244648757
 21
787.302847255041
 31
0.0
  0
LINE
  5
5E0
  8
FUTO
 10
26121.322446487578
 20
-1382.697152744958
 30
0.0
 11
26121.322446487571
 21
862.60080551739327
 31
0.0
  0
LINE
  5
5E5
  8
KL
 10
26040.32244648847
 20
-287.6971527449586
 30
0.0
 11
26040.322446488961
 21
1862.3028472550409
 31
0.0
  0
LINE
  5
5E6
  8
FUTO
 10
26183.122446487581
 20
-287.6971527449586
 30
0.0
 11
26183.122446487581
 21
1862.3028472550409
 31
0.0
  0
LINE
  5
5E7
  8
FUTO
 10
26177.12244648757
 20
-287.6971527449586
 30
0.0
 11
26177.12244648757
 21
1862.3028472550409
 31
0.0
  0
LINE
  5
5EB
  8
FUTO
 10
24524.922446487581
 20
-1366.6971527449559
 30
0.0
 11
24524.922446487581
 21
787.30284725504134
 31
0.0
  0
LINE
  5
5EC
  8
FUTO
 10
24528.12244648757
 20
-1366.6971527449559
 30
0.0
 11
24528.12244648757
 21
787.30284725504134
 31
0.0
  0
LINE
  5
5ED
  8
FUTO
 10
24434.92244648757
 20
-1382.697152744958
 30
0.0
 11
24434.92244648757
 21
862.60080551739327
 31
0.0
  0
LINE
  5
5EE
  8
FUTO
 10
24412.12244648757
 20
-1382.697152744958
 30
0.0
 11
24412.12244648757
 21
627.30284725504134
 31
0.0
  0
LINE
  5
5F0
  8
CT
 10
25278.122446487581
 20
-1790.1735087690461
 30
0.0
 11
25278.122446487581
 21
2494.6930648859161
 31
0.0
  0
ARC
  5
614
  8
FUTO
 10
26049.12244648757
 20
-1539.6217831272729
 30
0.0
 40
10.0
 50
180.0
 51
265.0
  0
LINE
  5
617
  8
FUTO
 10
26032.12244648757
 20
-1562.697152744958
 30
0.0
 11
26032.12244648757
 21
-1435.6971527449559
 31
0.0
  0
LINE
  5
618
  8
FUTO
 10
26032.12244648757
 20
-1562.697152744958
 30
0.0
 11
26032.12244648757
 21
-1435.6971527449559
 31
0.0
  0
LINE
  5
61B
  8
FUTO
 10
26048.250889060098
 20
-1549.583730108191
 30
0.0
 11
26102.101803072688
 21
-1554.295074604802
 31
0.0
  0
LINE
  5
61C
  8
FUTO
 10
26032.12244648757
 20
-1562.697152744958
 30
0.0
 11
26107.122446487581
 21
-1562.697152744958
 31
0.0
  0
LINE
  5
629
  8
FUTO
 10
26107.122446487581
 20
-1559.7741454443051
 30
0.0
 11
26107.122446487581
 21
-1562.697152744958
 31
0.0
  0
ARC
  5
62A
  8
FUTO
 10
26101.622446487581
 20
-1559.7741454443051
 30
0.0
 40
5.5
 50
0.0
 51
84.999999999999986
  0
LINE
  5
632
  8
FUTO
 10
26039.12244648757
 20
-1539.6217831272729
 30
0.0
 11
26039.12244648757
 21
-1435.6971527449559
 31
0.0
  0
LINE
  5
635
  8
KL
 10
26031.322446487578
 20
-212.6971527449586
 30
0.0
 11
26183.122446487581
 21
-212.6971527449586
 31
0.0
  0
LINE
  5
636
  8
FUTO
 10
26031.322446487578
 20
-218.6971527449586
 30
0.0
 11
26121.322446487578
 21
-218.6971527449586
 31
0.0
  0
LINE
  5
637
  8
HOSO
 10
26040.322446488481
 20
-212.69715274494769
 30
0.0
 11
26031.322446488481
 21
-212.6971527449459
 31
0.0
  0
LINE
  5
638
  8
HOSO
 10
26005.202702880379
 20
-252.6971527449586
 30
0.0
 11
26063.401858985599
 21
-252.6971527449586
 31
0.0
  0
LINE
  5
639
  8
KL
 10
26031.322446487578
 20
-287.6971527449586
 30
0.0
 11
26040.32244648847
 21
-287.6971527449586
 31
0.0
  0
LINE
  5
63A
  8
FUTO
 10
26121.322446487578
 20
-218.6971527449586
 30
0.0
 11
26177.12244648757
 21
-218.6971527449586
 31
0.0
  0
LINE
  5
63B
  8
HOSO
 10
26155.084257047591
 20
-252.6971527449586
 30
0.0
 11
26213.283413152822
 21
-252.6971527449586
 31
0.0
  0
LINE
  5
63C
  8
FUTO
 10
26177.12244648757
 20
-287.6971527449586
 30
0.0
 11
26183.122446487581
 21
-287.6971527449586
 31
0.0
  0
LINE
  5
68C
  8
FUTO
 10
26031.322446487578
 20
787.30284725504134
 30
0.0
 11
26031.322446487578
 21
2229.3028472550409
 31
0.0
  0
LINE
  5
68D
  8
FUTO
 10
26028.12244648757
 20
787.30284725504134
 30
0.0
 11
26028.12244648757
 21
2229.3028472550409
 31
0.0
  0
LINE
  5
68E
  8
FUTO
 10
26106.322446487571
 20
862.60080551739327
 30
0.0
 11
26106.322446487571
 21
2229.30284725503
 31
0.0
  0
LINE
  5
68F
  8
FUTO
 10
24528.12244648757
 20
787.30284725504134
 30
0.0
 11
24528.12244648757
 21
2229.3028472550409
 31
0.0
  0
LINE
  5
690
  8
FUTO
 10
24524.922446487581
 20
787.30284725504134
 30
0.0
 11
24524.922446487581
 21
2229.3028472550409
 31
0.0
  0
LINE
  5
691
  8
FUTO
 10
24449.922446487581
 20
862.60080551739327
 30
0.0
 11
24449.92244648757
 21
2229.3028472550418
 31
0.0
  0
LINE
  5
69A
  8
FUTO
 10
24449.922446487581
 20
880.60080551739327
 30
0.0
 11
26106.322446487571
 21
880.60080551739327
 31
0.0
  0
LINE
  5
69B
  8
FUTO
 10
24434.92244648757
 20
862.60080551739327
 30
0.0
 11
26121.322446487571
 21
862.60080551739327
 31
0.0
  0
LINE
  5
6A4
  8
FUTO
 10
24257.122446487581
 20
692.30284725504134
 30
0.0
 11
24257.122446487581
 21
922.30284725504146
 31
0.0
  0
LINE
  5
6A5
  8
FUTO
 10
24244.12244648757
 20
692.30284725504134
 30
0.0
 11
24244.12244648757
 21
922.30284725504146
 31
0.0
  0
LINE
  5
6A6
  8
FUTO
 10
24220.12244648757
 20
698.30284725504043
 30
0.0
 11
24220.12244648757
 21
876.30284725504305
 31
0.0
  0
LINE
  5
6A7
  8
CT
 10
24322.12244648757
 20
557.01113818054182
 30
0.0
 11
24322.12244648757
 21
1016.636549016837
 31
0.0
  0
LINE
  5
6A8
  8
FUTO
 10
24387.12244648757
 20
692.30284725504134
 30
0.0
 11
24387.12244648757
 21
922.30284725504146
 31
0.0
  0
LINE
  5
6A9
  8
FUTO
 10
24424.12244648757
 20
698.30284725504043
 30
0.0
 11
24424.12244648757
 21
876.30284725504305
 31
0.0
  0
LINE
  5
6AA
  8
FUTO
 10
24400.12244648757
 20
692.30284725504134
 30
0.0
 11
24400.12244648757
 21
922.30284725504146
 31
0.0
  0
LINE
  5
6AB
  8
FUTO
 10
24387.12244648757
 20
692.30284725504134
 30
0.0
 11
24387.12244648757
 21
922.30284725504146
 31
0.0
  0
LINE
  5
6AF
  8
FUTO
 10
24242.12244648757
 20
637.30284725504134
 30
0.0
 11
24402.12244648757
 21
637.30284725504134
 31
0.0
  0
LINE
  5
6B0
  8
FUTO
 10
24242.12244648757
 20
692.30284725504134
 30
0.0
 11
24402.12244648757
 21
692.30284725504134
 31
0.0
  0
LINE
  5
6B1
  8
CT
 10
24272.122446487581
 20
598.93811232194093
 30
0.0
 11
24272.122446487581
 21
720.99642858568677
 31
0.0
  0
LINE
  5
6B2
  8
FUTO
 10
24242.12244648757
 20
627.30284725504134
 30
0.0
 11
24242.12244648757
 21
692.30284725504134
 31
0.0
  0
LINE
  5
6B3
  8
FUTO
 10
24220.12244648757
 20
698.30284725504134
 30
0.0
 11
24242.12244648757
 21
674.4695139217074
 31
0.0
  0
LINE
  5
6B6
  8
KL
 10
24424.12244648757
 20
732.30284725504134
 30
0.0
 11
24517.766486812241
 21
732.30284725504134
 31
0.0
  0
LINE
  5
6BA
  8
CT
 10
24372.12244648757
 20
597.00942560896965
 30
0.0
 11
24372.12244648757
 21
720.99642858568677
 31
0.0
  0
LINE
  5
6BB
  8
FUTO
 10
24402.12244648757
 20
627.30284725504134
 30
0.0
 11
24402.12244648757
 21
692.30284725504134
 31
0.0
  0
LINE
  5
6BC
  8
FUTO
 10
24424.12244648757
 20
698.30284725504134
 30
0.0
 11
24402.12244648757
 21
674.4695139217074
 31
0.0
  0
LINE
  5
6C2
  8
FUTO
 10
24262.12244648757
 20
938.30284725504146
 30
0.0
 11
24382.12244648757
 21
938.30284725504146
 31
0.0
  0
LINE
  5
6C3
  8
FUTO
 10
24262.12244648757
 20
922.30284725504146
 30
0.0
 11
24262.12244648757
 21
938.30284725504146
 31
0.0
  0
LINE
  5
6C4
  8
FUTO
 10
24220.12244648757
 20
876.30284725504134
 30
0.0
 11
24244.12244648757
 21
902.30284725504134
 31
0.0
  0
LINE
  5
6C5
  8
FUTO
 10
24244.12244648757
 20
922.30284725504146
 30
0.0
 11
24262.12244648757
 21
922.30284725504146
 31
0.0
  0
LINE
  5
6C6
  8
KL
 10
24424.12244648757
 20
842.30284725504134
 30
0.0
 11
24520.209523679419
 21
842.30284725504134
 31
0.0
  0
LINE
  5
6C7
  8
FUTO
 10
24400.12244648757
 20
922.30284725504146
 30
0.0
 11
24382.12244648757
 21
922.30284725504146
 31
0.0
  0
LINE
  5
6C8
  8
FUTO
 10
24382.12244648757
 20
922.30284725504146
 30
0.0
 11
24382.12244648757
 21
938.30284725504146
 31
0.0
  0
LINE
  5
6C9
  8
FUTO
 10
24424.12244648757
 20
876.30284725504134
 30
0.0
 11
24400.12244648757
 21
902.30284725504134
 31
0.0
  0
LINE
  5
6E2
  8
KL
 10
26031.322446487578
 20
1787.3028472550409
 30
0.0
 11
26183.122446487581
 21
1787.3028472550409
 31
0.0
  0
LINE
  5
6E3
  8
KL
 10
26031.322446487578
 20
1793.3028472550409
 30
0.0
 11
26106.322446487571
 21
1793.3028472550409
 31
0.0
  0
LINE
  5
6E4
  8
HOSO
 10
26040.322446488939
 20
1787.3028472550509
 30
0.0
 11
26031.322446488939
 21
1787.3028472550541
 31
0.0
  0
LINE
  5
6E5
  8
HOSO
 10
25997.51607264315
 20
1827.3028472550409
 30
0.0
 11
26068.14319978097
 21
1827.3028472550409
 31
0.0
  0
LINE
  5
6E6
  8
FUTO
 10
26106.322446487571
 20
1793.3028472550409
 30
0.0
 11
26177.12244648757
 21
1793.3028472550409
 31
0.0
  0
LINE
  5
6E7
  8
HOSO
 10
26147.076519045229
 20
1827.3028472550409
 30
0.0
 11
26217.70364618305
 21
1827.3028472550409
 31
0.0
  0
DIMENSION
  5
6F9
  8
SP
  2
*D9
 10
26183.122446487581
 20
2562.1332932287978
 30
0.0
 11
25730.62244648757
 21
2652.1332932287978
 31
0.0
 70
     0
  1
905
 13
25278.122446487581
 23
2446.1736299067888
 33
0.0
 14
26183.122446487581
 24
1862.3028472550409
 34
0.0
1001
ACAD
1000
DSTYLE
1002
{
1070
   287
1070
     0
1070
   287
1070
     0
1070
    40
1040
45.0
1070
   140
1040
3.0
1070
   143
1040
0.03937
1070
   147
1040
0.5
1070
   173
1070
     1
1070
   176
1070
   256
1070
   177
1070
   256
1070
   178
1070
   256
1070
   271
1070
     4
1070
   272
1070
     4
1070
   279
1070
     0
1070
   285
1070
     0
1070
   286
1070
     0
1070
   289
1070
     0
1070
     6
1000
OPEN
1070
     7
1000
OPEN
1002
}
  0
LINE
  5
706
  8
KL
 10
26031.322446487578
 20
1862.3028472550409
 30
0.0
 11
26040.322446488961
 21
1862.3028472550409
 31
0.0
  0
LINE
  5
707
  8
KL
 10
26031.32244648756
 20
1860.3028472550409
 30
0.0
 11
26031.322446487589
 21
1950.3028472550409
 31
0.0
  0
LINE
  5
708
  8
FUTO
 10
26177.12244648757
 20
1862.3028472550409
 30
0.0
 11
26183.122446487581
 21
1862.3028472550409
 31
0.0
  0
INSERT
  5
71C
  8
FUTO
  2
まっすぐの矢印
 10
26349.618734243599
 20
1338.227098395233
 30
0.0
 41
40.0
 42
40.0
 43
40.0
 50
90.0
  0
DIMENSION
  5
A68
  8
SP
  2
*D5
 10
19749.382836916699
 20
-2260.3178797588439
 30
0.0
 11
18624.382836916699
 21
-2170.3178797588439
 31
0.0
 70
     0
 13
17499.382836916699
 23
-1592.697152744958
 33
0.0
 14
19749.382836916699
 24
-1592.697152744958
 34
0.0
1001
ACAD
1000
DSTYLE
1002
{
1070
   140
1040
3.0
1070
    40
1040
45.0
1070
   173
1070
     1
1070
   147
1040
0.5
1070
     7
1000
_OPEN
1070
     6
1000
_OPEN
1002
}
  0
DIMENSION
  5
A75
  8
SP
  2
*D6
 10
20899.382836916699
 20
-2260.3178797588439
 30
0.0
 11
20324.382836916699
 21
-2170.3178797588439
 31
0.0
 70
     0
 13
19749.382836916699
 23
-1592.697152744958
 33
0.0
 14
20899.382836916699
 24
-1592.697152744958
 34
0.0
1001
ACAD
1000
DSTYLE
1002
{
1070
   140
1040
3.0
1070
    40
1040
45.0
1070
   173
1070
     1
1070
   147
1040
0.5
1070
     7
1000
_OPEN
1070
     6
1000
_OPEN
1002
}
  0
LINE
  5
AB0
  8
SL
 10
24161.690712261479
 20
934.50595474937109
 30
0.0
 11
23231.511939383261
 21
934.50595474937109
 31
0.0
  0
POINT
  5
CAC
  8
DEFPOINTS
  6
BYBLOCK
 62
     0
 10
20549.382836916699
 20
3458.443658460827
 30
0.0
  0
POINT
  5
CB7
  8
DEFPOINTS
  6
BYBLOCK
 62
     0
 10
20549.382836916699
 20
3458.443658460827
 30
0.0
  0
LINE
  5
178C
  8
FUTO
 10
17784.382836916699
 20
-1382.697152744968
 30
0.0
 11
17549.382836916699
 21
-1382.697152744968
 31
0.0
  0
LINE
  5
178D
  8
FUTO
 10
17559.382836916699
 20
-1312.697152744968
 30
0.0
 11
17784.382836916699
 21
-1312.697152744968
 31
0.0
  0
LINE
  5
178F
  8
FUTO
 10
18249.382836916699
 20
-1382.697152744968
 30
0.0
 11
18014.382836916699
 21
-1382.697152744968
 31
0.0
  0
LINE
  5
1790
  8
FUTO
 10
18014.382836916699
 20
-1312.697152744968
 30
0.0
 11
18239.382836916699
 21
-1312.697152744968
 31
0.0
  0
LINE
  5
1791
  8
FUTO
 10
18239.382836916699
 20
-1312.697152744968
 30
0.0
 11
18249.382836916699
 21
-1382.697152744968
 31
0.0
  0
LINE
  5
1792
  8
FUTO
 10
17784.382836916699
 20
-1372.697152744968
 30
0.0
 11
18014.382836916699
 21
-1372.697152744968
 31
0.0
  0
LINE
  5
1793
  8
FUTO
 10
17784.382836916699
 20
-1322.697152744968
 30
0.0
 11
18014.382836916699
 21
-1322.697152744968
 31
0.0
  0
LINE
  5
1794
  8
FUTO
 10
18014.382836916699
 20
-1312.697152744968
 30
0.0
 11
18014.382836916699
 21
-1322.697152744968
 31
0.0
  0
LINE
  5
1795
  8
FUTO
 10
18014.382836916699
 20
-1372.697152744968
 30
0.0
 11
18014.382836916699
 21
-1382.697152744968
 31
0.0
  0
LINE
  5
1796
  8
FUTO
 10
17784.382836916699
 20
-1312.697152744968
 30
0.0
 11
17784.382836916699
 21
-1322.697152744968
 31
0.0
  0
LINE
  5
1797
  8
FUTO
 10
17784.382836916699
 20
-1372.697152744968
 30
0.0
 11
17784.382836916699
 21
-1382.697152744968
 31
0.0
  0
LINE
  5
1798
  8
FUTO
 10
17656.382836916699
 20
-1312.697152744968
 30
0.0
 11
17756.382836916699
 21
-1312.697152744968
 31
0.0
  0
LINE
  5
1799
  8
FUTO
 10
17559.382836916699
 20
-1312.697152744968
 30
0.0
 11
17549.382836916699
 21
-1382.697152744968
 31
0.0
  0
LINE
  5
179B
  8
CT
 10
17797.676422292428
 20
-582.6971527449698
 30
0.0
 11
17643.37948477274
 21
-582.6971527449698
 31
0.0
  0
LINE
  5
179C
  8
FUTO
 10
18109.382836916699
 20
-442.69715274496889
 30
0.0
 11
17719.382836916699
 21
-442.69715274496889
 31
0.0
  0
LINE
  5
179D
  8
FUTO
 10
18109.382836916699
 20
-707.6971527449698
 30
0.0
 11
17719.382836916699
 21
-707.69715274497071
 31
0.0
  0
LINE
  5
179E
  8
FUTO
 10
18054.861969192301
 20
-1300.8878301124421
 30
0.0
 11
17743.903704641089
 21
-1300.887830112441
 31
0.0
  0
LINE
  5
17A0
  8
CT
 10
18236.84180110646
 20
-1032.6971527449689
 30
0.0
 11
17556.10561472367
 21
-1032.6971527449689
 31
0.0
  0
ARC
  5
17A1
  8
FUTO
 10
17899.382836916699
 20
-1032.6971527449689
 30
0.0
 40
310.0
 50
300.10230806831191
 51
239.897691931688
  0
LINE
  5
17A3
  8
FUTO
 10
18069.382836916699
 20
-1291.9267806812829
 30
0.0
 11
18069.382836916699
 21
-1312.6971527449689
 31
0.0
  0
LINE
  5
17A4
  8
CT
 10
18127.882836916699
 20
-1267.5277042553239
 30
0.0
 11
18127.882836916699
 21
-1359.1532673275781
 31
0.0
  0
LINE
  5
17A5
  8
FUTO
 10
18179.382836916709
 20
-1165.738499701499
 30
0.0
 11
18179.382836916699
 21
-1312.697152744968
 31
0.0
  0
LINE
  5
17A6
  8
FUTO
 10
18179.382836916699
 20
-1312.697152744968
 30
0.0
 11
18069.382836916699
 21
-1312.697152744968
 31
0.0
  0
LINE
  5
17A7
  8
FUTO
 10
18179.382836916699
 20
-1282.6971527449689
 30
0.0
 11
18082.685864714931
 21
-1282.6971527449689
 31
0.0
  0
LINE
  5
17A8
  8
FUTO
 10
18129.382836916699
 20
-462.69715274496889
 30
0.0
 11
18129.382836916699
 21
-687.6971527449698
 31
0.0
  0
ARC
  5
17A9
  8
FUTO
 10
18109.382836916699
 20
-687.6971527449698
 30
0.0
 40
20.0
 50
270.0
 51
0.000000000000007
  0
ARC
  5
17AA
  8
FUTO
 10
18109.382836916699
 20
-462.69715274496889
 30
0.0
 40
20.0
 50
0.000000000000007
 51
90.0
  0
LINE
  5
17AB
  8
FUTO
 10
17619.382836916699
 20
-1165.7384997015149
 30
0.0
 11
17619.382836916699
 21
-1312.6971527449689
 31
0.0
  0
LINE
  5
17AC
  8
FUTO
 10
17729.382836916699
 20
-1291.9267806812829
 30
0.0
 11
17729.382836916699
 21
-1312.6971527449689
 31
0.0
  0
LINE
  5
17AD
  8
CT
 10
17670.882836916699
 20
-1267.5277042553239
 30
0.0
 11
17670.882836916699
 21
-1354.9884690061119
 31
0.0
  0
LINE
  5
17AE
  8
FUTO
 10
17729.382836916699
 20
-1312.6971527449689
 30
0.0
 11
17619.382836916699
 21
-1312.6971527449689
 31
0.0
  0
LINE
  5
17AF
  8
FUTO
 10
17716.07980911847
 20
-1282.6971527449689
 30
0.0
 11
17619.382836916699
 21
-1282.6971527449689
 31
0.0
  0
LINE
  5
17B0
  8
FUTO
 10
17699.382836916699
 20
-462.69715274496889
 30
0.0
 11
17699.382836916699
 21
-687.69715274497071
 31
0.0
  0
ARC
  5
17B1
  8
FUTO
 10
17719.382836916699
 20
-687.69715274497071
 30
0.0
 40
20.0
 50
180.0
 51
270.0
  0
ARC
  5
17B2
  8
FUTO
 10
17719.382836916699
 20
-462.69715274496889
 30
0.0
 40
20.0
 50
90.0
 51
180.0
  0
CIRCLE
  5
17B5
  8
SL
 10
17899.382836916699
 20
-1032.6971527449689
 30
0.0
 40
177.5
  0
CIRCLE
  5
17B6
  8
SL
 10
19749.382836916699
 20
787.30284725504134
 30
0.0
 40
315.0
  0
ARC
  5
17B9
  8
FUTO
 10
19749.382836916699
 20
787.30284725504134
 30
0.0
 40
480.0
 50
310.11169717184271
 51
138.95160794993251
  0
ARC
  5
17BA
  8
FUTO
 10
17899.382836916699
 20
-1032.6971527449689
 30
0.0
 40
280.0
 50
138.95160794993259
 51
310.11169717184271
  0
DIMENSION
  5
1B16
  8
SP
  2
*D10
 10
25278.122446487581
 20
-2265.7745730132042
 30
0.0
 11
24092.62244648757
 21
-2175.7745730132042
 31
0.0
 70
     0
 13
22907.12244648757
 23
-1592.697152744958
 33
0.0
 14
25278.122446487581
 24
-1592.6971527449591
 34
0.0
1001
ACAD
1000
DSTYLE
1002
{
1070
   287
1070
     3
1070
    40
1040
45.0
1070
   140
1040
3.0
1070
   147
1040
0.5
1070
   173
1070
     1
1070
   279
1070
     0
1070
     6
1000
OPEN
1070
     7
1000
OPEN
1002
}
  0
DIMENSION
  5
1B22
  8
SP
  2
*D11
 10
26107.122446487581
 20
-2265.7745730132042
 30
0.0
 11
25692.62244648757
 21
-2175.7745730132042
 31
0.0
 70
     0
 13
25278.122446487581
 23
-1592.6971527449591
 33
0.0
 14
26107.122446487581
 24
-1592.697152744958
 34
0.0
1001
ACAD
1000
DSTYLE
1002
{
1070
   287
1070
     4
1070
    40
1040
45.0
1070
    75
1070
     1
1070
   140
1040
3.0
1070
   147
1040
0.5
1070
   173
1070
     1
1070
   279
1070
     1
1070
     6
1000
OPEN
1070
     7
1000
OPEN
1002
}
  0
DIMENSION
  5
1B2F
  8
SP
  2
*D12
 10
22907.12244648757
 20
-2557.896873266101
 30
0.0
 11
24507.12244648757
 21
-2467.896873266101
 31
0.0
 70
     0
 13
26107.122446487581
 23
-2265.7745730132042
 33
0.0
 14
22907.12244648757
 24
-2265.7745730132042
 34
0.0
1001
ACAD
1000
DSTYLE
1002
{
1070
   287
1070
     3
1070
    40
1040
45.0
1070
   140
1040
3.0
1070
   147
1040
0.5
1070
   173
1070
     1
1070
   279
1070
     0
1070
     6
1000
OPEN
1070
     7
1000
OPEN
1002
}
  0
ARC
  5
1BB6
  8
FUTO
 10
24454.62244648757
 20
-1559.7741454443051
 30
0.0
 40
5.5
 50
95.000000000000014
 51
180.0
  0
LINE
  5
1BB7
  8
FUTO
 10
24449.12244648757
 20
-1559.7741454443051
 30
0.0
 11
24449.12244648757
 21
-1562.697152744958
 31
0.0
  0
LINE
  5
1BBD
  8
FUTO
 10
24524.12244648757
 20
-1562.697152744958
 30
0.0
 11
24449.12244648757
 21
-1562.697152744958
 31
0.0
  0
LINE
  5
1BBE
  8
FUTO
 10
24507.99400391505
 20
-1549.583730108191
 30
0.0
 11
24454.14308990246
 21
-1554.295074604802
 31
0.0
  0
ARC
  5
1BBF
  8
FUTO
 10
24507.12244648757
 20
-1539.6217831272729
 30
0.0
 40
10.0
 50
275.0
 51
0.0
  0
LINE
  5
1BC1
  8
FUTO
 10
24524.12244648757
 20
-1562.697152744958
 30
0.0
 11
24524.12244648757
 21
-1435.6971527449559
 31
0.0
  0
LINE
  5
1BC2
  8
FUTO
 10
24524.12244648757
 20
-1562.697152744958
 30
0.0
 11
24524.12244648757
 21
-1435.6971527449559
 31
0.0
  0
LINE
  5
1BC6
  8
FUTO
 10
24517.12244648757
 20
-1539.6217831272729
 30
0.0
 11
24517.12244648757
 21
-1435.6971527449559
 31
0.0
  0
LINE
  5
1BCA
  8
FUTO
 10
24524.12244648757
 20
-1550.697152744958
 30
0.0
 11
26032.12244648757
 21
-1550.697152744958
 31
0.0
  0
DIMENSION
  5
1BF2
  8
SP
  2
*D13
 10
25278.122446487581
 20
2562.1332932287978
 30
0.0
 11
23978.12244648757
 21
2652.1332932287978
 31
0.0
 70
     0
 13
22678.122446487581
 23
2562.1332932287978
 33
0.0
 14
25278.122446487581
 24
2562.1332932287978
 34
0.0
1001
ACAD
1000
DSTYLE
1002
{
1070
   287
1070
     3
1070
    40
1040
45.0
1070
   140
1040
3.0
1070
   147
1040
0.5
1070
   173
1070
     1
1070
   279
1070
     0
1070
   341
1005
24
1070
     6
1000
OPEN
1070
     7
1000
OPEN
1002
}
  0
LINE
  5
1C21
  8
SL
 10
23231.511939383261
 20
934.50595474937109
 30
0.0
 11
23231.511939383261
 21
627.30284725504134
 31
0.0
  0
LINE
  5
1C22
  8
SL
 10
24161.690712261479
 20
934.50595474937109
 30
0.0
 11
24161.690712261479
 21
627.30284725504134
 31
0.0
  0
LINE
  5
1C5C
  8
FUTO
 10
19838.382836916699
 20
4771.4436584608284
 30
0.0
 11
19864.382836916699
 21
4795.4436584608284
 31
0.0
  0
LINE
  5
1C5D
  8
FUTO
 10
19660.382836916699
 20
4771.4436584608284
 30
0.0
 11
19636.549503583359
 21
4793.4436584608302
 31
0.0
  0
LINE
  5
1C61
  8
FUTO
 10
20229.382836916699
 20
3229.443658460832
 30
0.0
 11
17619.382836916699
 21
3229.4436584608279
 31
0.0
  0
LINE
  5
1C62
  8
SL
 10
20124.382836916699
 20
3347.2436584608308
 30
0.0
 11
17721.882836916699
 21
3347.2436584608272
 31
0.0
  0
LINE
  5
1C63
  8
SL
 10
20124.382836916699
 20
3477.243658460829
 30
0.0
 11
17721.882836916699
 21
3477.2436584608299
 31
0.0
  0
LINE
  5
1C6B
  8
FUTO
 10
19691.882836916699
 20
4771.4436584608284
 30
0.0
 11
19691.882836916699
 21
3709.4436584608279
 31
0.0
  0
LINE
  5
1C6C
  8
FUTO
 10
19806.882836916699
 20
4771.4436584608284
 30
0.0
 11
19806.882836916699
 21
3709.4436584608279
 31
0.0
  0
LINE
  5
1C6D
  8
FUTO
 10
20229.382836916699
 20
3510.1926926233368
 30
0.0
 11
17619.382836916699
 21
3510.1926926233359
 31
0.0
  0
LINE
  5
1C6E
  8
FUTO
 10
19829.382836916699
 20
3709.4436584608279
 30
0.0
 11
19669.382836916699
 21
3709.4436584608279
 31
0.0
  0
LINE
  5
1C6F
  8
FUTO
 10
19829.382836916699
 20
3537.4436584608279
 30
0.0
 11
19669.382836916699
 21
3537.4436584608279
 31
0.0
  0
LINE
  5
1C70
  8
FUTO
 10
19864.382836916699
 20
3687.4436584608279
 30
0.0
 11
19669.382836916699
 21
3687.4436584608279
 31
0.0
  0
LINE
  5
1C71
  8
FUTO
 10
19864.382836916699
 20
3701.4436584608279
 30
0.0
 11
19634.382836916699
 21
3701.4436584608279
 31
0.0
  0
LINE
  5
1C72
  8
FUTO
 10
19864.382836916699
 20
3545.4436584608279
 30
0.0
 11
19634.382836916699
 21
3545.4436584608279
 31
0.0
  0
LINE
  5
1C73
  8
CT
 10
19912.874455426529
 20
3623.4436584608279
 30
0.0
 11
19598.225683154658
 21
3623.4436584608279
 31
0.0
  0
LINE
  5
1C74
  8
FUTO
 10
19864.382836916699
 20
3687.4436584608279
 30
0.0
 11
19634.382836916699
 21
3687.4436584608279
 31
0.0
  0
LINE
  5
1C75
  8
FUTO
 10
19864.382836916699
 20
3559.4436584608279
 30
0.0
 11
19634.382836916699
 21
3559.4436584608279
 31
0.0
  0
LINE
  5
1C76
  8
SL
 10
19374.382836916699
 20
3477.243658460829
 30
0.0
 11
19374.382836916699
 21
3347.243658460829
 31
0.0
  0
LINE
  5
1C7A
  8
FUTO
 10
19696.882836916699
 20
3537.4436584608279
 30
0.0
 11
19696.882836916699
 21
3477.2436584608281
 31
0.0
  0
LINE
  5
1C7B
  8
FUTO
 10
19634.382836916699
 20
3545.4436584608279
 30
0.0
 11
19634.382836916699
 21
3553.4436584608279
 31
0.0
  0
LINE
  5
1C7C
  8
FUTO
 10
19669.382836916699
 20
3537.4436584608279
 30
0.0
 11
19649.382836916699
 21
3545.4436584608279
 31
0.0
  0
LINE
  5
1C7F
  8
FUTO
 10
19669.382836916699
 20
3709.4436584608279
 30
0.0
 11
19649.382836916699
 21
3701.4436584608279
 31
0.0
  0
LINE
  5
1C80
  8
FUTO
 10
19634.382836916699
 20
3701.4436584608279
 30
0.0
 11
19634.382836916699
 21
3693.4436584608279
 31
0.0
  0
LINE
  5
1C83
  8
SL
 10
20124.382836916699
 20
3477.2436584608281
 30
0.0
 11
20124.382836916699
 21
3347.2436584608308
 31
0.0
  0
LINE
  5
1C84
  8
FUTO
 10
19882.382836916699
 20
3569.4436584608279
 30
0.0
 11
19882.382836916699
 21
3677.4436584608279
 31
0.0
  0
LINE
  5
1C85
  8
FUTO
 10
19864.382836916699
 20
3559.4436584608279
 30
0.0
 11
19864.382836916699
 21
3569.4436584608279
 31
0.0
  0
LINE
  5
1C86
  8
FUTO
 10
19882.382836916699
 20
3569.4436584608279
 30
0.0
 11
19864.382836916699
 21
3569.4436584608279
 31
0.0
  0
LINE
  5
1C87
  8
FUTO
 10
19864.382836916699
 20
3545.4436584608279
 30
0.0
 11
19864.382836916699
 21
3559.4436584608279
 31
0.0
  0
LINE
  5
1C88
  8
FUTO
 10
19829.382836916699
 20
3537.4436584608279
 30
0.0
 11
19849.382836916699
 21
3545.4436584608279
 31
0.0
  0
LINE
  5
1C89
  8
FUTO
 10
19801.882836916699
 20
3537.4436584608279
 30
0.0
 11
19801.882836916699
 21
3477.2436584608281
 31
0.0
  0
LINE
  5
1C8A
  8
FUTO
 10
19829.382836916699
 20
3709.4436584608279
 30
0.0
 11
19849.382836916699
 21
3701.4436584608279
 31
0.0
  0
LINE
  5
1C8B
  8
FUTO
 10
19864.382836916699
 20
3701.4436584608279
 30
0.0
 11
19864.382836916699
 21
3687.4436584608279
 31
0.0
  0
LINE
  5
1C8C
  8
FUTO
 10
19864.382836916699
 20
3677.4436584608279
 30
0.0
 11
19864.382836916699
 21
3687.4436584608279
 31
0.0
  0
LINE
  5
1C8D
  8
FUTO
 10
19882.382836916699
 20
3677.4436584608279
 30
0.0
 11
19864.382836916699
 21
3677.4436584608279
 31
0.0
  0
LINE
  5
1C8E
  8
FUTO
 10
20229.382836916699
 20
3510.1926926233368
 30
0.0
 11
20229.382836916699
 21
3229.443658460832
 31
0.0
  0
POINT
  5
1C8F
  8
DEFPOINTS
 10
20229.382836916699
 20
3229.443658460832
 30
0.0
  0
LINE
  5
1C93
  8
FUTO
 10
19660.382836916699
 20
4771.4436584608284
 30
0.0
 11
19838.382836916699
 21
4771.4436584608302
 31
0.0
  0
LINE
  5
1C9A
  8
FUTO
 10
20824.382836916699
 20
6728.4436584608293
 30
0.0
 11
18674.382836916699
 21
6728.4436584608293
 31
0.0
  0
LINE
  5
1C9B
  8
FUTO
 10
20824.382836916699
 20
6734.4436584608293
 30
0.0
 11
18674.382836916699
 21
6734.4436584608302
 31
0.0
  0
LINE
  5
1C9C
  8
KL
 10
20824.382836916699
 20
6591.6436584617204
 30
0.0
 11
18674.382836916699
 21
6591.6436584622124
 31
0.0
  0
LINE
  5
1CA1
  8
HOSO
 10
20789.382836916699
 20
6556.5239148536293
 30
0.0
 11
20789.382836916699
 21
6614.7230709588566
 31
0.0
  0
LINE
  5
1CA2
  8
FUTO
 10
20755.382836916699
 20
6582.6436584608282
 30
0.0
 11
20755.382836916699
 21
6672.6436584608291
 31
0.0
  0
LINE
  5
1CA3
  8
KL
 10
20749.382836916699
 20
6582.6436584608282
 30
0.0
 11
20749.382836916699
 21
6734.4436584608293
 31
0.0
  0
LINE
  5
1CA4
  8
KL
 10
20824.382836916699
 20
6582.6436584608282
 30
0.0
 11
20824.382836916699
 21
6591.6436584617186
 31
0.0
  0
LINE
  5
1CA5
  8
HOSO
 10
20749.382836916691
 20
6591.6436584617377
 30
0.0
 11
20749.38283691668
 21
6582.6436584617377
 31
0.0
  0
LINE
  5
1CA6
  8
FUTO
 10
20824.382836916699
 20
6728.4436584608302
 30
0.0
 11
20824.382836916699
 21
6734.4436584608293
 31
0.0
  0
LINE
  5
1CA7
  8
HOSO
 10
20789.382836916699
 20
6706.405469020845
 30
0.0
 11
20789.382836916699
 21
6764.6046251260723
 31
0.0
  0
LINE
  5
1CA8
  8
FUTO
 10
20755.382836916699
 20
6672.6436584608291
 30
0.0
 11
20755.382836916699
 21
6728.4436584608293
 31
0.0
  0
LINE
  5
1CBE
  8
FUTO
 10
19654.382836916699
 20
4938.4436584608293
 30
0.0
 11
19884.382836916699
 21
4938.4436584608293
 31
0.0
  0
LINE
  5
1CBF
  8
FUTO
 10
19614.382836916699
 20
4951.4436584608284
 30
0.0
 11
19884.382836916699
 21
4951.4436584608284
 31
0.0
  0
LINE
  5
1CC0
  8
FUTO
 10
19660.382836916699
 20
4975.4436584608293
 30
0.0
 11
19838.382836916699
 21
4975.4436584608293
 31
0.0
  0
LINE
  5
1CC1
  8
FUTO
 10
19614.382836916699
 20
4938.4436584608302
 30
0.0
 11
19884.382836916699
 21
4938.4436584608293
 31
0.0
  0
LINE
  5
1CC2
  8
CT
 10
19519.091127842199
 20
4873.4436584608284
 30
0.0
 11
19978.716538678491
 21
4873.4436584608284
 31
0.0
  0
LINE
  5
1CC3
  8
FUTO
 10
19614.382836916699
 20
4795.4436584608302
 30
0.0
 11
19884.382836916699
 21
4795.4436584608284
 31
0.0
  0
LINE
  5
1CC4
  8
FUTO
 10
19614.382836916699
 20
4808.4436584608311
 30
0.0
 11
19884.382836916699
 21
4808.4436584608284
 31
0.0
  0
LINE
  5
1CC5
  8
KL
 10
19694.382836916699
 20
4975.4436584608293
 30
0.0
 11
19694.382836916699
 21
5069.0876987854881
 31
0.0
  0
LINE
  5
1CCB
  8
FUTO
 10
19660.382836916699
 20
4975.4436584608302
 30
0.0
 11
19636.549503583359
 21
4953.4436584608293
 31
0.0
  0
LINE
  5
1CCE
  8
KL
 10
19804.382836916699
 20
4975.4436584608293
 30
0.0
 11
19804.382836916699
 21
5071.5307356526773
 31
0.0
  0
LINE
  5
1CCF
  8
FUTO
 10
19900.382836916699
 20
4813.4436584608293
 30
0.0
 11
19900.382836916699
 21
4933.4436584608284
 31
0.0
  0
LINE
  5
1CD0
  8
FUTO
 10
19884.382836916699
 20
4795.4436584608302
 30
0.0
 11
19884.382836916699
 21
4813.4436584608293
 31
0.0
  0
LINE
  5
1CD1
  8
FUTO
 10
19884.382836916699
 20
4813.4436584608293
 30
0.0
 11
19900.382836916699
 21
4813.4436584608293
 31
0.0
  0
LINE
  5
1CD2
  8
FUTO
 10
19838.382836916699
 20
4975.4436584608302
 30
0.0
 11
19864.382836916699
 21
4951.4436584608284
 31
0.0
  0
LINE
  5
1CD3
  8
FUTO
 10
19884.382836916699
 20
4933.4436584608284
 30
0.0
 11
19900.382836916699
 21
4933.4436584608284
 31
0.0
  0
LINE
  5
1CD4
  8
FUTO
 10
19884.382836916699
 20
4951.4436584608284
 30
0.0
 11
19884.382836916699
 21
4933.4436584608284
 31
0.0
  0
LINE
  5
1CE0
  8
HOSO
 10
18709.382836916699
 20
6548.8372846164084
 30
0.0
 11
18709.382836916699
 21
6619.4644117542284
 31
0.0
  0
LINE
  5
1CE1
  8
KL
 10
18743.382836916699
 20
6582.6436584608282
 30
0.0
 11
18743.382836916699
 21
6657.6436584608291
 31
0.0
  0
LINE
  5
1CE2
  8
KL
 10
18749.382836916699
 20
6582.6436584608282
 30
0.0
 11
18749.382836916699
 21
6734.4436584608293
 31
0.0
  0
LINE
  5
1CE4
  8
KL
 10
18674.382836916699
 20
6582.6436584608282
 30
0.0
 11
18674.382836916699
 21
6591.6436584622124
 31
0.0
  0
LINE
  5
1CE5
  8
HOSO
 10
18749.382836916691
 20
6591.6436584621933
 30
0.0
 11
18749.38283691668
 21
6582.643658462197
 31
0.0
  0
LINE
  5
1CE6
  8
FUTO
 10
18674.382836916699
 20
6728.4436584608293
 30
0.0
 11
18674.382836916699
 21
6734.4436584608302
 31
0.0
  0
LINE
  5
1CE7
  8
HOSO
 10
18709.382836916699
 20
6698.3977310184873
 30
0.0
 11
18709.382836916699
 21
6769.0248581563083
 31
0.0
  0
LINE
  5
1CE8
  8
FUTO
 10
18743.382836916699
 20
6657.6436584608291
 30
0.0
 11
18743.382836916699
 21
6728.4436584608293
 31
0.0
  0
INSERT
  5
1CE9
  8
FUTO
  2
まっすぐの矢印
 10
19198.458585776509
 20
6900.9399462168576
 30
0.0
 41
40.0
 42
40.0
 43
40.0
 50
180.0
  0
LINE
  5
1D14
  8
FUTO
 10
19616.382836916699
 20
3569.4436584608279
 30
0.0
 11
19616.382836916699
 21
3677.4436584608279
 31
0.0
  0
LINE
  5
1D15
  8
FUTO
 10
19634.382836916699
 20
3545.4436584608279
 30
0.0
 11
19634.382836916699
 21
3559.4436584608279
 31
0.0
  0
LINE
  5
1D16
  8
FUTO
 10
19616.382836916699
 20
3569.4436584608279
 30
0.0
 11
19634.382836916699
 21
3569.4436584608279
 31
0.0
  0
LINE
  5
1D17
  8
FUTO
 10
19634.382836916699
 20
3559.4436584608279
 30
0.0
 11
19634.382836916699
 21
3569.4436584608279
 31
0.0
  0
LINE
  5
1D18
  8
FUTO
 10
19616.382836916699
 20
3677.4436584608279
 30
0.0
 11
19634.382836916699
 21
3677.4436584608279
 31
0.0
  0
LINE
  5
1D19
  8
FUTO
 10
19634.382836916699
 20
3677.4436584608279
 30
0.0
 11
19634.382836916699
 21
3687.4436584608279
 31
0.0
  0
LINE
  5
1D1A
  8
FUTO
 10
19634.382836916699
 20
3701.4436584608279
 30
0.0
 11
19634.382836916699
 21
3687.4436584608279
 31
0.0
  0
LINE
  5
1D1B
  8
FUTO
 10
19598.382836916699
 20
4813.4436584608293
 30
0.0
 11
19598.382836916699
 21
4933.4436584608284
 31
0.0
  0
LINE
  5
1D1C
  8
FUTO
 10
19614.382836916699
 20
4813.4436584608293
 30
0.0
 11
19598.382836916699
 21
4813.4436584608293
 31
0.0
  0
LINE
  5
1D1D
  8
FUTO
 10
19614.382836916699
 20
4795.4436584608302
 30
0.0
 11
19614.382836916699
 21
4813.4436584608293
 31
0.0
  0
LINE
  5
1D1E
  8
FUTO
 10
19614.382836916699
 20
4951.4436584608284
 30
0.0
 11
19614.382836916699
 21
4933.4436584608284
 31
0.0
  0
LINE
  5
1D1F
  8
FUTO
 10
19614.382836916699
 20
4933.4436584608284
 30
0.0
 11
19598.382836916699
 21
4933.4436584608284
 31
0.0
  0
LINE
  5
1D20
  8
FUTO
 10
19399.796032439259
 20
3527.4436584608261
 30
0.0
 11
19399.796032439252
 21
5000.4436584608256
 31
0.0
  0
LINE
  5
1D21
  8
FUTO
 10
20098.969641394138
 20
3527.4436584608261
 30
0.0
 11
20098.969641394138
 21
5000.4436584608256
 31
0.0
  0
LINE
  5
1D22
  8
FUTO
 10
21024.382836916899
 20
5000.4436584608256
 30
0.0
 11
21024.38283691803
 21
6658.4436584608338
 31
0.0
  0
LINE
  5
1D23
  8
FUTO
 10
21024.382836917332
 20
5000.4436584608256
 30
0.0
 11
21024.38283691807
 21
6658.4436584608338
 31
0.0
  0
LINE
  5
1D24
  8
FUTO
 10
21024.382836916699
 20
5000.4436584608256
 30
0.0
 11
21024.382836916699
 21
6658.4436584608338
 31
0.0
  0
LINE
  5
1D25
  8
FUTO
 10
21018.382836916699
 20
5000.4436584608256
 30
0.0
 11
21018.382836916699
 21
6658.4436584608338
 31
0.0
  0
LINE
  5
1D26
  8
FUTO
 10
20949.382836916699
 20
5000.4436584608256
 30
0.0
 11
20949.382836916699
 21
6658.443658460832
 31
0.0
  0
LINE
  5
1D35
  8
CT
 10
17899.382836916699
 20
4597.1574708213848
 30
0.0
 11
17899.382836916699
 21
3233.9423820895372
 31
0.0
  0
LINE
  5
1D3A
  8
SL
 10
17721.882836916699
 20
3477.2436584608308
 30
0.0
 11
17721.882836916699
 21
3347.2436584608272
 31
0.0
  0
LINE
  5
1D3B
  8
FUTO
 10
17619.382836916699
 20
3510.1926926233359
 30
0.0
 11
17619.382836916699
 21
3229.443658460827
 31
0.0
  0
LINE
  5
2121
  8
CT
 10
22999.42244648757
 20
-1032.697152744968
 30
0.0
 11
22631.60244648757
 21
-1032.697152744968
 31
0.0
  0
LINE
  5
2132
  8
FUTO
 10
23259.640446487581
 20
-1307.69715274497
 30
0.0
 11
23188.069446487581
 21
-1307.69715274497
 31
0.0
  0
LINE
  5
2306
  8
FUTO
 10
17611.88283691644
 20
4182.2436584607376
 30
0.0
 11
17611.882836916389
 21
4377.2436584607376
 31
0.0
  0
LINE
  5
2307
  8
FUTO
 10
18169.382836916378
 20
4395.5045284609096
 30
0.0
 11
18169.38283691644
 21
4182.2436584609113
 31
0.0
  0
LINE
  5
2308
  8
FUTO
 10
17611.882836916389
 20
4377.2436584607376
 30
0.0
 11
18169.382836916389
 21
4377.2436584609113
 31
0.0
  0
LINE
  5
2309
  8
FUTO
 10
18129.382836916371
 20
4437.2436584608977
 30
0.0
 11
17669.382836916371
 21
4437.2436584607567
 31
0.0
  0
LINE
  5
230A
  8
FUTO
 10
18169.382836916378
 20
4395.5045284609096
 30
0.0
 11
18129.382836916371
 21
4437.2436584608977
 31
0.0
  0
LINE
  5
230B
  8
FUTO
 10
17611.882836916389
 20
4377.2436584607376
 30
0.0
 11
17669.382836916371
 21
4437.2436584607567
 31
0.0
  0
LINE
  5
230C
  8
CT
 10
18209.697696569641
 20
3916.7436584609259
 30
0.0
 11
17566.622362820672
 21
3916.7436584607258
 31
0.0
  0
LINE
  5
230D
  8
FUTO
 10
17611.88283691644
 20
4182.2436584607376
 30
0.0
 11
18169.38283691644
 21
4182.2436584609113
 31
0.0
  0
LINE
  5
230E
  8
FUTO
 10
17611.882836916619
 20
3633.743658460739
 30
0.0
 11
17663.948858777389
 21
3633.7436584607549
 31
0.0
  0
LINE
  5
230F
  8
FUTO
 10
17611.882836916651
 20
3533.743658460739
 30
0.0
 11
17896.382836916651
 21
3533.7436584608258
 31
0.0
  0
LINE
  5
2310
  8
CT
 10
18203.512901883641
 20
4126.2436584609222
 30
0.0
 11
18240.19844188364
 21
4126.2436584609331
 31
0.0
  0
LINE
  5
2311
  8
CT
 10
18203.512901883769
 20
3707.2436584609218
 30
0.0
 11
18240.198441883771
 21
3707.2436584609331
 31
0.0
  0
LINE
  5
2312
  8
FUTO
 10
17941.882836916699
 20
3347.2436584608422
 30
0.0
 11
17941.882836916651
 21
3517.2436584608408
 31
0.0
  0
LINE
  5
2313
  8
FUTO
 10
17856.882836916651
 20
3517.2436584608149
 30
0.0
 11
17856.882836916699
 21
3347.243658460814
 31
0.0
  0
LINE
  5
2314
  8
FUTO
 10
17851.882836916699
 20
3347.2436584608131
 30
0.0
 11
17851.882836916659
 21
3487.2436584608131
 31
0.0
  0
LINE
  5
2315
  8
FUTO
 10
17949.382836916651
 20
3517.2436584608408
 30
0.0
 11
17849.382836916651
 21
3517.2436584608131
 31
0.0
  0
LINE
  5
2316
  8
FUTO
 10
17984.882836916651
 20
3527.2436584608531
 30
0.0
 11
17813.882836916651
 21
3527.2436584608022
 31
0.0
  0
LINE
  5
2317
  8
FUTO
 10
17986.882836916651
 20
3534.0920334608541
 30
0.0
 11
17986.882836916651
 21
3529.2436584608531
 31
0.0
  0
ARC
  5
2318
  8
FUTO
 10
17984.882836916651
 20
3529.2436584608531
 30
0.0
 40
2.0
 50
270.0
 51
0.000000000000007
  0
LINE
  5
2319
  8
FUTO
 10
17949.382836916651
 20
3517.2436584608408
 30
0.0
 11
17949.382836916651
 21
3527.2436584608422
 31
0.0
  0
LINE
  5
231A
  8
FUTO
 10
17849.382836916651
 20
3517.2436584608131
 30
0.0
 11
17849.382836916651
 21
3527.2436584608131
 31
0.0
  0
LINE
  5
231B
  8
FUTO
 10
17856.882836916659
 20
3487.2436584608149
 30
0.0
 11
17851.882836916659
 21
3487.2436584608131
 31
0.0
  0
LINE
  5
231C
  8
FUTO
 10
17811.882836916651
 20
3533.7436584608022
 30
0.0
 11
17811.882836916651
 21
3529.2436584608022
 31
0.0
  0
ARC
  5
231D
  8
FUTO
 10
17813.882836916651
 20
3529.2436584608022
 30
0.0
 40
2.0
 50
180.0
 51
270.0
  0
LINE
  5
231E
  8
FUTO
 10
17941.882836916699
 20
3347.2436584608422
 30
0.0
 11
17851.882836916699
 21
3347.2436584608131
 31
0.0
  0
LINE
  5
231F
  8
FUTO
 10
17613.568759916529
 20
3916.7436584607399
 30
0.0
 11
17613.568759916609
 21
3661.2436584607399
 31
0.0
  0
LINE
  5
2320
  8
FUTO
 10
17663.948858777308
 20
3876.2436584607572
 30
0.0
 11
18061.865876976059
 21
3876.2436584608781
 31
0.0
  0
LINE
  5
2321
  8
FUTO
 10
17663.948858777319
 20
3857.8436644607518
 30
0.0
 11
18061.86587697607
 21
3857.843664460876
 31
0.0
  0
LINE
  5
2322
  8
CT
 10
17846.846967427471
 20
3731.2436584608108
 30
0.0
 11
17989.991773427479
 21
3731.2436584608572
 31
0.0
  0
LINE
  5
2323
  8
FUTO
 10
17609.38283691644
 20
4172.2436584607394
 30
0.0
 11
17609.382836916539
 21
3861.2436584607381
 31
0.0
  0
LINE
  5
2324
  8
FUTO
 10
17613.568759916529
 20
3916.7436584607399
 30
0.0
 11
17613.568759916448
 21
4172.2436584607403
 31
0.0
  0
LINE
  5
2325
  8
FUTO
 10
17613.568759916448
 20
4172.2436584607403
 30
0.0
 11
17620.020621916439
 21
4182.2436584607422
 31
0.0
  0
LINE
  5
2326
  8
FUTO
 10
17609.38283691644
 20
4172.2436584607394
 30
0.0
 11
17616.049502916449
 21
4182.2436584607403
 31
0.0
  0
LINE
  5
2327
  8
FUTO
 10
17609.382836916539
 20
3861.2436584607381
 30
0.0
 11
17613.568759916539
 21
3857.057735460739
 31
0.0
  0
LINE
  5
2328
  8
FUTO
 10
18061.865876976161
 20
3586.2436584608781
 30
0.0
 11
17663.948858777399
 21
3586.2436584607558
 31
0.0
  0
LINE
  5
2329
  8
FUTO
 10
18061.86587697615
 20
3604.6436824608741
 30
0.0
 11
17663.948858777399
 21
3604.6436824607522
 31
0.0
  0
LINE
  5
232A
  8
FUTO
 10
17611.882836916651
 20
3533.743658460739
 30
0.0
 11
17611.882836916619
 21
3633.743658460739
 31
0.0
  0
LINE
  5
232B
  8
FUTO
 10
17616.86778891661
 20
3650.0162304607402
 30
0.0
 11
17627.71616991661
 21
3633.743658460744
 31
0.0
  0
LINE
  5
232C
  8
FUTO
 10
17613.568759916609
 20
3661.2436584607399
 30
0.0
 11
17631.311379916609
 21
3633.743658460744
 31
0.0
  0
LINE
  5
232D
  8
FUTO
 10
17623.154231916611
 20
3646.3867504607429
 30
0.0
 11
17614.74182091661
 21
3651.2436584607408
 31
0.0
  0
LINE
  5
232E
  8
FUTO
 10
18061.865876976161
 20
3586.2436584608749
 30
0.0
 11
18061.865876976059
 21
3876.2436584608781
 31
0.0
  0
LINE
  5
232F
  8
FUTO
 10
17663.948858777399
 20
3586.2436584607549
 30
0.0
 11
17663.948858777308
 21
3876.2436584607572
 31
0.0
  0
LINE
  5
2330
  8
FUTO
 10
18186.882836916619
 20
3633.7436584609168
 30
0.0
 11
18061.865876976139
 21
3633.7436584608749
 31
0.0
  0
LINE
  5
2331
  8
FUTO
 10
18186.882836916651
 20
3533.7436584609168
 30
0.0
 11
17902.382836916651
 21
3533.7436584608272
 31
0.0
  0
LINE
  5
2332
  8
FUTO
 10
18186.882836916651
 20
3533.7436584609168
 30
0.0
 11
18186.882836916619
 21
3633.7436584609168
 31
0.0
  0
LINE
  5
2333
  8
FUTO
 10
18185.19691391653
 20
3916.743658460914
 30
0.0
 11
18185.196913916439
 21
4172.243658460915
 31
0.0
  0
LINE
  5
2334
  8
FUTO
 10
18189.38283691644
 20
4172.2436584609159
 30
0.0
 11
18189.382836916549
 21
3861.2436584609168
 31
0.0
  0
LINE
  5
2335
  8
FUTO
 10
18185.19691391653
 20
3916.743658460914
 30
0.0
 11
18185.196913916599
 21
3661.243658460914
 31
0.0
  0
LINE
  5
2336
  8
FUTO
 10
18185.196913916599
 20
3661.243658460914
 30
0.0
 11
18167.45429391662
 21
3633.7436584609109
 31
0.0
  0
LINE
  5
2337
  8
FUTO
 10
18175.611441916612
 20
3646.3867504609129
 30
0.0
 11
18184.023852916609
 21
3651.243658460915
 31
0.0
  0
LINE
  5
2338
  8
FUTO
 10
18181.897884916601
 20
3650.0162304609162
 30
0.0
 11
18171.04950391662
 21
3633.7436584609109
 31
0.0
  0
LINE
  5
2339
  8
FUTO
 10
18189.38283691644
 20
4172.2436584609159
 30
0.0
 11
18182.716170916439
 21
4182.243658460914
 31
0.0
  0
LINE
  5
233A
  8
FUTO
 10
18185.196913916439
 20
4172.243658460915
 30
0.0
 11
18178.745051916441
 21
4182.243658460914
 31
0.0
  0
LINE
  5
233B
  8
FUTO
 10
18249.382836916589
 20
3612.6647249223638
 30
0.0
 11
18249.3828369164
 21
4220.8225919995057
 31
0.0
  0
LINE
  5
233C
  8
FUTO
 10
18249.382836916589
 20
3612.6647249223638
 30
0.0
 11
18186.882836916619
 21
3612.6647249223479
 31
0.0
  0
LINE
  5
233D
  8
FUTO
 10
18249.3828369164
 20
4220.8225919995057
 30
0.0
 11
18169.382836916429
 21
4220.8225919994766
 31
0.0
  0
LINE
  5
233E
  8
FUTO
 10
17549.382836916659
 20
3612.6647249221492
 30
0.0
 11
17549.382836916458
 21
4220.822591999291
 31
0.0
  0
LINE
  5
233F
  8
FUTO
 10
17549.382836916469
 20
4220.822591999291
 30
0.0
 11
17629.382836916429
 21
4220.8225919993101
 31
0.0
  0
LINE
  5
2340
  8
FUTO
 10
17549.382836916659
 20
3612.6647249221492
 30
0.0
 11
17611.882836916619
 21
3612.6647249221692
 31
0.0
  0
LINE
  5
2370
  8
FUTO
 10
22975.922446487551
 20
-1135.2276357450071
 30
0.0
 11
22975.922446487541
 21
-1220.0804497450069
 31
0.0
  0
LINE
  5
2371
  8
FUTO
 10
23059.92244648757
 20
-1032.6971527450251
 30
0.0
 11
23059.922446487519
 21
-1290.6971527450251
 31
0.0
  0
LINE
  5
2372
  8
FUTO
 10
23059.92244648757
 20
-1029.6971527450251
 30
0.0
 11
23059.922446487519
 21
-1262.6971527450251
 31
0.0
  0
LINE
  5
2373
  8
FUTO
 10
23224.922446487541
 20
-1186.691047745059
 30
0.0
 11
23224.922446487519
 21
-1262.6971527450589
 31
0.0
  0
LINE
  5
2374
  8
FUTO
 10
23505.922446487541
 20
-1183.225115745121
 30
0.0
 11
23505.922446487519
 21
-1262.697152745121
 31
0.0
  0
LINE
  5
2375
  8
FUTO
 10
23630.922446487632
 20
-745.19715274514692
 30
0.0
 11
23630.922446487511
 21
-1302.697152745146
 31
0.0
  0
LINE
  5
2376
  8
CT
 10
23365.422446487511
 20
-1331.6472687450901
 30
0.0
 11
23365.422446487639
 21
-699.93667864923282
 31
0.0
  0
LINE
  5
2377
  8
FUTO
 10
23885.922446487519
 20
-1262.6971527452031
 30
0.0
 11
23885.922446487621
 21
-802.69715274520331
 31
0.0
  0
LINE
  5
2378
  8
FUTO
 10
23825.922446487639
 20
-745.19715274519046
 30
0.0
 11
23825.922446487511
 21
-1302.6971527451899
 31
0.0
  0
LINE
  5
2379
  8
FUTO
 10
23620.922446487511
 20
-1302.746092745145
 30
0.0
 11
23610.422446487511
 21
-1302.746092745143
 31
0.0
  0
LINE
  5
237C
  8
FUTO
 10
23240.422446487511
 20
-1312.697152745063
 30
0.0
 11
23669.422446487511
 21
-1312.697152745156
 31
0.0
  0
ARC
  5
237D
  8
KL
 10
23008.257147487519
 20
-1259.8897177450151
 30
0.0
 40
10.0
 50
183.0000000000033
 51
225.0000000001105
  0
LINE
  5
237E
  8
FUTO
 10
22998.270851487519
 20
-1260.4130767450119
 30
0.0
 11
22996.157108487529
 21
-1220.0804497450119
 31
0.0
  0
LINE
  5
237F
  8
FUTO
 10
22975.922446487541
 20
-1220.0804497450069
 30
0.0
 11
23029.92244648753
 21
-1220.0804497450199
 31
0.0
  0
LINE
  5
2380
  8
FUTO
 10
23204.922446487519
 20
-1282.697152745056
 30
0.0
 11
23124.922446487519
 21
-1282.6971527450389
 31
0.0
  0
LINE
  5
2381
  8
FUTO
 10
23120.422446487511
 20
-1312.6971527450371
 30
0.0
 11
23240.422446487511
 21
-1312.697152745063
 31
0.0
  0
LINE
  5
2383
  8
FUTO
 10
23059.92244648753
 20
-1219.275893745026
 30
0.0
 11
23224.92244648753
 21
-1219.2758937450601
 31
0.0
  0
LINE
  5
2384
  8
FUTO
 10
23240.422446487511
 20
-1312.697152745063
 30
0.0
 11
23061.422446487511
 21
-1312.6971527450251
 31
0.0
  0
ARC
  5
238A
  8
FUTO
 10
23028.122616487512
 20
-1279.755186745017
 30
0.0
 40
10.0
 50
225.0000000001105
 51
267.99999999999602
  0
LINE
  5
238B
  8
FUTO
 10
23069.922446487519
 20
-1262.6971527450271
 30
0.0
 11
23069.922446487519
 21
-1264.5615847450269
 31
0.0
  0
LINE
  5
238C
  8
FUTO
 10
23069.922446487519
 20
-1262.6971527450271
 30
0.0
 11
23059.922446487519
 21
-1262.6971527450251
 31
0.0
  0
ARC
  5
238D
  8
FUTO
 10
23125.422446487519
 20
-1287.6971527450389
 30
0.0
 40
5.0
 50
90.0
 51
180.0
  0
LINE
  5
238E
  8
FUTO
 10
23109.922446487511
 20
-1302.7460927450361
 30
0.0
 11
23120.422446487511
 21
-1302.7460927450379
 31
0.0
  0
LINE
  5
238F
  8
FUTO
 10
23079.922446487511
 20
-1298.92598374503
 30
0.0
 11
23109.922446487511
 21
-1302.7460927450361
 31
0.0
  0
LINE
  5
2390
  8
FUTO
 10
23069.922446487519
 20
-1264.5615847450269
 30
0.0
 11
23079.922446487511
 21
-1298.92598374503
 31
0.0
  0
LINE
  5
2391
  8
FUTO
 10
23027.773621487511
 20
-1289.7490947450169
 30
0.0
 11
23059.922446487519
 21
-1290.6971527450251
 31
0.0
  0
LINE
  5
2393
  8
FUTO
 10
23120.422446487511
 20
-1287.6971527450371
 30
0.0
 11
23120.422446487511
 21
-1312.6971527450371
 31
0.0
  0
LINE
  5
2394
  8
FUTO
 10
23061.422446487511
 20
-1312.6971527450251
 30
0.0
 11
23061.42244648749
 21
-1375.936921876985
 31
0.0
  0
ARC
  5
2398
  8
FUTO
 10
23204.922446487519
 20
-1262.697152745056
 30
0.0
 40
20.0
 50
270.0
 51
0.0
  0
LINE
  5
2399
  8
FUTO
 10
23245.422446487511
 20
-1302.6971527450651
 30
0.0
 11
23365.422446487511
 21
-1302.6971527450901
 31
0.0
  0
ARC
  5
239B
  8
FUTO
 10
23245.422446487511
 20
-1307.6971527450651
 30
0.0
 40
5.0
 50
90.0
 51
180.0
  0
LINE
  5
239C
  8
KL
 10
23155.922446487519
 20
-1278.9367807450481
 30
0.0
 11
23155.922446487511
 21
-1315.622320745046
 31
0.0
  0
ARC
  5
239D
  8
FUTO
 10
23525.922446487519
 20
-1262.6971527451251
 30
0.0
 40
20.0
 50
180.0
 51
270.0
  0
ARC
  5
239E
  8
FUTO
 10
23605.422446487519
 20
-1287.6971527451431
 30
0.0
 40
5.0
 50
0.0
 51
90.0
  0
LINE
  5
239F
  8
FUTO
 10
23525.922446487511
 20
-1282.6971527451251
 30
0.0
 11
23605.922446487511
 21
-1282.6971527451431
 31
0.0
  0
LINE
  5
23A0
  8
FUTO
 10
23490.422446487511
 20
-1307.6971527451169
 30
0.0
 11
23490.422446487511
 21
-1312.6971527451169
 31
0.0
  0
LINE
  5
23A1
  8
FUTO
 10
23610.922446487511
 20
-1312.6971527451431
 30
0.0
 11
23490.422446487511
 21
-1312.6971527451169
 31
0.0
  0
LINE
  5
23A2
  8
FUTO
 10
23610.422446487511
 20
-1287.6971527451431
 30
0.0
 11
23610.422446487511
 21
-1312.6971527451431
 31
0.0
  0
LINE
  5
23A3
  8
FUTO
 10
23574.922446487519
 20
-1278.936780745137
 30
0.0
 11
23574.922446487511
 21
-1315.6223207451351
 31
0.0
  0
ARC
  5
23A4
  8
FUTO
 10
23485.422446487511
 20
-1307.697152745116
 30
0.0
 40
5.0
 50
0.0
 51
90.0
  0
LINE
  5
23A5
  8
FUTO
 10
23485.422446487511
 20
-1302.697152745116
 30
0.0
 11
23365.422446487511
 21
-1302.6971527450901
 31
0.0
  0
LINE
  5
23A6
  8
FUTO
 10
23021.05154848751
 20
-1286.826253745018
 30
0.0
 11
23001.18607948751
 21
-1266.9607857450119
 31
0.0
  0
LINE
  5
23A7
  8
FUTO
 10
23844.18331648751
 20
-1302.697152745194
 30
0.0
 11
23630.922446487511
 21
-1302.697152745146
 31
0.0
  0
LINE
  5
23A8
  8
FUTO
 10
23669.422446487511
 20
-1312.697152745156
 30
0.0
 11
23669.42244648749
 21
-1375.880852092027
 31
0.0
  0
LINE
  5
23A9
  8
FUTO
 10
23844.18331648751
 20
-1302.697152745194
 30
0.0
 11
23885.922446487519
 21
-1262.6971527452031
 31
0.0
  0
LINE
  5
23AA
  8
FUTO
 10
23630.922446487511
 20
-1301.4727227451481
 30
0.0
 11
23620.922446487511
 21
-1302.746092745145
 31
0.0
  0
LINE
  5
23AB
  8
FUTO
 10
23365.422446487639
 20
-746.88307574509145
 30
0.0
 11
23620.922446487632
 21
-746.88307574514602
 31
0.0
  0
LINE
  5
23AC
  8
FUTO
 10
23620.922446487632
 20
-742.6971527451451
 30
0.0
 11
23309.922446487639
 21
-742.6971527450778
 31
0.0
  0
CIRCLE
  5
23AE
  8
FUTO
 10
23179.922446487661
 20
-607.6971527450504
 30
0.0
 40
59.0
  0
LINE
  5
23AF
  8
FUTO
 10
23053.322470487641
 20
-716.09720374502365
 30
0.0
 11
23053.322470487681
 21
-521.22579374502402
 31
0.0
  0
LINE
  5
23B0
  8
FUTO
 10
23034.92244648765
 20
-696.75521974501953
 30
0.0
 11
23034.92244648769
 21
-512.03189974502038
 31
0.0
  0
LINE
  5
23B1
  8
CT
 10
23179.922446487679
 20
-538.11550274505043
 30
0.0
 11
23179.92244648765
 21
-681.26030874505057
 31
0.0
  0
LINE
  5
23B2
  8
FUTO
 10
23306.522452487679
 20
-521.22579374507848
 30
0.0
 11
23306.522452487639
 21
-716.09716174507855
 31
0.0
  0
LINE
  5
23B3
  8
FUTO
 10
23324.92244648769
 20
-512.03189974508223
 30
0.0
 11
23324.92244648765
 21
-696.75521974508138
 31
0.0
  0
LINE
  5
23B4
  8
FUTO
 10
22982.422446487639
 20
-745.19715274500857
 30
0.0
 11
22982.42244648757
 21
-1029.697152745008
 31
0.0
  0
LINE
  5
23B5
  8
FUTO
 10
23082.422446487632
 20
-745.19715274503051
 30
0.0
 11
23082.42244648757
 21
-1029.6971527450301
 31
0.0
  0
LINE
  5
23B6
  8
CT
 10
22583.217434281069
 20
-1032.697152744903
 30
0.0
 11
23944.59380342759
 21
-1032.6971527453179
 31
0.0
  0
LINE
  5
23B7
  8
KL
 10
22982.42244648757
 20
-1029.697152745008
 30
0.0
 11
23082.42244648757
 21
-1029.6971527450301
 31
0.0
  0
LINE
  5
23B8
  8
FUTO
 10
23059.922446487551
 20
-1142.2987037450241
 30
0.0
 11
22975.922446487551
 21
-1142.2987037450059
 31
0.0
  0
LINE
  5
23B9
  8
FUTO
 10
22795.922446487559
 20
-1075.197152744968
 30
0.0
 11
22795.922446487592
 21
-985.19715274496855
 31
0.0
  0
ARC
  5
23BA
  8
FUTO
 10
22977.922446487592
 20
-947.19715274500686
 30
0.0
 40
2.0
 50
90.0
 51
180.0
  0
LINE
  5
23BB
  8
FUTO
 10
22982.422446487592
 20
-945.19715274500868
 30
0.0
 11
22977.922446487592
 21
-945.19715274500675
 31
0.0
  0
LINE
  5
23BC
  8
FUTO
 10
22935.922446487581
 20
-990.19715274499777
 30
0.0
 11
22935.922446487581
 21
-985.19715274499765
 31
0.0
  0
LINE
  5
23BD
  8
FUTO
 10
22965.922446487581
 20
-982.69715274500504
 30
0.0
 11
22975.922446487581
 21
-982.69715274500675
 31
0.0
  0
LINE
  5
23BE
  8
FUTO
 10
22965.922446487559
 20
-1082.697152745005
 30
0.0
 11
22975.922446487559
 21
-1082.697152745006
 31
0.0
  0
ARC
  5
23BF
  8
FUTO
 10
22977.922446487551
 20
-1118.197152745006
 30
0.0
 40
2.0
 50
180.0
 51
270.0
  0
LINE
  5
23C0
  8
FUTO
 10
22982.770821487549
 20
-1120.197152745008
 30
0.0
 11
22977.922446487551
 21
-1120.197152745006
 31
0.0
  0
LINE
  5
23C1
  8
KL
 10
22980.922446487551
 20
-1135.2276357450089
 30
0.0
 11
22975.922446487551
 21
-1135.2276357450071
 31
0.0
  0
LINE
  5
23C3
  8
FUTO
 10
22975.922446487551
 20
-1118.197152745006
 30
0.0
 11
22975.922446487592
 21
-947.19715274500686
 31
0.0
  0
LINE
  5
23C4
  8
FUTO
 10
22965.922446487559
 20
-1082.697152745005
 30
0.0
 11
22965.922446487581
 21
-982.69715274500504
 31
0.0
  0
LINE
  5
23C6
  8
FUTO
 10
22795.922446487592
 20
-985.19715274496855
 30
0.0
 11
22935.922446487581
 21
-985.19715274499765
 31
0.0
  0
LINE
  5
23C7
  8
FUTO
 10
22965.922446487581
 20
-990.19715274500516
 30
0.0
 11
22795.922446487592
 21
-990.19715274496866
 31
0.0
  0
LINE
  5
23C8
  8
FUTO
 10
22795.922446487559
 20
-1075.197152744968
 30
0.0
 11
22965.922446487559
 21
-1075.197152745005
 31
0.0
  0
ARC
  5
23CD
  8
FUTO
 10
23510.922446487541
 20
-1183.225115745121
 30
0.0
 40
5.0
 50
90.0
 51
180.0
  0
LINE
  5
23CE
  8
FUTO
 10
22982.422446487639
 20
-745.19715274500857
 30
0.0
 11
23082.422446487632
 21
-745.19715274503051
 31
0.0
  0
LINE
  5
23CF
  8
FUTO
 10
23294.922446487639
 20
-697.69715274507598
 30
0.0
 11
23064.92244648765
 21
-697.69715274502687
 31
0.0
  0
LINE
  5
23D0
  8
CT
 10
23086.441405487662
 20
-607.69715274503051
 30
0.0
 11
23266.364773487661
 21
-607.69715274506871
 31
0.0
  0
LINE
  5
23D1
  8
FUTO
 10
23294.922446487639
 20
-727.69715274507598
 30
0.0
 11
23064.922446487639
 21
-727.69715274502676
 31
0.0
  0
LINE
  5
23D2
  8
FUTO
 10
23365.422446487639
 20
-746.88307574509145
 30
0.0
 11
23109.922446487639
 21
-746.88307574503676
 31
0.0
  0
LINE
  5
23D3
  8
FUTO
 10
23099.922446487639
 20
-737.69715274503415
 30
0.0
 11
23259.922446487639
 21
-737.69715274506859
 31
0.0
  0
LINE
  5
23D4
  8
FUTO
 10
23053.322470487641
 20
-696.75521974502306
 30
0.0
 11
23034.92244648765
 21
-696.75521974501953
 31
0.0
  0
ARC
  5
23D5
  8
FUTO
 10
23064.922324487641
 20
-686.09726474502804
 30
0.0
 40
11.599888
 50
179.99945399997631
 51
270.0006100000092
  0
LINE
  5
23D6
  8
FUTO
 10
23095.065538487641
 20
-756.46854774503197
 30
0.0
 11
23099.922446487639
 21
-748.05613674503445
 31
0.0
  0
LINE
  5
23D7
  8
FUTO
 10
23109.922446487639
 20
-746.88307574503676
 30
0.0
 11
23082.422446487632
 21
-764.62569574503038
 31
0.0
  0
LINE
  5
23D8
  8
FUTO
 10
23098.69501848763
 20
-750.18210474503303
 30
0.0
 11
23082.422446487632
 21
-761.030485745031
 31
0.0
  0
LINE
  5
23D9
  8
FUTO
 10
23099.922446487639
 20
-748.05613674503445
 30
0.0
 11
23099.922446487639
 21
-727.69715274503415
 31
0.0
  0
ARC
  5
23DA
  8
FUTO
 10
23064.922446487639
 20
-716.0972037450274
 30
0.0
 40
11.599949000000001
 50
179.9997550000013
 51
270.0
  0
LINE
  5
23DB
  8
FUTO
 10
23259.922446487639
 20
-727.69715274506871
 30
0.0
 11
23259.922446487639
 21
-746.88307574506962
 31
0.0
  0
ARC
  5
23DC
  8
FUTO
 10
23294.922477487638
 20
-686.09717674507635
 30
0.0
 40
11.599976
 50
269.99984700005228
 51
0.0001069999742915
  0
LINE
  5
23DD
  8
FUTO
 10
23306.522452487639
 20
-696.75521974507774
 30
0.0
 11
23324.92244648765
 21
-696.75521974508138
 31
0.0
  0
ARC
  5
23DE
  8
FUTO
 10
23294.922446487639
 20
-716.09715574507663
 30
0.0
 40
11.600006
 50
270.0
 51
0.0000150000275647
  0
LINE
  5
23DF
  8
KL
 10
23309.922446487639
 20
-742.6971527450778
 30
0.0
 11
23305.736523487631
 21
-746.88307574507871
 31
0.0
  0
LINE
  5
23E0
  8
FUTO
 10
23034.92244648769
 20
-512.03189974502038
 30
0.0
 11
23324.92244648769
 21
-512.03189974508223
 31
0.0
  0
LINE
  5
23E1
  8
FUTO
 10
23053.322470487681
 20
-521.22579374502402
 30
0.0
 11
23306.522452487679
 21
-521.22579374507848
 31
0.0
  0
LINE
  5
23E2
  8
FUTO
 10
23294.92244648769
 20
-479.63900174507671
 30
0.0
 11
23064.92244648769
 21
-479.6390017450276
 31
0.0
  0
ARC
  5
23E3
  8
FUTO
 10
23064.92244648769
 20
-491.23894674502748
 30
0.0
 40
11.599976
 50
90.0
 51
180.0003050000046
  0
LINE
  5
23E4
  8
FUTO
 10
23053.322470487681
 20
-512.03189974502391
 30
0.0
 11
23053.322470487681
 21
-491.23900774502448
 31
0.0
  0
ARC
  5
23E5
  8
FUTO
 10
23294.92244648769
 20
-491.23899174507733
 30
0.0
 40
11.599990999999999
 50
359.99992399997137
 51
90.0
  0
LINE
  5
23E6
  8
FUTO
 10
23306.522452487679
 20
-491.23900774507899
 30
0.0
 11
23306.522452487679
 21
-512.03189974507859
 31
0.0
  0
LINE
  5
23E8
  8
FUTO
 10
23630.922446487632
 20
-745.19715274514692
 30
0.0
 11
23825.922446487639
 21
-745.19715274519046
 31
0.0
  0
LINE
  5
23E9
  8
FUTO
 10
23825.922446487639
 20
-745.19715274519046
 30
0.0
 11
23885.922446487621
 21
-802.69715274520331
 31
0.0
  0
LINE
  5
23EA
  8
FUTO
 10
23620.922446487632
 20
-742.6971527451451
 30
0.0
 11
23630.922446487632
 21
-749.36381874514791
 31
0.0
  0
LINE
  5
23EB
  8
FUTO
 10
23620.922446487632
 20
-746.88307574514602
 30
0.0
 11
23630.922446487632
 21
-753.33493774514955
 31
0.0
  0
LINE
  5
2519
  8
SL
 10
17599.382836916699
 20
3533.443658460827
 30
0.0
 11
17599.382836916699
 21
4220.8225919993029
 31
0.0
  0
LINE
  5
251A
  8
FUTO
 10
17499.382836916699
 20
5000.4436584608256
 30
0.0
 11
17499.382836916699
 21
5075.4436584608266
 31
0.0
  0
LINE
  5
251B
  8
FUTO
 10
17674.382836916699
 20
4437.2436584607576
 30
0.0
 11
17674.382836916699
 21
5000.4436584608256
 31
0.0
  0
LINE
  5
251C
  8
FUTO
 10
17599.382836916699
 20
4220.8225919993029
 30
0.0
 11
17599.382836916699
 21
5000.4436584608256
 31
0.0
  0
LINE
  5
251D
  8
SL
 10
18124.382836916699
 20
3533.4436584608252
 30
0.0
 11
18124.382836916699
 21
4437.2436584607567
 31
0.0
  0
LINE
  5
251E
  8
SL
 10
18199.382836916699
 20
3533.4436584608252
 30
0.0
 11
18199.382836916699
 21
4220.8225919993019
 31
0.0
  0
LINE
  5
251F
  8
FUTO
 10
18199.382836916699
 20
4220.8225919993019
 30
0.0
 11
18199.382836916709
 21
5000.4436584608256
 31
0.0
  0
LINE
  5
2520
  8
FUTO
 10
18124.382836916699
 20
4437.2436584607567
 30
0.0
 11
18124.382836916709
 21
5000.4436584608256
 31
0.0
  0
LINE
  5
2521
  8
FUTO
 10
18013.382836916699
 20
5075.4436584608266
 30
0.0
 11
18013.382836916699
 21
6583.4436584608329
 31
0.0
  0
LINE
  5
2522
  8
FUTO
 10
17963.382836916699
 20
5025.4436584608256
 30
0.0
 11
17963.382836916699
 21
6633.4436584608338
 31
0.0
  0
LINE
  5
2523
  8
FUTO
 10
20949.382836916699
 20
6633.4436584608329
 30
0.0
 11
17963.382836916699
 21
6633.4436584608329
 31
0.0
  0
LINE
  5
2524
  8
FUTO
 10
20949.382836916699
 20
5025.4436584608293
 30
0.0
 11
17963.382836916699
 21
5025.4436584608256
 31
0.0
  0
LINE
  5
2525
  8
FUTO
 10
17963.382836916699
 20
5075.4436584608266
 30
0.0
 11
17499.382836916699
 21
5075.4436584608266
 31
0.0
  0
DIMENSION
  5
253A
  8
SP
  2
*D14
 10
21024.38283691807
 20
7271.3397465236294
 30
0.0
 11
20386.88283691739
 21
7361.3397465236303
 31
0.0
 70
     0
 13
19749.382836916699
 23
6988.0620388948737
 33
0.0
 14
21024.38283691807
 24
6658.443658460832
 34
0.0
1001
ACAD
1000
DSTYLE
1002
{
1070
   287
1070
     3
1070
    40
1040
45.0
1070
   140
1040
3.0
1070
   147
1040
0.5
1070
   173
1070
     1
1070
   279
1070
     0
1070
   341
1005
24
1070
     6
1000
OPEN
1070
     7
1000
OPEN
1002
}
  0
DIMENSION
  5
2555
  8
SP
  2
*D15
 10
21590.386257570819
 20
5829.4436584608284
 30
0.0
 11
21500.386257570819
 21
6281.943658460832
 31
0.0
 70
     0
 13
20824.382836916699
 23
6734.4436584608293
 33
0.0
 14
21245.28954859887
 24
5829.4436584608284
 34
0.0
 50
90.0
1001
ACAD
1000
DSTYLE
1002
{
1070
   287
1070
     3
1070
    40
1040
45.0
1070
   140
1040
3.0
1070
   147
1040
0.5
1070
   173
1070
     1
1070
   279
1070
     0
1070
   341
1005
24
1070
     6
1000
OPEN
1070
     7
1000
OPEN
1002
}
  0
DIMENSION
  5
2562
  8
SP
  2
*D16
 10
21590.386257570819
 20
3229.4436584608311
 30
0.0
 11
21500.386257570819
 21
4529.4436584608329
 31
0.0
 70
     0
 13
21245.28954859887
 23
5829.4436584608284
 33
0.0
 14
20229.382836916699
 24
3229.443658460832
 34
0.0
 50
90.0
1001
ACAD
1000
DSTYLE
1002
{
1070
   287
1070
     3
1070
    40
1040
45.0
1070
   140
1040
3.0
1070
   147
1040
0.5
1070
   173
1070
     1
1070
   279
1070
     0
1070
   341
1005
24
1070
     6
1000
OPEN
1070
     7
1000
OPEN
1002
}
  0
LINE
  5
259B
  8
KL
 10
18608.382836916699
 20
-182.36734848926241
 30
0.0
 11
18608.382836916699
 21
207.9008748770145
 31
0.0
  0
LINE
  5
259C
  8
KL
 10
18599.382836916699
 20
-121.95022261231129
 30
0.0
 11
18599.382836916699
 21
197.56520277983529
 31
0.0
  0
LINE
  5
259D
  8
KL
 10
18590.382836916699
 20
-189.51676845792051
 30
0.0
 11
18590.382836916699
 21
187.22953068265309
 31
0.0
  0
LINE
  5
259E
  8
FUTO
 10
18590.382836916699
 20
187.22953068265201
 30
0.0
 11
18590.382836916699
 21
778.30284725504134
 31
0.0
  0
LINE
  5
259F
  8
FUTO
 10
18599.382836916699
 20
197.565202779835
 30
0.0
 11
18599.382836916699
 21
778.30284725504134
 31
0.0
  0
LINE
  5
25A0
  8
FUTO
 10
18608.382836916699
 20
207.90087487701109
 30
0.0
 11
18608.382836916699
 21
778.30284725504134
 31
0.0
  0
LINE
  5
25A1
  8
FUTO
 10
19120.746009975072
 20
796.30284725504168
 30
0.0
 11
17954.14984367818
 21
796.30284725504134
 31
0.0
  0
LINE
  5
25A2
  8
FUTO
 10
19112.909074046918
 20
787.302847255041
 30
0.0
 11
17954.14984367818
 21
787.30284725504134
 31
0.0
  0
LINE
  5
25A3
  8
FUTO
 10
19105.072138118769
 20
778.30284725504112
 30
0.0
 11
17954.14984367818
 21
778.30284725504134
 31
0.0
  0
LINE
  5
25A5
  8
KL
 10
20228.829287785349
 20
810.34847047196695
 30
0.0
 11
19949.537613585671
 21
791.66923896811386
 31
0.0
  0
LINE
  5
25A6
  8
KL
 10
20228.312897245069
 20
819.33404008119123
 30
0.0
 11
19948.937028720189
 21
800.64917759927084
 31
0.0
  0
LINE
  5
25A7
  8
KL
 10
20227.62811805437
 20
828.30834773428114
 30
0.0
 11
19948.336443854689
 21
809.62911623042794
 31
0.0
  0
INSERT
  5
2632
  8
FUTO
  2
まっすぐの矢印
 10
21397.507506095812
 20
5503.9846415072652
 30
0.0
 41
40.0
 42
40.0
 43
40.0
 50
270.0
  0
LINE
  5
2731
  8
FUTO
 10
24524.922446487581
 20
-1366.6971527449559
 30
0.0
 11
26031.322446487578
 21
-1366.6971527449559
 31
0.0
  0
LINE
  5
2732
  8
FUTO
 10
24449.922446487581
 20
-1435.6971527449559
 30
0.0
 11
26106.322446487571
 21
-1435.6971527449559
 31
0.0
  0
LINE
  5
2733
  8
FUTO
 10
24528.12244648757
 20
-1360.6971527449559
 30
0.0
 11
26028.12244648757
 21
-1360.6971527449559
 31
0.0
  0
LINE
  5
2734
  8
FUTO
 10
20549.382836916699
 20
-1382.697152744958
 30
0.0
 11
20132.166045414218
 21
497.68755882512141
 31
0.0
  0
LINE
  5
2735
  8
FUTO
 10
18949.382836916699
 20
-1382.697152744958
 30
0.0
 11
19186.36580796232
 21
-314.62135921831441
 31
0.0
  0
LINE
  5
2736
  8
FUTO
 10
19387.388339356959
 20
1102.517034334991
 30
0.0
 11
17688.219380006849
 21
-848.82221028166464
 31
0.0
  0
LINE
  5
2737
  8
SL
 10
19516.885173365579
 20
999.83481295260572
 30
0.0
 11
17768.372248725191
 21
-912.93707683602395
 31
0.0
  0
LINE
  5
2738
  8
SL
 10
19958.085603735872
 20
551.36184801577599
 30
0.0
 11
18016.985189648141
 21
-1165.648033268682
 31
0.0
  0
LINE
  5
2739
  8
FUTO
 10
20058.6371304645
 20
420.20370271469841
 30
0.0
 11
18079.781174819582
 21
-1246.838320393502
 31
0.0
  0
ARC
  5
273A
  8
FUTO
 10
19896.382836916699
 20
640.30284725504134
 30
0.0
 40
1903.0
 50
175.8414272259831
 51
207.7766785189892
  0
LINE
  5
273B
  8
KL
 10
18599.382836916691
 20
-809.11176251958125
 30
0.0
 11
18599.382836916699
 21
-185.94205847359169
 31
0.0
  0
LINE
  5
273C
  8
KL
 10
18608.382836916699
 20
-801.52991798704795
 30
0.0
 11
18608.382836916699
 21
-182.36734848926241
 31
0.0
  0
LINE
  5
273D
  8
KL
 10
20132.166045414218
 20
497.68755882512141
 30
0.0
 11
20098.969641394138
 21
647.30284725504134
 31
0.0
  0
LINE
  5
273E
  8
KL
 10
19186.36580796232
 20
-314.62135921831441
 30
0.0
 11
19399.796032439252
 21
647.30284725504134
 31
0.0
  0
LINE
  5
273F
  8
FUTO
 10
24449.922446487581
 20
-1435.6971527449559
 30
0.0
 11
24449.922446487581
 21
778.30284725504112
 31
0.0
  0
LINE
  5
2740
  8
FUTO
 10
26106.322446487571
 20
-1435.6971527449559
 30
0.0
 11
26106.322446487571
 21
778.30284725504134
 31
0.0
  0
LINE
  5
2742
  8
FUTO
 10
26106.322446487571
 20
2229.30284725503
 30
0.0
 11
24449.92244648757
 21
2229.3028472550409
 31
0.0
  0
LINE
  5
2743
  8
FUTO
 10
24449.92244648757
 20
1880.0145072792579
 30
0.0
 11
24528.12244648757
 21
1880.0145072792579
 31
0.0
  0
LINE
  5
2744
  8
FUTO
 10
26031.322446487578
 20
1880.0145072792579
 30
0.0
 11
26106.322446487571
 21
1880.0145072792579
 31
0.0
  0
DIMENSION
  5
2745
  8
SP
  2
*D17
 10
21488.48868721211
 20
787.30284725504123
 30
0.0
 11
21398.48868721211
 21
-387.6971527449553
 31
0.0
 70
     0
 13
20899.382836916699
 23
-1562.697152744958
 33
0.0
 14
21120.666243941028
 24
787.30284725504134
 34
0.0
 50
90.0
1001
ACAD
1000
DSTYLE
1002
{
1070
   287
1070
     3
1070
    40
1040
45.0
1070
   140
1040
3.0
1070
   147
1040
0.5
1070
   173
1070
     1
1070
   279
1070
     0
1070
   341
1005
24
1070
     6
1000
OPEN
1070
     7
1000
OPEN
1002
}
  0
LINE
  5
2752
  8
FUTO
 10
19602.382836916691
 20
2229.3028472550359
 30
0.0
 11
19749.382836916699
 21
2229.3028472550359
 31
0.0
  0
DIMENSION
  5
2753
  8
SP
  2
*D18
 10
21488.48868721211
 20
787.30284725504123
 30
0.0
 11
21398.48868721211
 21
1508.302847255042
 31
0.0
 70
     0
 13
19749.382836916699
 23
2229.3028472550359
 33
0.0
 14
21120.666243941028
 24
787.30284725504134
 34
0.0
 50
90.0
1001
ACAD
1000
DSTYLE
1002
{
1070
   287
1070
     3
1070
    40
1040
45.0
1070
   140
1040
3.0
1070
   147
1040
0.5
1070
   173
1070
     1
1070
   279
1070
     0
1070
   341
1005
24
1070
     6
1000
OPEN
1070
     7
1000
OPEN
1002
}
  0
DIMENSION
  5
2794
  8
SP
  2
*D19
 10
17499.382836916699
 20
7271.3397465236294
 30
0.0
 11
18624.382836916699
 21
7361.3397465236303
 31
0.0
 70
     0
 13
19749.382836916699
 23
7033.0620388948746
 33
0.0
 14
17499.382836916699
 24
5075.4436584608266
 34
0.0
 50
180.0
1001
ACAD
1000
DSTYLE
1002
{
1070
   287
1070
     3
1070
    40
1040
45.0
1070
   140
1040
3.0
1070
   147
1040
0.5
1070
   173
1070
     1
1070
   279
1070
     0
1070
   341
1005
24
1070
     6
1000
OPEN
1070
     7
1000
OPEN
1002
}
  0
LINE
  5
2811
  8
FUTO
 10
24449.922446487581
 20
871.60080551739293
 30
0.0
 11
26106.322446487571
 21
871.60080551739327
 31
0.0
  0
LINE
  5
2812
  8
FUTO
 10
24528.12244648757
 20
703.3028472550418
 30
0.0
 11
26028.12244648757
 21
703.30284725504134
 31
0.0
  0
LINE
  5
2813
  8
FUTO
 10
24449.922446487581
 20
778.30284725504134
 30
0.0
 11
26106.322446487571
 21
778.30284725504112
 31
0.0
  0
LINE
  5
2815
  8
FUTO
 10
26106.322446487571
 20
-1382.697152744958
 30
0.0
 11
26121.322446487578
 21
-1382.697152744958
 31
0.0
  0
LINE
  5
2E21
  8
4
 10
25976.9855190034
 20
-3352.4748155562961
 30
0.0
 11
25976.98551900341
 21
-4552.4748155562957
 31
0.0
  0
LINE
  5
2E22
  8
4
 10
21776.9855190034
 20
-3352.4748155562961
 30
0.0
 11
21776.98551900341
 21
-4552.4748155562957
 31
0.0
  0
LINE
  5
2E23
  8
4
 10
18776.9855190034
 20
-3352.4748155562961
 30
0.0
 11
18776.98551900341
 21
-4552.4748155562957
 31
0.0
  0
LINE
  5
2E26
  8
4
 10
18776.9855190034
 20
-4552.4748155562957
 30
0.0
 11
25976.9855190034
 21
-4552.4748155562957
 31
0.0
  0
LINE
  5
2E27
  8
4
 10
18776.9855190034
 20
-3952.4748155562961
 30
0.0
 11
25976.9855190034
 21
-3952.4748155562961
 31
0.0
  0
TEXT
  5
2E28
  8
4
 10
19007.99800408482
 20
-3763.2166603566179
 30
0.0
 40
300.0
  1
機器名称
  0
TEXT
  5
2E29
  8
4
 10
18994.534155152189
 20
-4422.60387516423
 30
0.0
 40
300.0
  1
機器型番
  0
TEXT
  5
2E2A
  8
4
 10
21805.743889209662
 20
-3819.3510014146159
 30
0.0
 40
270.0
  1
ミツヤリミットロードファン
  0
TEXT
  5
2E2B
  8
4
 10
21996.912492516301
 20
-4449.5173098766354
 30
0.0
 40
300.0
  1
LL#12-1
  0
TEXT
  5
2E2D
  8
4
 10
16773.991078980082
 20
8850.8110416394939
 30
0.0
 40
432.0
  1
遠心式片吸込片持リミットロードファン
  0
LINE
  5
2E2E
  8
4
 10
16376.9855190034
 20
8463.9777100325337
 30
0.0
 11
25976.9855190034
 21
8463.9777100325337
 31
0.0
  0
LINE
  5
2E2F
  8
4
 10
16376.9855190034
 20
9663.9777100325337
 30
0.0
 11
25976.9855190034
 21
9663.9777100325337
 31
0.0
  0
LINE
  5
2E30
  8
4
 10
18776.9855190034
 20
-3352.4748155562961
 30
0.0
 11
25976.9855190034
 21
-3352.4748155562961
 31
0.0
  0
LINE
  5
2E31
  8
4
 10
16376.9855190034
 20
9663.9777100325337
 30
0.0
 11
16376.9855190034
 21
8463.9777100325337
 31
0.0
  0
TEXT
  5
2E32
  8
4
 10
23690.80287449915
 20
9883.8916734155573
 30
0.0
 40
336.00000000000011
  1
No.
  0
TEXT
  5
2E33
  8
4
 10
23776.056489885072
 20
7300.3262880861112
 30
0.0
 40
323.99999999999989
  1
縮尺：1/60
  0
LINE
  5
2E34
  8
4
 10
25976.9855190034
 20
9663.9777100325337
 30
0.0
 11
25976.9855190034
 21
8463.9777100325337
 31
0.0
  0
LINE
  5
2E35
  8
4
 10
27476.9855190034
 20
11347.525184443701
 30
0.0
 11
27476.9855190034
 21
11347.525184443701
 31
0.0
  0
LINE
  5
2E36
  8
4
 10
23520.690053162591
 20
9735.1066831961107
 30
0.0
 11
23520.690053162591
 21
10367.43875374221
 31
0.0
  0
LINE
  5
2E37
  8
4
 10
23520.690053162591
 20
10367.43875374221
 30
0.0
 11
25976.9855190034
 21
10367.43875374221
 31
0.0
  0
LINE
  5
2E38
  8
4
 10
25976.9855190034
 20
10367.43875374221
 30
0.0
 11
25976.9855190034
 21
9735.1066831961107
 31
0.0
  0
LINE
  5
2E39
  8
4
 10
25976.9855190034
 20
9735.1066831961107
 30
0.0
 11
23520.690053162591
 21
9735.1066831961107
 31
0.0
  0
LINE
  5
2E3A
  8
4
 10
14876.9855190034
 20
-6352.4748155562957
 30
0.0
 11
14876.9855190034
 21
11347.525184443701
 31
0.0
  0
LINE
  5
2E3B
  8
4
 10
14876.9855190034
 20
11347.525184443701
 30
0.0
 11
27476.9855190034
 21
11347.525184443701
 31
0.0
  0
LINE
  5
2E3C
  8
4
 10
27476.9855190034
 20
11347.525184443701
 30
0.0
 11
27476.9855190034
 21
-6352.4748155562957
 31
0.0
  0
LINE
  5
2E3D
  8
4
 10
27476.9855190034
 20
-6352.4748155562957
 30
0.0
 11
14876.9855190034
 21
-6352.4748155562957
 31
0.0
  0
TEXT
  5
2E3E
  8
4
 10
19825.802595050209
 20
7908.0877117010268
 30
0.0
 40
323.99999999999989
  1
床置ベット
  0
TEXT
  5
2E3F
  8
4
 10
16657.69614425602
 20
7926.5968490510058
 30
0.0
 40
323.99999999999989
  1
左回転右横向
  0
ENDSEC
  0
EOF
