  0
SECTION
  2
HEADER
  9
$ACADVER
  1
AC1009
  9
$INSBASE
 10
0.0
 20
0.0
 30
0.0
  9
$EXTMIN
 10
14206.46752866733
 20
-3420.0297902672642
 30
0.0
  9
$EXTMAX
 10
26806.46752866733
 20
14279.97020973273
 30
0.0
  9
$LIMMIN
 10
0.0
 20
0.0
  9
$LIMMAX
 10
297.0
 20
210.0
  9
$ORTHOMODE
 70
     0
  9
$REGENMODE
 70
     1
  9
$FILLMODE
 70
     1
  9
$QTEXTMODE
 70
     0
  9
$MIRRTEXT
 70
     0
  9
$DRAGMODE
 70
     2
  9
$LTSCALE
 40
225.0
  9
$OSMODE
 70
    37
  9
$ATTMODE
 70
     1
  9
$TEXTSIZE
 40
120.0
  9
$TRACEWID
 40
0.05
  9
$TEXTSTYLE
  7
STANDARD
  9
$CLAYER
  8
FUTO
  9
$CELTYPE
  6
BYLAYER
  9
$CECOLOR
 62
   256
  9
$DIMSCALE
 40
45.0
  9
$DIMASZ
 40
2.0
  9
$DIMEXO
 40
1.0
  9
$DIMDLI
 40
10.0
  9
$DIMRND
 40
0.0
  9
$DIMDLE
 40
0.0
  9
$DIMEXE
 40
1.0
  9
$DIMTP
 40
0.0
  9
$DIMTM
 40
0.0
  9
$DIMTXT
 40
3.0
  9
$DIMCEN
 40
0.0
  9
$DIMTSZ
 40
0.0
  9
$DIMTOL
 70
     0
  9
$DIMLIM
 70
     0
  9
$DIMTIH
 70
     0
  9
$DIMTOH
 70
     0
  9
$DIMSE1
 70
     0
  9
$DIMSE2
 70
     0
  9
$DIMTAD
 70
     1
  9
$DIMZIN
 70
     8
  9
$DIMBLK
  1

  9
$DIMASO
 70
     1
  9
$DIMSHO
 70
     1
  9
$DIMPOST
  1

  9
$DIMAPOST
  1

  9
$DIMALT
 70
     0
  9
$DIMALTD
 70
     2
  9
$DIMALTF
 40
25.399999999999999
  9
$DIMLFAC
 40
1.0
  9
$DIMTOFL
 70
     1
  9
$DIMTVP
 40
0.0
  9
$DIMTIX
 70
     0
  9
$DIMSOXD
 70
     0
  9
$DIMSAH
 70
     1
  9
$DIMBLK1
  1
OPEN
  9
$DIMBLK2
  1
OPEN
  9
$DIMSTYLE
  2
DIA1
  9
$DIMCLRD
 70
     2
  9
$DIMCLRE
 70
     2
  9
$DIMCLRT
 70
     2
  9
$DIMTFAC
 40
1.0
  9
$DIMGAP
 40
0.5
  9
$LUNITS
 70
     2
  9
$LUPREC
 70
     3
  9
$SKETCHINC
 40
0.1
  9
$FILLETRAD
 40
10.0
  9
$AUNITS
 70
     0
  9
$AUPREC
 70
     2
  9
$MENU
  1
acad
  9
$ELEVATION
 40
0.0
  9
$PELEVATION
 40
0.0
  9
$THICKNESS
 40
0.0
  9
$LIMCHECK
 70
     0
  9
$BLIPMODE
 70
     0
  9
$CHAMFERA
 40
10.0
  9
$CHAMFERB
 40
10.0
  9
$SKPOLY
 70
     0
  9
$TDCREATE
 40
2451270.426261805
  9
$TDUPDATE
 40
2454953.65120677
  9
$TDINDWG
 40
0.8581068171
  9
$TDUSRTIMER
 40
0.8581068171
  9
$USRTIMER
 70
     1
  9
$ANGBASE
 50
0.0
  9
$ANGDIR
 70
     0
  9
$PDMODE
 70
     0
  9
$PDSIZE
 40
1.0
  9
$PLINEWID
 40
0.0
  9
$COORDS
 70
     1
  9
$SPLFRAME
 70
     0
  9
$SPLINETYPE
 70
     6
  9
$SPLINESEGS
 70
     8
  9
$ATTDIA
 70
     0
  9
$ATTREQ
 70
     1
  9
$HANDLING
 70
 10241
  9
$HANDSEED
  5
3231
  9
$SURFTAB1
 70
     6
  9
$SURFTAB2
 70
     6
  9
$SURFTYPE
 70
     6
  9
$SURFU
 70
     6
  9
$SURFV
 70
     6
  9
$UCSNAME
  2

  9
$UCSORG
 10
0.0
 20
0.0
 30
0.0
  9
$UCSXDIR
 10
1.0
 20
0.0
 30
0.0
  9
$UCSYDIR
 10
0.0
 20
1.0
 30
0.0
  9
$PUCSNAME
  2

  9
$PUCSORG
 10
0.0
 20
0.0
 30
0.0
  9
$PUCSXDIR
 10
1.0
 20
0.0
 30
0.0
  9
$PUCSYDIR
 10
0.0
 20
1.0
 30
0.0
  9
$USERI1
 70
     0
  9
$USERI2
 70
     0
  9
$USERI3
 70
     0
  9
$USERI4
 70
     0
  9
$USERI5
 70
     0
  9
$USERR1
 40
0.0
  9
$USERR2
 40
0.0
  9
$USERR3
 40
0.0
  9
$USERR4
 40
0.0
  9
$USERR5
 40
0.0
  9
$WORLDVIEW
 70
     1
  9
$SHADEDGE
 70
     3
  9
$SHADEDIF
 70
    70
  9
$TILEMODE
 70
     1
  9
$MAXACTVP
 70
    16
  9
$PLIMCHECK
 70
     0
  9
$PEXTMIN
 10
1.0000000000000000E+020
 20
1.0000000000000000E+020
 30
1.0000000000000000E+020
  9
$PEXTMAX
 10
-1.0000000000000000E+020
 20
-1.0000000000000000E+020
 30
-1.0000000000000000E+020
  9
$PLIMMIN
 10
0.0
 20
0.0
  9
$PLIMMAX
 10
12.0
 20
9.0
  9
$UNITMODE
 70
     0
  9
$VISRETAIN
 70
     0
  9
$PLINEGEN
 70
     0
  9
$PSLTSCALE
 70
     0
  0
ENDSEC
  0
SECTION
  2
TABLES
  0
TABLE
  2
VPORT
 70
     2
  0
VPORT
  2
*ACTIVE
 70
     0
 10
0.0
 20
0.0
 11
1.0
 21
1.0
 12
26112.73374865904
 22
-1356.3038358250301
 13
0.0
 23
0.0
 14
5.0
 24
5.0
 15
0.0
 25
0.0
 16
0.0
 26
0.0
 36
1.0
 17
0.0
 27
0.0
 37
0.0
 40
5398.4995826345921
 41
3.1666666666666661
 42
50.0
 43
0.0
 44
0.0
 50
0.0
 51
0.0
 71
     0
 72
   100
 73
     1
 74
     0
 75
     0
 76
     0
 77
     0
 78
     0
  0
ENDTAB
  0
TABLE
  2
LTYPE
 70
     4
  0
LTYPE
  2
CONTINUOUS
 70
     0
  3
Solid line
 72
    65
 73
     0
 40
0.0
  0
LTYPE
  2
CENTER
 70
     0
  3
____ _ ____ _ ____ _ ____ _ ____ _ ____ _ ____ 
 72
    65
 73
     4
 40
2.0
 49
1.25
 49
-0.25
 49
0.25
 49
-0.25
  0
LTYPE
  2
HIDDEN
 70
     0
  3
__ __ __ __ __ __ __ __ __ __ __ __ __ __ __ __
 72
    65
 73
     2
 40
0.375
 49
0.25
 49
-0.125
  0
LTYPE
  2
PHANTOM
 70
     0
  3
______  __  __  ______  __  __  ______  __  __ 
 72
    65
 73
     6
 40
2.5
 49
1.25
 49
-0.25
 49
0.25
 49
-0.25
 49
0.25
 49
-0.25
  0
ENDTAB
  0
TABLE
  2
LAYER
 70
     9
  0
LAYER
  2
0
 70
     0
 62
     7
  6
CONTINUOUS
  0
LAYER
  2
CT
 70
     0
 62
     3
  6
CENTER
  0
LAYER
  2
FUTO
 70
     0
 62
     4
  6
CONTINUOUS
  0
LAYER
  2
HOSO
 70
     0
 62
     7
  6
CONTINUOUS
  0
LAYER
  2
KL
 70
     0
 62
     7
  6
HIDDEN
  0
LAYER
  2
SL
 70
     0
 62
     1
  6
PHANTOM
  0
LAYER
  2
SP
 70
     0
 62
     2
  6
CONTINUOUS
  0
LAYER
  2
DEFPOINTS
 70
     0
 62
     7
  6
CONTINUOUS
  0
LAYER
  2
4
 70
     0
 62
     7
  6
CONTINUOUS
  0
ENDTAB
  0
TABLE
  2
STYLE
 70
     1
  0
STYLE
  2
STANDARD
 70
     0
 40
0.0
 41
1.0
 50
15.0
 71
     0
 42
120.0
  3
C:\Program Files\AutoCAD LT\simplex.shx
  4
C:\Program Files\AutoCAD LT\extfont.shx
  0
ENDTAB
  0
TABLE
  2
VIEW
 70
     0
  0
ENDTAB
  0
TABLE
  2
UCS
 70
     0
  0
ENDTAB
  0
TABLE
  2
APPID
 70
     2
  0
APPID
  2
ACAD
 70
     0
  0
APPID
  2
CONTENTBLOCKICON
 70
     0
  0
ENDTAB
  0
TABLE
  2
DIMSTYLE
 70
     2
  0
DIMSTYLE
  2
DIA1
 70
     0
  3

  4

  5

  6

  7

 40
1.0
 41
2.0
 42
1.0
 43
10.0
 44
1.0
 45
0.0
 46
0.0
 47
0.0
 48
0.0
140
2.5
141
0.0
142
0.0
143
25.399999999999999
144
1.0
145
0.0
146
1.0
147
0.09
 71
     0
 72
     0
 73
     0
 74
     0
 75
     0
 76
     0
 77
     1
 78
     8
170
     0
171
     2
172
     1
173
     0
174
     0
175
     0
176
     2
177
     2
178
     2
  0
DIMSTYLE
  2
STANDARD
 70
     0
  3

  4

  5

  6

  7

 40
1.0
 41
0.18
 42
0.0625
 43
0.38
 44
0.18
 45
0.0
 46
0.0
 47
0.0
 48
0.0
140
0.18
141
0.09
142
0.0
143
25.399999999999999
144
1.0
145
0.0
146
1.0
147
0.09
 71
     0
 72
     0
 73
     1
 74
     1
 75
     0
 76
     0
 77
     0
 78
     0
170
     0
171
     2
172
     0
173
     0
174
     0
175
     0
176
     0
177
     0
178
     0
  0
ENDTAB
  0
ENDSEC
  0
SECTION
  2
BLOCKS
  0
BLOCK
  8
0
  2
$MODEL_SPACE
 70
     0
 10
0.0
 20
0.0
 30
0.0
  3
$MODEL_SPACE
  1

  0
ENDBLK
  5
7
  8
0
  0
BLOCK
 67
     1
  8
0
  2
$PAPER_SPACE
 70
     0
 10
0.0
 20
0.0
 30
0.0
  3
$PAPER_SPACE
  1

  0
ENDBLK
  5
A
 67
     1
  8
0
  0
BLOCK
  8
0
  2
_OPEN
 70
     0
 10
0.0
 20
0.0
 30
0.0
  3
_OPEN
  1

  0
LINE
  5
25
  8
0
  6
BYBLOCK
 62
     0
 10
-1.0
 20
0.1666666666666666
 30
0.0
 11
0.0
 21
0.0
 31
0.0
  0
LINE
  5
26
  8
0
  6
BYBLOCK
 62
     0
 10
0.0
 20
0.0
 30
0.0
 11
-1.0
 21
-0.1666666666666666
 31
0.0
  0
LINE
  5
27
  8
0
  6
BYBLOCK
 62
     0
 10
0.0
 20
0.0
 30
0.0
 11
-1.0
 21
0.0
 31
0.0
  0
ENDBLK
  5
29
  8
0
  0
BLOCK
  8
0
  2
L-75-6
 70
     0
 10
0.0
 20
0.0
 30
0.0
  3
L-75-6
  1

  0
LINE
  5
293
  8
0
 10
114.6064614035558
 20
81.429596884474719
 30
0.0
 11
189.60646140355581
 21
81.429596884474719
 31
0.0
  0
LINE
  5
294
  8
0
 10
114.6064614035558
 20
81.429596884474719
 30
0.0
 11
114.6064614035558
 21
156.42959688447471
 31
0.0
  0
LINE
  5
295
  8
0
 10
189.60646140355581
 20
81.429596884474719
 30
0.0
 11
189.60646140355581
 21
83.429596884474705
 31
0.0
  0
LINE
  5
296
  8
0
 10
114.6064614035558
 20
156.42959688447471
 30
0.0
 11
116.6064614035558
 21
156.42959688447471
 31
0.0
  0
LINE
  5
297
  8
0
 10
120.6064614035558
 20
95.929596884474705
 30
0.0
 11
120.6064614035558
 21
152.42959688447471
 31
0.0
  0
LINE
  5
298
  8
0
 10
129.10646140355581
 20
87.429596884474719
 30
0.0
 11
185.60646140355581
 21
87.429596884474719
 31
0.0
  0
ARC
  5
299
  8
0
 10
185.60646140355581
 20
83.429596884474705
 30
0.0
 40
4.0
 50
0.0
 51
90.0
  0
ARC
  5
29A
  8
0
 10
116.6064614035558
 20
152.42959688447471
 30
0.0
 40
4.0
 50
0.0
 51
90.0
  0
ARC
  5
29B
  8
0
 10
129.10646140355581
 20
95.929596884474705
 30
0.0
 40
8.5
 50
180.0
 51
270.0
  0
ENDBLK
  5
29D
  8
0
  0
BLOCK
  8
0
  2
22222F
 70
     0
 10
0.0
 20
0.0
 30
0.0
  3
22222F
  1

  0
ARC
  5
228
  8
FUTO
 10
-0.0000000000000568
 20
0.0
 30
0.0
 40
130.0
 50
124.6637959032814
 51
175.3362040967184
  0
ARC
  5
229
  8
FUTO
 10
-0.0000000000000568
 20
0.0
 30
0.0
 40
130.0
 50
4.6637959032815717
 51
55.336204096718511
  0
ARC
  5
22A
  8
FUTO
 10
-0.0000000000000568
 20
0.0
 30
0.0
 40
115.0
 50
8.9772148936872895
 51
51.022785106312661
  0
ARC
  5
22B
  8
FUTO
 10
-0.0000000000000568
 20
0.0
 30
0.0
 40
115.0
 50
128.9772148936872
 51
171.02278510631271
  0
ARC
  5
22C
  8
FUTO
 10
-57.499999999999829
 20
99.592921435210386
 30
0.0
 40
18.0
 50
25.51139255315622
 51
214.4886074468437
  0
ARC
  5
22D
  8
FUTO
 10
57.5
 20
99.592921435210243
 30
0.0
 40
18.0
 50
325.51139255315621
 51
154.4886074468437
  0
LINE
  5
22E
  8
FUTO
 10
-110.0
 20
-127.0
 30
0.0
 11
-0.0000000000000568
 21
-127.0
 31
0.0
  0
ARC
  5
22F
  8
FUTO
 10
-0.0000000000000568
 20
0.0
 30
0.0
 40
115.0
 50
248.9772148936872
 51
291.0227851063126
  0
CIRCLE
  5
230
  8
FUTO
 10
-0.0000000000000568
 20
0.0
 30
0.0
 40
54.0
  0
LINE
  5
231
  8
CT
 10
-190.0
 20
-140.0
 30
0.0
 11
-190.0
 21
-70.0
 31
0.0
  0
LINE
  5
232
  8
FUTO
 10
-225.0
 20
-130.0
 30
0.0
 11
-110.0
 21
-130.0
 31
0.0
  0
LINE
  5
233
  8
FUTO
 10
-125.0000000000001
 20
-80.0
 30
0.0
 11
-222.0
 21
-80.0
 31
0.0
  0
ARC
  5
234
  8
FUTO
 10
-222.0
 20
-83.0
 30
0.0
 40
3.0
 50
90.0
 51
180.0
  0
LINE
  5
235
  8
FUTO
 10
-225.0
 20
-83.0
 30
0.0
 11
-225.0
 21
-130.0
 31
0.0
  0
LINE
  5
236
  8
FUTO
 10
-129.99999999999929
 20
-9.9498743710669828
 30
0.0
 11
-130.0
 21
-60.0
 31
0.0
  0
ARC
  5
237
  8
FUTO
 10
-0.0000000000000568
 20
0.0
 30
0.0
 40
115.0
 50
188.9772148936872
 51
231.02278510631271
  0
LINE
  5
238
  8
FUTO
 10
-125.0000000000001
 20
-80.0
 30
0.0
 11
-110.0000000000001
 21
-95.0
 31
0.0
  0
ARC
  5
239
  8
FUTO
 10
-150.0
 20
-60.0
 30
0.0
 40
20.0
 50
270.0
 51
0.0
  0
LINE
  5
23A
  8
FUTO
 10
-110.0
 20
-130.0
 30
0.0
 11
-110.0000000000001
 21
-95.0
 31
0.0
  0
ARC
  5
23B
  8
FUTO
 10
-57.500000000000057
 20
-99.592921435210542
 30
0.0
 40
18.0
 50
145.51139255315621
 51
334.48860744684367
  0
ARC
  5
23C
  8
FUTO
 10
-115.0
 20
0.0
 30
0.0
 40
18.0
 50
85.511392553156256
 51
274.48860744684367
  0
LINE
  5
23D
  8
CT
 10
190.0
 20
-140.0
 30
0.0
 11
190.0
 21
-70.0
 31
0.0
  0
ARC
  5
23E
  8
FUTO
 10
150.0
 20
-60.0
 30
0.0
 40
20.0
 50
180.0
 51
270.0
  0
LINE
  5
23F
  8
FUTO
 10
222.0000000000004
 20
-80.0
 30
0.0
 11
124.9999999999997
 21
-80.0
 31
0.0
  0
LINE
  5
240
  8
FUTO
 10
110.0
 20
-130.0
 30
0.0
 11
225.0
 21
-130.0
 31
0.0
  0
LINE
  5
241
  8
FUTO
 10
130.0
 20
-60.0
 30
0.0
 11
130.0
 21
-9.9498743710661302
 31
0.0
  0
ARC
  5
242
  8
FUTO
 10
-0.0000000000000568
 20
0.0
 30
0.0
 40
115.0
 50
308.97721489368718
 51
351.02278510631271
  0
LINE
  5
243
  8
FUTO
 10
-0.0000000000000568
 20
-127.0
 30
0.0
 11
110.0
 21
-127.0
 31
0.0
  0
ARC
  5
244
  8
FUTO
 10
57.5
 20
-99.592921435210542
 30
0.0
 40
18.0
 50
205.51139255315621
 51
34.488607446843737
  0
LINE
  5
245
  8
FUTO
 10
109.9999999999997
 20
-95.0
 30
0.0
 11
124.9999999999997
 21
-80.0
 31
0.0
  0
LINE
  5
246
  8
FUTO
 10
109.9999999999997
 20
-95.0
 30
0.0
 11
110.0
 21
-130.0
 31
0.0
  0
ARC
  5
247
  8
FUTO
 10
115.0
 20
0.0
 30
0.0
 40
18.0
 50
265.51139255315621
 51
94.488607446843773
  0
ARC
  5
248
  8
FUTO
 10
222.0000000000004
 20
-83.0
 30
0.0
 40
3.0
 50
0.0
 51
90.0
  0
LINE
  5
249
  8
FUTO
 10
225.0
 20
-130.0
 30
0.0
 11
225.0000000000004
 21
-83.0
 31
0.0
  0
LINE
  5
24A
  8
FUTO
 10
19.227247756821669
 20
132.99999999999989
 30
0.0
 11
-19.227247756821779
 21
132.99999999999989
 31
0.0
  0
ARC
  5
24B
  8
FUTO
 10
-0.0000000000000568
 20
0.0
 30
0.0
 40
115.0
 50
68.977214893687218
 51
111.0227851063126
  0
ARC
  5
24C
  8
FUTO
 10
-0.0000000000000568
 20
0.0
 30
0.0
 40
130.0
 50
98.505358450480756
 51
115.3362040967184
  0
LINE
  5
24D
  8
FUTO
 10
-19.227247756821779
 20
113.3812724558063
 30
0.0
 11
-19.227247756821779
 21
132.99999999999989
 31
0.0
  0
ARC
  5
24E
  8
FUTO
 10
-0.0000000000000568
 20
0.0
 30
0.0
 40
130.0
 50
64.663795903281382
 51
81.494641549519287
  0
LINE
  5
24F
  8
FUTO
 10
19.227247756821669
 20
113.3812724558063
 30
0.0
 11
19.227247756821669
 21
132.99999999999989
 31
0.0
  0
ENDBLK
  5
251
  8
0
  0
BLOCK
  8
0
  2
まっすぐの矢印
 70
     0
 10
0.0
 20
0.0
 30
0.0
  3
まっすぐの矢印
  1

  0
LINE
  5
2CF
  8
SP
 10
0.6962157491662495
 20
-2.216890595009601
 30
0.0
 11
0.6962157491662495
 21
-5.0
 31
0.0
  0
LINE
  5
2D0
  8
SP
 10
0.6962157491662495
 20
-5.0
 30
0.0
 11
-0.6962157491662495
 21
-5.0
 31
0.0
  0
LINE
  5
2D1
  8
SP
 10
-0.6962157491662495
 20
-5.0
 30
0.0
 11
-0.6962157491662495
 21
-2.216890595009601
 31
0.0
  0
LINE
  5
2D2
  8
SP
 10
-0.6962157491662495
 20
-2.216890595009601
 30
0.0
 11
-1.7145256852758151
 21
-2.216890595009601
 31
0.0
  0
LINE
  5
2D3
  8
SP
 10
-1.7145256852758151
 20
-2.216890595009601
 30
0.0
 11
0.0
 21
0.0
 31
0.0
  0
LINE
  5
2D4
  8
SP
 10
0.0
 20
0.0
 30
0.0
 11
1.7145256852758151
 21
-2.216890595009601
 31
0.0
  0
LINE
  5
2D5
  8
SP
 10
1.7145256852758151
 20
-2.216890595009601
 30
0.0
 11
0.6962157491662495
 21
-2.216890595009601
 31
0.0
  0
ENDBLK
  5
2D7
  8
0
  0
BLOCK
  8
0
  2
右回転矢印
 70
     0
 10
0.0
 20
0.0
 30
0.0
  3
右回転矢印
  1

  0
LINE
  5
1E3
  8
SP
 10
-2.7705290305565882
 20
1.567794835092901
 30
0.0
 11
-2.4288000558398148
 21
2.8051227455822878
 31
0.0
  0
LINE
  5
1E4
  8
SP
 10
-2.4288000558398148
 20
2.8051227455822878
 30
0.0
 11
0.0
 21
0.0
 31
0.0
  0
LINE
  5
1E5
  8
SP
 10
0.0
 20
0.0
 30
0.0
 11
-3.3160037613098718
 21
-0.4072531086382499
 31
0.0
  0
LINE
  5
1E6
  8
SP
 10
-3.3160037613098718
 20
-0.4072531086382499
 30
0.0
 11
-3.0391574735299112
 21
0.5951483970269315
 31
0.0
  0
ARC
  5
1E7
  8
SP
 10
-5.9215210782018062
 20
-9.8412769578768184
 30
0.0
 40
10.82714154973578
 50
74.560750721316467
 51
112.11861101078711
  0
LINE
  5
1E8
  8
SP
 10
-9.9982127316752951
 20
0.1890560027239694
 30
0.0
 11
-10.37814929817227
 21
1.1238557349100611
 31
0.0
  0
ARC
  5
1E9
  8
SP
 10
-5.9215210782018062
 20
-9.8412769578768291
 30
0.0
 40
11.83620167374065
 50
74.560750721316396
 51
112.11861101078701
  0
ENDBLK
  5
1EB
  8
0
  0
BLOCK
  8
0
  2
*D5
 70
     1
 10
0.0
 20
0.0
 30
0.0
  3
*D5
  1

  0
LINE
  5
311A
  8
SP
 62
     2
 10
20253.875298726831
 20
1468.63496235772
 30
0.0
 11
20253.875298726831
 21
801.01423534383503
 31
0.0
  0
LINE
  5
311B
  8
SP
 62
     2
 10
18003.875298726842
 20
1468.63496235772
 30
0.0
 11
18003.875298726842
 21
801.01423534383503
 31
0.0
  0
LINE
  5
311C
  8
SP
 62
     2
 10
20163.875298726831
 20
846.01423534383491
 30
0.0
 11
18093.875298726842
 21
846.01423534383491
 31
0.0
  0
INSERT
  5
311D
  8
SP
 62
     2
  2
_OPEN
 10
20253.875298726831
 20
846.01423534383491
 30
0.0
 41
90.0
 42
90.0
 43
90.0
  0
INSERT
  5
311E
  8
SP
 62
     2
  2
_OPEN
 10
18003.875298726842
 20
846.01423534383491
 30
0.0
 41
90.0
 42
90.0
 43
90.0
 50
180.0
  0
TEXT
  5
311F
  8
FUTO
 62
     2
 10
18879.590932140422
 20
868.51423534383491
 30
0.0
 40
135.0
  1
2250
 51
15.0
  0
POINT
  5
3120
  8
DEFPOINTS
 62
     0
 10
20253.875298726831
 20
1513.63496235772
 30
0.0
  0
POINT
  5
3121
  8
DEFPOINTS
 62
     0
 10
18003.875298726842
 20
1513.63496235772
 30
0.0
  0
POINT
  5
3122
  8
DEFPOINTS
 62
     0
 10
18003.875298726842
 20
846.01423534383491
 30
0.0
  0
ENDBLK
  5
A67
  8
0
  0
BLOCK
  8
0
  2
*D6
 70
     1
 10
0.0
 20
0.0
 30
0.0
  3
*D6
  1

  0
LINE
  5
3135
  8
SP
 62
     2
 10
18003.875298726842
 20
1468.63496235772
 30
0.0
 11
18003.875298726842
 21
801.01423534383503
 31
0.0
  0
LINE
  5
3136
  8
SP
 62
     2
 10
16853.875298726842
 20
1468.63496235772
 30
0.0
 11
16853.875298726842
 21
801.01423534383503
 31
0.0
  0
LINE
  5
3137
  8
SP
 62
     2
 10
17913.875298726842
 20
846.01423534383491
 30
0.0
 11
16943.875298726842
 21
846.01423534383491
 31
0.0
  0
INSERT
  5
3138
  8
SP
 62
     2
  2
_OPEN
 10
18003.875298726842
 20
846.01423534383491
 30
0.0
 41
90.0
 42
90.0
 43
90.0
  0
INSERT
  5
3139
  8
SP
 62
     2
  2
_OPEN
 10
16853.875298726842
 20
846.01423534383491
 30
0.0
 41
90.0
 42
90.0
 43
90.0
 50
180.0
  0
TEXT
  5
313A
  8
FUTO
 62
     2
 10
17190.66370841115
 20
868.51423534383491
 30
0.0
 40
135.0
  1
1150
 51
15.0
  0
POINT
  5
313B
  8
DEFPOINTS
 62
     0
 10
18003.875298726842
 20
1513.63496235772
 30
0.0
  0
POINT
  5
313C
  8
DEFPOINTS
 62
     0
 10
16853.875298726842
 20
1513.63496235772
 30
0.0
  0
POINT
  5
313D
  8
DEFPOINTS
 62
     0
 10
16853.875298726842
 20
846.01423534383491
 30
0.0
  0
ENDBLK
  5
A74
  8
0
  0
BLOCK
  8
0
  2
*D7
 70
     1
 10
0.0
 20
0.0
 30
0.0
  3
*D7
  1

  0
LINE
  5
31A8
  8
SP
 10
16853.875298726842
 20
1468.63496235772
 30
0.0
 11
16853.875298726842
 21
505.68133844363177
 31
0.0
  0
LINE
  5
31A9
  8
SP
 10
20253.875298726831
 20
1468.63496235772
 30
0.0
 11
20253.875298726831
 21
505.68133844363177
 31
0.0
  0
LINE
  5
31AA
  8
SP
 10
16943.875298726842
 20
550.68133844363183
 30
0.0
 11
20163.875298726831
 21
550.68133844363183
 31
0.0
  0
INSERT
  5
31AB
  8
SP
  2
_OPEN
 10
16853.875298726842
 20
550.68133844363183
 30
0.0
 41
90.0
 42
90.0
 43
90.0
 50
180.0
  0
INSERT
  5
31AC
  8
SP
  2
_OPEN
 10
20253.875298726831
 20
550.68133844363183
 30
0.0
 41
90.0
 42
90.0
 43
90.0
  0
TEXT
  8
0
  40
135
  5
3223
  72
0
  71
0
 10
18283.9
 20
401.731
 30
0.000000
  1
3400
  0
POINT
  5
31AE
  8
DEFPOINTS
 62
     0
 10
16853.875298726842
 20
1513.63496235772
 30
0.0
  0
POINT
  5
31AF
  8
DEFPOINTS
 62
     0
 10
20253.875298726831
 20
1513.63496235772
 30
0.0
  0
POINT
  5
31B0
  8
DEFPOINTS
 62
     0
 10
20253.875298726831
 20
550.68133844363183
 30
0.0
  0
ENDBLK
  5
14BE
  8
0
  0
BLOCK
  8
0
  2
*D8
 70
     1
 10
0.0
 20
0.0
 30
0.0
  3
*D8
  1

  0
LINE
  5
31B1
  8
SP
 10
25121.672876407501
 20
4313.6349623577207
 30
0.0
 11
25615.862594786518
 21
4313.6349623577207
 31
0.0
  0
LINE
  5
31B2
  8
SP
 10
25121.672876407501
 20
2313.6349623577198
 30
0.0
 11
25615.862594786518
 21
2313.6349623577198
 31
0.0
  0
LINE
  5
31B3
  8
SP
 10
25570.862594786529
 20
4223.6349623577198
 30
0.0
 11
25570.862594786529
 21
2403.6349623577198
 31
0.0
  0
INSERT
  5
31B4
  8
SP
  2
_OPEN
 10
25570.862594786529
 20
4313.6349623577207
 30
0.0
 41
90.0
 42
90.0
 43
90.0
 50
90.0
  0
INSERT
  5
31B5
  8
SP
  2
_OPEN
 10
25570.862594786529
 20
2313.6349623577198
 30
0.0
 41
90.0
 42
90.0
 43
90.0
 50
270.0
  0
TEXT
  8
0
  40
135
  5
3224
  72
0
  71
0
 10
25210.9
 20
3074.68
 30
0.000000
  1
%%C2000
  0
POINT
  5
31B7
  8
DEFPOINTS
 62
     0
 10
25076.672876407501
 20
4313.6349623577207
 30
0.0
  0
POINT
  5
31B8
  8
DEFPOINTS
 62
     0
 10
25076.672876407501
 20
2313.6349623577198
 30
0.0
  0
POINT
  5
31B9
  8
DEFPOINTS
 62
     0
 10
25570.862594786529
 20
2313.6349623577198
 30
0.0
  0
ENDBLK
  5
1561
  8
0
  0
BLOCK
  8
0
  2
*D9
 70
     1
 10
0.0
 20
0.0
 30
0.0
  3
*D9
  1

  0
LINE
  5
31BA
  8
SP
 62
     2
 10
21800.672876407501
 20
1468.63496235772
 30
0.0
 11
21800.672876407501
 21
795.55754208947474
 31
0.0
  0
LINE
  5
31BB
  8
SP
 62
     2
 10
24171.672876407501
 20
1468.63496235772
 30
0.0
 11
24171.672876407501
 21
795.55754208947474
 31
0.0
  0
LINE
  5
31BC
  8
SP
 62
     2
 10
21890.672876407501
 20
840.55754208947474
 30
0.0
 11
24081.672876407501
 21
840.55754208947474
 31
0.0
  0
INSERT
  5
31BD
  8
SP
 62
     2
  2
_OPEN
 10
21800.672876407501
 20
840.55754208947474
 30
0.0
 41
90.0
 42
90.0
 43
90.0
 50
180.0
  0
INSERT
  5
31BE
  8
SP
 62
     2
  2
_OPEN
 10
24171.672876407501
 20
840.55754208947474
 30
0.0
 41
90.0
 42
90.0
 43
90.0
  0
TEXT
  8
0
  40
135
  5
3225
  62
2
  72
0
  71
0
 10
22716.2
 20
691.608
 30
0.000000
  1
2371
  0
POINT
  5
31C0
  8
DEFPOINTS
 62
     0
 10
21800.672876407501
 20
1513.63496235772
 30
0.0
  0
POINT
  5
31C1
  8
DEFPOINTS
 62
     0
 10
24171.672876407501
 20
1513.63496235772
 30
0.0
  0
POINT
  5
31C2
  8
DEFPOINTS
 62
     0
 10
24171.672876407501
 20
840.55754208947474
 30
0.0
  0
ENDBLK
  5
1B15
  8
0
  0
BLOCK
  8
0
  2
*D10
 70
     1
 10
0.0
 20
0.0
 30
0.0
  3
*D10
  1

  0
LINE
  5
31C3
  8
SP
 62
     2
 10
25000.672876407501
 20
1468.63496235772
 30
0.0
 11
25000.672876407501
 21
795.55754208947474
 31
0.0
  0
LINE
  5
31C4
  8
SP
 62
     2
 10
24261.672876407501
 20
840.55754208947474
 30
0.0
 11
24910.672876407501
 21
840.55754208947474
 31
0.0
  0
INSERT
  5
31C5
  8
SP
 62
     2
  2
_OPEN
 10
24171.672876407501
 20
840.55754208947474
 30
0.0
 41
90.0
 42
90.0
 43
90.0
 50
180.0
  0
INSERT
  5
31C6
  8
SP
 62
     2
  2
_OPEN
 10
25000.672876407501
 20
840.55754208947474
 30
0.0
 41
90.0
 42
90.0
 43
90.0
  0
TEXT
  8
0
  40
135
  5
3226
  62
2
  72
0
  71
0
 10
24316.2
 20
691.608
 30
0.000000
  1
829
  0
POINT
  5
31C8
  8
DEFPOINTS
 62
     0
 10
24171.672876407501
 20
1513.63496235772
 30
0.0
  0
POINT
  5
31C9
  8
DEFPOINTS
 62
     0
 10
25000.672876407501
 20
1513.63496235772
 30
0.0
  0
POINT
  5
31CA
  8
DEFPOINTS
 62
     0
 10
25000.672876407501
 20
840.55754208947474
 30
0.0
  0
ENDBLK
  5
1B21
  8
0
  0
BLOCK
  8
0
  2
*D11
 70
     1
 10
0.0
 20
0.0
 30
0.0
  3
*D11
  1

  0
LINE
  5
31CB
  8
SP
 62
     2
 10
25000.672876407501
 20
795.55754208947474
 30
0.0
 11
25000.672876407501
 21
503.43524183657792
 31
0.0
  0
LINE
  5
31CC
  8
SP
 62
     2
 10
21800.672876407501
 20
795.55754208947474
 30
0.0
 11
21800.672876407501
 21
503.43524183657792
 31
0.0
  0
LINE
  5
31CD
  8
SP
 62
     2
 10
24910.672876407501
 20
548.43524183657792
 30
0.0
 11
21890.672876407501
 21
548.43524183657792
 31
0.0
  0
INSERT
  5
31CE
  8
SP
 62
     2
  2
_OPEN
 10
25000.672876407501
 20
548.43524183657792
 30
0.0
 41
90.0
 42
90.0
 43
90.0
  0
INSERT
  5
31CF
  8
SP
 62
     2
  2
_OPEN
 10
21800.672876407501
 20
548.43524183657792
 30
0.0
 41
90.0
 42
90.0
 43
90.0
 50
180.0
  0
TEXT
  8
0
  40
135
  5
3227
  62
2
  72
0
  71
0
 10
23130.7
 20
399.485
 30
0.000000
  1
3200
  0
POINT
  5
31D1
  8
DEFPOINTS
 62
     0
 10
25000.672876407501
 20
840.55754208947474
 30
0.0
  0
POINT
  5
31D2
  8
DEFPOINTS
 62
     0
 10
21800.672876407501
 20
840.55754208947474
 30
0.0
  0
POINT
  5
31D3
  8
DEFPOINTS
 62
     0
 10
21800.672876407501
 20
548.43524183657792
 30
0.0
  0
ENDBLK
  5
1B2E
  8
0
  0
BLOCK
  8
0
  2
*D12
 70
     1
 10
0.0
 20
0.0
 30
0.0
  3
*D12
  1

  0
LINE
  5
31D4
  8
SP
 62
     2
 10
21661.672876407501
 20
5064.7669677711056
 30
0.0
 11
24081.672876407501
 21
5064.7669677711056
 31
0.0
  0
INSERT
  5
31D5
  8
SP
 62
     2
  2
_OPEN
 10
21571.672876407501
 20
5064.7669677711056
 30
0.0
 41
90.0
 42
90.0
 43
90.0
 50
180.0
  0
INSERT
  5
31D6
  8
SP
 62
     2
  2
_OPEN
 10
24171.672876407501
 20
5064.7669677711056
 30
0.0
 41
90.0
 42
90.0
 43
90.0
  0
TEXT
  8
0
  40
135
  5
3228
  62
2
  72
0
  71
0
 10
22601.7
 20
4915.82
 30
0.000000
  1
2600
  0
POINT
  5
31D8
  8
DEFPOINTS
 62
     0
 10
21571.672876407501
 20
5064.7669677711056
 30
0.0
  0
POINT
  5
31D9
  8
DEFPOINTS
 62
     0
 10
24171.672876407501
 20
5064.7669677711056
 30
0.0
  0
POINT
  5
31DA
  8
DEFPOINTS
 62
     0
 10
24171.672876407501
 20
5064.7669677711056
 30
0.0
  0
ENDBLK
  5
1BFE
  8
0
  0
BLOCK
  8
0
  2
*D13
 70
     1
 10
0.0
 20
0.0
 30
0.0
  3
*D13
  1

  0
LINE
  5
31DB
  8
SP
 62
     2
 10
18003.875298726842
 20
4701.9765281869168
 30
0.0
 11
18003.875298726842
 21
5097.7408126531373
 31
0.0
  0
LINE
  5
31DC
  8
SP
 62
     2
 10
20230.875298726842
 20
4633.6349623591796
 30
0.0
 11
20230.875298726842
 21
5097.7408126531373
 31
0.0
  0
LINE
  5
31DD
  8
SP
 62
     2
 10
18093.875298726842
 20
5052.7408126531373
 30
0.0
 11
20140.875298726842
 21
5052.7408126531373
 31
0.0
  0
INSERT
  5
31DE
  8
SP
 62
     2
  2
_OPEN
 10
18003.875298726842
 20
5052.7408126531373
 30
0.0
 41
90.0
 42
90.0
 43
90.0
 50
180.0
  0
INSERT
  5
31DF
  8
SP
 62
     2
  2
_OPEN
 10
20230.875298726842
 20
5052.7408126531373
 30
0.0
 41
90.0
 42
90.0
 43
90.0
  0
TEXT
  8
0
  40
135
  5
3229
  62
2
  72
0
  71
0
 10
18847.4
 20
4903.79
 30
0.000000
  1
2227
  0
POINT
  5
31E1
  8
DEFPOINTS
 62
     0
 10
18003.875298726842
 20
4656.9765281869159
 30
0.0
  0
POINT
  5
31E2
  8
DEFPOINTS
 62
     0
 10
20230.875298726842
 20
4588.6349623591796
 30
0.0
  0
POINT
  5
31E3
  8
DEFPOINTS
 62
     0
 10
20230.875298726842
 20
5052.7408126531373
 30
0.0
  0
ENDBLK
  5
1C2F
  8
0
  0
BLOCK
  8
0
  2
*D14
 70
     1
 10
0.0
 20
0.0
 30
0.0
  3
*D14
  1

  0
LINE
  5
31E4
  8
SP
 62
     2
 10
16883.875261421868
 20
9370.9424398725732
 30
0.0
 11
16099.235450253969
 21
9370.9424398725732
 31
0.0
  0
LINE
  5
31E5
  8
SP
 62
     2
 10
16462.9685497397
 20
8465.9424398725732
 30
0.0
 11
16099.235450253969
 21
8465.9424398725732
 31
0.0
  0
LINE
  5
31E6
  8
SP
 62
     2
 10
16144.23545025396
 20
9280.9424398725732
 30
0.0
 11
16144.23545025396
 21
8555.9424398725732
 31
0.0
  0
INSERT
  5
31E7
  8
SP
 62
     2
  2
_OPEN
 10
16144.23545025396
 20
9370.9424398725732
 30
0.0
 41
90.0
 42
90.0
 43
90.0
 50
90.0
  0
INSERT
  5
31E8
  8
SP
 62
     2
  2
_OPEN
 10
16144.23545025396
 20
8465.9424398725732
 30
0.0
 41
90.0
 42
90.0
 43
90.0
 50
270.0
  0
TEXT
  8
0
  40
135
  5
322A
  62
2
  72
0
  71
0
 10
15784.2
 20
8662.78
 30
0.000000
  1
905
  0
POINT
  5
31EA
  8
DEFPOINTS
 62
     0
 10
16928.875261421879
 20
9370.9424398725732
 30
0.0
  0
POINT
  5
31EB
  8
DEFPOINTS
 62
     0
 10
16507.9685497397
 20
8465.9424398725732
 30
0.0
  0
POINT
  5
31EC
  8
DEFPOINTS
 62
     0
 10
16144.23545025396
 20
8465.9424398725732
 30
0.0
  0
ENDBLK
  5
2561
  8
0
  0
BLOCK
  8
0
  2
*D15
 70
     1
 10
0.0
 20
0.0
 30
0.0
  3
*D15
  1

  0
LINE
  5
31ED
  8
SP
 62
     2
 10
16462.9685497397
 20
8465.9424398725732
 30
0.0
 11
16099.235450253969
 21
8465.9424398725732
 31
0.0
  0
LINE
  5
31EE
  8
SP
 62
     2
 10
17478.875261421879
 20
5865.9424398725769
 30
0.0
 11
16099.235450253969
 21
5865.9424398725769
 31
0.0
  0
LINE
  5
31EF
  8
SP
 62
     2
 10
16144.235450253969
 20
8375.9424398725714
 30
0.0
 11
16144.235450253969
 21
5955.942439872576
 31
0.0
  0
INSERT
  5
31F0
  8
SP
 62
     2
  2
_OPEN
 10
16144.235450253969
 20
8465.9424398725732
 30
0.0
 41
90.0
 42
90.0
 43
90.0
 50
90.0
  0
INSERT
  5
31F1
  8
SP
 62
     2
  2
_OPEN
 10
16144.235450253969
 20
5865.9424398725769
 30
0.0
 41
90.0
 42
90.0
 43
90.0
 50
270.0
  0
TEXT
  8
0
  40
135
  5
322B
  62
2
  72
0
  71
0
 10
15784.2
 20
6926.99
 30
0.000000
  1
2600
  0
POINT
  5
31F3
  8
DEFPOINTS
 62
     0
 10
16507.9685497397
 20
8465.9424398725732
 30
0.0
  0
POINT
  5
31F4
  8
DEFPOINTS
 62
     0
 10
17523.875261421879
 20
5865.9424398725769
 30
0.0
  0
POINT
  5
31F5
  8
DEFPOINTS
 62
     0
 10
16144.235450253969
 20
5865.9424398725769
 30
0.0
  0
ENDBLK
  5
256E
  8
0
  0
BLOCK
  8
0
  2
*D16
 70
     1
 10
0.0
 20
0.0
 30
0.0
  3
*D16
  1

  0
LINE
  5
31F6
  8
FUTO
 62
     2
 10
20253.875298726831
 20
7756.9424398725714
 30
0.0
 11
20253.875298726831
 21
9845.9082293784777
 31
0.0
  0
LINE
  5
31F7
  8
FUTO
 62
     2
 10
18003.875298726842
 20
9669.5608203066186
 30
0.0
 11
18003.875298726842
 21
9845.9082293784777
 31
0.0
  0
LINE
  5
31F8
  8
FUTO
 62
     2
 10
20163.875298726831
 20
9800.9082293784777
 30
0.0
 11
18093.875298726842
 21
9800.9082293784777
 31
0.0
  0
INSERT
  5
31F9
  8
FUTO
 62
     2
  2
_OPEN
 10
20253.875298726831
 20
9800.9082293784777
 30
0.0
 41
90.0
 42
90.0
 43
90.0
  0
INSERT
  5
31FA
  8
FUTO
 62
     2
  2
_OPEN
 10
18003.875298726842
 20
9800.9082293784777
 30
0.0
 41
90.0
 42
90.0
 43
90.0
 50
180.0
  0
TEXT
  8
0
  40
135
  5
322C
  62
2
  72
0
  71
0
 10
18858.9
 20
9651.96
 30
0.000000
  1
2250
  0
POINT
  5
31FC
  8
DEFPOINTS
 62
     0
 10
20253.875298726831
 20
7711.9424398725714
 30
0.0
  0
POINT
  5
31FD
  8
DEFPOINTS
 62
     0
 10
18003.875298726842
 20
9624.5608203066186
 30
0.0
  0
POINT
  5
31FE
  8
DEFPOINTS
 62
     0
 10
18003.875298726842
 20
9800.9082293784777
 30
0.0
  0
ENDBLK
  5
2703
  8
0
  0
BLOCK
  8
0
  2
*D17
 70
     1
 10
0.0
 20
0.0
 30
0.0
  3
*D17
  1

  0
LINE
  5
31FF
  8
FUTO
 62
     2
 10
18003.875298726842
 20
9669.5608203066186
 30
0.0
 11
18003.875298726842
 21
9845.9082293784777
 31
0.0
  0
LINE
  5
3200
  8
FUTO
 62
     2
 10
16511.875298726842
 20
9314.9424398725769
 30
0.0
 11
16511.875298726842
 21
9845.9082293784777
 31
0.0
  0
LINE
  5
3201
  8
FUTO
 62
     2
 10
17913.875298726842
 20
9800.9082293784777
 30
0.0
 11
16601.875298726842
 21
9800.9082293784777
 31
0.0
  0
INSERT
  5
3202
  8
FUTO
 62
     2
  2
_OPEN
 10
18003.875298726842
 20
9800.9082293784777
 30
0.0
 41
90.0
 42
90.0
 43
90.0
  0
INSERT
  5
3203
  8
FUTO
 62
     2
  2
_OPEN
 10
16511.875298726842
 20
9800.9082293784777
 30
0.0
 41
90.0
 42
90.0
 43
90.0
 50
180.0
  0
TEXT
  8
0
  40
135
  5
322D
  62
2
  72
0
  71
0
 10
16987.9
 20
9651.96
 30
0.000000
  1
1492
  0
POINT
  5
3205
  8
DEFPOINTS
 62
     0
 10
18003.875298726842
 20
9624.5608203066186
 30
0.0
  0
POINT
  5
3206
  8
DEFPOINTS
 62
     0
 10
16511.875298726842
 20
9269.9424398725769
 30
0.0
  0
POINT
  5
3207
  8
DEFPOINTS
 62
     0
 10
16511.875298726842
 20
9800.9082293784777
 30
0.0
  0
ENDBLK
  5
2710
  8
0
  0
BLOCK
  8
0
  2
*D18
 70
     1
 10
0.0
 20
0.0
 30
0.0
  3
*D18
  1

  0
LINE
  5
3208
  8
FUTO
 62
     2
 10
16808.875298726842
 20
1543.63496235772
 30
0.0
 11
16219.76944843142
 21
1543.63496235772
 31
0.0
  0
LINE
  5
3209
  8
FUTO
 62
     2
 10
16395.031720892661
 20
3313.6349623577212
 30
0.0
 11
16219.76944843142
 21
3313.6349623577212
 31
0.0
  0
LINE
  5
320A
  8
FUTO
 62
     2
 10
16264.76944843142
 20
1633.63496235772
 30
0.0
 11
16264.76944843142
 21
3223.6349623577198
 31
0.0
  0
INSERT
  5
320B
  8
FUTO
 62
     2
  2
_OPEN
 10
16264.76944843142
 20
1543.63496235772
 30
0.0
 41
90.0
 42
90.0
 43
90.0
 50
270.0
  0
INSERT
  5
320C
  8
FUTO
 62
     2
  2
_OPEN
 10
16264.76944843142
 20
3313.6349623577212
 30
0.0
 41
90.0
 42
90.0
 43
90.0
 50
90.0
  0
TEXT
  8
0
  40
135
  5
322E
  62
2
  72
0
  71
0
 10
15904.8
 20
2189.68
 30
0.000000
  1
1770
  0
POINT
  5
320E
  8
DEFPOINTS
 62
     0
 10
16853.875298726842
 20
1543.63496235772
 30
0.0
  0
POINT
  5
320F
  8
DEFPOINTS
 62
     0
 10
16440.031720892661
 20
3313.6349623577212
 30
0.0
  0
POINT
  5
3210
  8
DEFPOINTS
 62
     0
 10
16264.76944843142
 20
3313.6349623577212
 30
0.0
  0
ENDBLK
  5
271D
  8
0
  0
BLOCK
  8
0
  2
*D19
 70
     1
 10
0.0
 20
0.0
 30
0.0
  3
*D19
  1

  0
LINE
  5
3211
  8
FUTO
 62
     2
 10
16395.031720892661
 20
3313.6349623577212
 30
0.0
 11
16219.76944843142
 21
3313.6349623577212
 31
0.0
  0
LINE
  5
3212
  8
FUTO
 62
     2
 10
17967.875298726842
 20
4588.6349623581773
 30
0.0
 11
16219.76944843142
 21
4588.6349623581773
 31
0.0
  0
LINE
  5
3213
  8
FUTO
 62
     2
 10
16264.76944843142
 20
3403.6349623577198
 30
0.0
 11
16264.76944843142
 21
4498.6349623581773
 31
0.0
  0
INSERT
  5
3214
  8
FUTO
 62
     2
  2
_OPEN
 10
16264.76944843142
 20
3313.6349623577212
 30
0.0
 41
90.0
 42
90.0
 43
90.0
 50
270.0
  0
INSERT
  5
3215
  8
FUTO
 62
     2
  2
_OPEN
 10
16264.76944843142
 20
4588.6349623581773
 30
0.0
 41
90.0
 42
90.0
 43
90.0
 50
90.0
  0
TEXT
  8
0
  40
135
  5
322F
  62
2
  72
0
  71
0
 10
15904.8
 20
3712.18
 30
0.000000
  1
1275
  0
POINT
  5
3217
  8
DEFPOINTS
 62
     0
 10
16440.031720892661
 20
3313.6349623577212
 30
0.0
  0
POINT
  5
3218
  8
DEFPOINTS
 62
     0
 10
18012.875298726842
 20
4588.6349623581773
 30
0.0
  0
POINT
  5
3219
  8
DEFPOINTS
 62
     0
 10
16264.76944843142
 20
4588.6349623581773
 30
0.0
  0
ENDBLK
  5
272A
  8
0
  0
BLOCK
  8
0
  2
*D20
 70
     1
 10
0.0
 20
0.0
 30
0.0
  3
*D20
  1

  0
LINE
  5
321A
  8
FUTO
 62
     2
 10
25076.672876407501
 20
4433.6349623577207
 30
0.0
 11
25076.672876407501
 21
5109.7669677711046
 31
0.0
  0
LINE
  5
321B
  8
FUTO
 62
     2
 10
24171.672876407501
 20
5042.326739428222
 30
0.0
 11
24171.672876407501
 21
5109.7669677711046
 31
0.0
  0
LINE
  5
321C
  8
FUTO
 62
     2
 10
24986.672876407501
 20
5064.7669677711056
 30
0.0
 11
24261.672876407501
 21
5064.7669677711056
 31
0.0
  0
INSERT
  5
321D
  8
FUTO
 62
     2
  2
_OPEN
 10
25076.672876407501
 20
5064.7669677711056
 30
0.0
 41
90.0
 42
90.0
 43
90.0
  0
INSERT
  5
321E
  8
FUTO
 62
     2
  2
_OPEN
 10
24171.672876407501
 20
5064.7669677711056
 30
0.0
 41
90.0
 42
90.0
 43
90.0
 50
180.0
  0
TEXT
  8
0
  40
135
  5
3230
  62
2
  72
0
  71
0
 10
24354.2
 20
4915.82
 30
0.000000
  1
905
  0
POINT
  5
3220
  8
DEFPOINTS
 62
     0
 10
25076.672876407501
 20
4388.6349623577207
 30
0.0
  0
POINT
  5
3221
  8
DEFPOINTS
 62
     0
 10
24171.672876407501
 20
4997.3267394282229
 30
0.0
  0
POINT
  5
3222
  8
DEFPOINTS
 62
     0
 10
24171.672876407501
 20
5064.7669677711056
 30
0.0
  0
ENDBLK
  5
28FE
  8
0
  0
ENDSEC
  0
SECTION
  2
ENTITIES
  0
LINE
  5
46
  8
FUTO
 10
22055.672876407501
 20
3153.6349623577198
 30
0.0
 11
23305.672876407501
 21
3153.6349623577198
 31
0.0
  0
LINE
  5
49
  8
FUTO
 10
23113.672876407501
 20
3371.1349623577198
 30
0.0
 11
22051.672876407501
 21
3371.1349623577198
 31
0.0
  0
LINE
  5
4A
  8
FUTO
 10
23113.672876407501
 20
3256.1349623577198
 30
0.0
 11
22051.672876407501
 21
3256.1349623577198
 31
0.0
  0
LINE
  5
4B
  8
FUTO
 10
21800.672876407501
 20
1723.634962357721
 30
0.0
 11
25014.872876407499
 21
1723.634962357721
 31
0.0
  0
LINE
  5
4C
  8
CT
 10
25197.93608840647
 20
3313.6349623577212
 30
0.0
 11
21466.895453409092
 21
3313.6349623577212
 31
0.0
  0
LINE
  5
50
  8
FUTO
 10
21875.672876407501
 20
1543.63496235772
 30
0.0
 11
24925.672876407501
 21
1543.63496235772
 31
0.0
  0
LINE
  5
53
  8
FUTO
 10
21875.672876407501
 20
1555.63496235772
 30
0.0
 11
23388.817954861639
 21
1555.63496235772
 31
0.0
  0
LINE
  5
54
  8
FUTO
 10
21875.672876407501
 20
1711.63496235772
 30
0.0
 11
23388.817954861639
 21
1711.63496235772
 31
0.0
  0
DIMENSION
  5
6B
  8
SP
  2
*D7
 10
20253.875298726831
 20
550.68133844363183
 30
0.0
 11
18553.875298726831
 21
640.68133844363183
 31
0.0
 70
     0
 13
16853.875298726842
 23
1513.63496235772
 33
0.0
 14
20253.875298726831
 24
1513.63496235772
 34
0.0
 50
180.0
1001
ACAD
1000
DSTYLE
1002
{
1070
   287
1070
     0
1070
   287
1070
     0
1070
    40
1040
45.0
1070
   140
1040
3.0
1070
   143
1040
0.03937
1070
   147
1040
0.5
1070
   173
1070
     1
1070
   176
1070
   256
1070
   177
1070
   256
1070
   178
1070
   256
1070
   271
1070
     4
1070
   272
1070
     4
1070
   279
1070
     0
1070
   285
1070
     0
1070
   286
1070
     0
1070
   289
1070
     0
1070
     6
1000
OPEN
1070
     7
1000
OPEN
1002
}
  0
LINE
  5
78
  8
CT
 10
20115.501931090279
 20
3313.6349623577212
 30
0.0
 11
20096.908498866989
 21
3313.6349623577212
 31
0.0
  0
LINE
  5
80
  8
FUTO
 10
19529.108291965349
 20
1543.63496235772
 30
0.0
 11
20094.64198954152
 21
1543.63496235772
 31
0.0
  0
ARC
  5
86
  8
KL
 10
18150.875298726842
 20
3166.6349623577198
 30
0.0
 40
1589.0
 50
180.0
 51
270.0
  0
LINE
  5
89
  8
FUTO
 10
16853.875298726842
 20
1543.63496235772
 30
0.0
 11
20253.875298726831
 21
1543.63496235772
 31
0.0
  0
LINE
  5
8A
  8
FUTO
 10
16853.875298726842
 20
1723.634962357721
 30
0.0
 11
20253.875298726831
 21
1723.634962357721
 31
0.0
  0
LINE
  5
8E
  8
FUTO
 10
16853.875298726842
 20
1707.63496235772
 30
0.0
 11
20253.875298726831
 21
1707.63496235772
 31
0.0
  0
LINE
  5
8F
  8
FUTO
 10
16853.875298726842
 20
1559.63496235772
 30
0.0
 11
20253.875298726831
 21
1559.63496235772
 31
0.0
  0
ARC
  5
92
  8
KL
 10
18150.875298726842
 20
3460.6349623577212
 30
0.0
 40
1883.0
 50
270.0
 51
354.42838162163292
  0
ARC
  5
93
  8
FUTO
 10
18150.875298726842
 20
3460.6349623577212
 30
0.0
 40
1903.0
 50
335.2403678865245
 51
354.5126398729289
  0
LINE
  5
A6
  8
FUTO
 10
20253.875298726831
 20
1543.63496235772
 30
0.0
 11
20253.875298726842
 21
1723.634962357721
 31
0.0
  0
LINE
  5
FF
  8
FUTO
 10
22055.672876407501
 20
3173.6349623577198
 30
0.0
 11
22055.672876407501
 21
3153.6349623577198
 31
0.0
  0
LINE
  5
100
  8
FUTO
 10
21875.672876407501
 20
3173.6349623577198
 30
0.0
 11
21875.672876407501
 21
1723.634962357721
 31
0.0
  0
LINE
  5
101
  8
SL
 10
21819.472876407501
 20
3688.6349623577212
 30
0.0
 11
21819.472876407501
 21
1918.63496235772
 31
0.0
  0
LINE
  5
102
  8
SL
 10
21689.472876407501
 20
3688.6349623577212
 30
0.0
 11
21689.472876407501
 21
1918.63496235772
 31
0.0
  0
LINE
  5
103
  8
FUTO
 10
21571.672876407501
 20
3793.6349623577212
 30
0.0
 11
21571.672876407501
 21
1823.63496235772
 31
0.0
  0
LINE
  5
104
  8
FUTO
 10
16862.875298726842
 20
1723.634962357721
 30
0.0
 11
16862.875298726842
 21
4061.1453071238038
 31
0.0
  0
LINE
  5
105
  8
FUTO
 10
16853.875298726842
 20
1543.63496235772
 30
0.0
 11
16853.875298726831
 21
4050.4975168130541
 31
0.0
  0
ARC
  5
10A
  8
KL
 10
17881.375298726842
 20
3191.1349623577198
 30
0.0
 40
1319.5
 50
90.0
 51
181.0639085026279
  0
ARC
  5
10B
  8
FUTO
 10
17881.375298726842
 20
3191.1349623577198
 30
0.0
 40
1339.5
 50
90.0
 51
174.75285293416121
  0
LINE
  5
10D
  8
CT
 10
18003.875298726842
 20
1281.304943438568
 30
0.0
 11
18003.875298726842
 21
4733.252360488259
 31
0.0
  0
LINE
  5
10E
  8
FUTO
 10
19162.875298726842
 20
1878.6726543460809
 30
0.0
 11
19162.875298726842
 21
2132.4840967505088
 31
0.0
  0
LINE
  5
110
  8
CT
 10
19853.875298726831
 20
2749.9184396182968
 30
0.0
 11
19853.875298726842
 21
1506.703350886449
 31
0.0
  0
LINE
  5
111
  8
FUTO
 10
19144.875298726842
 20
1723.634962357721
 30
0.0
 11
19144.875298726842
 21
2142.3308765185889
 31
0.0
  0
LINE
  5
112
  8
FUTO
 10
19153.875298726842
 20
1723.634962357721
 30
0.0
 11
19153.875298726842
 21
2137.4074866345491
 31
0.0
  0
LINE
  5
127
  8
FUTO
 10
19153.875298726842
 20
1854.2719712115979
 30
0.0
 11
19189.230637786161
 21
1818.91663215227
 31
0.0
  0
LINE
  5
128
  8
FUTO
 10
19153.875298726842
 20
1887.67265434608
 30
0.0
 11
19207.230637786161
 21
1834.317315286753
 31
0.0
  0
LINE
  5
129
  8
FUTO
 10
19153.875298726842
 20
1870.9142136376299
 30
0.0
 11
19198.230637786161
 21
1826.5588745783041
 31
0.0
  0
LINE
  5
156
  8
FUTO
 10
19207.230637786161
 20
1834.317315286753
 30
0.0
 11
19189.230637786161
 21
1818.91663215227
 31
0.0
  0
LINE
  5
157
  8
FUTO
 10
18803.875298726842
 20
1543.634962357721
 30
0.0
 11
18803.875298726842
 21
1737.8470088354311
 31
0.0
  0
LINE
  5
160
  8
FUTO
 10
17203.875298726842
 20
1543.63496235772
 30
0.0
 11
17203.875298726842
 21
1737.84700883543
 31
0.0
  0
LINE
  5
18A
  8
FUTO
 10
16853.875298726842
 20
1343.63496235772
 30
0.0
 11
16853.875298726842
 21
1523.634962357721
 31
0.0
  0
ARC
  5
19A
  8
FUTO
 10
21858.672876407501
 20
1566.710331975406
 30
0.0
 40
10.0
 50
275.0
 51
0.0
  0
LINE
  5
19B
  8
FUTO
 10
21875.672876407501
 20
1723.634962357721
 30
0.0
 11
21875.672876407501
 21
1543.63496235772
 31
0.0
  0
LINE
  5
1A1
  8
FUTO
 10
21800.672876407501
 20
1546.557969658372
 30
0.0
 11
21800.672876407501
 21
1543.63496235772
 31
0.0
  0
ARC
  5
1A2
  8
FUTO
 10
21806.172876407501
 20
1546.5579696583729
 30
0.0
 40
5.5
 50
95.000000000000057
 51
180.00000000000051
  0
LINE
  5
1A5
  8
FUTO
 10
21875.672876407501
 20
1543.63496235772
 30
0.0
 11
21800.672876407501
 21
1543.63496235772
 31
0.0
  0
LINE
  5
1A6
  8
FUTO
 10
21859.54443383497
 20
1556.7483849944881
 30
0.0
 11
21805.693519822391
 21
1552.0370404978769
 31
0.0
  0
LINE
  5
1B0
  8
CT
 10
21948.069184414078
 20
2073.6349623577112
 30
0.0
 11
21473.864827492831
 21
2073.6349623577112
 31
0.0
  0
LINE
  5
1B1
  8
SL
 10
21819.472876407501
 20
1918.63496235772
 30
0.0
 11
21689.472876407501
 21
1918.63496235772
 31
0.0
  0
LINE
  5
1B2
  8
FUTO
 10
21852.42191057001
 20
1823.63496235772
 30
0.0
 11
21571.672876407501
 21
1823.63496235772
 31
0.0
  0
ARC
  5
1B3
  8
FUTO
 10
21858.672876407501
 20
1700.559592740035
 30
0.0
 40
10.0
 50
0.0
 51
85.000000000000014
  0
LINE
  5
1B4
  8
FUTO
 10
21800.672876407501
 20
1720.7119550570669
 30
0.0
 11
21800.672876407501
 21
1723.634962357721
 31
0.0
  0
ARC
  5
1B5
  8
FUTO
 10
21806.172876407501
 20
1720.7119550570669
 30
0.0
 40
5.5
 50
180.0
 51
265.0
  0
LINE
  5
1B6
  8
FUTO
 10
21859.54443383497
 20
1710.5215397209529
 30
0.0
 11
21805.693519822391
 21
1715.232884217563
 31
0.0
  0
LINE
  5
1B7
  8
FUTO
 10
21875.672876407501
 20
1723.634962357721
 30
0.0
 11
21800.672876407501
 21
1723.634962357721
 31
0.0
  0
LINE
  5
1B8
  8
FUTO
 10
21868.672876407501
 20
1700.559592740035
 30
0.0
 11
21868.672876407501
 21
1566.710331975406
 31
0.0
  0
LINE
  5
1B9
  8
FUTO
 10
21852.42191057001
 20
1945.15667831782
 30
0.0
 11
21852.42191057001
 21
1823.63496235772
 31
0.0
  0
LINE
  5
1C7
  8
KL
 10
20151.875298726842
 20
4588.6349623577207
 30
0.0
 11
20024.979283344968
 21
3277.8146821959281
 31
0.0
  0
LINE
  5
1C8
  8
FUTO
 10
20164.708302546878
 20
4513.6349623577207
 30
0.0
 11
20044.88551331811
 21
3275.8802411083689
 31
0.0
  0
LINE
  5
1CD
  8
CT
 10
16659.291406306271
 20
3313.6349623577212
 30
0.0
 11
18203.875298726842
 21
3313.6349623577212
 31
0.0
  0
ARC
  5
1D3
  8
KL
 10
17881.375298726842
 20
3436.1349623577198
 30
0.0
 40
1074.5
 50
56.848085055909642
 51
90.0
  0
INSERT
  5
1E1
  8
FUTO
  2
右回転矢印
 10
17792.73114579777
 20
4131.8973761637089
 30
0.0
 41
-40.0
 42
40.0
 43
40.0
 50
359.00304546478287
  0
LINE
  5
1F0
  8
FUTO
 10
19153.875298726831
 20
3322.6349623577198
 30
0.0
 11
19153.875298726831
 21
4513.6349623577207
 31
0.0
  0
LINE
  5
1F1
  8
FUTO
 10
19144.875298726831
 20
3322.6349623577198
 30
0.0
 11
19144.875298726831
 21
4513.6349623577207
 31
0.0
  0
LINE
  5
1F3
  8
KL
 10
18203.875298726842
 20
3313.6349623577212
 30
0.0
 11
18766.84997988266
 21
3313.6349623577212
 31
0.0
  0
LINE
  5
1F4
  8
KL
 10
18203.875298726842
 20
3322.6349623577198
 30
0.0
 11
18755.729943636161
 21
3322.6349623577198
 31
0.0
  0
LINE
  5
1F5
  8
KL
 10
18203.875298726842
 20
3304.6349623577198
 30
0.0
 11
18777.970016129169
 21
3304.6349623577198
 31
0.0
  0
INSERT
  5
226
  8
FUTO
  2
22222F
 10
18003.875298726842
 20
3313.6349623577212
 30
0.0
 41
-1.0
  0
LINE
  5
259
  8
KL
 10
18003.875298726842
 20
3173.6349623577198
 30
0.0
 11
18353.462103204281
 21
3173.6349623577198
 31
0.0
  0
LINE
  5
25C
  8
KL
 10
18203.875298726842
 20
3304.6349623577198
 30
0.0
 11
18203.875298726842
 21
3322.6349623577198
 31
0.0
  0
LINE
  5
25E
  8
KL
 10
18003.875298726842
 20
3173.6349623577198
 30
0.0
 11
17654.288494249391
 21
3173.6349623577198
 31
0.0
  0
CIRCLE
  5
265
  8
KL
 10
18482.375298726842
 20
4356.2436515895961
 30
0.0
 40
24.5
  0
LINE
  5
26C
  8
SP
 10
21571.672876407501
 20
3833.6349623577198
 30
0.0
 11
21571.672876407501
 21
5104.7669677711046
 31
0.0
  0
LINE
  5
289
  8
FUTO
 10
18087.875298726842
 20
4513.6349623577207
 30
0.0
 11
20164.708302546878
 21
4513.6349623577216
 31
0.0
  0
LINE
  5
28A
  8
FUTO
 10
18087.875298726842
 20
4582.6349623577207
 30
0.0
 11
20155.875298726831
 21
4582.6349623577207
 31
0.0
  0
LINE
  5
28B
  8
FUTO
 10
18012.875298726842
 20
4588.6349623577207
 30
0.0
 11
20230.875298726842
 21
4588.6349623577207
 31
0.0
  0
LINE
  5
28E
  8
FUTO
 10
18012.87529872674
 20
4588.6349623581773
 30
0.0
 11
20230.87529872674
 21
4588.6349623591796
 31
0.0
  0
LINE
  5
28F
  8
FUTO
 10
18012.87529872674
 20
4588.6349623576671
 30
0.0
 11
20230.87529872674
 21
4588.6349623591796
 31
0.0
  0
INSERT
  5
291
  8
FUTO
  2
L-75-6
 10
18202.481760130398
 20
4670.0645592421943
 30
0.0
 50
180.0
  0
ARC
  5
29E
  8
FUTO
 10
17881.375298726842
 20
3436.1349623577198
 30
0.0
 40
1094.5
 50
79.976500332403376
 51
87.370994160035693
  0
LINE
  5
2A1
  8
CT
 10
18003.875298726842
 20
4684.9183693820578
 30
0.0
 11
18003.875298726842
 21
4552.9196327396157
 31
0.0
  0
LINE
  5
2A2
  8
FUTO
 10
18048.107238070272
 20
4549.2994104698018
 30
0.0
 11
18048.107238070312
 21
4643.995721698423
 31
0.0
  0
ARC
  5
2A3
  8
FUTO
 10
17881.375298726842
 20
3436.1349623577198
 30
0.0
 40
1094.5
 50
88.318441996926666
 51
90.0
  0
LINE
  5
2A5
  8
KL
 10
18091.875298726842
 20
4489.81423044645
 30
0.0
 11
18091.875298726842
 21
4588.6349623577207
 31
0.0
  0
LINE
  5
2A6
  8
FUTO
 10
18087.875298726842
 20
4513.6349623577207
 30
0.0
 11
18087.875298726842
 21
4588.6349623577207
 31
0.0
  0
LINE
  5
2A7
  8
FUTO
 10
18071.875298726842
 20
4513.929005763046
 30
0.0
 11
18084.79808069687
 21
4513.929005763046
 31
0.0
  0
LINE
  5
2A8
  8
FUTO
 10
21901.672876407501
 20
3428.6349623577212
 30
0.0
 11
21901.672876407501
 21
3233.6349623577198
 31
0.0
  0
LINE
  5
2A9
  8
FUTO
 10
22029.672876407501
 20
3428.6349623577212
 30
0.0
 11
22029.672876407501
 21
3233.6349623577198
 31
0.0
  0
LINE
  5
2AA
  8
CT
 10
21965.672876407501
 20
3477.1265808675512
 30
0.0
 11
21965.672876407501
 21
3162.4778085956809
 31
0.0
  0
LINE
  5
2AB
  8
FUTO
 10
21887.672876407501
 20
3428.6349623577212
 30
0.0
 11
21887.672876407501
 21
3198.6349623577198
 31
0.0
  0
LINE
  5
2AC
  8
FUTO
 10
22043.672876407501
 20
3428.6349623577212
 30
0.0
 11
22043.672876407501
 21
3198.6349623577198
 31
0.0
  0
LINE
  5
2AD
  8
FUTO
 10
22029.672876407501
 20
3428.6349623577212
 30
0.0
 11
22029.672876407501
 21
3233.6349623577198
 31
0.0
  0
LINE
  5
2AE
  8
FUTO
 10
21879.672876407501
 20
3393.6349623577212
 30
0.0
 11
21879.672876407501
 21
3233.6349623577198
 31
0.0
  0
LINE
  5
2AF
  8
FUTO
 10
22051.672876407501
 20
3393.6349623577212
 30
0.0
 11
22051.672876407501
 21
3233.6349623577198
 31
0.0
  0
LINE
  5
2B1
  8
SL
 10
21819.472876407501
 20
2198.6349623577112
 30
0.0
 11
21689.472876407501
 21
2198.6349623577112
 31
0.0
  0
LINE
  5
2B2
  8
SL
 10
21819.472876407501
 20
2938.6349623577212
 30
0.0
 11
21689.472876407501
 21
2938.6349623577212
 31
0.0
  0
LINE
  5
2B3
  8
FUTO
 10
21895.672876407501
 20
3183.6349623577212
 30
0.0
 11
22035.672876407501
 21
3183.6349623577212
 31
0.0
  0
LINE
  5
2B4
  8
FUTO
 10
21895.672876407501
 20
3233.6349623577198
 30
0.0
 11
22035.672876407501
 21
3233.6349623577198
 31
0.0
  0
LINE
  5
2B5
  8
FUTO
 10
21875.672876407501
 20
3173.6349623577198
 30
0.0
 11
22055.672876407501
 21
3173.6349623577198
 31
0.0
  0
LINE
  5
2B6
  8
CT
 10
21920.672876407501
 20
3260.3816198350742
 30
0.0
 11
21920.672876407501
 21
3162.4778085956809
 31
0.0
  0
LINE
  5
2B7
  8
FUTO
 10
21895.672876407501
 20
3233.6349623577198
 30
0.0
 11
21895.672876407501
 21
3173.6349623577198
 31
0.0
  0
LINE
  5
2B8
  8
FUTO
 10
21879.672876407501
 20
3233.6349623577198
 30
0.0
 11
21887.672876407501
 21
3213.6349623577212
 31
0.0
  0
LINE
  5
2B9
  8
FUTO
 10
21887.672876407501
 20
3198.6349623577198
 30
0.0
 11
21895.672876407501
 21
3198.6349623577198
 31
0.0
  0
LINE
  5
2BA
  8
FUTO
 10
21879.672876407501
 20
3366.1349623577212
 30
0.0
 11
21819.47287640749
 21
3366.1349623577212
 31
0.0
  0
LINE
  5
2BB
  8
FUTO
 10
21879.672876407501
 20
3261.1349623577198
 30
0.0
 11
21819.47287640749
 21
3261.1349623577198
 31
0.0
  0
LINE
  5
2BC
  8
CT
 10
22010.672876407501
 20
3260.3816198350742
 30
0.0
 11
22010.672876407501
 21
3162.4778085956809
 31
0.0
  0
LINE
  5
2BD
  8
FUTO
 10
22035.672876407501
 20
3233.6349623577198
 30
0.0
 11
22035.672876407501
 21
3173.6349623577198
 31
0.0
  0
LINE
  5
2BE
  8
FUTO
 10
22043.672876407501
 20
3198.6349623577198
 30
0.0
 11
22035.672876407501
 21
3198.6349623577198
 31
0.0
  0
LINE
  5
2BF
  8
FUTO
 10
22051.672876407501
 20
3233.6349623577198
 30
0.0
 11
22043.672876407501
 21
3213.6349623577212
 31
0.0
  0
LINE
  5
2C0
  8
SL
 10
21819.47287640749
 20
3688.6349623577212
 30
0.0
 11
21689.472876407501
 21
3688.6349623577212
 31
0.0
  0
LINE
  5
2C1
  8
FUTO
 10
21852.42191057001
 20
3793.6349623577212
 30
0.0
 11
21571.672876407501
 21
3793.6349623577212
 31
0.0
  0
POINT
  5
2C2
  8
DEFPOINTS
 10
21571.672876407501
 20
3793.6349623577212
 30
0.0
  0
LINE
  5
2C3
  8
FUTO
 10
21852.42191057001
 20
3793.6349623577212
 30
0.0
 11
21852.42191057001
 21
3526.3572088620022
 31
0.0
  0
LINE
  5
2C4
  8
FUTO
 10
21911.672876407501
 20
3446.6349623577212
 30
0.0
 11
22019.672876407501
 21
3446.6349623577212
 31
0.0
  0
LINE
  5
2C5
  8
FUTO
 10
21879.672876407501
 20
3393.6349623577212
 30
0.0
 11
21887.672876407501
 21
3413.6349623577212
 31
0.0
  0
LINE
  5
2C6
  8
FUTO
 10
21887.672876407501
 20
3428.6349623577212
 30
0.0
 11
21901.672876407501
 21
3428.6349623577212
 31
0.0
  0
LINE
  5
2C7
  8
FUTO
 10
21911.672876407501
 20
3446.6349623577212
 30
0.0
 11
21911.672876407501
 21
3428.6349623577212
 31
0.0
  0
LINE
  5
2C8
  8
FUTO
 10
21901.672876407501
 20
3428.6349623577212
 30
0.0
 11
21911.672876407501
 21
3428.6349623577212
 31
0.0
  0
LINE
  5
2C9
  8
FUTO
 10
22019.672876407501
 20
3446.6349623577212
 30
0.0
 11
22019.672876407501
 21
3428.6349623577212
 31
0.0
  0
LINE
  5
2CA
  8
FUTO
 10
22019.672876407501
 20
3428.6349623577212
 30
0.0
 11
22029.672876407501
 21
3428.6349623577212
 31
0.0
  0
LINE
  5
2CB
  8
FUTO
 10
22043.672876407501
 20
3428.6349623577212
 30
0.0
 11
22029.672876407501
 21
3428.6349623577212
 31
0.0
  0
LINE
  5
2CC
  8
FUTO
 10
22051.672876407501
 20
3393.6349623577212
 30
0.0
 11
22043.672876407501
 21
3413.6349623577212
 31
0.0
  0
INSERT
  5
2CD
  8
FUTO
  2
まっすぐの矢印
 10
19545.443880948511
 20
4961.759631536831
 30
0.0
 41
-40.0
 42
40.0
 43
40.0
  0
LINE
  5
2D8
  8
FUTO
 10
20195.875298726831
 20
4549.2994104698028
 30
0.0
 11
20195.875298726791
 21
4643.9957216984212
 31
0.0
  0
INSERT
  5
2D9
  8
FUTO
  2
L-75-6
 10
20041.268837323281
 20
4670.0645592421943
 30
0.0
 41
-1.0
 50
180.0
  0
LINE
  5
2DA
  8
FUTO
 10
20155.87529872674
 20
4588.6349623591441
 30
0.0
 11
20230.87529872674
 21
4588.6349623591796
 31
0.0
  0
LINE
  5
2DB
  8
FUTO
 10
20155.87529872674
 20
4588.6349623591286
 30
0.0
 11
20230.87529872674
 21
4588.6349623591796
 31
0.0
  0
LINE
  5
33E
  8
FUTO
 10
16561.875298726842
 20
7711.9424398725714
 30
0.0
 11
18012.875298726842
 21
7711.9424398725714
 31
0.0
  0
LINE
  5
33F
  8
FUTO
 10
16853.875298726842
 20
7636.9424398725714
 30
0.0
 11
20253.875298726831
 21
7636.9424398725714
 31
0.0
  0
LINE
  5
340
  8
FUTO
 10
17203.875298726842
 20
6094.9424398725714
 30
0.0
 11
20253.875298726831
 21
6094.9424398725714
 31
0.0
  0
LINE
  5
341
  8
FUTO
 10
17203.875298726842
 20
6169.9424398725732
 30
0.0
 11
20253.875298726831
 21
6169.9424398725714
 31
0.0
  0
LINE
  5
35D
  8
FUTO
 10
20253.875298726831
 20
6094.9424398725714
 30
0.0
 11
20253.875298726831
 21
6169.9424398725714
 31
0.0
  0
LINE
  5
35E
  8
SL
 10
20078.875298726842
 20
6169.9424398725714
 30
0.0
 11
20078.875298726842
 21
7073.7424398725034
 31
0.0
  0
POINT
  5
388
  8
DEFPOINTS
 10
20253.875298726831
 20
7711.9424398725714
 30
0.0
  0
LINE
  5
3AB
  8
CT
 10
18003.875298726842
 20
5645.1678786417842
 30
0.0
 11
18003.875298726842
 21
9624.5608203066186
 31
0.0
  0
LINE
  5
3AE
  8
FUTO
 10
19153.875298726842
 20
7711.9424398725714
 30
0.0
 11
19153.875298726842
 21
7636.9424398725714
 31
0.0
  0
LINE
  5
44F
  8
FUTO
 10
17203.875298726842
 20
6094.9424398725714
 30
0.0
 11
17203.875298726842
 21
7636.9424398725714
 31
0.0
  0
LINE
  5
450
  8
FUTO
 10
17278.875298726842
 20
6169.9424398725714
 30
0.0
 11
17278.875298726842
 21
7636.9424398725714
 31
0.0
  0
LINE
  5
452
  8
FUTO
 10
18728.875298726842
 20
6169.9424398725714
 30
0.0
 11
18728.875298726842
 21
7636.9424398725714
 31
0.0
  0
LINE
  5
454
  8
FUTO
 10
18803.875298726842
 20
6094.9424398725714
 30
0.0
 11
18803.875298726842
 21
7636.9424398725714
 31
0.0
  0
LINE
  5
546
  8
CT
 10
16507.968587044659
 20
8465.9424398725732
 30
0.0
 11
20421.260729196762
 21
8465.9424398725732
 31
0.0
  0
LINE
  5
547
  8
FUTO
 10
16561.875298726842
 20
9219.9424398725751
 30
0.0
 11
18012.875298726842
 21
9219.9424398725751
 31
0.0
  0
LINE
  5
548
  8
FUTO
 10
16853.875298726842
 20
9294.9424398725769
 30
0.0
 11
20230.875298726831
 21
9294.9424398725714
 31
0.0
  0
LINE
  5
568
  8
FUTO
 10
19153.875298726842
 20
9219.9424398725769
 30
0.0
 11
19153.875298726842
 21
9294.9424398725769
 31
0.0
  0
DIMENSION
  5
5CF
  8
SP
  2
*D8
 10
25570.862594786529
 20
2313.6349623577198
 30
0.0
 11
25570.862594786529
 21
3313.6349623577212
 31
0.0
 70
   128
  1
%%C<>
 13
25076.672876407501
 23
4313.6349623577207
 33
0.0
 14
25076.672876407501
 24
2313.6349623577198
 34
0.0
 50
90.0
1001
ACAD
1000
DSTYLE
1002
{
1070
   287
1070
     0
1070
   287
1070
     0
1070
    40
1040
45.0
1070
   140
1040
3.0
1070
   143
1040
0.03937
1070
   147
1040
0.5
1070
   173
1070
     1
1070
   176
1070
   256
1070
   177
1070
   256
1070
   178
1070
   256
1070
   271
1070
     4
1070
   272
1070
     4
1070
   279
1070
     0
1070
   285
1070
     0
1070
   286
1070
     0
1070
   289
1070
     0
1070
     6
1000
OPEN
1070
     7
1000
OPEN
1002
}
  0
LINE
  5
5DE
  8
FUTO
 10
24924.872876407499
 20
1723.634962357721
 30
0.0
 11
24924.872876407499
 21
3326.6349623577198
 31
0.0
  0
LINE
  5
5DF
  8
FUTO
 10
24921.672876407501
 20
1723.634962357721
 30
0.0
 11
24921.672876407501
 21
3326.6349623577198
 31
0.0
  0
LINE
  5
5E0
  8
FUTO
 10
25014.872876407499
 20
1723.634962357721
 30
0.0
 11
25014.872876407491
 21
3304.6349623577198
 31
0.0
  0
LINE
  5
5E5
  8
KL
 10
24933.87287640839
 20
2238.6349623577198
 30
0.0
 11
24933.872876408881
 21
4388.6349623577207
 31
0.0
  0
LINE
  5
5E6
  8
FUTO
 10
25076.672876407501
 20
2238.6349623577198
 30
0.0
 11
25076.672876407501
 21
4388.6349623577207
 31
0.0
  0
LINE
  5
5E7
  8
FUTO
 10
25070.672876407501
 20
2238.6349623577198
 30
0.0
 11
25070.672876407501
 21
4388.6349623577207
 31
0.0
  0
LINE
  5
5EB
  8
FUTO
 10
23418.472876407501
 20
1723.634962357721
 30
0.0
 11
23418.472876407501
 21
3224.6349623577212
 31
0.0
  0
LINE
  5
5EC
  8
FUTO
 10
23421.672876407501
 20
1723.634962357721
 30
0.0
 11
23421.672876407501
 21
3224.6349623577212
 31
0.0
  0
LINE
  5
5ED
  8
FUTO
 10
23328.472876407501
 20
1723.634962357721
 30
0.0
 11
23328.472876407501
 21
3304.6349623577198
 31
0.0
  0
LINE
  5
5EE
  8
FUTO
 10
23305.672876407501
 20
1723.634962357721
 30
0.0
 11
23305.672876407501
 21
3153.6349623577198
 31
0.0
  0
LINE
  5
5F0
  8
CT
 10
24171.672876407501
 20
1306.6471093563521
 30
0.0
 11
24171.672876407501
 21
4997.3267394282229
 31
0.0
  0
LINE
  5
603
  8
KL
 10
23421.672876407501
 20
1581.63496235772
 30
0.0
 11
24924.872876407499
 21
1581.63496235772
 31
0.0
  0
LINE
  5
604
  8
KL
 10
23421.672876407501
 20
1561.63496235772
 30
0.0
 11
23421.672876407501
 21
1723.634962357721
 31
0.0
  0
LINE
  5
605
  8
KL
 10
23418.472876407501
 20
1561.63496235772
 30
0.0
 11
23418.472876407501
 21
1723.634962357721
 31
0.0
  0
LINE
  5
606
  8
KL
 10
23418.472876407501
 20
1561.63496235772
 30
0.0
 11
23421.672876407501
 21
1561.63496235772
 31
0.0
  0
ARC
  5
614
  8
FUTO
 10
24942.672876407501
 20
1566.710331975406
 30
0.0
 40
10.0
 50
180.0
 51
265.0
  0
LINE
  5
615
  8
KL
 10
24921.672876407501
 20
1561.63496235772
 30
0.0
 11
24921.672876407501
 21
1723.634962357721
 31
0.0
  0
LINE
  5
616
  8
KL
 10
24924.872876407499
 20
1561.63496235772
 30
0.0
 11
24924.872876407499
 21
1723.634962357721
 31
0.0
  0
LINE
  5
617
  8
FUTO
 10
24925.672876407501
 20
1543.63496235772
 30
0.0
 11
24925.672876407501
 21
1723.634962357721
 31
0.0
  0
LINE
  5
618
  8
FUTO
 10
24925.672876407501
 20
1543.63496235772
 30
0.0
 11
24925.672876407501
 21
1723.634962357721
 31
0.0
  0
LINE
  5
61B
  8
FUTO
 10
24941.801318980019
 20
1556.7483849944881
 30
0.0
 11
24995.652232992608
 21
1552.0370404978769
 31
0.0
  0
LINE
  5
61C
  8
FUTO
 10
24925.672876407501
 20
1543.63496235772
 30
0.0
 11
25000.672876407501
 21
1543.63496235772
 31
0.0
  0
LINE
  5
622
  8
KL
 10
24921.672876407501
 20
1561.63496235772
 30
0.0
 11
24924.872876407499
 21
1561.63496235772
 31
0.0
  0
LINE
  5
629
  8
FUTO
 10
25000.672876407501
 20
1546.5579696583729
 30
0.0
 11
25000.672876407501
 21
1543.63496235772
 31
0.0
  0
ARC
  5
62A
  8
FUTO
 10
24995.172876407501
 20
1546.5579696583729
 30
0.0
 40
5.5
 50
0.0
 51
84.999999999999986
  0
LINE
  5
62F
  8
0
 10
24925.672876407501
 20
1723.634962357721
 30
0.0
 11
25000.672876407501
 21
1723.634962357721
 31
0.0
  0
LINE
  5
630
  8
FUTO
 10
24941.801318980019
 20
1710.5215397209529
 30
0.0
 11
24995.652232992608
 21
1715.232884217563
 31
0.0
  0
ARC
  5
631
  8
FUTO
 10
24942.672876407501
 20
1700.559592740035
 30
0.0
 40
10.0
 50
95.0
 51
180.0
  0
LINE
  5
632
  8
FUTO
 10
24932.672876407501
 20
1566.710331975406
 30
0.0
 11
24932.672876407501
 21
1700.559592740035
 31
0.0
  0
LINE
  5
633
  8
FUTO
 10
25000.672876407501
 20
1720.7119550570681
 30
0.0
 11
25000.672876407501
 21
1723.634962357721
 31
0.0
  0
ARC
  5
634
  8
FUTO
 10
24995.172876407501
 20
1720.7119550570669
 30
0.0
 40
5.5
 50
275.0
 51
0.0000000000005598
  0
LINE
  5
635
  8
KL
 10
24924.872876407499
 20
2313.6349623577198
 30
0.0
 11
25076.672876407501
 21
2313.6349623577198
 31
0.0
  0
LINE
  5
636
  8
FUTO
 10
24924.872876407499
 20
2307.6349623577198
 30
0.0
 11
25014.872876407499
 21
2307.6349623577198
 31
0.0
  0
LINE
  5
637
  8
HOSO
 10
24933.872876408412
 20
2313.6349623577312
 30
0.0
 11
24924.872876408412
 21
2313.634962357733
 31
0.0
  0
LINE
  5
638
  8
HOSO
 10
24898.753132800299
 20
2273.6349623577212
 30
0.0
 11
24956.95228890553
 21
2273.6349623577212
 31
0.0
  0
LINE
  5
639
  8
KL
 10
24924.872876407499
 20
2238.6349623577198
 30
0.0
 11
24933.87287640839
 21
2238.6349623577198
 31
0.0
  0
LINE
  5
63A
  8
FUTO
 10
25014.872876407499
 20
2307.6349623577198
 30
0.0
 11
25070.672876407501
 21
2307.6349623577198
 31
0.0
  0
LINE
  5
63B
  8
HOSO
 10
25048.634686967511
 20
2273.6349623577212
 30
0.0
 11
25106.833843072742
 21
2273.6349623577212
 31
0.0
  0
LINE
  5
63C
  8
FUTO
 10
25070.672876407501
 20
2238.6349623577198
 30
0.0
 11
25076.672876407501
 21
2238.6349623577198
 31
0.0
  0
LINE
  5
68C
  8
FUTO
 10
24924.872876407499
 20
3313.6349623577212
 30
0.0
 11
24924.872876407499
 21
4588.6349623579144
 31
0.0
  0
LINE
  5
68D
  8
FUTO
 10
24921.672876407501
 20
3313.6349623577212
 30
0.0
 11
24921.672876407501
 21
4588.6349623579172
 31
0.0
  0
LINE
  5
68E
  8
FUTO
 10
24999.872876407499
 20
3304.6349623577198
 30
0.0
 11
24999.872876407499
 21
4588.6349623578644
 31
0.0
  0
LINE
  5
68F
  8
FUTO
 10
23421.672876407501
 20
3322.6349623577198
 30
0.0
 11
23421.672876407501
 21
4588.6349623577207
 31
0.0
  0
LINE
  5
690
  8
FUTO
 10
23418.472876407501
 20
3322.6349623577198
 30
0.0
 11
23418.472876407501
 21
4588.6349623577207
 31
0.0
  0
LINE
  5
691
  8
FUTO
 10
23343.472876407501
 20
3304.6349623577198
 30
0.0
 11
23343.472876407501
 21
4588.6349623577207
 31
0.0
  0
LINE
  5
69A
  8
FUTO
 10
23343.472876407501
 20
3322.6349623577198
 30
0.0
 11
24999.872876407499
 21
3322.6349623577198
 31
0.0
  0
LINE
  5
69B
  8
FUTO
 10
23328.472876407501
 20
3304.6349623577198
 30
0.0
 11
25014.872876407499
 21
3304.6349623577198
 31
0.0
  0
LINE
  5
6A4
  8
FUTO
 10
23150.672876407501
 20
3218.6349623577198
 30
0.0
 11
23150.672876407501
 21
3448.6349623577198
 31
0.0
  0
LINE
  5
6A5
  8
FUTO
 10
23137.672876407501
 20
3218.6349623577198
 30
0.0
 11
23137.672876407501
 21
3448.6349623577198
 31
0.0
  0
LINE
  5
6A6
  8
FUTO
 10
23113.672876407501
 20
3224.6349623577189
 30
0.0
 11
23113.672876407501
 21
3402.6349623577221
 31
0.0
  0
LINE
  5
6A7
  8
CT
 10
23215.672876407501
 20
3083.3432532832212
 30
0.0
 11
23215.672876407501
 21
3542.9686641195158
 31
0.0
  0
LINE
  5
6A8
  8
FUTO
 10
23280.672876407501
 20
3218.6349623577198
 30
0.0
 11
23280.672876407501
 21
3448.6349623577198
 31
0.0
  0
LINE
  5
6A9
  8
FUTO
 10
23317.672876407501
 20
3224.6349623577189
 30
0.0
 11
23317.672876407501
 21
3402.6349623577221
 31
0.0
  0
LINE
  5
6AA
  8
FUTO
 10
23293.672876407501
 20
3218.6349623577198
 30
0.0
 11
23293.672876407501
 21
3448.6349623577198
 31
0.0
  0
LINE
  5
6AB
  8
FUTO
 10
23280.672876407501
 20
3218.6349623577198
 30
0.0
 11
23280.672876407501
 21
3448.6349623577198
 31
0.0
  0
LINE
  5
6AF
  8
FUTO
 10
23135.672876407501
 20
3163.6349623577198
 30
0.0
 11
23295.672876407501
 21
3163.6349623577198
 31
0.0
  0
LINE
  5
6B0
  8
FUTO
 10
23135.672876407501
 20
3218.6349623577198
 30
0.0
 11
23295.672876407501
 21
3218.6349623577198
 31
0.0
  0
LINE
  5
6B1
  8
CT
 10
23165.672876407501
 20
3125.2702274246199
 30
0.0
 11
23165.672876407501
 21
3247.3285436883662
 31
0.0
  0
LINE
  5
6B2
  8
FUTO
 10
23135.672876407501
 20
3153.6349623577198
 30
0.0
 11
23135.672876407501
 21
3218.6349623577198
 31
0.0
  0
LINE
  5
6B3
  8
FUTO
 10
23113.672876407501
 20
3224.6349623577212
 30
0.0
 11
23135.672876407501
 21
3200.8016290243859
 31
0.0
  0
LINE
  5
6B6
  8
KL
 10
23317.672876407501
 20
3258.6349623577198
 30
0.0
 11
23411.316916732161
 21
3258.6349623577198
 31
0.0
  0
LINE
  5
6B7
  8
FUTO
 10
23421.672876407501
 20
3242.6349623577212
 30
0.0
 11
23421.672876407501
 21
3326.6349623577198
 31
0.0
  0
LINE
  5
6B8
  8
FUTO
 10
23418.472876407501
 20
3242.6349623577212
 30
0.0
 11
23418.472876407501
 21
3326.6349623577198
 31
0.0
  0
LINE
  5
6BA
  8
CT
 10
23265.672876407501
 20
3123.341540711649
 30
0.0
 11
23265.672876407501
 21
3247.3285436883662
 31
0.0
  0
LINE
  5
6BB
  8
FUTO
 10
23295.672876407501
 20
3153.6349623577198
 30
0.0
 11
23295.672876407501
 21
3218.6349623577198
 31
0.0
  0
LINE
  5
6BC
  8
FUTO
 10
23317.672876407501
 20
3224.6349623577212
 30
0.0
 11
23295.672876407501
 21
3200.8016290243859
 31
0.0
  0
LINE
  5
6C2
  8
FUTO
 10
23155.672876407501
 20
3464.6349623577198
 30
0.0
 11
23275.672876407501
 21
3464.6349623577198
 31
0.0
  0
LINE
  5
6C3
  8
FUTO
 10
23155.672876407501
 20
3448.6349623577198
 30
0.0
 11
23155.672876407501
 21
3464.6349623577198
 31
0.0
  0
LINE
  5
6C4
  8
FUTO
 10
23113.672876407501
 20
3402.6349623577212
 30
0.0
 11
23137.672876407501
 21
3428.6349623577212
 31
0.0
  0
LINE
  5
6C5
  8
FUTO
 10
23137.672876407501
 20
3448.6349623577198
 30
0.0
 11
23155.672876407501
 21
3448.6349623577198
 31
0.0
  0
LINE
  5
6C6
  8
KL
 10
23317.672876407501
 20
3368.6349623577198
 30
0.0
 11
23413.75995359935
 21
3368.6349623577198
 31
0.0
  0
LINE
  5
6C7
  8
FUTO
 10
23293.672876407501
 20
3448.6349623577198
 30
0.0
 11
23275.672876407501
 21
3448.6349623577198
 31
0.0
  0
LINE
  5
6C8
  8
FUTO
 10
23275.672876407501
 20
3448.6349623577198
 30
0.0
 11
23275.672876407501
 21
3464.6349623577198
 31
0.0
  0
LINE
  5
6C9
  8
FUTO
 10
23317.672876407501
 20
3402.6349623577212
 30
0.0
 11
23293.672876407501
 21
3428.6349623577212
 31
0.0
  0
LINE
  5
6E2
  8
KL
 10
24924.872876407499
 20
4313.6349623577207
 30
0.0
 11
25075.672876407501
 21
4313.6349623577207
 31
0.0
  0
LINE
  5
6E3
  8
KL
 10
24924.872876407499
 20
4319.6349623577198
 30
0.0
 11
24999.872876407499
 21
4319.6349623577198
 31
0.0
  0
LINE
  5
6E4
  8
HOSO
 10
24933.872876408859
 20
4313.6349623577298
 30
0.0
 11
24924.87287640887
 21
4313.6349623577344
 31
0.0
  0
LINE
  5
6E5
  8
HOSO
 10
24891.066502563081
 20
4353.6349623577207
 30
0.0
 11
24961.693629700902
 21
4353.6349623577207
 31
0.0
  0
LINE
  5
6E6
  8
FUTO
 10
24999.872876407499
 20
4319.6349623577198
 30
0.0
 11
25069.672876407501
 21
4319.6349623577198
 31
0.0
  0
LINE
  5
6E7
  8
HOSO
 10
25039.62694896516
 20
4353.6349623577207
 30
0.0
 11
25110.254076102981
 21
4353.6349623577207
 31
0.0
  0
LINE
  5
706
  8
KL
 10
24924.872876407499
 20
4388.6349623577207
 30
0.0
 11
24933.872876408881
 21
4388.6349623577207
 31
0.0
  0
LINE
  5
707
  8
KL
 10
24924.872876407491
 20
4386.6349623577198
 30
0.0
 11
24924.872876407509
 21
4476.6349623577198
 31
0.0
  0
LINE
  5
708
  8
FUTO
 10
25070.672876407501
 20
4388.6349623577207
 30
0.0
 11
25076.672876407501
 21
4388.6349623577207
 31
0.0
  0
INSERT
  5
71C
  8
FUTO
  2
まっすぐの矢印
 10
25243.16916416353
 20
3864.559213497912
 30
0.0
 41
40.0
 42
40.0
 43
40.0
 50
90.0
  0
DIMENSION
  5
A68
  8
SP
  2
*D5
 10
18003.875298726842
 20
846.01423534383491
 30
0.0
 11
19128.875298726831
 21
936.01423534383503
 31
0.0
 70
     0
 13
20253.875298726831
 23
1513.63496235772
 33
0.0
 14
18003.875298726842
 24
1513.63496235772
 34
0.0
 50
180.0
1001
ACAD
1000
DSTYLE
1002
{
1070
   140
1040
3.0
1070
    40
1040
45.0
1070
   173
1070
     1
1070
   147
1040
0.5
1070
     7
1000
_OPEN
1070
     6
1000
_OPEN
1002
}
  0
DIMENSION
  5
A75
  8
SP
  2
*D6
 10
16853.875298726842
 20
846.01423534383491
 30
0.0
 11
17428.875298726842
 21
936.01423534383503
 31
0.0
 70
     0
 13
18003.875298726842
 23
1513.63496235772
 33
0.0
 14
16853.875298726842
 24
1513.63496235772
 34
0.0
 50
180.0
1001
ACAD
1000
DSTYLE
1002
{
1070
   140
1040
3.0
1070
    40
1040
45.0
1070
   173
1070
     1
1070
   147
1040
0.5
1070
     7
1000
_OPEN
1070
     6
1000
_OPEN
1002
}
  0
LINE
  5
AB0
  8
SL
 10
23055.241142181399
 20
3460.83806985205
 30
0.0
 11
22125.062369303181
 21
3460.83806985205
 31
0.0
  0
POINT
  5
CAC
  8
DEFPOINTS
  6
BYBLOCK
 62
     0
 10
17203.875298726842
 20
6094.9424398725714
 30
0.0
  0
POINT
  5
CB7
  8
DEFPOINTS
  6
BYBLOCK
 62
     0
 10
17203.875298726842
 20
6094.9424398725714
 30
0.0
  0
LINE
  5
178C
  8
FUTO
 10
19968.875298726831
 20
1723.63496235771
 30
0.0
 11
20203.875298726831
 21
1723.63496235771
 31
0.0
  0
LINE
  5
178D
  8
FUTO
 10
20193.875298726831
 20
1793.63496235771
 30
0.0
 11
19968.875298726831
 21
1793.63496235771
 31
0.0
  0
LINE
  5
178F
  8
FUTO
 10
19503.875298726831
 20
1723.63496235771
 30
0.0
 11
19738.875298726831
 21
1723.63496235771
 31
0.0
  0
LINE
  5
1790
  8
FUTO
 10
19738.875298726831
 20
1793.63496235771
 30
0.0
 11
19513.875298726831
 21
1793.63496235771
 31
0.0
  0
LINE
  5
1791
  8
FUTO
 10
19513.875298726831
 20
1793.63496235771
 30
0.0
 11
19503.875298726831
 21
1723.63496235771
 31
0.0
  0
LINE
  5
1792
  8
FUTO
 10
19968.875298726831
 20
1733.63496235771
 30
0.0
 11
19738.875298726831
 21
1733.63496235771
 31
0.0
  0
LINE
  5
1793
  8
FUTO
 10
19968.875298726831
 20
1783.63496235771
 30
0.0
 11
19738.875298726831
 21
1783.63496235771
 31
0.0
  0
LINE
  5
1794
  8
FUTO
 10
19738.875298726831
 20
1793.63496235771
 30
0.0
 11
19738.875298726831
 21
1783.63496235771
 31
0.0
  0
LINE
  5
1795
  8
FUTO
 10
19738.875298726831
 20
1733.63496235771
 30
0.0
 11
19738.875298726831
 21
1723.63496235771
 31
0.0
  0
LINE
  5
1796
  8
FUTO
 10
19968.875298726831
 20
1793.63496235771
 30
0.0
 11
19968.875298726831
 21
1783.63496235771
 31
0.0
  0
LINE
  5
1797
  8
FUTO
 10
19968.875298726831
 20
1733.63496235771
 30
0.0
 11
19968.875298726831
 21
1723.63496235771
 31
0.0
  0
LINE
  5
1798
  8
FUTO
 10
20096.875298726831
 20
1793.63496235771
 30
0.0
 11
19996.875298726831
 21
1793.63496235771
 31
0.0
  0
LINE
  5
1799
  8
FUTO
 10
20193.875298726831
 20
1793.63496235771
 30
0.0
 11
20203.875298726831
 21
1723.63496235771
 31
0.0
  0
LINE
  5
179B
  8
CT
 10
19955.581713351101
 20
2523.6349623577089
 30
0.0
 11
20109.878650870789
 21
2523.6349623577089
 31
0.0
  0
LINE
  5
179C
  8
FUTO
 10
19643.875298726831
 20
2663.6349623577098
 30
0.0
 11
20033.875298726831
 21
2663.6349623577098
 31
0.0
  0
LINE
  5
179D
  8
FUTO
 10
19643.875298726831
 20
2398.6349623577089
 30
0.0
 11
20033.875298726831
 21
2398.6349623577089
 31
0.0
  0
LINE
  5
179E
  8
FUTO
 10
19698.396166451232
 20
1805.4442849902371
 30
0.0
 11
20009.354431002452
 21
1805.444284990238
 31
0.0
  0
LINE
  5
17A0
  8
CT
 10
19516.41633453708
 20
2073.6349623577112
 30
0.0
 11
20197.152520919859
 21
2073.6349623577112
 31
0.0
  0
ARC
  5
17A1
  8
FUTO
 10
19853.875298726831
 20
2073.6349623577112
 30
0.0
 40
310.0
 50
180.0
 51
239.897691931688
  0
LINE
  5
17A3
  8
FUTO
 10
19683.875298726831
 20
1814.405334421396
 30
0.0
 11
19683.875298726831
 21
1793.6349623577089
 31
0.0
  0
LINE
  5
17A4
  8
CT
 10
19625.375298726831
 20
1838.804410847355
 30
0.0
 11
19625.375298726831
 21
1747.1788477750999
 31
0.0
  0
LINE
  5
17A5
  8
FUTO
 10
19573.875298726831
 20
1940.593615401179
 30
0.0
 11
19573.875298726842
 21
1793.63496235771
 31
0.0
  0
LINE
  5
17A6
  8
FUTO
 10
19573.875298726842
 20
1793.63496235771
 30
0.0
 11
19683.875298726842
 21
1793.63496235771
 31
0.0
  0
LINE
  5
17A7
  8
FUTO
 10
19573.875298726831
 20
1823.6349623577089
 30
0.0
 11
19670.572270928598
 21
1823.6349623577089
 31
0.0
  0
LINE
  5
17A8
  8
FUTO
 10
19623.875298726831
 20
2643.6349623577098
 30
0.0
 11
19623.875298726831
 21
2418.6349623577089
 31
0.0
  0
ARC
  5
17A9
  8
FUTO
 10
19643.875298726831
 20
2418.6349623577089
 30
0.0
 40
20.0
 50
180.0
 51
270.0
  0
ARC
  5
17AA
  8
FUTO
 10
19643.875298726831
 20
2643.6349623577098
 30
0.0
 40
20.0
 50
90.0
 51
180.0
  0
LINE
  5
17AB
  8
FUTO
 10
20133.875298726831
 20
1940.593615401164
 30
0.0
 11
20133.875298726831
 21
1793.6349623577089
 31
0.0
  0
LINE
  5
17AC
  8
FUTO
 10
20023.875298726842
 20
1814.405334421396
 30
0.0
 11
20023.875298726842
 21
1793.6349623577089
 31
0.0
  0
LINE
  5
17AD
  8
CT
 10
20082.375298726831
 20
1838.804410847355
 30
0.0
 11
20082.375298726831
 21
1751.3436460965661
 31
0.0
  0
LINE
  5
17AE
  8
FUTO
 10
20023.875298726842
 20
1793.6349623577089
 30
0.0
 11
20133.875298726831
 21
1793.6349623577089
 31
0.0
  0
LINE
  5
17AF
  8
FUTO
 10
20037.178326525071
 20
1823.6349623577089
 30
0.0
 11
20133.875298726831
 21
1823.6349623577089
 31
0.0
  0
LINE
  5
17B0
  8
FUTO
 10
20053.875298726831
 20
2643.6349623577098
 30
0.0
 11
20053.875298726831
 21
2418.6349623577089
 31
0.0
  0
ARC
  5
17B1
  8
FUTO
 10
20033.875298726831
 20
2418.6349623577089
 30
0.0
 40
20.0
 50
270.0
 51
0.000000000000007
  0
ARC
  5
17B2
  8
FUTO
 10
20033.875298726831
 20
2643.6349623577098
 30
0.0
 40
20.0
 50
0.000000000000007
 51
90.0
  0
CIRCLE
  5
17B5
  8
SL
 10
19853.875298726831
 20
2073.6349623577112
 30
0.0
 40
177.5
  0
CIRCLE
  5
17B6
  8
SL
 10
18003.875298726842
 20
3313.6349623577212
 30
0.0
 40
315.0
  0
ARC
  5
17B9
  8
FUTO
 10
18003.875298726842
 20
3313.6349623577212
 30
0.0
 40
480.0
 50
51.015026685292547
 51
241.31943023765371
  0
ARC
  5
17BA
  8
FUTO
 10
19853.875298726831
 20
2073.6349623577112
 30
0.0
 40
280.0
 50
241.31943023765371
 51
51.015026685292611
  0
ARC
  5
17BE
  8
FUTO
 10
18150.875298726842
 20
3166.6349623577198
 30
0.0
 40
1609.0
 50
174.75808534532601
 51
235.5244037493224
  0
DIMENSION
  5
1B16
  8
SP
  2
*D9
 10
24171.672876407501
 20
840.55754208947474
 30
0.0
 11
22986.172876407501
 21
930.55754208947474
 31
0.0
 70
     0
 13
21800.672876407501
 23
1513.63496235772
 33
0.0
 14
24171.672876407501
 24
1513.63496235772
 34
0.0
1001
ACAD
1000
DSTYLE
1002
{
1070
   287
1070
     3
1070
    40
1040
45.0
1070
   140
1040
3.0
1070
   147
1040
0.5
1070
   173
1070
     1
1070
   279
1070
     0
1070
     6
1000
OPEN
1070
     7
1000
OPEN
1002
}
  0
DIMENSION
  5
1B22
  8
SP
  2
*D10
 10
25000.672876407501
 20
840.55754208947474
 30
0.0
 11
24586.172876407501
 21
930.55754208947474
 31
0.0
 70
     0
 13
24171.672876407501
 23
1513.63496235772
 33
0.0
 14
25000.672876407501
 24
1513.63496235772
 34
0.0
1001
ACAD
1000
DSTYLE
1002
{
1070
   287
1070
     4
1070
    40
1040
45.0
1070
    75
1070
     1
1070
   140
1040
3.0
1070
   147
1040
0.5
1070
   173
1070
     1
1070
   279
1070
     1
1070
     6
1000
OPEN
1070
     7
1000
OPEN
1002
}
  0
DIMENSION
  5
1B2F
  8
SP
  2
*D11
 10
21800.672876407501
 20
548.43524183657792
 30
0.0
 11
23400.672876407501
 21
638.43524183657792
 31
0.0
 70
     0
 13
25000.672876407501
 23
840.55754208947474
 33
0.0
 14
21800.672876407501
 24
840.55754208947474
 34
0.0
1001
ACAD
1000
DSTYLE
1002
{
1070
   287
1070
     3
1070
    40
1040
45.0
1070
   140
1040
3.0
1070
   147
1040
0.5
1070
   173
1070
     1
1070
   279
1070
     0
1070
     6
1000
OPEN
1070
     7
1000
OPEN
1002
}
  0
ARC
  5
1BB6
  8
FUTO
 10
23348.172876407501
 20
1546.5579696583729
 30
0.0
 40
5.5
 50
95.000000000000014
 51
180.0
  0
LINE
  5
1BB7
  8
FUTO
 10
23342.672876407501
 20
1546.5579696583729
 30
0.0
 11
23342.672876407501
 21
1543.63496235772
 31
0.0
  0
LINE
  5
1BB9
  8
KL
 10
23421.672876407501
 20
1561.63496235772
 30
0.0
 11
23418.472876407501
 21
1561.63496235772
 31
0.0
  0
LINE
  5
1BBD
  8
FUTO
 10
23417.672876407501
 20
1543.63496235772
 30
0.0
 11
23342.672876407501
 21
1543.63496235772
 31
0.0
  0
LINE
  5
1BBE
  8
FUTO
 10
23401.54443383497
 20
1556.7483849944881
 30
0.0
 11
23347.693519822391
 21
1552.0370404978769
 31
0.0
  0
ARC
  5
1BBF
  8
FUTO
 10
23400.672876407501
 20
1566.710331975406
 30
0.0
 40
10.0
 50
275.0
 51
0.0
  0
LINE
  5
1BC0
  8
FUTO
 10
23342.672876407501
 20
1720.7119550570681
 30
0.0
 11
23342.672876407501
 21
1723.634962357721
 31
0.0
  0
LINE
  5
1BC1
  8
FUTO
 10
23417.672876407501
 20
1543.63496235772
 30
0.0
 11
23417.672876407501
 21
1723.634962357721
 31
0.0
  0
LINE
  5
1BC2
  8
FUTO
 10
23417.672876407501
 20
1543.63496235772
 30
0.0
 11
23417.672876407501
 21
1723.634962357721
 31
0.0
  0
LINE
  5
1BC3
  8
KL
 10
23418.472876407501
 20
1561.63496235772
 30
0.0
 11
23418.472876407501
 21
1723.634962357721
 31
0.0
  0
LINE
  5
1BC4
  8
KL
 10
23421.672876407501
 20
1561.63496235772
 30
0.0
 11
23421.672876407501
 21
1723.634962357721
 31
0.0
  0
ARC
  5
1BC5
  8
FUTO
 10
23348.172876407501
 20
1720.7119550570669
 30
0.0
 40
5.5
 50
179.9999999999994
 51
264.99999999999989
  0
LINE
  5
1BC6
  8
FUTO
 10
23410.672876407501
 20
1566.710331975406
 30
0.0
 11
23410.672876407501
 21
1700.559592740035
 31
0.0
  0
ARC
  5
1BC7
  8
FUTO
 10
23400.672876407501
 20
1700.559592740035
 30
0.0
 40
10.0
 50
0.0
 51
85.0
  0
LINE
  5
1BC8
  8
FUTO
 10
23401.54443383497
 20
1710.5215397209529
 30
0.0
 11
23347.693519822391
 21
1715.232884217563
 31
0.0
  0
LINE
  5
1BC9
  8
0
 10
23417.672876407501
 20
1723.634962357721
 30
0.0
 11
23342.672876407501
 21
1723.634962357721
 31
0.0
  0
LINE
  5
1BCA
  8
FUTO
 10
23417.672876407501
 20
1555.63496235772
 30
0.0
 11
24925.672876407501
 21
1555.63496235772
 31
0.0
  0
LINE
  5
1BCB
  8
FUTO
 10
23417.672876407501
 20
1711.63496235772
 30
0.0
 11
24925.672876407501
 21
1711.63496235772
 31
0.0
  0
DIMENSION
  5
1BF2
  8
SP
  2
*D12
 10
24171.672876407501
 20
5064.7669677711056
 30
0.0
 11
22871.672876407501
 21
5154.7669677711056
 31
0.0
 70
     0
 13
21571.672876407501
 23
5064.7669677711056
 33
0.0
 14
24171.672876407501
 24
5064.7669677711056
 34
0.0
1001
ACAD
1000
DSTYLE
1002
{
1070
   287
1070
     3
1070
    40
1040
45.0
1070
   140
1040
3.0
1070
   147
1040
0.5
1070
   173
1070
     1
1070
   279
1070
     0
1070
   341
1005
24
1070
     6
1000
OPEN
1070
     7
1000
OPEN
1002
}
  0
LINE
  5
1C21
  8
SL
 10
22125.062369303181
 20
3460.83806985205
 30
0.0
 11
22125.062369303181
 21
3153.6349623577198
 31
0.0
  0
LINE
  5
1C22
  8
SL
 10
23055.241142181399
 20
3460.83806985205
 30
0.0
 11
23055.241142181399
 21
3153.6349623577198
 31
0.0
  0
DIMENSION
  5
1C23
  8
SP
  2
*D13
 10
20230.875298726842
 20
5052.7408126531373
 30
0.0
 11
19117.375298726842
 21
5142.7408126531373
 31
0.0
 70
     0
 13
18003.875298726842
 23
4656.9765281869159
 33
0.0
 14
20230.875298726842
 24
4588.6349623591796
 34
0.0
1001
ACAD
1000
DSTYLE
1002
{
1070
   287
1070
     3
1070
    40
1040
45.0
1070
   140
1040
3.0
1070
   147
1040
0.5
1070
   173
1070
     1
1070
   279
1070
     0
1070
   341
1005
24
1070
     6
1000
OPEN
1070
     7
1000
OPEN
1002
}
  0
LINE
  5
1C5C
  8
FUTO
 10
17914.875298726842
 20
7407.9424398725741
 30
0.0
 11
17888.875298726842
 21
7431.9424398725732
 31
0.0
  0
LINE
  5
1C5D
  8
FUTO
 10
18092.875298726842
 20
7407.9424398725741
 30
0.0
 11
18116.70863206017
 21
7429.9424398725751
 31
0.0
  0
LINE
  5
1C61
  8
FUTO
 10
17523.875298726842
 20
5865.9424398725769
 30
0.0
 11
20133.875298726831
 21
5865.9424398725732
 31
0.0
  0
LINE
  5
1C62
  8
SL
 10
17628.875298726842
 20
5983.7424398725761
 30
0.0
 11
20031.375298726842
 21
5983.7424398725716
 31
0.0
  0
LINE
  5
1C63
  8
SL
 10
17628.875298726842
 20
6113.7424398725743
 30
0.0
 11
20031.375298726842
 21
6113.7424398725752
 31
0.0
  0
LINE
  5
1C6B
  8
FUTO
 10
18061.375298726842
 20
7407.9424398725741
 30
0.0
 11
18061.375298726842
 21
6345.9424398725732
 31
0.0
  0
LINE
  5
1C6C
  8
FUTO
 10
17946.375298726842
 20
7407.9424398725741
 30
0.0
 11
17946.375298726842
 21
6345.9424398725732
 31
0.0
  0
LINE
  5
1C6D
  8
FUTO
 10
17523.875298726842
 20
6146.6914740350821
 30
0.0
 11
20133.875298726831
 21
6146.6914740350812
 31
0.0
  0
LINE
  5
1C6E
  8
FUTO
 10
17923.875298726842
 20
6345.9424398725732
 30
0.0
 11
18083.875298726842
 21
6345.9424398725732
 31
0.0
  0
LINE
  5
1C6F
  8
FUTO
 10
17923.875298726842
 20
6173.9424398725732
 30
0.0
 11
18083.875298726842
 21
6173.9424398725732
 31
0.0
  0
LINE
  5
1C70
  8
FUTO
 10
17888.875298726842
 20
6323.9424398725732
 30
0.0
 11
18083.875298726842
 21
6323.9424398725732
 31
0.0
  0
LINE
  5
1C71
  8
FUTO
 10
17888.875298726842
 20
6337.9424398725732
 30
0.0
 11
18118.875298726842
 21
6337.9424398725732
 31
0.0
  0
LINE
  5
1C72
  8
FUTO
 10
17888.875298726842
 20
6181.9424398725741
 30
0.0
 11
18118.875298726842
 21
6181.9424398725741
 31
0.0
  0
LINE
  5
1C73
  8
CT
 10
17840.383680217012
 20
6259.9424398725732
 30
0.0
 11
18155.032452488878
 21
6259.9424398725732
 31
0.0
  0
LINE
  5
1C74
  8
FUTO
 10
17888.875298726842
 20
6323.9424398725732
 30
0.0
 11
18118.875298726842
 21
6323.9424398725732
 31
0.0
  0
LINE
  5
1C75
  8
FUTO
 10
17888.875298726842
 20
6195.9424398725741
 30
0.0
 11
18118.875298726842
 21
6195.9424398725741
 31
0.0
  0
LINE
  5
1C76
  8
SL
 10
18378.875298726842
 20
6113.7424398725743
 30
0.0
 11
18378.875298726842
 21
5983.7424398725752
 31
0.0
  0
LINE
  5
1C7A
  8
FUTO
 10
18056.375298726842
 20
6173.9424398725732
 30
0.0
 11
18056.375298726842
 21
6113.7424398725734
 31
0.0
  0
LINE
  5
1C7B
  8
FUTO
 10
18118.875298726842
 20
6181.9424398725741
 30
0.0
 11
18118.875298726842
 21
6189.9424398725741
 31
0.0
  0
LINE
  5
1C7C
  8
FUTO
 10
18083.875298726842
 20
6173.9424398725732
 30
0.0
 11
18103.875298726842
 21
6181.9424398725741
 31
0.0
  0
LINE
  5
1C7F
  8
FUTO
 10
18083.875298726842
 20
6345.9424398725732
 30
0.0
 11
18103.875298726842
 21
6337.9424398725732
 31
0.0
  0
LINE
  5
1C80
  8
FUTO
 10
18118.875298726842
 20
6337.9424398725732
 30
0.0
 11
18118.875298726842
 21
6329.9424398725732
 31
0.0
  0
LINE
  5
1C83
  8
SL
 10
17628.875298726842
 20
6113.7424398725734
 30
0.0
 11
17628.875298726842
 21
5983.7424398725761
 31
0.0
  0
LINE
  5
1C84
  8
FUTO
 10
17870.875298726842
 20
6205.9424398725732
 30
0.0
 11
17870.875298726842
 21
6313.9424398725732
 31
0.0
  0
LINE
  5
1C85
  8
FUTO
 10
17888.875298726842
 20
6195.9424398725741
 30
0.0
 11
17888.875298726842
 21
6205.9424398725732
 31
0.0
  0
LINE
  5
1C86
  8
FUTO
 10
17870.875298726842
 20
6205.9424398725732
 30
0.0
 11
17888.875298726842
 21
6205.9424398725732
 31
0.0
  0
LINE
  5
1C87
  8
FUTO
 10
17888.875298726842
 20
6181.9424398725741
 30
0.0
 11
17888.875298726842
 21
6195.9424398725741
 31
0.0
  0
LINE
  5
1C88
  8
FUTO
 10
17923.875298726842
 20
6173.9424398725732
 30
0.0
 11
17903.875298726842
 21
6181.9424398725741
 31
0.0
  0
LINE
  5
1C89
  8
FUTO
 10
17951.375298726842
 20
6173.9424398725732
 30
0.0
 11
17951.375298726842
 21
6113.7424398725734
 31
0.0
  0
LINE
  5
1C8A
  8
FUTO
 10
17923.875298726842
 20
6345.9424398725732
 30
0.0
 11
17903.875298726842
 21
6337.9424398725732
 31
0.0
  0
LINE
  5
1C8B
  8
FUTO
 10
17888.875298726842
 20
6337.9424398725732
 30
0.0
 11
17888.875298726842
 21
6323.9424398725732
 31
0.0
  0
LINE
  5
1C8C
  8
FUTO
 10
17888.875298726842
 20
6313.9424398725732
 30
0.0
 11
17888.875298726842
 21
6323.9424398725732
 31
0.0
  0
LINE
  5
1C8D
  8
FUTO
 10
17870.875298726842
 20
6313.9424398725732
 30
0.0
 11
17888.875298726842
 21
6313.9424398725732
 31
0.0
  0
LINE
  5
1C8E
  8
FUTO
 10
17523.875298726842
 20
6146.6914740350821
 30
0.0
 11
17523.875298726842
 21
5865.9424398725769
 31
0.0
  0
POINT
  5
1C8F
  8
DEFPOINTS
 10
17523.875298726842
 20
5865.9424398725769
 30
0.0
  0
LINE
  5
1C93
  8
FUTO
 10
18092.875298726842
 20
7407.9424398725741
 30
0.0
 11
17914.875298726842
 21
7407.9424398725751
 31
0.0
  0
LINE
  5
1C9A
  8
FUTO
 10
16928.875298726842
 20
9364.9424398725732
 30
0.0
 11
19078.875298726842
 21
9364.9424398725732
 31
0.0
  0
LINE
  5
1C9B
  8
FUTO
 10
16928.875298726842
 20
9370.9424398725732
 30
0.0
 11
19078.875298726842
 21
9370.9424398725769
 31
0.0
  0
LINE
  5
1C9C
  8
KL
 10
16928.875298726842
 20
9228.1424398734653
 30
0.0
 11
19078.875298726842
 21
9228.1424398739546
 31
0.0
  0
LINE
  5
1CA1
  8
HOSO
 10
16963.875298726842
 20
9193.0226962653742
 30
0.0
 11
16963.875298726842
 21
9251.2218523706015
 31
0.0
  0
LINE
  5
1CA2
  8
FUTO
 10
16997.875298726842
 20
9219.1424398725758
 30
0.0
 11
16997.875298726842
 21
9309.1424398725721
 31
0.0
  0
LINE
  5
1CA3
  8
KL
 10
17003.875298726842
 20
9219.1424398725758
 30
0.0
 11
17003.875298726842
 21
9370.9424398725732
 31
0.0
  0
LINE
  5
1CA4
  8
KL
 10
16928.875298726842
 20
9219.1424398725758
 30
0.0
 11
16928.875298726842
 21
9228.1424398734634
 31
0.0
  0
LINE
  5
1CA5
  8
HOSO
 10
17003.875298726849
 20
9228.1424398734853
 30
0.0
 11
17003.875298726849
 21
9219.1424398734835
 31
0.0
  0
LINE
  5
1CA6
  8
FUTO
 10
16928.875298726842
 20
9364.9424398725769
 30
0.0
 11
16928.875298726842
 21
9370.9424398725732
 31
0.0
  0
LINE
  5
1CA7
  8
HOSO
 10
16963.875298726842
 20
9342.9042504325898
 30
0.0
 11
16963.875298726842
 21
9401.1034065378171
 31
0.0
  0
LINE
  5
1CA8
  8
FUTO
 10
16997.875298726842
 20
9309.1424398725721
 30
0.0
 11
16997.875298726842
 21
9364.9424398725732
 31
0.0
  0
LINE
  5
1CBE
  8
FUTO
 10
18098.875298726842
 20
7574.9424398725732
 30
0.0
 11
17868.875298726842
 21
7574.9424398725732
 31
0.0
  0
LINE
  5
1CBF
  8
FUTO
 10
18138.875298726842
 20
7587.9424398725732
 30
0.0
 11
17868.875298726842
 21
7587.9424398725732
 31
0.0
  0
LINE
  5
1CC0
  8
FUTO
 10
18092.875298726842
 20
7611.9424398725741
 30
0.0
 11
17914.875298726842
 21
7611.9424398725741
 31
0.0
  0
LINE
  5
1CC1
  8
FUTO
 10
18138.875298726842
 20
7574.9424398725751
 30
0.0
 11
17868.875298726842
 21
7574.9424398725732
 31
0.0
  0
LINE
  5
1CC2
  8
CT
 10
18234.167007801341
 20
7509.9424398725732
 30
0.0
 11
17774.541596965038
 21
7509.9424398725732
 31
0.0
  0
LINE
  5
1CC3
  8
FUTO
 10
18138.875298726842
 20
7431.9424398725751
 30
0.0
 11
17868.875298726842
 21
7431.9424398725732
 31
0.0
  0
LINE
  5
1CC4
  8
FUTO
 10
18138.875298726842
 20
7444.9424398725751
 30
0.0
 11
17868.875298726842
 21
7444.9424398725741
 31
0.0
  0
LINE
  5
1CC5
  8
KL
 10
18058.875298726842
 20
7611.9424398725741
 30
0.0
 11
18058.875298726842
 21
7705.586480197233
 31
0.0
  0
LINE
  5
1CCB
  8
FUTO
 10
18092.875298726842
 20
7611.9424398725751
 30
0.0
 11
18116.70863206017
 21
7589.9424398725723
 31
0.0
  0
LINE
  5
1CCE
  8
KL
 10
17948.875298726842
 20
7611.9424398725741
 30
0.0
 11
17948.875298726842
 21
7708.0295170644222
 31
0.0
  0
LINE
  5
1CCF
  8
FUTO
 10
17852.875298726842
 20
7449.9424398725732
 30
0.0
 11
17852.875298726842
 21
7569.9424398725741
 31
0.0
  0
LINE
  5
1CD0
  8
FUTO
 10
17868.875298726842
 20
7431.9424398725751
 30
0.0
 11
17868.875298726842
 21
7449.9424398725732
 31
0.0
  0
LINE
  5
1CD1
  8
FUTO
 10
17868.875298726842
 20
7449.9424398725732
 30
0.0
 11
17852.875298726842
 21
7449.9424398725732
 31
0.0
  0
LINE
  5
1CD2
  8
FUTO
 10
17914.875298726842
 20
7611.9424398725751
 30
0.0
 11
17888.875298726842
 21
7587.9424398725732
 31
0.0
  0
LINE
  5
1CD3
  8
FUTO
 10
17868.875298726842
 20
7569.9424398725741
 30
0.0
 11
17852.875298726842
 21
7569.9424398725741
 31
0.0
  0
LINE
  5
1CD4
  8
FUTO
 10
17868.875298726842
 20
7587.9424398725732
 30
0.0
 11
17868.875298726842
 21
7569.9424398725741
 31
0.0
  0
LINE
  5
1CE0
  8
HOSO
 10
19043.875298726842
 20
9185.3360660281523
 30
0.0
 11
19043.875298726842
 21
9255.9631931659733
 31
0.0
  0
LINE
  5
1CE1
  8
KL
 10
19009.875298726842
 20
9219.1424398725758
 30
0.0
 11
19009.875298726842
 21
9294.142439872574
 31
0.0
  0
LINE
  5
1CE2
  8
KL
 10
19003.875298726842
 20
9219.1424398725758
 30
0.0
 11
19003.875298726842
 21
9370.9424398725732
 31
0.0
  0
LINE
  5
1CE4
  8
KL
 10
19078.875298726842
 20
9219.1424398725758
 30
0.0
 11
19078.875298726842
 21
9228.1424398739546
 31
0.0
  0
LINE
  5
1CE5
  8
HOSO
 10
19003.875298726849
 20
9228.14243987394
 30
0.0
 11
19003.875298726849
 21
9219.1424398739418
 31
0.0
  0
LINE
  5
1CE6
  8
FUTO
 10
19078.875298726842
 20
9364.9424398725732
 30
0.0
 11
19078.875298726842
 21
9370.9424398725769
 31
0.0
  0
LINE
  5
1CE7
  8
HOSO
 10
19043.875298726842
 20
9334.8965124302322
 30
0.0
 11
19043.875298726842
 21
9405.5236395680531
 31
0.0
  0
LINE
  5
1CE8
  8
FUTO
 10
19009.875298726842
 20
9294.142439872574
 30
0.0
 11
19009.875298726842
 21
9364.9424398725732
 31
0.0
  0
INSERT
  5
1CE9
  8
FUTO
  2
まっすぐの矢印
 10
18554.799549867032
 20
9537.4387276286016
 30
0.0
 41
-40.0
 42
40.0
 43
40.0
 50
180.0
  0
LINE
  5
1D14
  8
FUTO
 10
18136.875298726842
 20
6205.9424398725732
 30
0.0
 11
18136.875298726842
 21
6313.9424398725732
 31
0.0
  0
LINE
  5
1D15
  8
FUTO
 10
18118.875298726842
 20
6181.9424398725741
 30
0.0
 11
18118.875298726842
 21
6195.9424398725741
 31
0.0
  0
LINE
  5
1D16
  8
FUTO
 10
18136.875298726842
 20
6205.9424398725732
 30
0.0
 11
18118.875298726842
 21
6205.9424398725732
 31
0.0
  0
LINE
  5
1D17
  8
FUTO
 10
18118.875298726842
 20
6195.9424398725741
 30
0.0
 11
18118.875298726842
 21
6205.9424398725732
 31
0.0
  0
LINE
  5
1D18
  8
FUTO
 10
18136.875298726842
 20
6313.9424398725732
 30
0.0
 11
18118.875298726842
 21
6313.9424398725732
 31
0.0
  0
LINE
  5
1D19
  8
FUTO
 10
18118.875298726842
 20
6313.9424398725732
 30
0.0
 11
18118.875298726842
 21
6323.9424398725732
 31
0.0
  0
LINE
  5
1D1A
  8
FUTO
 10
18118.875298726842
 20
6337.9424398725732
 30
0.0
 11
18118.875298726842
 21
6323.9424398725732
 31
0.0
  0
LINE
  5
1D1B
  8
FUTO
 10
18154.875298726842
 20
7449.9424398725732
 30
0.0
 11
18154.875298726842
 21
7569.9424398725741
 31
0.0
  0
LINE
  5
1D1C
  8
FUTO
 10
18138.875298726842
 20
7449.9424398725732
 30
0.0
 11
18154.875298726842
 21
7449.9424398725732
 31
0.0
  0
LINE
  5
1D1D
  8
FUTO
 10
18138.875298726842
 20
7431.9424398725751
 30
0.0
 11
18138.875298726842
 21
7449.9424398725732
 31
0.0
  0
LINE
  5
1D1E
  8
FUTO
 10
18138.875298726842
 20
7587.9424398725732
 30
0.0
 11
18138.875298726842
 21
7569.9424398725741
 31
0.0
  0
LINE
  5
1D1F
  8
FUTO
 10
18138.875298726842
 20
7569.9424398725741
 30
0.0
 11
18154.875298726842
 21
7569.9424398725741
 31
0.0
  0
LINE
  5
1D20
  8
FUTO
 10
18353.462103204281
 20
6163.9424398725696
 30
0.0
 11
18353.462103204281
 21
7636.9424398725714
 31
0.0
  0
LINE
  5
1D21
  8
FUTO
 10
17654.288494249391
 20
6163.9424398725696
 30
0.0
 11
17654.288494249391
 21
7636.9424398725714
 31
0.0
  0
LINE
  5
1D22
  8
FUTO
 10
20155.87529872658
 20
7711.9424398725723
 30
0.0
 11
20155.87529872555
 21
9219.9424398725769
 31
0.0
  0
LINE
  5
1D23
  8
FUTO
 10
20155.87529872618
 20
7711.9424398725723
 30
0.0
 11
20155.875298725488
 21
9219.9424398725769
 31
0.0
  0
LINE
  5
1D24
  8
FUTO
 10
20155.875298726842
 20
7711.9424398725723
 30
0.0
 11
20155.875298726842
 21
9219.9424398725769
 31
0.0
  0
LINE
  5
1D26
  8
FUTO
 10
20230.875298726842
 20
7636.9424398725714
 30
0.0
 11
20230.875298726831
 21
9294.9424398725714
 31
0.0
  0
LINE
  5
1D35
  8
CT
 10
19853.875298726831
 20
7233.6562522331287
 30
0.0
 11
19853.875298726842
 21
5870.441163501283
 31
0.0
  0
LINE
  5
1D3A
  8
SL
 10
20031.375298726842
 20
6113.7424398725761
 30
0.0
 11
20031.375298726842
 21
5983.7424398725716
 31
0.0
  0
LINE
  5
1D3B
  8
FUTO
 10
20133.875298726831
 20
6146.6914740350812
 30
0.0
 11
20133.875298726831
 21
5865.9424398725723
 31
0.0
  0
LINE
  5
2121
  8
CT
 10
21892.972876407501
 20
2073.6349623577112
 30
0.0
 11
21525.152876407501
 21
2073.6349623577112
 31
0.0
  0
LINE
  5
2132
  8
FUTO
 10
22153.190876407501
 20
1798.6349623577089
 30
0.0
 11
22081.619876407502
 21
1798.6349623577089
 31
0.0
  0
LINE
  5
2306
  8
FUTO
 10
20141.375298727089
 20
6818.7424398724834
 30
0.0
 11
20141.375298727151
 21
7013.7424398724834
 31
0.0
  0
LINE
  5
2307
  8
FUTO
 10
19583.875298727158
 20
7032.0033098726544
 30
0.0
 11
19583.875298727089
 21
6818.7424398726562
 31
0.0
  0
LINE
  5
2308
  8
FUTO
 10
20141.375298727151
 20
7013.7424398724834
 30
0.0
 11
19583.875298727151
 21
7013.7424398726571
 31
0.0
  0
LINE
  5
2309
  8
FUTO
 10
19623.875298727158
 20
7073.7424398726434
 30
0.0
 11
20083.875298727169
 21
7073.7424398725007
 31
0.0
  0
LINE
  5
230A
  8
FUTO
 10
19583.875298727158
 20
7032.0033098726544
 30
0.0
 11
19623.875298727158
 21
7073.7424398726434
 31
0.0
  0
LINE
  5
230B
  8
FUTO
 10
20141.375298727151
 20
7013.7424398724834
 30
0.0
 11
20083.875298727169
 21
7073.7424398725007
 31
0.0
  0
LINE
  5
230C
  8
CT
 10
19543.560439073899
 20
6553.2424398726698
 30
0.0
 11
20186.635772822869
 21
6553.2424398724706
 31
0.0
  0
LINE
  5
230D
  8
FUTO
 10
20141.375298727089
 20
6818.7424398724834
 30
0.0
 11
19583.875298727089
 21
6818.7424398726562
 31
0.0
  0
LINE
  5
230E
  8
FUTO
 10
20141.375298726922
 20
6270.2424398724834
 30
0.0
 11
20089.309276866152
 21
6270.2424398724997
 31
0.0
  0
LINE
  5
230F
  8
FUTO
 10
20141.375298726889
 20
6170.2424398724843
 30
0.0
 11
19856.875298726889
 21
6170.2424398725707
 31
0.0
  0
LINE
  5
2310
  8
CT
 10
19549.745233759892
 20
6762.7424398726671
 30
0.0
 11
19513.0596937599
 21
6762.742439872678
 31
0.0
  0
LINE
  5
2311
  8
CT
 10
19549.745233759772
 20
6343.7424398726662
 30
0.0
 11
19513.059693759769
 21
6343.742439872678
 31
0.0
  0
LINE
  5
2312
  8
FUTO
 10
19811.375298726831
 20
5983.7424398725871
 30
0.0
 11
19811.375298726889
 21
6153.7424398725871
 31
0.0
  0
LINE
  5
2313
  8
FUTO
 10
19896.375298726889
 20
6153.7424398725589
 30
0.0
 11
19896.375298726831
 21
5983.7424398725598
 31
0.0
  0
LINE
  5
2314
  8
FUTO
 10
19901.375298726831
 20
5983.742439872558
 30
0.0
 11
19901.375298726871
 21
6123.742439872557
 31
0.0
  0
LINE
  5
2315
  8
FUTO
 10
19803.875298726889
 20
6153.7424398725871
 30
0.0
 11
19903.875298726889
 21
6153.7424398725589
 31
0.0
  0
LINE
  5
2316
  8
FUTO
 10
19768.375298726889
 20
6163.742439872598
 30
0.0
 11
19939.375298726889
 21
6163.742439872547
 31
0.0
  0
LINE
  5
2317
  8
FUTO
 10
19766.375298726889
 20
6170.5908148726003
 30
0.0
 11
19766.375298726889
 21
6165.742439872598
 31
0.0
  0
ARC
  5
2318
  8
FUTO
 10
19768.375298726889
 20
6165.742439872598
 30
0.0
 40
2.0
 50
180.0
 51
270.0
  0
LINE
  5
2319
  8
FUTO
 10
19803.875298726889
 20
6153.7424398725871
 30
0.0
 11
19803.875298726889
 21
6163.7424398725871
 31
0.0
  0
LINE
  5
231A
  8
FUTO
 10
19903.875298726889
 20
6153.7424398725589
 30
0.0
 11
19903.875298726889
 21
6163.742439872557
 31
0.0
  0
LINE
  5
231B
  8
FUTO
 10
19896.375298726871
 20
6123.7424398725598
 30
0.0
 11
19901.375298726871
 21
6123.742439872557
 31
0.0
  0
LINE
  5
231C
  8
FUTO
 10
19941.375298726889
 20
6170.242439872547
 30
0.0
 11
19941.375298726889
 21
6165.742439872547
 31
0.0
  0
ARC
  5
231D
  8
FUTO
 10
19939.375298726889
 20
6165.742439872547
 30
0.0
 40
2.0
 50
270.0
 51
0.000000000000007
  0
LINE
  5
231E
  8
FUTO
 10
19811.375298726831
 20
5983.7424398725871
 30
0.0
 11
19901.375298726831
 21
5983.742439872558
 31
0.0
  0
LINE
  5
231F
  8
FUTO
 10
20139.689375727012
 20
6553.2424398724861
 30
0.0
 11
20139.689375726932
 21
6297.7424398724861
 31
0.0
  0
LINE
  5
2320
  8
FUTO
 10
20089.309276866221
 20
6512.7424398725007
 30
0.0
 11
19691.392258667471
 21
6512.7424398726234
 31
0.0
  0
LINE
  5
2321
  8
FUTO
 10
20089.309276866221
 20
6494.3424458724958
 30
0.0
 11
19691.392258667471
 21
6494.3424458726204
 31
0.0
  0
LINE
  5
2322
  8
CT
 10
19906.411168216058
 20
6367.7424398725561
 30
0.0
 11
19763.266362216062
 21
6367.7424398726016
 31
0.0
  0
LINE
  5
2323
  8
FUTO
 10
20143.875298727089
 20
6808.7424398724834
 30
0.0
 11
20143.875298726991
 21
6497.7424398724834
 31
0.0
  0
LINE
  5
2324
  8
FUTO
 10
20139.689375727012
 20
6553.2424398724861
 30
0.0
 11
20139.689375727088
 21
6808.7424398724852
 31
0.0
  0
LINE
  5
2325
  8
FUTO
 10
20139.689375727088
 20
6808.7424398724852
 30
0.0
 11
20133.237513727101
 21
6818.742439872487
 31
0.0
  0
LINE
  5
2326
  8
FUTO
 10
20143.875298727089
 20
6808.7424398724834
 30
0.0
 11
20137.208632727092
 21
6818.7424398724861
 31
0.0
  0
LINE
  5
2327
  8
FUTO
 10
20143.875298726991
 20
6497.7424398724834
 30
0.0
 11
20139.68937572699
 21
6493.5565168724852
 31
0.0
  0
LINE
  5
2328
  8
FUTO
 10
19691.39225866738
 20
6222.7424398726234
 30
0.0
 11
20089.309276866141
 21
6222.7424398725016
 31
0.0
  0
LINE
  5
2329
  8
FUTO
 10
19691.392258667391
 20
6241.1424638726194
 30
0.0
 11
20089.309276866141
 21
6241.1424638724957
 31
0.0
  0
LINE
  5
232A
  8
FUTO
 10
20141.375298726889
 20
6170.2424398724843
 30
0.0
 11
20141.375298726922
 21
6270.2424398724834
 31
0.0
  0
LINE
  5
232B
  8
FUTO
 10
20136.39034672693
 20
6286.5150118724841
 30
0.0
 11
20125.541965726919
 21
6270.2424398724888
 31
0.0
  0
LINE
  5
232C
  8
FUTO
 10
20139.689375726932
 20
6297.7424398724861
 30
0.0
 11
20121.94675572692
 21
6270.2424398724888
 31
0.0
  0
LINE
  5
232D
  8
FUTO
 10
20130.103903726929
 20
6282.8855318724873
 30
0.0
 11
20138.51631472693
 21
6287.7424398724852
 31
0.0
  0
LINE
  5
232E
  8
FUTO
 10
19691.39225866738
 20
6222.7424398726198
 30
0.0
 11
19691.392258667471
 21
6512.7424398726234
 31
0.0
  0
LINE
  5
232F
  8
FUTO
 10
20089.309276866141
 20
6222.7424398724997
 30
0.0
 11
20089.309276866221
 21
6512.7424398725007
 31
0.0
  0
LINE
  5
2330
  8
FUTO
 10
19566.375298726922
 20
6270.2424398726616
 30
0.0
 11
19691.392258667391
 21
6270.2424398726198
 31
0.0
  0
LINE
  5
2331
  8
FUTO
 10
19566.375298726889
 20
6170.2424398726616
 30
0.0
 11
19850.875298726889
 21
6170.2424398725734
 31
0.0
  0
LINE
  5
2332
  8
FUTO
 10
19566.375298726889
 20
6170.2424398726616
 30
0.0
 11
19566.375298726922
 21
6270.2424398726616
 31
0.0
  0
LINE
  5
2333
  8
FUTO
 10
19568.06122172701
 20
6553.2424398726598
 30
0.0
 11
19568.06122172709
 21
6808.7424398726589
 31
0.0
  0
LINE
  5
2334
  8
FUTO
 10
19563.875298727089
 20
6808.7424398726607
 30
0.0
 11
19563.875298726991
 21
6497.7424398726607
 31
0.0
  0
LINE
  5
2335
  8
FUTO
 10
19568.06122172701
 20
6553.2424398726598
 30
0.0
 11
19568.06122172693
 21
6297.7424398726598
 31
0.0
  0
LINE
  5
2336
  8
FUTO
 10
19568.06122172693
 20
6297.7424398726598
 30
0.0
 11
19585.80384172692
 21
6270.2424398726571
 31
0.0
  0
LINE
  5
2337
  8
FUTO
 10
19577.646693726922
 20
6282.8855318726582
 30
0.0
 11
19569.23428272692
 21
6287.7424398726589
 31
0.0
  0
LINE
  5
2338
  8
FUTO
 10
19571.360250726932
 20
6286.5150118726624
 30
0.0
 11
19582.20863172692
 21
6270.2424398726571
 31
0.0
  0
LINE
  5
2339
  8
FUTO
 10
19563.875298727089
 20
6808.7424398726607
 30
0.0
 11
19570.541964727101
 21
6818.7424398726607
 31
0.0
  0
LINE
  5
233A
  8
FUTO
 10
19568.06122172709
 20
6808.7424398726589
 30
0.0
 11
19574.513083727092
 21
6818.7424398726607
 31
0.0
  0
LINE
  5
233B
  8
FUTO
 10
19503.875298726951
 20
6249.1635063341091
 30
0.0
 11
19503.875298727129
 21
6857.3213734112514
 31
0.0
  0
LINE
  5
233C
  8
FUTO
 10
19503.875298726951
 20
6249.1635063341091
 30
0.0
 11
19566.375298726922
 21
6249.1635063340927
 31
0.0
  0
LINE
  5
233D
  8
FUTO
 10
19503.875298727129
 20
6857.3213734112514
 30
0.0
 11
19583.875298727111
 21
6857.3213734112232
 31
0.0
  0
LINE
  5
233E
  8
FUTO
 10
20203.875298726882
 20
6249.1635063338954
 30
0.0
 11
20203.875298727071
 21
6857.3213734110359
 31
0.0
  0
LINE
  5
233F
  8
FUTO
 10
20203.87529872706
 20
6857.3213734110359
 30
0.0
 11
20123.875298727111
 21
6857.3213734110568
 31
0.0
  0
LINE
  5
2340
  8
FUTO
 10
20203.875298726882
 20
6249.1635063338954
 30
0.0
 11
20141.375298726922
 21
6249.1635063339136
 31
0.0
  0
LINE
  5
2370
  8
FUTO
 10
21869.472876407479
 20
1971.1044793576721
 30
0.0
 11
21869.472876407461
 21
1886.251665357672
 31
0.0
  0
LINE
  5
2371
  8
FUTO
 10
21953.47287640749
 20
2073.6349623576539
 30
0.0
 11
21953.472876407439
 21
1815.6349623576541
 31
0.0
  0
LINE
  5
2372
  8
FUTO
 10
21953.47287640749
 20
2076.6349623576539
 30
0.0
 11
21953.472876407439
 21
1843.6349623576541
 31
0.0
  0
LINE
  5
2373
  8
FUTO
 10
22118.472876407461
 20
1919.6410673576199
 30
0.0
 11
22118.472876407439
 21
1843.63496235762
 31
0.0
  0
LINE
  5
2374
  8
FUTO
 10
22399.472876407461
 20
1923.106999357557
 30
0.0
 11
22399.472876407439
 21
1843.6349623575579
 31
0.0
  0
LINE
  5
2375
  8
FUTO
 10
22524.472876407559
 20
2361.134962357532
 30
0.0
 11
22524.472876407439
 21
1803.634962357532
 31
0.0
  0
LINE
  5
2376
  8
CT
 10
22258.972876407432
 20
1774.6848463575891
 30
0.0
 11
22258.97287640757
 21
2406.395436453447
 31
0.0
  0
LINE
  5
2377
  8
FUTO
 10
22779.472876407439
 20
1843.6349623574761
 30
0.0
 11
22779.472876407541
 21
2303.6349623574761
 31
0.0
  0
LINE
  5
2378
  8
FUTO
 10
22719.472876407559
 20
2361.1349623574888
 30
0.0
 11
22719.472876407439
 21
1803.6349623574879
 31
0.0
  0
LINE
  5
2379
  8
FUTO
 10
22514.472876407432
 20
1803.586022357533
 30
0.0
 11
22503.972876407439
 21
1803.5860223575351
 31
0.0
  0
LINE
  5
237C
  8
FUTO
 10
22133.972876407439
 20
1793.6349623576159
 30
0.0
 11
22562.972876407439
 21
1793.6349623575229
 31
0.0
  0
ARC
  5
237D
  8
FUTO
 10
21901.807577407439
 20
1846.4423973576629
 30
0.0
 40
10.0
 50
183.0000000000033
 51
225.0000000001105
  0
LINE
  5
237E
  8
FUTO
 10
21891.82128140744
 20
1845.9190383576661
 30
0.0
 11
21889.707538407449
 21
1886.251665357667
 31
0.0
  0
LINE
  5
237F
  8
FUTO
 10
21869.472876407461
 20
1886.251665357672
 30
0.0
 11
21923.472876407461
 21
1886.251665357659
 31
0.0
  0
LINE
  5
2380
  8
FUTO
 10
22098.472876407439
 20
1823.634962357623
 30
0.0
 11
22018.472876407439
 21
1823.6349623576391
 31
0.0
  0
LINE
  5
2381
  8
FUTO
 10
22013.972876407439
 20
1793.6349623576409
 30
0.0
 11
22133.972876407439
 21
1793.6349623576159
 31
0.0
  0
LINE
  5
2383
  8
FUTO
 10
21953.472876407461
 20
1887.0562213576529
 30
0.0
 11
22118.472876407461
 21
1887.0562213576179
 31
0.0
  0
LINE
  5
2384
  8
FUTO
 10
22133.972876407439
 20
1793.6349623576159
 30
0.0
 11
21954.972876407439
 21
1793.6349623576541
 31
0.0
  0
ARC
  5
238A
  8
FUTO
 10
21921.673046407439
 20
1826.5769283576619
 30
0.0
 40
10.0
 50
225.0000000001105
 51
267.99999999999602
  0
LINE
  5
238B
  8
FUTO
 10
21963.472876407439
 20
1843.6349623576521
 30
0.0
 11
21963.472876407439
 21
1841.770530357652
 31
0.0
  0
LINE
  5
238C
  8
FUTO
 10
21963.472876407439
 20
1843.6349623576521
 30
0.0
 11
21953.472876407439
 21
1843.6349623576541
 31
0.0
  0
ARC
  5
238D
  8
FUTO
 10
22018.972876407439
 20
1818.6349623576391
 30
0.0
 40
5.0
 50
90.0
 51
180.0
  0
LINE
  5
238E
  8
FUTO
 10
22003.472876407432
 20
1803.5860223576419
 30
0.0
 11
22013.972876407439
 21
1803.586022357641
 31
0.0
  0
LINE
  5
238F
  8
FUTO
 10
21973.472876407432
 20
1807.4061313576481
 30
0.0
 11
22003.472876407432
 21
1803.5860223576419
 31
0.0
  0
LINE
  5
2390
  8
FUTO
 10
21963.472876407439
 20
1841.770530357652
 30
0.0
 11
21973.472876407432
 21
1807.4061313576481
 31
0.0
  0
LINE
  5
2391
  8
FUTO
 10
21921.324051407439
 20
1816.5830203576611
 30
0.0
 11
21953.472876407439
 21
1815.6349623576541
 31
0.0
  0
LINE
  5
2393
  8
FUTO
 10
22013.972876407439
 20
1818.6349623576409
 30
0.0
 11
22013.972876407439
 21
1793.6349623576409
 31
0.0
  0
LINE
  5
2394
  8
FUTO
 10
21954.972876407439
 20
1793.6349623576541
 30
0.0
 11
21954.97287640741
 21
1730.3951932256939
 31
0.0
  0
ARC
  5
2398
  8
FUTO
 10
22098.472876407439
 20
1843.634962357623
 30
0.0
 40
20.0
 50
270.0
 51
0.0
  0
LINE
  5
2399
  8
FUTO
 10
22138.972876407432
 20
1803.6349623576141
 30
0.0
 11
22258.972876407432
 21
1803.6349623575879
 31
0.0
  0
ARC
  5
239B
  8
FUTO
 10
22138.972876407432
 20
1798.6349623576141
 30
0.0
 40
5.0
 50
90.0
 51
180.0
  0
LINE
  5
239C
  8
FUTO
 10
22049.472876407439
 20
1827.3953343576311
 30
0.0
 11
22049.472876407432
 21
1790.7097943576321
 31
0.0
  0
ARC
  5
239D
  8
FUTO
 10
22419.472876407439
 20
1843.6349623575541
 30
0.0
 40
20.0
 50
180.0
 51
270.0
  0
ARC
  5
239E
  8
FUTO
 10
22498.972876407439
 20
1818.6349623575361
 30
0.0
 40
5.0
 50
0.0
 51
90.0
  0
LINE
  5
239F
  8
FUTO
 10
22419.472876407439
 20
1823.6349623575541
 30
0.0
 11
22499.472876407439
 21
1823.6349623575361
 31
0.0
  0
LINE
  5
23A0
  8
FUTO
 10
22383.972876407439
 20
1798.6349623575611
 30
0.0
 11
22383.972876407439
 21
1793.6349623575611
 31
0.0
  0
LINE
  5
23A1
  8
FUTO
 10
22504.472876407432
 20
1793.6349623575361
 30
0.0
 11
22383.972876407439
 21
1793.6349623575611
 31
0.0
  0
LINE
  5
23A2
  8
FUTO
 10
22503.972876407439
 20
1818.6349623575361
 30
0.0
 11
22503.972876407439
 21
1793.6349623575361
 31
0.0
  0
LINE
  5
23A3
  8
FUTO
 10
22468.472876407439
 20
1827.395334357542
 30
0.0
 11
22468.472876407432
 21
1790.7097943575429
 31
0.0
  0
ARC
  5
23A4
  8
FUTO
 10
22378.972876407432
 20
1798.6349623575629
 30
0.0
 40
5.0
 50
0.0
 51
90.0
  0
LINE
  5
23A5
  8
FUTO
 10
22378.972876407432
 20
1803.6349623575629
 30
0.0
 11
22258.972876407432
 21
1803.6349623575879
 31
0.0
  0
LINE
  5
23A6
  8
FUTO
 10
21914.601978407431
 20
1819.5058613576609
 30
0.0
 11
21894.736509407441
 21
1839.3713293576659
 31
0.0
  0
LINE
  5
23A7
  8
FUTO
 10
22737.733746407441
 20
1803.6349623574849
 30
0.0
 11
22524.472876407439
 21
1803.634962357532
 31
0.0
  0
LINE
  5
23A8
  8
FUTO
 10
22562.972876407439
 20
1793.6349623575229
 30
0.0
 11
22562.97287640741
 21
1730.451263010651
 31
0.0
  0
LINE
  5
23A9
  8
FUTO
 10
22737.733746407441
 20
1803.6349623574849
 30
0.0
 11
22779.472876407439
 21
1843.6349623574761
 31
0.0
  0
LINE
  5
23AA
  8
FUTO
 10
22524.472876407439
 20
1804.8593923575299
 30
0.0
 11
22514.472876407432
 21
1803.586022357533
 31
0.0
  0
LINE
  5
23AB
  8
FUTO
 10
22258.972876407559
 20
2359.449039357587
 30
0.0
 11
22514.472876407559
 21
2359.4490393575329
 31
0.0
  0
LINE
  5
23AC
  8
FUTO
 10
22514.472876407559
 20
2363.6349623575338
 30
0.0
 11
22203.472876407559
 21
2363.6349623576011
 31
0.0
  0
CIRCLE
  5
23AE
  8
FUTO
 10
22073.472876407581
 20
2498.6349623576289
 30
0.0
 40
59.0
  0
LINE
  5
23AF
  8
FUTO
 10
21946.872900407561
 20
2390.2349113576552
 30
0.0
 11
21946.872900407601
 21
2585.1063213576549
 31
0.0
  0
LINE
  5
23B0
  8
FUTO
 10
21928.47287640757
 20
2409.5768953576589
 30
0.0
 11
21928.47287640761
 21
2594.300215357659
 31
0.0
  0
LINE
  5
23B1
  8
CT
 10
22073.472876407599
 20
2568.2166123576289
 30
0.0
 11
22073.47287640757
 21
2425.0718063576278
 31
0.0
  0
LINE
  5
23B2
  8
FUTO
 10
22200.0728824076
 20
2585.1063213576008
 30
0.0
 11
22200.07288240756
 21
2390.2349533575998
 31
0.0
  0
LINE
  5
23B3
  8
FUTO
 10
22218.47287640761
 20
2594.3002153575972
 30
0.0
 11
22218.47287640757
 21
2409.576895357598
 31
0.0
  0
LINE
  5
23B4
  8
FUTO
 10
21875.972876407559
 20
2361.1349623576698
 30
0.0
 11
21875.97287640749
 21
2076.6349623576698
 31
0.0
  0
LINE
  5
23B5
  8
FUTO
 10
21975.972876407559
 20
2361.134962357648
 30
0.0
 11
21975.97287640749
 21
2076.634962357648
 31
0.0
  0
LINE
  5
23B6
  8
CT
 10
21476.767864200989
 20
2073.6349623577762
 30
0.0
 11
22838.144233347521
 21
2073.634962357361
 31
0.0
  0
LINE
  5
23B7
  8
KL
 10
21875.97287640749
 20
2076.6349623576698
 30
0.0
 11
21975.97287640749
 21
2076.634962357648
 31
0.0
  0
LINE
  5
23B8
  8
FUTO
 10
21953.472876407472
 20
1964.0334113576539
 30
0.0
 11
21869.472876407472
 21
1964.0334113576721
 31
0.0
  0
LINE
  5
23B9
  8
FUTO
 10
21689.47287640749
 20
2031.1349623577109
 30
0.0
 11
21689.472876407512
 21
2121.1349623577098
 31
0.0
  0
ARC
  5
23BA
  8
FUTO
 10
21871.472876407519
 20
2159.1349623576721
 30
0.0
 40
2.0
 50
90.0
 51
180.0
  0
LINE
  5
23BB
  8
FUTO
 10
21875.972876407512
 20
2161.1349623576698
 30
0.0
 11
21871.472876407519
 21
2161.1349623576721
 31
0.0
  0
LINE
  5
23BC
  8
FUTO
 10
21829.472876407512
 20
2116.1349623576812
 30
0.0
 11
21829.472876407512
 21
2121.1349623576812
 31
0.0
  0
LINE
  5
23BD
  8
FUTO
 10
21859.472876407512
 20
2123.6349623576739
 30
0.0
 11
21869.472876407512
 21
2123.6349623576721
 31
0.0
  0
LINE
  5
23BE
  8
FUTO
 10
21859.472876407479
 20
2023.6349623576741
 30
0.0
 11
21869.472876407479
 21
2023.6349623576721
 31
0.0
  0
ARC
  5
23BF
  8
FUTO
 10
21871.472876407479
 20
1988.1349623576721
 30
0.0
 40
2.0
 50
180.0
 51
270.0
  0
LINE
  5
23C0
  8
FUTO
 10
21876.321251407469
 20
1986.13496235767
 30
0.0
 11
21871.472876407479
 21
1986.1349623576721
 31
0.0
  0
LINE
  5
23C1
  8
FUTO
 10
21874.472876407472
 20
1971.10447935767
 30
0.0
 11
21869.472876407479
 21
1971.1044793576721
 31
0.0
  0
LINE
  5
23C3
  8
FUTO
 10
21869.472876407479
 20
1988.1349623576721
 30
0.0
 11
21869.472876407519
 21
2159.1349623576721
 31
0.0
  0
LINE
  5
23C4
  8
FUTO
 10
21859.472876407479
 20
2023.6349623576741
 30
0.0
 11
21859.472876407512
 21
2123.6349623576739
 31
0.0
  0
LINE
  5
23C6
  8
FUTO
 10
21689.472876407512
 20
2121.1349623577098
 30
0.0
 11
21829.472876407512
 21
2121.1349623576812
 31
0.0
  0
LINE
  5
23C7
  8
FUTO
 10
21859.472876407512
 20
2116.1349623576739
 30
0.0
 11
21689.472876407512
 21
2116.1349623577098
 31
0.0
  0
LINE
  5
23C8
  8
FUTO
 10
21689.47287640749
 20
2031.1349623577109
 30
0.0
 11
21859.47287640749
 21
2031.1349623576741
 31
0.0
  0
ARC
  5
23CD
  8
FUTO
 10
22404.472876407461
 20
1923.106999357557
 30
0.0
 40
5.0
 50
90.0
 51
180.0
  0
LINE
  5
23CE
  8
FUTO
 10
21875.972876407559
 20
2361.1349623576698
 30
0.0
 11
21975.972876407559
 21
2361.134962357648
 31
0.0
  0
LINE
  5
23CF
  8
FUTO
 10
22188.47287640757
 20
2408.6349623576029
 30
0.0
 11
21958.47287640757
 21
2408.6349623576521
 31
0.0
  0
LINE
  5
23D0
  8
CT
 10
21979.991835407582
 20
2498.6349623576489
 30
0.0
 11
22159.915203407581
 21
2498.6349623576102
 31
0.0
  0
LINE
  5
23D1
  8
FUTO
 10
22188.472876407559
 20
2378.6349623576029
 30
0.0
 11
21958.472876407559
 21
2378.6349623576521
 31
0.0
  0
LINE
  5
23D2
  8
FUTO
 10
22258.972876407559
 20
2359.449039357587
 30
0.0
 11
22003.472876407559
 21
2359.4490393576421
 31
0.0
  0
LINE
  5
23D3
  8
FUTO
 10
21993.472876407559
 20
2368.6349623576448
 30
0.0
 11
22153.472876407559
 21
2368.6349623576102
 31
0.0
  0
LINE
  5
23D4
  8
FUTO
 10
21946.872900407561
 20
2409.5768953576562
 30
0.0
 11
21928.47287640757
 21
2409.5768953576589
 31
0.0
  0
ARC
  5
23D5
  8
FUTO
 10
21958.472754407561
 20
2420.2348503576509
 30
0.0
 40
11.599888
 50
179.99945399997631
 51
270.0006100000092
  0
LINE
  5
23D6
  8
FUTO
 10
21988.615968407561
 20
2349.8635673576468
 30
0.0
 11
21993.472876407559
 21
2358.2759783576448
 31
0.0
  0
LINE
  5
23D7
  8
FUTO
 10
22003.472876407559
 20
2359.4490393576421
 30
0.0
 11
21975.972876407559
 21
2341.706419357648
 31
0.0
  0
LINE
  5
23D8
  8
FUTO
 10
21992.24544840755
 20
2356.1500103576459
 30
0.0
 11
21975.972876407559
 21
2345.3016293576479
 31
0.0
  0
LINE
  5
23D9
  8
FUTO
 10
21993.472876407559
 20
2358.2759783576448
 30
0.0
 11
21993.472876407559
 21
2378.6349623576448
 31
0.0
  0
ARC
  5
23DA
  8
FUTO
 10
21958.47287640757
 20
2390.2349113576511
 30
0.0
 40
11.599949000000001
 50
179.9997550000013
 51
270.0
  0
LINE
  5
23DB
  8
FUTO
 10
22153.472876407559
 20
2378.6349623576102
 30
0.0
 11
22153.472876407559
 21
2359.4490393576089
 31
0.0
  0
ARC
  5
23DC
  8
FUTO
 10
22188.472907407569
 20
2420.2349383576029
 30
0.0
 40
11.599976
 50
269.99984700005228
 51
0.0001069999742915
  0
LINE
  5
23DD
  8
FUTO
 10
22200.07288240756
 20
2409.5768953576012
 30
0.0
 11
22218.47287640757
 21
2409.576895357598
 31
0.0
  0
ARC
  5
23DE
  8
FUTO
 10
22188.47287640757
 20
2390.2349593576018
 30
0.0
 40
11.600006
 50
270.0
 51
0.0000150000275647
  0
LINE
  5
23DF
  8
FUTO
 10
22203.472876407559
 20
2363.6349623576011
 30
0.0
 11
22199.286953407551
 21
2359.4490393576002
 31
0.0
  0
LINE
  5
23E0
  8
FUTO
 10
21928.47287640761
 20
2594.300215357659
 30
0.0
 11
22218.47287640761
 21
2594.3002153575972
 31
0.0
  0
LINE
  5
23E1
  8
FUTO
 10
21946.872900407601
 20
2585.1063213576549
 30
0.0
 11
22200.0728824076
 21
2585.1063213576008
 31
0.0
  0
LINE
  5
23E2
  8
FUTO
 10
22188.472876407621
 20
2626.6931133576022
 30
0.0
 11
21958.47287640761
 21
2626.6931133576518
 31
0.0
  0
ARC
  5
23E3
  8
FUTO
 10
21958.47287640761
 20
2615.0931683576518
 30
0.0
 40
11.599976
 50
90.0
 51
180.0003050000046
  0
LINE
  5
23E4
  8
FUTO
 10
21946.872900407601
 20
2594.3002153576549
 30
0.0
 11
21946.872900407609
 21
2615.0931073576548
 31
0.0
  0
ARC
  5
23E5
  8
FUTO
 10
22188.47287640761
 20
2615.0931233576021
 30
0.0
 40
11.599990999999999
 50
359.99992399997137
 51
90.0
  0
LINE
  5
23E6
  8
FUTO
 10
22200.07288240761
 20
2615.0931073575998
 30
0.0
 11
22200.0728824076
 21
2594.3002153575999
 31
0.0
  0
LINE
  5
23E8
  8
FUTO
 10
22524.472876407559
 20
2361.134962357532
 30
0.0
 11
22719.472876407559
 21
2361.1349623574888
 31
0.0
  0
LINE
  5
23E9
  8
FUTO
 10
22719.472876407559
 20
2361.1349623574888
 30
0.0
 11
22779.472876407541
 21
2303.6349623574761
 31
0.0
  0
LINE
  5
23EA
  8
FUTO
 10
22514.472876407559
 20
2363.6349623575338
 30
0.0
 11
22524.472876407559
 21
2356.968296357531
 31
0.0
  0
LINE
  5
23EB
  8
FUTO
 10
22514.472876407559
 20
2359.4490393575329
 30
0.0
 11
22524.472876407559
 21
2352.9971773575289
 31
0.0
  0
LINE
  5
2519
  8
SL
 10
20153.875298726842
 20
6169.9424398725714
 30
0.0
 11
20153.875298726842
 21
6857.3213734110477
 31
0.0
  0
LINE
  5
251A
  8
FUTO
 10
20253.875298726831
 20
7636.9424398725714
 30
0.0
 11
20253.875298726831
 21
7711.9424398725714
 31
0.0
  0
LINE
  5
251B
  8
FUTO
 10
20078.875298726842
 20
7073.7424398725034
 30
0.0
 11
20078.875298726842
 21
7636.9424398725714
 31
0.0
  0
LINE
  5
251C
  8
FUTO
 10
20153.875298726842
 20
6857.3213734110477
 30
0.0
 11
20153.875298726842
 21
7636.9424398725714
 31
0.0
  0
LINE
  5
251D
  8
SL
 10
19628.875298726831
 20
6169.9424398725714
 30
0.0
 11
19628.875298726831
 21
7073.7424398725034
 31
0.0
  0
LINE
  5
251E
  8
SL
 10
19553.875298726842
 20
6169.9424398725696
 30
0.0
 11
19553.875298726842
 21
6857.3213734110459
 31
0.0
  0
LINE
  5
251F
  8
FUTO
 10
19553.875298726842
 20
6857.3213734110459
 30
0.0
 11
19553.875298726831
 21
7636.9424398725714
 31
0.0
  0
LINE
  5
2520
  8
FUTO
 10
19628.875298726831
 20
7073.7424398725034
 30
0.0
 11
19628.875298726831
 21
7636.9424398725714
 31
0.0
  0
LINE
  5
2523
  8
FUTO
 10
16511.875298726842
 20
9269.9424398725769
 30
0.0
 11
18012.875298726842
 21
9269.9424398725769
 31
0.0
  0
LINE
  5
2524
  8
FUTO
 10
16511.875298726831
 20
7661.9424398725741
 30
0.0
 11
18012.875298726842
 21
7661.9424398725723
 31
0.0
  0
LINE
  5
2525
  8
FUTO
 10
20230.875298726842
 20
7711.9424398725714
 30
0.0
 11
20253.875298726831
 21
7711.9424398725714
 31
0.0
  0
DIMENSION
  5
2555
  8
SP
  2
*D14
 10
16144.23545025396
 20
8465.9424398725732
 30
0.0
 11
16144.23545025396
 21
8901.7292486127189
 31
0.0
 70
   128
 13
16928.875261421879
 23
9370.9424398725732
 33
0.0
 14
16507.9685497397
 24
8465.9424398725732
 34
0.0
 50
90.0
1001
ACAD
1000
DSTYLE
1002
{
1070
   287
1070
     3
1070
    40
1040
45.0
1070
   140
1040
3.0
1070
   147
1040
0.5
1070
   173
1070
     1
1070
   279
1070
     0
1070
   341
1005
24
1070
     6
1000
OPEN
1070
     7
1000
OPEN
1002
}
  0
DIMENSION
  5
2562
  8
SP
  2
*D15
 10
16144.235450253969
 20
5865.9424398725769
 30
0.0
 11
16144.23545025396
 21
7165.9424398725769
 31
0.0
 70
   128
 13
16507.9685497397
 23
8465.9424398725732
 33
0.0
 14
17523.875261421879
 24
5865.9424398725769
 34
0.0
 50
90.0
1001
ACAD
1000
DSTYLE
1002
{
1070
   287
1070
     3
1070
    40
1040
45.0
1070
   140
1040
3.0
1070
   147
1040
0.5
1070
   173
1070
     1
1070
   279
1070
     0
1070
   341
1005
24
1070
     6
1000
OPEN
1070
     7
1000
OPEN
1002
}
  0
LINE
  5
259B
  8
KL
 10
19144.875298726842
 20
2142.3308765185889
 30
0.0
 11
19144.875298726842
 21
3007.6802159721528
 31
0.0
  0
LINE
  5
259C
  8
KL
 10
19153.875298726842
 20
2137.4074866345491
 30
0.0
 11
19153.875298726842
 21
3000.396067053533
 31
0.0
  0
LINE
  5
259D
  8
KL
 10
19162.875298726842
 20
2132.4840967505088
 30
0.0
 11
19162.875298726842
 21
2993.1119181349118
 31
0.0
  0
LINE
  5
259E
  8
FUTO
 10
19162.875298726842
 20
2993.1119181349109
 30
0.0
 11
19162.875298726831
 21
3304.6349623577198
 31
0.0
  0
LINE
  5
259F
  8
FUTO
 10
19153.875298726831
 20
3000.396067053533
 30
0.0
 11
19153.875298726831
 21
3304.6349623577198
 31
0.0
  0
LINE
  5
25A0
  8
FUTO
 10
19144.875298726842
 20
3007.6802159721528
 30
0.0
 11
19144.875298726831
 21
3304.6349623577198
 31
0.0
  0
LINE
  5
25A1
  8
FUTO
 10
18755.72994363615
 20
3322.6349623577198
 30
0.0
 11
20078.446921808601
 21
3322.6349623577198
 31
0.0
  0
LINE
  5
25A2
  8
FUTO
 10
18766.84997988266
 20
3313.6349623577212
 30
0.0
 11
20115.501931090279
 21
3313.6349623577212
 31
0.0
  0
LINE
  5
25A3
  8
FUTO
 10
18777.970016129169
 20
3304.6349623577198
 30
0.0
 11
20078.446921808601
 21
3304.6349623577198
 31
0.0
  0
LINE
  5
26BF
  8
SP
 10
20078.446921808601
 20
3322.6349623577198
 30
0.0
 11
20078.446921808601
 21
3304.6349623577198
 31
0.0
  0
LINE
  5
26C0
  8
FUTO
 10
18803.875298726842
 20
1723.634962357721
 30
0.0
 11
18577.38308537595
 21
2452.7737012389462
 31
0.0
  0
LINE
  5
26C1
  8
FUTO
 10
17203.875298726831
 20
1723.634962357721
 30
0.0
 11
17611.773189885789
 21
3036.7668778076918
 31
0.0
  0
LINE
  5
26C3
  8
KL
 10
17803.875298726842
 20
3304.6349623577198
 30
0.0
 11
17523.959681143911
 21
3304.6349623577198
 31
0.0
  0
LINE
  5
26C4
  8
KL
 10
17803.875298726842
 20
3322.6349623577198
 30
0.0
 11
17523.959681143911
 21
3322.6349623577198
 31
0.0
  0
LINE
  5
26C5
  8
KL
 10
17803.875298726842
 20
3313.6349623577212
 30
0.0
 11
17523.875298726842
 21
3313.6349623577212
 31
0.0
  0
LINE
  5
26C6
  8
KL
 10
17803.875298726842
 20
3304.6349623577198
 30
0.0
 11
17803.875298726842
 21
3322.6349623577198
 31
0.0
  0
LINE
  5
26C7
  8
FUTO
 10
17523.959681143911
 20
3322.6349623577198
 30
0.0
 11
16511.875298726842
 21
3322.6349623577198
 31
0.0
  0
LINE
  5
26C8
  8
FUTO
 10
17523.959681143911
 20
3304.6349623577198
 30
0.0
 11
16511.875298726842
 21
3304.6349623577198
 31
0.0
  0
LINE
  5
26C9
  8
CT
 10
17115.37557185323
 20
3313.6349623577212
 30
0.0
 11
16440.031720892661
 21
3313.6349623577212
 31
0.0
  0
LINE
  5
26CD
  8
FUTO
 10
16511.875298726842
 20
3304.6349623577198
 30
0.0
 11
16511.875298726842
 21
3322.6349623577198
 31
0.0
  0
LINE
  5
26CE
  8
FUTO
 10
16511.875298726842
 20
7661.9424398725714
 30
0.0
 11
16511.875298726842
 21
9269.9424398725769
 31
0.0
  0
LINE
  5
26CF
  8
FUTO
 10
16561.875298726842
 20
7711.9424398725714
 30
0.0
 11
16561.875298726842
 21
9219.9424398725769
 31
0.0
  0
LINE
  5
26EE
  8
FUTO
 10
18087.875298726842
 20
7711.9424398725714
 30
0.0
 11
18087.875298726842
 21
9219.9424398725769
 31
0.0
  0
LINE
  5
26EF
  8
FUTO
 10
18012.875298726842
 20
7636.9424398725714
 30
0.0
 11
18012.875298726842
 21
9294.9424398725769
 31
0.0
  0
LINE
  5
26F0
  8
FUTO
 10
16853.875298726842
 20
7636.9424398725714
 30
0.0
 11
16853.875298726842
 21
7711.9424398725714
 31
0.0
  0
LINE
  5
26F1
  8
FUTO
 10
16853.875298726842
 20
9219.9424398725769
 30
0.0
 11
16853.875298726842
 21
9294.9424398725769
 31
0.0
  0
LINE
  5
26F2
  8
FUTO
 10
18087.875298726842
 20
7711.9424398725714
 30
0.0
 11
20155.87529872658
 21
7711.9424398725723
 31
0.0
  0
LINE
  5
26F3
  8
FUTO
 10
18087.875298726842
 20
9219.9424398725751
 30
0.0
 11
20155.87529872555
 21
9219.9424398725769
 31
0.0
  0
LINE
  5
26F5
  8
SL
 10
20155.875298725488
 20
9219.9424398725769
 30
0.0
 11
18087.875298726842
 21
7711.9424398725714
 31
0.0
  0
LINE
  5
26F6
  8
SL
 10
18087.875298726842
 20
9219.9424398725751
 30
0.0
 11
20155.87529872618
 21
7711.9424398725723
 31
0.0
  0
DIMENSION
  5
26F7
  8
FUTO
  2
*D16
 10
18003.875298726842
 20
9800.9082293784777
 30
0.0
 11
19128.875298726831
 21
9890.9082293784777
 31
0.0
 70
     0
 13
20253.875298726831
 23
7711.9424398725714
 33
0.0
 14
18003.875298726842
 24
9624.5608203066186
 34
0.0
 50
180.0
1001
ACAD
1000
DSTYLE
1002
{
1070
   287
1070
     3
1070
    40
1040
45.0
1070
   140
1040
3.0
1070
   147
1040
0.5
1070
   173
1070
     1
1070
   279
1070
     0
1070
   341
1005
24
1070
     6
1000
OPEN
1070
     7
1000
OPEN
1002
}
  0
DIMENSION
  5
2704
  8
FUTO
  2
*D17
 10
16511.875298726842
 20
9800.9082293784777
 30
0.0
 11
17257.875298726842
 21
9890.9082293784777
 31
0.0
 70
     0
 13
18003.875298726842
 23
9624.5608203066186
 33
0.0
 14
16511.875298726842
 24
9269.9424398725769
 34
0.0
 50
180.0
1001
ACAD
1000
DSTYLE
1002
{
1070
   287
1070
     3
1070
    40
1040
45.0
1070
   140
1040
3.0
1070
   147
1040
0.5
1070
   173
1070
     1
1070
   279
1070
     0
1070
   341
1005
24
1070
     6
1000
OPEN
1070
     7
1000
OPEN
1002
}
  0
DIMENSION
  5
2711
  8
FUTO
  2
*D18
 10
16264.76944843142
 20
3313.6349623577212
 30
0.0
 11
16174.76944843142
 21
2428.634962357723
 31
0.0
 70
     0
 13
16853.875298726842
 23
1543.63496235772
 33
0.0
 14
16440.031720892661
 24
3313.6349623577212
 34
0.0
 50
90.0
1001
ACAD
1000
DSTYLE
1002
{
1070
   287
1070
     3
1070
    40
1040
45.0
1070
   140
1040
3.0
1070
   147
1040
0.5
1070
   173
1070
     1
1070
   279
1070
     0
1070
   341
1005
24
1070
     6
1000
OPEN
1070
     7
1000
OPEN
1002
}
  0
DIMENSION
  5
271E
  8
FUTO
  2
*D19
 10
16264.76944843142
 20
4588.6349623581773
 30
0.0
 11
16174.76944843142
 21
3951.1349623579508
 31
0.0
 70
     0
 13
16440.031720892661
 23
3313.6349623577212
 33
0.0
 14
18012.875298726842
 24
4588.6349623581773
 34
0.0
 50
90.0
1001
ACAD
1000
DSTYLE
1002
{
1070
   287
1070
     3
1070
    40
1040
45.0
1070
   140
1040
3.0
1070
   147
1040
0.5
1070
   173
1070
     1
1070
   279
1070
     0
1070
   341
1005
24
1070
     6
1000
OPEN
1070
     7
1000
OPEN
1002
}
  0
LINE
  5
272B
  8
SL
 10
19961.616546713471
 20
2214.6954936280922
 30
0.0
 11
18195.078076843962
 21
3563.9677361614972
 31
0.0
  0
LINE
  5
272C
  8
SL
 10
19764.339958887209
 20
1920.3715521131139
 30
0.0
 11
17844.981597039619
 21
3041.6463751630849
 31
0.0
  0
LINE
  5
272D
  8
FUTO
 10
20030.027933040212
 20
2291.2820377445878
 30
0.0
 11
18305.851243264038
 21
3686.7442344495098
 31
0.0
  0
LINE
  5
272E
  8
FUTO
 10
19719.496015757191
 20
1827.9884514755811
 30
0.0
 11
17773.510813636021
 21
2892.5266579883551
 31
0.0
  0
ARC
  5
272F
  8
FUTO
 10
19853.875298726831
 20
2073.6349623577112
 30
0.0
 40
310.0
 50
300.10230806831191
 51
180.0
  0
ARC
  5
2730
  8
FUTO
 10
18150.875298726842
 20
3460.6349623577212
 30
0.0
 40
1903.0
 50
294.10910014545141
 51
310.39876610008503
  0
LINE
  5
2731
  8
KL
 10
17611.773189885789
 20
3036.7668778076918
 30
0.0
 11
17654.288494249391
 21
3173.6349623577198
 31
0.0
  0
LINE
  5
2732
  8
KL
 10
18577.38308537595
 20
2452.7737012389462
 30
0.0
 11
18353.462103204281
 21
3173.6349623577198
 31
0.0
  0
LINE
  5
2733
  8
FUTO
 10
24999.872876407499
 20
4513.6349623577207
 30
0.0
 11
23343.472876407501
 21
4513.6349623577216
 31
0.0
  0
LINE
  5
2734
  8
FUTO
 10
24999.872876407499
 20
4582.6349623577207
 30
0.0
 11
23343.472876407501
 21
4582.6349623577207
 31
0.0
  0
LINE
  5
2735
  8
FUTO
 10
24999.872876407499
 20
4588.6349623577207
 30
0.0
 11
23343.472876407501
 21
4588.6349623577207
 31
0.0
  0
LINE
  5
2736
  8
FUTO
 10
24999.872876407491
 20
4588.6349623583064
 30
0.0
 11
23343.472876407501
 21
4588.6349623590559
 31
0.0
  0
LINE
  5
2737
  8
FUTO
 10
24999.872876407499
 20
4588.6349623578644
 30
0.0
 11
23343.472876407501
 21
4588.634962358994
 31
0.0
  0
DIMENSION
  5
28F2
  8
FUTO
  2
*D20
 10
24171.672876407501
 20
5064.7669677711056
 30
0.0
 11
24624.172876407501
 21
5154.7669677711056
 31
0.0
 70
     0
 13
25076.672876407501
 23
4388.6349623577207
 33
0.0
 14
24171.672876407501
 24
4997.3267394282229
 34
0.0
1001
ACAD
1000
DSTYLE
1002
{
1070
   287
1070
     3
1070
    40
1040
45.0
1070
   140
1040
3.0
1070
   147
1040
0.5
1070
   173
1070
     1
1070
   279
1070
     0
1070
   341
1005
24
1070
     6
1000
OPEN
1070
     7
1000
OPEN
1002
}
  0
LINE
  5
2F9F
  8
4
 10
25306.46752866733
 20
-420.0297902672645
 30
0.0
 11
25306.46752866733
 21
-1620.0297902672639
 31
0.0
  0
LINE
  5
2FA0
  8
4
 10
21106.46752866733
 20
-420.0297902672645
 30
0.0
 11
21106.467528667341
 21
-1620.0297902672639
 31
0.0
  0
LINE
  5
2FA1
  8
4
 10
18106.46752866733
 20
-420.0297902672645
 30
0.0
 11
18106.467528667341
 21
-1620.0297902672639
 31
0.0
  0
LINE
  5
2FA4
  8
4
 10
18106.46752866733
 20
-1620.0297902672639
 30
0.0
 11
25306.46752866733
 21
-1620.0297902672639
 31
0.0
  0
LINE
  5
2FA5
  8
4
 10
18106.46752866733
 20
-1020.029790267264
 30
0.0
 11
25306.46752866733
 21
-1020.029790267264
 31
0.0
  0
TEXT
  5
2FA6
  8
4
 10
18337.480013748751
 20
-830.77163506758734
 30
0.0
 40
300.0
  1
機器名称
  0
TEXT
  5
2FA7
  8
4
 10
18324.016164816119
 20
-1490.158849875198
 30
0.0
 40
300.0
  1
機器型番
  0
TEXT
  5
2FA8
  8
4
 10
21135.225898873588
 20
-886.90597612558486
 30
0.0
 40
270.0
  1
ミツヤリミットロードファン
  0
TEXT
  5
2FA9
  8
4
 10
21326.394502180228
 20
-1517.0722845876039
 30
0.0
 40
300.0
  1
LL#12-1
  0
TEXT
  5
2FAB
  8
4
 10
16103.47308864401
 20
11783.256066928519
 30
0.0
 40
432.0
  1
遠心式片吸込片持リミットロードファン
  0
LINE
  5
2FAC
  8
4
 10
15706.46752866733
 20
11396.422735321559
 30
0.0
 11
25306.46752866733
 21
11396.422735321559
 31
0.0
  0
LINE
  5
2FAD
  8
4
 10
15706.46752866733
 20
12596.422735321559
 30
0.0
 11
25306.46752866733
 21
12596.422735321559
 31
0.0
  0
LINE
  5
2FAE
  8
4
 10
18106.46752866733
 20
-420.0297902672645
 30
0.0
 11
25306.46752866733
 21
-420.0297902672645
 31
0.0
  0
LINE
  5
2FAF
  8
4
 10
15706.46752866733
 20
12596.422735321559
 30
0.0
 11
15706.46752866733
 21
11396.422735321559
 31
0.0
  0
TEXT
  5
2FB0
  8
4
 10
23020.28488416308
 20
12816.336698704579
 30
0.0
 40
336.00000000000011
  1
No.
  0
TEXT
  5
2FB1
  8
4
 10
23105.538499549009
 20
10232.77131337514
 30
0.0
 40
323.99999999999989
  1
縮尺：1/60
  0
LINE
  5
2FB2
  8
4
 10
25306.46752866733
 20
12596.422735321559
 30
0.0
 11
25306.46752866733
 21
11396.422735321559
 31
0.0
  0
LINE
  5
2FB3
  8
4
 10
26806.46752866733
 20
14279.97020973273
 30
0.0
 11
26806.46752866733
 21
14279.97020973273
 31
0.0
  0
LINE
  5
2FB4
  8
4
 10
22850.172062826521
 20
12667.55170848514
 30
0.0
 11
22850.172062826521
 21
13299.883779031239
 31
0.0
  0
LINE
  5
2FB5
  8
4
 10
22850.172062826521
 20
13299.883779031239
 30
0.0
 11
25306.46752866733
 21
13299.883779031239
 31
0.0
  0
LINE
  5
2FB6
  8
4
 10
25306.46752866733
 20
13299.883779031239
 30
0.0
 11
25306.46752866733
 21
12667.55170848514
 31
0.0
  0
LINE
  5
2FB7
  8
4
 10
25306.46752866733
 20
12667.55170848514
 30
0.0
 11
22850.172062826521
 21
12667.55170848514
 31
0.0
  0
LINE
  5
2FB8
  8
4
 10
14206.46752866733
 20
-3420.0297902672642
 30
0.0
 11
14206.46752866733
 21
14279.97020973273
 31
0.0
  0
LINE
  5
2FB9
  8
4
 10
14206.46752866733
 20
14279.97020973273
 30
0.0
 11
26806.46752866733
 21
14279.97020973273
 31
0.0
  0
LINE
  5
2FBA
  8
4
 10
26806.46752866733
 20
14279.97020973273
 30
0.0
 11
26806.46752866733
 21
-3420.0297902672642
 31
0.0
  0
LINE
  5
2FBB
  8
4
 10
26806.46752866733
 20
-3420.0297902672642
 30
0.0
 11
14206.46752866733
 21
-3420.0297902672642
 31
0.0
  0
TEXT
  5
2FBC
  8
4
 10
19155.284604714139
 20
10840.53273699005
 30
0.0
 40
323.99999999999989
  1
床置ベット
  0
TEXT
  5
2FBD
  8
4
 10
15987.178153919949
 20
10859.04187434003
 30
0.0
 40
323.99999999999989
  1
左回転上向
  0
ENDSEC
  0
EOF
