  0
SECTION
  2
HEADER
  9
$ACADVER
  1
AC1027
  9
$ACADMAINTVER
 70
   125
  9
$DWGCODEPAGE
  3
ANSI_932
  9
$LASTSAVEDBY
  1
yasukiyo.ogawa
  9
$REQUIREDVERSIONS
160
                 0
  9
$INSBASE
 10
0.0
 20
0.0
 30
0.0
  9
$EXTMIN
 10
7786.166697834037
 20
-14237.41921203123
 30
0.0
  9
$EXTMAX
 10
19336.16669783403
 20
1987.580787968773
 30
0.0
  9
$LIMMIN
 10
0.0
 20
0.0
  9
$LIMMAX
 10
297.0
 20
210.0
  9
$ORTHOMODE
 70
     1
  9
$REGENMODE
 70
     1
  9
$FILLMODE
 70
     1
  9
$QTEXTMODE
 70
     0
  9
$MIRRTEXT
 70
     0
  9
$LTSCALE
 40
275.0
  9
$ATTMODE
 70
     1
  9
$TEXTSIZE
 40
137.5
  9
$TRACEWID
 40
0.05
  9
$TEXTSTYLE
  7
STANDARD
  9
$CLAYER
  8
SP
  9
$CELTYPE
  6
BYLAYER
  9
$CECOLOR
 62
   256
  9
$CELTSCALE
 40
1.0
  9
$DISPSILH
 70
     0
  9
$DIMSCALE
 40
55.0
  9
$DIMASZ
 40
2.0
  9
$DIMEXO
 40
1.0
  9
$DIMDLI
 40
10.0
  9
$DIMRND
 40
0.0
  9
$DIMDLE
 40
0.0
  9
$DIMEXE
 40
1.0
  9
$DIMTP
 40
0.0
  9
$DIMTM
 40
0.0
  9
$DIMTXT
 40
2.5
  9
$DIMCEN
 40
0.0
  9
$DIMTSZ
 40
0.0
  9
$DIMTOL
 70
     0
  9
$DIMLIM
 70
     0
  9
$DIMTIH
 70
     0
  9
$DIMTOH
 70
     0
  9
$DIMSE1
 70
     0
  9
$DIMSE2
 70
     0
  9
$DIMTAD
 70
     1
  9
$DIMZIN
 70
     8
  9
$DIMBLK
  1

  9
$DIMASO
 70
     1
  9
$DIMSHO
 70
     1
  9
$DIMPOST
  1
(<>)
  9
$DIMAPOST
  1

  9
$DIMALT
 70
     0
  9
$DIMALTD
 70
     2
  9
$DIMALTF
 40
0.03937
  9
$DIMLFAC
 40
1.0
  9
$DIMTOFL
 70
     1
  9
$DIMTVP
 40
0.0
  9
$DIMTIX
 70
     0
  9
$DIMSOXD
 70
     0
  9
$DIMSAH
 70
     1
  9
$DIMBLK1
  1
OPEN
  9
$DIMBLK2
  1
OPEN
  9
$DIMSTYLE
  2
MATSU
  9
$DIMCLRD
 70
   256
  9
$DIMCLRE
 70
   256
  9
$DIMCLRT
 70
   256
  9
$DIMTFAC
 40
1.0
  9
$DIMGAP
 40
1.0
  9
$DIMJUST
 70
     0
  9
$DIMSD1
 70
     0
  9
$DIMSD2
 70
     0
  9
$DIMTOLJ
 70
     1
  9
$DIMTZIN
 70
     8
  9
$DIMALTZ
 70
     0
  9
$DIMALTTZ
 70
     0
  9
$DIMUPT
 70
     0
  9
$DIMDEC
 70
     0
  9
$DIMTDEC
 70
     4
  9
$DIMALTU
 70
     2
  9
$DIMALTTD
 70
     2
  9
$DIMTXSTY
  7
STANDARD
  9
$DIMAUNIT
 70
     0
  9
$DIMADEC
 70
     0
  9
$DIMALTRND
 40
0.0
  9
$DIMAZIN
 70
     0
  9
$DIMDSEP
 70
    46
  9
$DIMATFIT
 70
     0
  9
$DIMFRAC
 70
     0
  9
$DIMLDRBLK
  1
OPEN
  9
$DIMLUNIT
 70
     2
  9
$DIMLWD
 70
    -2
  9
$DIMLWE
 70
    -2
  9
$DIMTMOVE
 70
     0
  9
$DIMFXL
 40
1.0
  9
$DIMFXLON
 70
     0
  9
$DIMJOGANG
 40
0.7853981633974483
  9
$DIMTFILL
 70
     0
  9
$DIMTFILLCLR
 70
     0
  9
$DIMARCSYM
 70
     0
  9
$DIMLTYPE
  6

  9
$DIMLTEX1
  6

  9
$DIMLTEX2
  6

  9
$DIMTXTDIRECTION
 70
     0
  9
$LUNITS
 70
     2
  9
$LUPREC
 70
     4
  9
$SKETCHINC
 40
0.1
  9
$FILLETRAD
 40
0.0
  9
$AUNITS
 70
     0
  9
$AUPREC
 70
     2
  9
$MENU
  1
acad
  9
$ELEVATION
 40
0.0
  9
$PELEVATION
 40
0.0
  9
$THICKNESS
 40
0.0
  9
$LIMCHECK
 70
     0
  9
$CHAMFERA
 40
20.0
  9
$CHAMFERB
 40
20.0
  9
$CHAMFERC
 40
20.0
  9
$CHAMFERD
 40
0.0
  9
$SKPOLY
 70
     0
  9
$TDCREATE
 40
2453950.639282407
  9
$TDUCREATE
 40
2453950.264283854
  9
$TDUPDATE
 40
2460245.609641204
  9
$TDUUPDATE
 40
2460245.234643368
  9
$TDINDWG
 40
0.3522985880
  9
$TDUSRTIMER
 40
0.3522985880
  9
$USRTIMER
 70
     1
  9
$ANGBASE
 50
0.0
  9
$ANGDIR
 70
     0
  9
$PDMODE
 70
     0
  9
$PDSIZE
 40
1.0
  9
$PLINEWID
 40
0.0
  9
$SPLFRAME
 70
     0
  9
$SPLINETYPE
 70
     6
  9
$SPLINESEGS
 70
     8
  9
$HANDSEED
  5
A4C7
  9
$SURFTAB1
 70
     6
  9
$SURFTAB2
 70
     6
  9
$SURFTYPE
 70
     6
  9
$SURFU
 70
     6
  9
$SURFV
 70
     6
  9
$UCSBASE
  2

  9
$UCSNAME
  2

  9
$UCSORG
 10
0.0
 20
-0.0000000000000568
 30
0.0
  9
$UCSXDIR
 10
1.0
 20
0.0
 30
0.0
  9
$UCSYDIR
 10
0.0
 20
1.0
 30
0.0
  9
$UCSORTHOREF
  2

  9
$UCSORTHOVIEW
 70
     0
  9
$UCSORGTOP
 10
0.0
 20
0.0
 30
0.0
  9
$UCSORGBOTTOM
 10
0.0
 20
0.0
 30
0.0
  9
$UCSORGLEFT
 10
0.0
 20
0.0
 30
0.0
  9
$UCSORGRIGHT
 10
0.0
 20
0.0
 30
0.0
  9
$UCSORGFRONT
 10
0.0
 20
0.0
 30
0.0
  9
$UCSORGBACK
 10
0.0
 20
0.0
 30
0.0
  9
$PUCSBASE
  2

  9
$PUCSNAME
  2

  9
$PUCSORG
 10
0.0
 20
0.0
 30
0.0
  9
$PUCSXDIR
 10
1.0
 20
0.0
 30
0.0
  9
$PUCSYDIR
 10
0.0
 20
1.0
 30
0.0
  9
$PUCSORTHOREF
  2

  9
$PUCSORTHOVIEW
 70
     0
  9
$PUCSORGTOP
 10
0.0
 20
0.0
 30
0.0
  9
$PUCSORGBOTTOM
 10
0.0
 20
0.0
 30
0.0
  9
$PUCSORGLEFT
 10
0.0
 20
0.0
 30
0.0
  9
$PUCSORGRIGHT
 10
0.0
 20
0.0
 30
0.0
  9
$PUCSORGFRONT
 10
0.0
 20
0.0
 30
0.0
  9
$PUCSORGBACK
 10
0.0
 20
0.0
 30
0.0
  9
$USERI1
 70
     0
  9
$USERI2
 70
     0
  9
$USERI3
 70
     0
  9
$USERI4
 70
     0
  9
$USERI5
 70
     0
  9
$USERR1
 40
0.0
  9
$USERR2
 40
0.0
  9
$USERR3
 40
0.0
  9
$USERR4
 40
0.0
  9
$USERR5
 40
0.0
  9
$WORLDVIEW
 70
     1
  9
$SHADEDGE
 70
     3
  9
$SHADEDIF
 70
    70
  9
$TILEMODE
 70
     1
  9
$MAXACTVP
 70
    16
  9
$PINSBASE
 10
0.0
 20
0.0
 30
0.0
  9
$PLIMCHECK
 70
     0
  9
$PEXTMIN
 10
1.000000000000000E+20
 20
1.000000000000000E+20
 30
1.000000000000000E+20
  9
$PEXTMAX
 10
-1.000000000000000E+20
 20
-1.000000000000000E+20
 30
-1.000000000000000E+20
  9
$PLIMMIN
 10
0.0
 20
0.0
  9
$PLIMMAX
 10
12.0
 20
9.0
  9
$UNITMODE
 70
     0
  9
$VISRETAIN
 70
     0
  9
$PLINEGEN
 70
     0
  9
$PSLTSCALE
 70
     0
  9
$TREEDEPTH
 70
  3020
  9
$CMLSTYLE
  2
STANDARD
  9
$CMLJUST
 70
     0
  9
$CMLSCALE
 40
20.0
  9
$PROXYGRAPHICS
 70
     1
  9
$MEASUREMENT
 70
     1
  9
$CELWEIGHT
370
    -1
  9
$ENDCAPS
280
     0
  9
$JOINSTYLE
280
     0
  9
$LWDISPLAY
290
     0
  9
$INSUNITS
 70
     0
  9
$HYPERLINKBASE
  1

  9
$STYLESHEET
  1

  9
$XEDIT
290
     1
  9
$CEPSNTYPE
380
     0
  9
$PSTYLEMODE
290
     1
  9
$FINGERPRINTGUID
  2
{CC056BCE-3FAC-41D7-BA49-DB55E0CC0948}
  9
$VERSIONGUID
  2
{9A81D57D-E739-4D00-811F-9A71230C773B}
  9
$EXTNAMES
290
     1
  9
$PSVPSCALE
 40
0.0
  9
$OLESTARTUP
290
     0
  9
$SORTENTS
280
   127
  9
$INDEXCTL
280
     0
  9
$HIDETEXT
280
     0
  9
$XCLIPFRAME
280
     2
  9
$HALOGAP
280
     0
  9
$OBSCOLOR
 70
   257
  9
$OBSLTYPE
280
     0
  9
$INTERSECTIONDISPLAY
280
     0
  9
$INTERSECTIONCOLOR
 70
   257
  9
$DIMASSOC
280
     1
  9
$PROJECTNAME
  1

  9
$CAMERADISPLAY
290
     0
  9
$LENSLENGTH
 40
50.0
  9
$CAMERAHEIGHT
 40
0.0
  9
$STEPSPERSEC
 40
2.0
  9
$STEPSIZE
 40
6.0
  9
$3DDWFPREC
 40
2.0
  9
$PSOLWIDTH
 40
0.25
  9
$PSOLHEIGHT
 40
4.0
  9
$LOFTANG1
 40
1.570796326794896
  9
$LOFTANG2
 40
1.570796326794896
  9
$LOFTMAG1
 40
0.0
  9
$LOFTMAG2
 40
0.0
  9
$LOFTPARAM
 70
     7
  9
$LOFTNORMALS
280
     1
  9
$LATITUDE
 40
37.795
  9
$LONGITUDE
 40
-122.394
  9
$NORTHDIRECTION
 40
0.0
  9
$TIMEZONE
 70
 -8000
  9
$LIGHTGLYPHDISPLAY
280
     1
  9
$TILEMODELIGHTSYNCH
280
     1
  9
$CMATERIAL
347
A42B
  9
$SOLIDHIST
280
     0
  9
$SHOWHIST
280
     1
  9
$DWFFRAME
280
     2
  9
$DGNFRAME
280
     0
  9
$REALWORLDSCALE
290
     1
  9
$INTERFERECOLOR
 62
     1
  9
$INTERFEREOBJVS
345
A44D
  9
$INTERFEREVPVS
346
A44A
  9
$CSHADOW
280
     0
  9
$SHADOWPLANELOCATION
 40
0.0
  0
ENDSEC
  0
SECTION
  2
CLASSES
  0
CLASS
  1
ACDBDICTIONARYWDFLT
  2
AcDbDictionaryWithDefault
  3
ObjectDBX Classes
 90
        0
 91
        1
280
     0
281
     0
  0
CLASS
  1
MATERIAL
  2
AcDbMaterial
  3
ObjectDBX Classes
 90
     1153
 91
        3
280
     0
281
     0
  0
CLASS
  1
VISUALSTYLE
  2
AcDbVisualStyle
  3
ObjectDBX Classes
 90
     4095
 91
       24
280
     0
281
     0
  0
CLASS
  1
TABLESTYLE
  2
AcDbTableStyle
  3
ObjectDBX Classes
 90
     4095
 91
        1
280
     0
281
     0
  0
CLASS
  1
SCALE
  2
AcDbScale
  3
ObjectDBX Classes
 90
     1153
 91
       17
280
     0
281
     0
  0
CLASS
  1
MLEADERSTYLE
  2
AcDbMLeaderStyle
  3
ACDB_MLEADERSTYLE_CLASS
 90
     4095
 91
        1
280
     0
281
     0
  0
CLASS
  1
ACDBSECTIONVIEWSTYLE
  2
AcDbSectionViewStyle
  3
ObjectDBX Classes
 90
     1025
 91
        1
280
     0
281
     0
  0
CLASS
  1
ACDBDETAILVIEWSTYLE
  2
AcDbDetailViewStyle
  3
ObjectDBX Classes
 90
     1025
 91
        1
280
     0
281
     0
  0
CLASS
  1
DICTIONARYVAR
  2
AcDbDictionaryVar
  3
ObjectDBX Classes
 90
        0
 91
       10
280
     0
281
     0
  0
CLASS
  1
CELLSTYLEMAP
  2
AcDbCellStyleMap
  3
ObjectDBX Classes
 90
     1152
 91
        1
280
     0
281
     0
  0
ENDSEC
  0
SECTION
  2
TABLES
  0
TABLE
  2
VPORT
  5
8
330
0
100
AcDbSymbolTable
 70
     1
1001
ACAD
1000
DbSaveVer
1071
      278
  0
VPORT
  5
A428
330
8
100
AcDbSymbolTableRecord
100
AcDbViewportTableRecord
  2
*Active
 70
     0
 10
0.0
 20
0.0
 11
1.0
 21
1.0
 12
15195.03397102364
 22
-6124.919174254455
 13
0.0
 23
0.0
 14
5.0
 24
5.0
 15
0.0
 25
0.0
 16
0.0
 26
0.0
 36
1.0
 17
0.0
 27
0.0
 37
0.0
 40
16329.89204756976
 41
2.250314465408805
 42
50.0
 43
0.0
 44
0.0
 50
0.0
 51
0.0
 71
     0
 72
   100
 73
     1
 74
     0
 75
     0
 76
     0
 77
     0
 78
     0
281
     0
 65
     1
110
0.0
120
-0.0000000000000568
130
0.0
111
1.0
121
0.0
131
0.0
112
0.0
122
1.0
132
0.0
 79
     0
146
0.0
348
A449
 60
     3
 61
     5
292
     1
282
     1
141
0.0
142
0.0
 63
   250
421
  3355443
1001
ACAD_NAV_VCDISPLAY
1070
     3
  0
ENDTAB
  0
TABLE
  2
LTYPE
  5
5
330
0
100
AcDbSymbolTable
 70
     3
  0
LTYPE
  5
13
330
5
100
AcDbSymbolTableRecord
100
AcDbLinetypeTableRecord
  2
BYBLOCK
 70
     0
  3

 72
    65
 73
     0
 40
0.0
  0
LTYPE
  5
14
330
5
100
AcDbSymbolTableRecord
100
AcDbLinetypeTableRecord
  2
BYLAYER
 70
     0
  3

 72
    65
 73
     0
 40
0.0
  0
LTYPE
  5
15
330
5
100
AcDbSymbolTableRecord
100
AcDbLinetypeTableRecord
  2
CONTINUOUS
 70
     0
  3
Solid line
 72
    65
 73
     0
 40
0.0
  0
LTYPE
  5
1F
330
5
100
AcDbSymbolTableRecord
100
AcDbLinetypeTableRecord
  2
CENTER
 70
     0
  3
____ _ ____ _ ____ _ ____ _ ____ _ ____ _ ____ 
 72
    65
 73
     4
 40
2.0
 49
1.25
 74
     0
 49
-0.25
 74
     0
 49
0.25
 74
     0
 49
-0.25
 74
     0
  0
LTYPE
  5
21
330
5
100
AcDbSymbolTableRecord
100
AcDbLinetypeTableRecord
  2
PHANTOM
 70
     0
  3
______  __  __  ______  __  __  ______  __  __ 
 72
    65
 73
     6
 40
2.5
 49
1.25
 74
     0
 49
-0.25
 74
     0
 49
0.25
 74
     0
 49
-0.25
 74
     0
 49
0.25
 74
     0
 49
-0.25
 74
     0
  0
ENDTAB
  0
TABLE
  2
LAYER
  5
2
102
{ACAD_XDICTIONARY
360
A49C
102
}
330
0
100
AcDbSymbolTable
 70
     7
  0
LAYER
  5
F
102
{ACAD_XDICTIONARY
360
A48D
102
}
330
2
100
AcDbSymbolTableRecord
100
AcDbLayerTableRecord
  2
0
 70
     0
 62
     7
  6
CONTINUOUS
370
    -3
390
A41F
347
A43B
348
0
  0
LAYER
  5
2F
102
{ACAD_XDICTIONARY
360
A48F
102
}
330
2
100
AcDbSymbolTableRecord
100
AcDbLayerTableRecord
  2
CT
 70
     0
 62
     3
  6
CENTER
370
    -3
390
A41F
347
A43B
348
0
  0
LAYER
  5
30
102
{ACAD_XDICTIONARY
360
A491
102
}
330
2
100
AcDbSymbolTableRecord
100
AcDbLayerTableRecord
  2
FUTO
 70
     0
 62
     4
  6
CONTINUOUS
370
    -3
390
A41F
347
A43B
348
0
  0
LAYER
  5
35
102
{ACAD_XDICTIONARY
360
A493
102
}
330
2
100
AcDbSymbolTableRecord
100
AcDbLayerTableRecord
  2
SL
 70
     0
 62
     1
  6
PHANTOM
370
    -3
390
A41F
347
A43B
348
0
  0
LAYER
  5
36
102
{ACAD_XDICTIONARY
360
A495
102
}
330
2
100
AcDbSymbolTableRecord
100
AcDbLayerTableRecord
  2
SP
 70
     0
 62
     2
  6
CONTINUOUS
370
    -3
390
A41F
347
A43B
348
0
  0
LAYER
  5
5241
330
2
100
AcDbSymbolTableRecord
100
AcDbLayerTableRecord
  2
DEFPOINTS
 70
     0
 62
     7
  6
CONTINUOUS
290
     0
370
    -3
390
A41F
347
A43B
348
0
  0
LAYER
  5
99F1
102
{ACAD_XDICTIONARY
360
A497
102
}
330
2
100
AcDbSymbolTableRecord
100
AcDbLayerTableRecord
  2
4
 70
     0
 62
     7
  6
CONTINUOUS
370
    -3
390
A41F
347
A43B
348
0
  0
ENDTAB
  0
TABLE
  2
STYLE
  5
3
330
0
100
AcDbSymbolTable
 70
     1
  0
STYLE
  5
10
330
3
100
AcDbSymbolTableRecord
100
AcDbTextStyleTableRecord
  2
STANDARD
 70
     0
 40
0.0
 41
1.0
 50
15.0
 71
     0
 42
137.5
  3
C:\Program Files\AutoCAD LT\simplex.shx
  4
C:\Program Files\AutoCAD LT\extfont.shx
  0
ENDTAB
  0
TABLE
  2
VIEW
  5
6
330
0
100
AcDbSymbolTable
 70
     0
  0
ENDTAB
  0
TABLE
  2
UCS
  5
7
330
0
100
AcDbSymbolTable
 70
     0
  0
ENDTAB
  0
TABLE
  2
APPID
  5
9
330
0
100
AcDbSymbolTable
 70
     3
  0
APPID
  5
11
330
9
100
AcDbSymbolTableRecord
100
AcDbRegAppTableRecord
  2
ACAD
 70
     0
  0
APPID
  5
5333
330
9
100
AcDbSymbolTableRecord
100
AcDbRegAppTableRecord
  2
CONTENTBLOCKICON
 70
     0
  0
APPID
  5
A4A2
330
9
100
AcDbSymbolTableRecord
100
AcDbRegAppTableRecord
  2
ACAD_NAV_VCDISPLAY
 70
     0
  0
ENDTAB
  0
TABLE
  2
DIMSTYLE
  5
A
330
0
100
AcDbSymbolTable
 70
     2
100
AcDbDimStyleTable
 71
     1
340
2C
  0
DIMSTYLE
105
1D
330
A
100
AcDbSymbolTableRecord
100
AcDbDimStyleTableRecord
  2
STANDARD
 70
     0
340
10
  0
DIMSTYLE
105
2C
102
{ACAD_REACTORS
330
9D6B
330
9D78
330
9D85
330
9D92
330
9D9F
330
9DD3
330
9DE0
330
9DFA
330
9E07
330
9E14
330
9E55
330
A2FA
330
A307
330
A314
330
A321
330
A32E
330
A33B
330
A348
330
A355
330
A362
102
}
330
A
100
AcDbSymbolTableRecord
100
AcDbDimStyleTableRecord
  2
MATSU
 70
     0
 41
2.0
 42
1.0
 43
10.0
 44
1.0
 73
     0
 74
     0
 77
     1
 78
     8
140
3.0
141
0.0
143
0.03937
147
0.5
172
     1
173
     1
176
   256
177
   256
178
   256
284
     8
289
     0
340
10
341
26
343
26
344
26
  0
ENDTAB
  0
TABLE
  2
BLOCK_RECORD
  5
1
330
0
100
AcDbSymbolTable
 70
    21
  0
BLOCK_RECORD
  5
19
330
1
100
AcDbSymbolTableRecord
100
AcDbBlockTableRecord
  2
*MODEL_SPACE
340
A422
 70
     0
280
     1
281
     0
  0
BLOCK_RECORD
  5
16
330
1
100
AcDbSymbolTableRecord
100
AcDbBlockTableRecord
  2
*PAPER_SPACE
340
A423
 70
     0
280
     1
281
     0
  0
BLOCK_RECORD
  5
26
330
1
100
AcDbSymbolTableRecord
100
AcDbBlockTableRecord
  2
_OPEN
340
0
102
{BLKREFS
331
A47E
331
A47F
331
A487
331
A39D
331
A39E
331
A3A8
331
A3A9
331
A3B3
331
A3B4
331
A3BE
331
A3BF
331
A3C9
331
A3CA
331
A3D4
331
A3D5
331
A3DF
331
A3E0
331
A3EA
331
A3EB
331
A3F5
331
A3F6
331
A400
331
A401
331
A40B
331
A40C
331
9DF3
331
9DF4
331
9E00
331
9E01
331
9E0D
331
9E0E
331
A2F3
331
A2F4
331
A37C
331
A37D
331
A387
331
A388
331
A392
331
A393
331
A488
102
}
 70
     0
280
     1
281
     0
  0
BLOCK_RECORD
  5
9D5F
330
1
100
AcDbSymbolTableRecord
100
AcDbBlockTableRecord
  2
*D1
340
0
 70
     0
280
     1
281
     0
  0
BLOCK_RECORD
  5
9D6C
330
1
100
AcDbSymbolTableRecord
100
AcDbBlockTableRecord
  2
*D2
340
0
 70
     0
280
     1
281
     0
  0
BLOCK_RECORD
  5
9D79
330
1
100
AcDbSymbolTableRecord
100
AcDbBlockTableRecord
  2
*D3
340
0
 70
     0
280
     1
281
     0
  0
BLOCK_RECORD
  5
9D86
330
1
100
AcDbSymbolTableRecord
100
AcDbBlockTableRecord
  2
*D4
340
0
 70
     0
280
     1
281
     0
  0
BLOCK_RECORD
  5
9D93
330
1
100
AcDbSymbolTableRecord
100
AcDbBlockTableRecord
  2
*D5
340
0
 70
     0
280
     1
281
     0
  0
BLOCK_RECORD
  5
9DC7
330
1
100
AcDbSymbolTableRecord
100
AcDbBlockTableRecord
  2
*D6
340
0
 70
     0
280
     1
281
     0
  0
BLOCK_RECORD
  5
9DD4
330
1
100
AcDbSymbolTableRecord
100
AcDbBlockTableRecord
  2
*D7
340
0
 70
     0
280
     1
281
     0
  0
BLOCK_RECORD
  5
9DEE
330
1
100
AcDbSymbolTableRecord
100
AcDbBlockTableRecord
  2
*D8
340
0
 70
     0
280
     1
281
     0
  0
BLOCK_RECORD
  5
9DFB
330
1
100
AcDbSymbolTableRecord
100
AcDbBlockTableRecord
  2
*D9
340
0
 70
     0
280
     1
281
     0
  0
BLOCK_RECORD
  5
9E08
330
1
100
AcDbSymbolTableRecord
100
AcDbBlockTableRecord
  2
*D10
340
0
 70
     0
280
     1
281
     0
  0
BLOCK_RECORD
  5
9E49
330
1
100
AcDbSymbolTableRecord
100
AcDbBlockTableRecord
  2
*D11
340
0
 70
     0
280
     1
281
     0
  0
BLOCK_RECORD
  5
A2EE
330
1
100
AcDbSymbolTableRecord
100
AcDbBlockTableRecord
  2
*D12
340
0
 70
     0
280
     1
281
     0
  0
BLOCK_RECORD
  5
A2FB
330
1
100
AcDbSymbolTableRecord
100
AcDbBlockTableRecord
  2
*D13
340
0
 70
     0
280
     1
281
     0
  0
BLOCK_RECORD
  5
A308
330
1
100
AcDbSymbolTableRecord
100
AcDbBlockTableRecord
  2
*D14
340
0
 70
     0
280
     1
281
     0
  0
BLOCK_RECORD
  5
A315
330
1
100
AcDbSymbolTableRecord
100
AcDbBlockTableRecord
  2
*D15
340
0
 70
     0
280
     1
281
     0
  0
BLOCK_RECORD
  5
A322
330
1
100
AcDbSymbolTableRecord
100
AcDbBlockTableRecord
  2
*D16
340
0
 70
     0
280
     1
281
     0
  0
BLOCK_RECORD
  5
A32F
330
1
100
AcDbSymbolTableRecord
100
AcDbBlockTableRecord
  2
*D17
340
0
 70
     0
280
     1
281
     0
  0
BLOCK_RECORD
  5
A33C
330
1
100
AcDbSymbolTableRecord
100
AcDbBlockTableRecord
  2
*D18
340
0
 70
     0
280
     1
281
     0
  0
BLOCK_RECORD
  5
A349
330
1
100
AcDbSymbolTableRecord
100
AcDbBlockTableRecord
  2
*D19
340
0
 70
     0
280
     1
281
     0
  0
BLOCK_RECORD
  5
A356
330
1
100
AcDbSymbolTableRecord
100
AcDbBlockTableRecord
  2
*D20
340
0
 70
     0
280
     1
281
     0
  0
ENDTAB
  0
ENDSEC
  0
SECTION
  2
BLOCKS
  0
BLOCK
  5
1A
330
19
100
AcDbEntity
  8
0
100
AcDbBlockBegin
  2
*MODEL_SPACE
 70
     0
 10
0.0
 20
0.0
 30
0.0
  3
*MODEL_SPACE
  1

  0
ENDBLK
  5
1B
330
19
100
AcDbEntity
  8
0
100
AcDbBlockEnd
  0
BLOCK
  5
17
330
16
100
AcDbEntity
 67
     1
  8
0
100
AcDbBlockBegin
  2
*PAPER_SPACE
 70
     0
 10
0.0
 20
0.0
 30
0.0
  3
*PAPER_SPACE
  1

  0
ENDBLK
  5
18
330
16
100
AcDbEntity
 67
     1
  8
0
100
AcDbBlockEnd
  0
BLOCK
  5
27
330
26
100
AcDbEntity
  8
0
100
AcDbBlockBegin
  2
_OPEN
 70
     0
 10
0.0
 20
0.0
 30
0.0
  3
_OPEN
  1

  0
LINE
  5
28
330
26
100
AcDbEntity
  8
0
  6
ByBlock
 62
     0
100
AcDbLine
 10
-1.0
 20
0.1666666666666666
 30
0.0
 11
0.0
 21
0.0
 31
0.0
  0
LINE
  5
29
330
26
100
AcDbEntity
  8
0
  6
ByBlock
 62
     0
100
AcDbLine
 10
0.0
 20
0.0
 30
0.0
 11
-1.0
 21
-0.1666666666666666
 31
0.0
  0
LINE
  5
2A
330
26
100
AcDbEntity
  8
0
  6
ByBlock
 62
     0
100
AcDbLine
 10
0.0
 20
0.0
 30
0.0
 11
-1.0
 21
0.0
 31
0.0
  0
ENDBLK
  5
2B
330
26
100
AcDbEntity
  8
0
100
AcDbBlockEnd
  0
BLOCK
  5
A3A4
330
9D5F
100
AcDbEntity
  8
0
100
AcDbBlockBegin
  2
*D1
 70
     1
 10
0.0
 20
0.0
 30
0.0
  3
*D1
  1

  0
LINE
  5
A3A5
330
9D5F
100
AcDbEntity
  8
0
  6
ByBlock
440
 16777216
100
AcDbLine
 10
14705.61185537672
 20
-3929.16681477328
 30
0.0
 11
15051.2096074707
 21
-3929.16681477328
 31
0.0
  0
LINE
  5
A3A6
330
9D5F
100
AcDbEntity
  8
0
  6
ByBlock
440
 16777216
100
AcDbLine
 10
14705.61185537672
 20
-5129.16681477328
 30
0.0
 11
15051.2096074707
 21
-5129.16681477328
 31
0.0
  0
LINE
  5
A3A7
330
9D5F
100
AcDbEntity
  8
0
  6
ByBlock
440
 16777216
100
AcDbLine
 10
15001.2096074707
 20
-4029.166814773279
 30
0.0
 11
15001.2096074707
 21
-5029.166814773279
 31
0.0
  0
INSERT
  5
A3A8
330
9D5F
100
AcDbEntity
  8
0
  6
ByBlock
440
 16777216
100
AcDbBlockReference
  2
_OPEN
 10
15001.2096074707
 20
-3929.16681477328
 30
0.0
 41
100.0
 42
100.0
 43
100.0
 50
90.0
  0
INSERT
  5
A3A9
330
9D5F
100
AcDbEntity
  8
0
  6
ByBlock
440
 16777216
100
AcDbBlockReference
  2
_OPEN
 10
15001.2096074707
 20
-5129.16681477328
 30
0.0
 41
100.0
 42
100.0
 43
100.0
 50
270.0
  0
MTEXT
  5
A3AA
330
9D5F
100
AcDbEntity
  8
0
  6
ByBlock
440
 16777216
100
AcDbMText
 10
14888.7096074707
 20
-4529.166814773279
 30
0.0
 40
125.0
 41
0.0
 46
0.0
 71
     5
 72
     5
  1
\A1;1200
 11
0.0
 21
1.0
 31
0.0
 73
     1
 44
1.0
  0
POINT
  5
A3AB
330
9D5F
100
AcDbEntity
  8
DEFPOINTS
  6
ByBlock
 62
     0
440
 16777216
100
AcDbPoint
 10
14655.61185537672
 20
-3929.16681477328
 30
0.0
  0
POINT
  5
A3AC
330
9D5F
100
AcDbEntity
  8
DEFPOINTS
  6
ByBlock
 62
     0
440
 16777216
100
AcDbPoint
 10
14655.61185537672
 20
-5129.16681477328
 30
0.0
  0
POINT
  5
A3AD
330
9D5F
100
AcDbEntity
  8
DEFPOINTS
  6
ByBlock
 62
     0
440
 16777216
100
AcDbPoint
 10
15001.2096074707
 20
-5129.16681477328
 30
0.0
  0
ENDBLK
  5
A3AE
330
9D5F
100
AcDbEntity
  8
0
100
AcDbBlockEnd
  0
BLOCK
  5
A399
330
9D6C
100
AcDbEntity
  8
0
100
AcDbBlockBegin
  2
*D2
 70
     1
 10
0.0
 20
0.0
 30
0.0
  3
*D2
  1

  0
LINE
  5
A39A
330
9D6C
100
AcDbEntity
  8
0
  6
ByBlock
440
 16777216
100
AcDbLine
 10
14655.61185537672
 20
-5179.16681477328
 30
0.0
 11
14655.61185537672
 21
-5702.171877547662
 31
0.0
  0
LINE
  5
A39B
330
9D6C
100
AcDbEntity
  8
0
  6
ByBlock
440
 16777216
100
AcDbLine
 10
11055.61185537672
 20
-5179.166814773275
 30
0.0
 11
11055.61185537672
 21
-5702.171877547662
 31
0.0
  0
LINE
  5
A39C
330
9D6C
100
AcDbEntity
  8
0
  6
ByBlock
440
 16777216
100
AcDbLine
 10
14555.61185537672
 20
-5652.171877547662
 30
0.0
 11
11155.61185537672
 21
-5652.171877547662
 31
0.0
  0
INSERT
  5
A39D
330
9D6C
100
AcDbEntity
  8
0
  6
ByBlock
440
 16777216
100
AcDbBlockReference
  2
_OPEN
 10
14655.61185537672
 20
-5652.171877547662
 30
0.0
 41
100.0
 42
100.0
 43
100.0
  0
INSERT
  5
A39E
330
9D6C
100
AcDbEntity
  8
0
  6
ByBlock
440
 16777216
100
AcDbBlockReference
  2
_OPEN
 10
11055.61185537672
 20
-5652.171877547662
 30
0.0
 41
100.0
 42
100.0
 43
100.0
 50
180.0
  0
MTEXT
  5
A39F
330
9D6C
100
AcDbEntity
  8
0
  6
ByBlock
440
 16777216
100
AcDbMText
 10
12855.61185537672
 20
-5539.671877547662
 30
0.0
 40
125.0
 41
0.0
 46
0.0
 71
     5
 72
     5
  1
\A1;3600
 73
     1
 44
1.0
  0
POINT
  5
A3A0
330
9D6C
100
AcDbEntity
  8
DEFPOINTS
  6
ByBlock
 62
     0
440
 16777216
100
AcDbPoint
 10
14655.61185537672
 20
-5129.16681477328
 30
0.0
  0
POINT
  5
A3A1
330
9D6C
100
AcDbEntity
  8
DEFPOINTS
  6
ByBlock
 62
     0
440
 16777216
100
AcDbPoint
 10
11055.61185537672
 20
-5129.166814773274
 30
0.0
  0
POINT
  5
A3A2
330
9D6C
100
AcDbEntity
  8
DEFPOINTS
  6
ByBlock
 62
     0
440
 16777216
100
AcDbPoint
 10
11055.61185537672
 20
-5652.171877547662
 30
0.0
  0
ENDBLK
  5
A3A3
330
9D6C
100
AcDbEntity
  8
0
100
AcDbBlockEnd
  0
BLOCK
  5
A407
330
9D79
100
AcDbEntity
  8
0
100
AcDbBlockBegin
  2
*D3
 70
     1
 10
0.0
 20
0.0
 30
0.0
  3
*D3
  1

  0
LINE
  5
A408
330
9D79
100
AcDbEntity
  8
0
  6
ByBlock
440
 16777216
100
AcDbLine
 10
11005.61185537672
 20
-2279.166814773274
 30
0.0
 11
10471.06639179426
 21
-2279.166814773274
 31
0.0
  0
LINE
  5
A409
330
9D79
100
AcDbEntity
  8
0
  6
ByBlock
440
 16777216
100
AcDbLine
 10
11005.61185537672
 20
-5129.166814773274
 30
0.0
 11
10471.06639179426
 21
-5129.166814773274
 31
0.0
  0
LINE
  5
A40A
330
9D79
100
AcDbEntity
  8
0
  6
ByBlock
440
 16777216
100
AcDbLine
 10
10521.06639179426
 20
-2379.166814773274
 30
0.0
 11
10521.06639179426
 21
-5029.166814773274
 31
0.0
  0
INSERT
  5
A40B
330
9D79
100
AcDbEntity
  8
0
  6
ByBlock
440
 16777216
100
AcDbBlockReference
  2
_OPEN
 10
10521.06639179426
 20
-2279.166814773274
 30
0.0
 41
100.0
 42
100.0
 43
100.0
 50
90.0
  0
INSERT
  5
A40C
330
9D79
100
AcDbEntity
  8
0
  6
ByBlock
440
 16777216
100
AcDbBlockReference
  2
_OPEN
 10
10521.06639179426
 20
-5129.166814773274
 30
0.0
 41
100.0
 42
100.0
 43
100.0
 50
270.0
  0
MTEXT
  5
A40D
330
9D79
100
AcDbEntity
  8
0
  6
ByBlock
440
 16777216
100
AcDbMText
 10
10408.56639179426
 20
-3704.166814773274
 30
0.0
 40
125.0
 41
0.0
 46
0.0
 71
     5
 72
     5
  1
\A1;2850
 11
0.0
 21
1.0
 31
0.0
 73
     1
 44
1.0
  0
POINT
  5
A40E
330
9D79
100
AcDbEntity
  8
DEFPOINTS
  6
ByBlock
 62
     0
440
 16777216
100
AcDbPoint
 10
11055.61185537672
 20
-2279.166814773274
 30
0.0
  0
POINT
  5
A40F
330
9D79
100
AcDbEntity
  8
DEFPOINTS
  6
ByBlock
 62
     0
440
 16777216
100
AcDbPoint
 10
11055.61185537672
 20
-5129.166814773274
 30
0.0
  0
POINT
  5
A410
330
9D79
100
AcDbEntity
  8
DEFPOINTS
  6
ByBlock
 62
     0
440
 16777216
100
AcDbPoint
 10
10521.06639179426
 20
-5129.166814773274
 30
0.0
  0
ENDBLK
  5
A411
330
9D79
100
AcDbEntity
  8
0
100
AcDbBlockEnd
  0
BLOCK
  5
A3FC
330
9D86
100
AcDbEntity
  8
0
100
AcDbBlockBegin
  2
*D4
 70
     1
 10
0.0
 20
0.0
 30
0.0
  3
*D4
  1

  0
LINE
  5
A3FD
330
9D86
100
AcDbEntity
  8
0
  6
ByBlock
440
 16777216
100
AcDbLine
 10
13175.61185537672
 20
-2229.166814773274
 30
0.0
 11
13175.61185537672
 21
-1933.199102532606
 31
0.0
  0
LINE
  5
A3FE
330
9D86
100
AcDbEntity
  8
0
  6
ByBlock
440
 16777216
100
AcDbLine
 10
11055.61185537672
 20
-2229.166814773274
 30
0.0
 11
11055.61185537672
 21
-1933.199102532606
 31
0.0
  0
LINE
  5
A3FF
330
9D86
100
AcDbEntity
  8
0
  6
ByBlock
440
 16777216
100
AcDbLine
 10
13075.61185537672
 20
-1983.199102532606
 30
0.0
 11
11155.61185537672
 21
-1983.199102532606
 31
0.0
  0
INSERT
  5
A400
330
9D86
100
AcDbEntity
  8
0
  6
ByBlock
440
 16777216
100
AcDbBlockReference
  2
_OPEN
 10
13175.61185537672
 20
-1983.199102532606
 30
0.0
 41
100.0
 42
100.0
 43
100.0
  0
INSERT
  5
A401
330
9D86
100
AcDbEntity
  8
0
  6
ByBlock
440
 16777216
100
AcDbBlockReference
  2
_OPEN
 10
11055.61185537672
 20
-1983.199102532606
 30
0.0
 41
100.0
 42
100.0
 43
100.0
 50
180.0
  0
MTEXT
  5
A402
330
9D86
100
AcDbEntity
  8
0
  6
ByBlock
440
 16777216
100
AcDbMText
 10
12115.61185537672
 20
-1870.699102532606
 30
0.0
 40
125.0
 41
0.0
 46
0.0
 71
     5
 72
     5
  1
\A1;2120
 73
     1
 44
1.0
  0
POINT
  5
A403
330
9D86
100
AcDbEntity
  8
DEFPOINTS
  6
ByBlock
 62
     0
440
 16777216
100
AcDbPoint
 10
13175.61185537672
 20
-2279.166814773274
 30
0.0
  0
POINT
  5
A404
330
9D86
100
AcDbEntity
  8
DEFPOINTS
  6
ByBlock
 62
     0
440
 16777216
100
AcDbPoint
 10
11055.61185537672
 20
-2279.166814773274
 30
0.0
  0
POINT
  5
A405
330
9D86
100
AcDbEntity
  8
DEFPOINTS
  6
ByBlock
 62
     0
440
 16777216
100
AcDbPoint
 10
11055.61185537672
 20
-1983.199102532606
 30
0.0
  0
ENDBLK
  5
A406
330
9D86
100
AcDbEntity
  8
0
100
AcDbBlockEnd
  0
BLOCK
  5
A38E
330
9D93
100
AcDbEntity
  8
0
100
AcDbBlockBegin
  2
*D5
 70
     1
 10
0.0
 20
0.0
 30
0.0
  3
*D5
  1

  0
LINE
  5
A38F
330
9D93
100
AcDbEntity
  8
0
  6
ByBlock
440
 16777216
100
AcDbLine
 10
13175.61185537672
 20
-2229.166814773274
 30
0.0
 11
13175.61185537672
 21
-1933.199102532606
 31
0.0
  0
LINE
  5
A390
330
9D93
100
AcDbEntity
  8
0
  6
ByBlock
440
 16777216
100
AcDbLine
 10
14655.61185537672
 20
-3879.16681477328
 30
0.0
 11
14655.61185537672
 21
-1933.199102532606
 31
0.0
  0
LINE
  5
A391
330
9D93
100
AcDbEntity
  8
0
  6
ByBlock
440
 16777216
100
AcDbLine
 10
13275.61185537672
 20
-1983.199102532606
 30
0.0
 11
14555.61185537672
 21
-1983.199102532606
 31
0.0
  0
INSERT
  5
A392
330
9D93
100
AcDbEntity
  8
0
  6
ByBlock
440
 16777216
100
AcDbBlockReference
  2
_OPEN
 10
13175.61185537672
 20
-1983.199102532606
 30
0.0
 41
100.0
 42
100.0
 43
100.0
 50
180.0
  0
INSERT
  5
A393
330
9D93
100
AcDbEntity
  8
0
  6
ByBlock
440
 16777216
100
AcDbBlockReference
  2
_OPEN
 10
14655.61185537672
 20
-1983.199102532606
 30
0.0
 41
100.0
 42
100.0
 43
100.0
  0
MTEXT
  5
A394
330
9D93
100
AcDbEntity
  8
0
  6
ByBlock
440
 16777216
100
AcDbMText
 10
13915.61185537672
 20
-1870.699102532606
 30
0.0
 40
125.0
 41
0.0
 46
0.0
 71
     5
 72
     5
  1
\A1;1480
 73
     1
 44
1.0
  0
POINT
  5
A395
330
9D93
100
AcDbEntity
  8
DEFPOINTS
  6
ByBlock
 62
     0
440
 16777216
100
AcDbPoint
 10
13175.61185537672
 20
-2279.166814773274
 30
0.0
  0
POINT
  5
A396
330
9D93
100
AcDbEntity
  8
DEFPOINTS
  6
ByBlock
 62
     0
440
 16777216
100
AcDbPoint
 10
14655.61185537672
 20
-3929.16681477328
 30
0.0
  0
POINT
  5
A397
330
9D93
100
AcDbEntity
  8
DEFPOINTS
  6
ByBlock
 62
     0
440
 16777216
100
AcDbPoint
 10
14655.61185537672
 20
-1983.199102532606
 30
0.0
  0
ENDBLK
  5
A398
330
9D93
100
AcDbEntity
  8
0
100
AcDbBlockEnd
  0
BLOCK
  5
A383
330
9DC7
100
AcDbEntity
  8
0
100
AcDbBlockBegin
  2
*D6
 70
     1
 10
0.0
 20
0.0
 30
0.0
  3
*D6
  1

  0
LINE
  5
A384
330
9DC7
100
AcDbEntity
  8
0
  6
ByBlock
440
 16777216
100
AcDbLine
 10
14655.61185537672
 20
-10647.90686513479
 30
0.0
 11
14655.61185537672
 21
-10960.89450325237
 31
0.0
  0
LINE
  5
A385
330
9DC7
100
AcDbEntity
  8
0
  6
ByBlock
440
 16777216
100
AcDbLine
 10
12115.61185537672
 20
-10647.90686513479
 30
0.0
 11
12115.61185537672
 21
-10960.89450325237
 31
0.0
  0
LINE
  5
A386
330
9DC7
100
AcDbEntity
  8
0
  6
ByBlock
440
 16777216
100
AcDbLine
 10
14555.61185537672
 20
-10910.89450325237
 30
0.0
 11
12215.61185537672
 21
-10910.89450325237
 31
0.0
  0
INSERT
  5
A387
330
9DC7
100
AcDbEntity
  8
0
  6
ByBlock
440
 16777216
100
AcDbBlockReference
  2
_OPEN
 10
14655.61185537672
 20
-10910.89450325237
 30
0.0
 41
100.0
 42
100.0
 43
100.0
  0
INSERT
  5
A388
330
9DC7
100
AcDbEntity
  8
0
  6
ByBlock
440
 16777216
100
AcDbBlockReference
  2
_OPEN
 10
12115.61185537672
 20
-10910.89450325237
 30
0.0
 41
100.0
 42
100.0
 43
100.0
 50
180.0
  0
MTEXT
  5
A389
330
9DC7
100
AcDbEntity
  8
0
  6
ByBlock
440
 16777216
100
AcDbMText
 10
13385.61185537672
 20
-10798.39450325237
 30
0.0
 40
125.0
 41
0.0
 46
0.0
 71
     5
 72
     5
  1
\A1;2540
 73
     1
 44
1.0
  0
POINT
  5
A38A
330
9DC7
100
AcDbEntity
  8
DEFPOINTS
  6
ByBlock
 62
     0
440
 16777216
100
AcDbPoint
 10
14655.61185537672
 20
-10597.90686513479
 30
0.0
  0
POINT
  5
A38B
330
9DC7
100
AcDbEntity
  8
DEFPOINTS
  6
ByBlock
 62
     0
440
 16777216
100
AcDbPoint
 10
12115.61185537672
 20
-10597.90686513478
 30
0.0
  0
POINT
  5
A38C
330
9DC7
100
AcDbEntity
  8
DEFPOINTS
  6
ByBlock
 62
     0
440
 16777216
100
AcDbPoint
 10
12115.61185537672
 20
-10910.89450325237
 30
0.0
  0
ENDBLK
  5
A38D
330
9DC7
100
AcDbEntity
  8
0
100
AcDbBlockEnd
  0
BLOCK
  5
A3C5
330
9DD4
100
AcDbEntity
  8
0
100
AcDbBlockBegin
  2
*D7
 70
     1
 10
0.0
 20
0.0
 30
0.0
  3
*D7
  1

  0
LINE
  5
A3C6
330
9DD4
100
AcDbEntity
  8
0
  6
ByBlock
440
 16777216
100
AcDbLine
 10
12115.61185537672
 20
-10647.90686513479
 30
0.0
 11
12115.61185537672
 21
-10960.89450325237
 31
0.0
  0
LINE
  5
A3C7
330
9DD4
100
AcDbEntity
  8
0
  6
ByBlock
440
 16777216
100
AcDbLine
 10
11055.61185537672
 20
-10647.90686513479
 30
0.0
 11
11055.61185537672
 21
-10960.89450325237
 31
0.0
  0
LINE
  5
A3C8
330
9DD4
100
AcDbEntity
  8
0
  6
ByBlock
440
 16777216
100
AcDbLine
 10
12015.61185537672
 20
-10910.89450325237
 30
0.0
 11
11155.61185537672
 21
-10910.89450325237
 31
0.0
  0
INSERT
  5
A3C9
330
9DD4
100
AcDbEntity
  8
0
  6
ByBlock
440
 16777216
100
AcDbBlockReference
  2
_OPEN
 10
12115.61185537672
 20
-10910.89450325237
 30
0.0
 41
100.0
 42
100.0
 43
100.0
  0
INSERT
  5
A3CA
330
9DD4
100
AcDbEntity
  8
0
  6
ByBlock
440
 16777216
100
AcDbBlockReference
  2
_OPEN
 10
11055.61185537672
 20
-10910.89450325237
 30
0.0
 41
100.0
 42
100.0
 43
100.0
 50
180.0
  0
MTEXT
  5
A3CB
330
9DD4
100
AcDbEntity
  8
0
  6
ByBlock
440
 16777216
100
AcDbMText
 10
11585.61185537672
 20
-10798.39450325237
 30
0.0
 40
125.0
 41
0.0
 46
0.0
 71
     5
 72
     5
  1
\A1;1060
 73
     1
 44
1.0
  0
POINT
  5
A3CC
330
9DD4
100
AcDbEntity
  8
DEFPOINTS
  6
ByBlock
 62
     0
440
 16777216
100
AcDbPoint
 10
12115.61185537672
 20
-10597.90686513478
 30
0.0
  0
POINT
  5
A3CD
330
9DD4
100
AcDbEntity
  8
DEFPOINTS
  6
ByBlock
 62
     0
440
 16777216
100
AcDbPoint
 10
11055.61185537672
 20
-10597.90686513478
 30
0.0
  0
POINT
  5
A3CE
330
9DD4
100
AcDbEntity
  8
DEFPOINTS
  6
ByBlock
 62
     0
440
 16777216
100
AcDbPoint
 10
11055.61185537672
 20
-10910.89450325237
 30
0.0
  0
ENDBLK
  5
A3CF
330
9DD4
100
AcDbEntity
  8
0
100
AcDbBlockEnd
  0
BLOCK
  5
9DEF
330
9DEE
100
AcDbEntity
  8
0
100
AcDbBlockBegin
  2
*D8
 70
     1
 10
0.0
 20
0.0
 30
0.0
  3
*D8
  1

  0
LINE
  5
9DF0
330
9DEE
100
AcDbEntity
  8
0
  6
ByBlock
440
 16777216
100
AcDbLine
 10
3317.482521670158
 20
-11482.61384118756
 30
0.0
 11
3317.482521670158
 21
-11795.60147930514
 31
0.0
  0
LINE
  5
9DF1
330
9DEE
100
AcDbEntity
  8
0
  6
ByBlock
440
 16777216
100
AcDbLine
 10
4908.482521670157
 20
-11482.61384118756
 30
0.0
 11
4908.482521670157
 21
-11795.60147930514
 31
0.0
  0
LINE
  5
9DF2
330
9DEE
100
AcDbEntity
  8
0
  6
ByBlock
440
 16777216
100
AcDbLine
 10
3417.482521670158
 20
-11745.60147930514
 30
0.0
 11
4808.482521670157
 21
-11745.60147930514
 31
0.0
  0
INSERT
  5
9DF3
330
9DEE
100
AcDbEntity
  8
0
  6
ByBlock
440
 16777216
100
AcDbBlockReference
  2
_OPEN
 10
3317.482521670158
 20
-11745.60147930514
 30
0.0
 41
100.0
 42
100.0
 43
100.0
 50
180.0
  0
INSERT
  5
9DF4
330
9DEE
100
AcDbEntity
  8
0
  6
ByBlock
440
 16777216
100
AcDbBlockReference
  2
_OPEN
 10
4908.482521670157
 20
-11745.60147930514
 30
0.0
 41
100.0
 42
100.0
 43
100.0
  0
MTEXT
  5
9DF5
330
9DEE
100
AcDbEntity
  8
0
  6
ByBlock
440
 16777216
100
AcDbMText
 10
4112.982521670157
 20
-11633.10147930514
 30
0.0
 40
125.0
 41
0.0
 46
0.0
 71
     5
 72
     5
  1
\A1;1591
 73
     1
 44
1.0
  0
POINT
  5
9DF6
330
9DEE
100
AcDbEntity
  8
DEFPOINTS
  6
ByBlock
 62
     0
440
 16777216
100
AcDbPoint
 10
3317.482521670158
 20
-11432.61384118756
 30
0.0
  0
POINT
  5
9DF7
330
9DEE
100
AcDbEntity
  8
DEFPOINTS
  6
ByBlock
 62
     0
440
 16777216
100
AcDbPoint
 10
4908.482521670157
 20
-11432.61384118756
 30
0.0
  0
POINT
  5
9DF8
330
9DEE
100
AcDbEntity
  8
DEFPOINTS
  6
ByBlock
 62
     0
440
 16777216
100
AcDbPoint
 10
4908.482521670157
 20
-11745.60147930514
 30
0.0
  0
ENDBLK
  5
9DF9
330
9DEE
100
AcDbEntity
  8
0
100
AcDbBlockEnd
  0
BLOCK
  5
9DFC
330
9DFB
100
AcDbEntity
  8
0
100
AcDbBlockBegin
  2
*D9
 70
     1
 10
0.0
 20
0.0
 30
0.0
  3
*D9
  1

  0
LINE
  5
9DFD
330
9DFB
100
AcDbEntity
  8
0
  6
ByBlock
440
 16777216
100
AcDbLine
 10
4908.482521670157
 20
-11482.61384118756
 30
0.0
 11
4908.482521670157
 21
-11795.60147930514
 31
0.0
  0
LINE
  5
9DFE
330
9DFB
100
AcDbEntity
  8
0
  6
ByBlock
440
 16777216
100
AcDbLine
 10
6167.482521670158
 20
-11482.61384118756
 30
0.0
 11
6167.482521670158
 21
-11795.60147930514
 31
0.0
  0
LINE
  5
9DFF
330
9DFB
100
AcDbEntity
  8
0
  6
ByBlock
440
 16777216
100
AcDbLine
 10
5008.482521670157
 20
-11745.60147930514
 30
0.0
 11
6067.482521670157
 21
-11745.60147930514
 31
0.0
  0
INSERT
  5
9E00
330
9DFB
100
AcDbEntity
  8
0
  6
ByBlock
440
 16777216
100
AcDbBlockReference
  2
_OPEN
 10
4908.482521670157
 20
-11745.60147930514
 30
0.0
 41
100.0
 42
100.0
 43
100.0
 50
180.0
  0
INSERT
  5
9E01
330
9DFB
100
AcDbEntity
  8
0
  6
ByBlock
440
 16777216
100
AcDbBlockReference
  2
_OPEN
 10
6167.482521670158
 20
-11745.60147930514
 30
0.0
 41
100.0
 42
100.0
 43
100.0
  0
MTEXT
  5
9E02
330
9DFB
100
AcDbEntity
  8
0
  6
ByBlock
440
 16777216
100
AcDbMText
 10
5537.982521670158
 20
-11633.10147930514
 30
0.0
 40
125.0
 41
0.0
 46
0.0
 71
     5
 72
     5
  1
\A1;1259
 73
     1
 44
1.0
  0
POINT
  5
9E03
330
9DFB
100
AcDbEntity
  8
DEFPOINTS
  6
ByBlock
 62
     0
440
 16777216
100
AcDbPoint
 10
4908.482521670157
 20
-11432.61384118756
 30
0.0
  0
POINT
  5
9E04
330
9DFB
100
AcDbEntity
  8
DEFPOINTS
  6
ByBlock
 62
     0
440
 16777216
100
AcDbPoint
 10
6167.482521670158
 20
-11432.61384118756
 30
0.0
  0
POINT
  5
9E05
330
9DFB
100
AcDbEntity
  8
DEFPOINTS
  6
ByBlock
 62
     0
440
 16777216
100
AcDbPoint
 10
6167.482521670158
 20
-11745.60147930514
 30
0.0
  0
ENDBLK
  5
9E06
330
9DFB
100
AcDbEntity
  8
0
100
AcDbBlockEnd
  0
BLOCK
  5
9E09
330
9E08
100
AcDbEntity
  8
0
100
AcDbBlockBegin
  2
*D10
 70
     1
 10
0.0
 20
0.0
 30
0.0
  3
*D10
  1

  0
LINE
  5
9E0A
330
9E08
100
AcDbEntity
  8
0
  6
ByBlock
440
 16777216
100
AcDbLine
 10
3317.482521670158
 20
-11482.61384118756
 30
0.0
 11
3317.482521670158
 21
-12113.57912714846
 31
0.0
  0
LINE
  5
9E0B
330
9E08
100
AcDbEntity
  8
0
  6
ByBlock
440
 16777216
100
AcDbLine
 10
6167.482521670158
 20
-11482.61384118756
 30
0.0
 11
6167.482521670158
 21
-12113.57912714846
 31
0.0
  0
LINE
  5
9E0C
330
9E08
100
AcDbEntity
  8
0
  6
ByBlock
440
 16777216
100
AcDbLine
 10
3417.482521670158
 20
-12063.57912714846
 30
0.0
 11
6067.482521670157
 21
-12063.57912714846
 31
0.0
  0
INSERT
  5
9E0D
330
9E08
100
AcDbEntity
  8
0
  6
ByBlock
440
 16777216
100
AcDbBlockReference
  2
_OPEN
 10
3317.482521670158
 20
-12063.57912714846
 30
0.0
 41
100.0
 42
100.0
 43
100.0
 50
180.0
  0
INSERT
  5
9E0E
330
9E08
100
AcDbEntity
  8
0
  6
ByBlock
440
 16777216
100
AcDbBlockReference
  2
_OPEN
 10
6167.482521670158
 20
-12063.57912714846
 30
0.0
 41
100.0
 42
100.0
 43
100.0
  0
MTEXT
  5
9E0F
330
9E08
100
AcDbEntity
  8
0
  6
ByBlock
440
 16777216
100
AcDbMText
 10
4742.482521670157
 20
-11951.07912714846
 30
0.0
 40
125.0
 41
0.0
 46
0.0
 71
     5
 72
     5
  1
\A1;2850
 73
     1
 44
1.0
  0
POINT
  5
9E10
330
9E08
100
AcDbEntity
  8
DEFPOINTS
  6
ByBlock
 62
     0
440
 16777216
100
AcDbPoint
 10
3317.482521670158
 20
-11432.61384118756
 30
0.0
  0
POINT
  5
9E11
330
9E08
100
AcDbEntity
  8
DEFPOINTS
  6
ByBlock
 62
     0
440
 16777216
100
AcDbPoint
 10
6167.482521670158
 20
-11432.61384118756
 30
0.0
  0
POINT
  5
9E12
330
9E08
100
AcDbEntity
  8
DEFPOINTS
  6
ByBlock
 62
     0
440
 16777216
100
AcDbPoint
 10
6167.482521670158
 20
-12063.57912714846
 30
0.0
  0
ENDBLK
  5
9E13
330
9E08
100
AcDbEntity
  8
0
100
AcDbBlockEnd
  0
BLOCK
  5
A378
330
9E49
100
AcDbEntity
  8
0
100
AcDbBlockBegin
  2
*D11
 70
     1
 10
0.0
 20
0.0
 30
0.0
  3
*D11
  1

  0
LINE
  5
A379
330
9E49
100
AcDbEntity
  8
0
  6
ByBlock
440
 16777216
100
AcDbLine
 10
14655.61185537672
 20
-10647.90686513479
 30
0.0
 11
14655.61185537672
 21
-11278.87215109569
 31
0.0
  0
LINE
  5
A37A
330
9E49
100
AcDbEntity
  8
0
  6
ByBlock
440
 16777216
100
AcDbLine
 10
11055.61185537672
 20
-10647.90686513479
 30
0.0
 11
11055.61185537672
 21
-11278.87215109569
 31
0.0
  0
LINE
  5
A37B
330
9E49
100
AcDbEntity
  8
0
  6
ByBlock
440
 16777216
100
AcDbLine
 10
14555.61185537672
 20
-11228.87215109569
 30
0.0
 11
11155.61185537672
 21
-11228.87215109569
 31
0.0
  0
INSERT
  5
A37C
330
9E49
100
AcDbEntity
  8
0
  6
ByBlock
440
 16777216
100
AcDbBlockReference
  2
_OPEN
 10
14655.61185537672
 20
-11228.87215109569
 30
0.0
 41
100.0
 42
100.0
 43
100.0
  0
INSERT
  5
A37D
330
9E49
100
AcDbEntity
  8
0
  6
ByBlock
440
 16777216
100
AcDbBlockReference
  2
_OPEN
 10
11055.61185537672
 20
-11228.87215109569
 30
0.0
 41
100.0
 42
100.0
 43
100.0
 50
180.0
  0
MTEXT
  5
A37E
330
9E49
100
AcDbEntity
  8
0
  6
ByBlock
440
 16777216
100
AcDbMText
 10
12855.61185537672
 20
-11116.37215109569
 30
0.0
 40
125.0
 41
0.0
 46
0.0
 71
     5
 72
     5
  1
\A1;3600
 73
     1
 44
1.0
  0
POINT
  5
A37F
330
9E49
100
AcDbEntity
  8
DEFPOINTS
  6
ByBlock
 62
     0
440
 16777216
100
AcDbPoint
 10
14655.61185537672
 20
-10597.90686513478
 30
0.0
  0
POINT
  5
A380
330
9E49
100
AcDbEntity
  8
DEFPOINTS
  6
ByBlock
 62
     0
440
 16777216
100
AcDbPoint
 10
11055.61185537672
 20
-10597.90686513478
 30
0.0
  0
POINT
  5
A381
330
9E49
100
AcDbEntity
  8
DEFPOINTS
  6
ByBlock
 62
     0
440
 16777216
100
AcDbPoint
 10
11055.61185537672
 20
-11228.87215109569
 30
0.0
  0
ENDBLK
  5
A382
330
9E49
100
AcDbEntity
  8
0
100
AcDbBlockEnd
  0
BLOCK
  5
A2EF
330
A2EE
100
AcDbEntity
  8
0
100
AcDbBlockBegin
  2
*D12
 70
     1
 10
0.0
 20
0.0
 30
0.0
  3
*D12
  1

  0
LINE
  5
A2F0
330
A2EE
100
AcDbEntity
  8
0
  6
ByBlock
440
 16777216
100
AcDbLine
 10
15541.69406084911
 20
-7100.906865134787
 30
0.0
 11
15541.69406084911
 21
-6807.338101524139
 31
0.0
  0
LINE
  5
A2F1
330
A2EE
100
AcDbEntity
  8
0
  6
ByBlock
440
 16777216
100
AcDbLine
 10
17901.6940608491
 20
-7100.906865134787
 30
0.0
 11
17901.6940608491
 21
-6807.338101524139
 31
0.0
  0
LINE
  5
A2F2
330
A2EE
100
AcDbEntity
  8
0
  6
ByBlock
440
 16777216
100
AcDbLine
 10
15651.69406084911
 20
-6862.338101524139
 30
0.0
 11
17791.6940608491
 21
-6862.338101524139
 31
0.0
  0
INSERT
  5
A2F3
330
A2EE
100
AcDbEntity
  8
0
  6
ByBlock
440
 16777216
100
AcDbBlockReference
  2
_OPEN
 10
15541.69406084911
 20
-6862.338101524139
 30
0.0
 41
110.0
 42
110.0
 43
110.0
 50
180.0
  0
INSERT
  5
A2F4
330
A2EE
100
AcDbEntity
  8
0
  6
ByBlock
440
 16777216
100
AcDbBlockReference
  2
_OPEN
 10
17901.6940608491
 20
-6862.338101524139
 30
0.0
 41
110.0
 42
110.0
 43
110.0
  0
MTEXT
  5
A2F5
330
A2EE
100
AcDbEntity
  8
0
  6
ByBlock
440
 16777216
100
AcDbMText
 10
16721.6940608491
 20
-6738.58810152414
 30
0.0
 40
137.5
 41
0.0
 46
0.0
 71
     5
 72
     5
  1
\A1;2360
 73
     1
 44
1.0
  0
POINT
  5
A2F6
330
A2EE
100
AcDbEntity
  8
DEFPOINTS
  6
ByBlock
 62
     0
440
 16777216
100
AcDbPoint
 10
15541.69406084911
 20
-7155.906865134788
 30
0.0
  0
POINT
  5
A2F7
330
A2EE
100
AcDbEntity
  8
DEFPOINTS
  6
ByBlock
 62
     0
440
 16777216
100
AcDbPoint
 10
17901.6940608491
 20
-7155.906865134788
 30
0.0
  0
POINT
  5
A2F8
330
A2EE
100
AcDbEntity
  8
DEFPOINTS
  6
ByBlock
 62
     0
440
 16777216
100
AcDbPoint
 10
17901.6940608491
 20
-6862.338101524139
 30
0.0
  0
ENDBLK
  5
A2F9
330
A2EE
100
AcDbEntity
  8
0
100
AcDbBlockEnd
  0
BLOCK
  5
A3BA
330
A2FB
100
AcDbEntity
  8
0
100
AcDbBlockBegin
  2
*D13
 70
     1
 10
0.0
 20
0.0
 30
0.0
  3
*D13
  1

  0
LINE
  5
A3BB
330
A2FB
100
AcDbEntity
  8
0
  6
ByBlock
440
 16777216
100
AcDbLine
 10
12115.61185537672
 20
-6912.773381472253
 30
0.0
 11
12115.61185537672
 21
-6807.338101524139
 31
0.0
  0
LINE
  5
A3BC
330
A2FB
100
AcDbEntity
  8
0
  6
ByBlock
440
 16777216
100
AcDbLine
 10
10950.61185537672
 20
-8394.906865134791
 30
0.0
 11
10950.61185537672
 21
-6807.338101524139
 31
0.0
  0
LINE
  5
A3BD
330
A2FB
100
AcDbEntity
  8
0
  6
ByBlock
440
 16777216
100
AcDbLine
 10
12005.61185537672
 20
-6862.338101524139
 30
0.0
 11
11060.61185537672
 21
-6862.338101524139
 31
0.0
  0
INSERT
  5
A3BE
330
A2FB
100
AcDbEntity
  8
0
  6
ByBlock
440
 16777216
100
AcDbBlockReference
  2
_OPEN
 10
12115.61185537672
 20
-6862.338101524139
 30
0.0
 41
110.0
 42
110.0
 43
110.0
  0
INSERT
  5
A3BF
330
A2FB
100
AcDbEntity
  8
0
  6
ByBlock
440
 16777216
100
AcDbBlockReference
  2
_OPEN
 10
10950.61185537672
 20
-6862.338101524139
 30
0.0
 41
110.0
 42
110.0
 43
110.0
 50
180.0
  0
MTEXT
  5
A3C0
330
A2FB
100
AcDbEntity
  8
0
  6
ByBlock
440
 16777216
100
AcDbMText
 10
11533.11185537672
 20
-6738.58810152414
 30
0.0
 40
137.5
 41
0.0
 46
0.0
 71
     5
 72
     5
  1
\A1;1165
 73
     1
 44
1.0
  0
POINT
  5
A3C1
330
A2FB
100
AcDbEntity
  8
DEFPOINTS
  6
ByBlock
 62
     0
440
 16777216
100
AcDbPoint
 10
12115.61185537672
 20
-6967.773381472253
 30
0.0
  0
POINT
  5
A3C2
330
A2FB
100
AcDbEntity
  8
DEFPOINTS
  6
ByBlock
 62
     0
440
 16777216
100
AcDbPoint
 10
10950.61185537672
 20
-8449.90686513479
 30
0.0
  0
POINT
  5
A3C3
330
A2FB
100
AcDbEntity
  8
DEFPOINTS
  6
ByBlock
 62
     0
440
 16777216
100
AcDbPoint
 10
10950.61185537672
 20
-6862.338101524139
 30
0.0
  0
ENDBLK
  5
A3C4
330
A2FB
100
AcDbEntity
  8
0
100
AcDbBlockEnd
  0
BLOCK
  5
A3D0
330
A308
100
AcDbEntity
  8
0
100
AcDbBlockBegin
  2
*D14
 70
     1
 10
0.0
 20
0.0
 30
0.0
  3
*D14
  1

  0
LINE
  5
A3D1
330
A308
100
AcDbEntity
  8
0
  6
ByBlock
440
 16777216
100
AcDbLine
 10
12115.61185537672
 20
-6912.773381472253
 30
0.0
 11
12115.61185537672
 21
-6807.338101524139
 31
0.0
  0
LINE
  5
A3D2
330
A308
100
AcDbEntity
  8
0
  6
ByBlock
440
 16777216
100
AcDbLine
 10
13669.61185537672
 20
-8523.906865134788
 30
0.0
 11
13669.61185537672
 21
-6807.338101524139
 31
0.0
  0
LINE
  5
A3D3
330
A308
100
AcDbEntity
  8
0
  6
ByBlock
440
 16777216
100
AcDbLine
 10
12225.61185537672
 20
-6862.338101524139
 30
0.0
 11
13559.61185537672
 21
-6862.338101524139
 31
0.0
  0
INSERT
  5
A3D4
330
A308
100
AcDbEntity
  8
0
  6
ByBlock
440
 16777216
100
AcDbBlockReference
  2
_OPEN
 10
12115.61185537672
 20
-6862.338101524139
 30
0.0
 41
110.0
 42
110.0
 43
110.0
 50
180.0
  0
INSERT
  5
A3D5
330
A308
100
AcDbEntity
  8
0
  6
ByBlock
440
 16777216
100
AcDbBlockReference
  2
_OPEN
 10
13669.61185537672
 20
-6862.338101524139
 30
0.0
 41
110.0
 42
110.0
 43
110.0
  0
MTEXT
  5
A3D6
330
A308
100
AcDbEntity
  8
0
  6
ByBlock
440
 16777216
100
AcDbMText
 10
12892.61185537672
 20
-6738.58810152414
 30
0.0
 40
137.5
 41
0.0
 46
0.0
 71
     5
 72
     5
  1
\A1;1554
 73
     1
 44
1.0
  0
POINT
  5
A3D7
330
A308
100
AcDbEntity
  8
DEFPOINTS
  6
ByBlock
 62
     0
440
 16777216
100
AcDbPoint
 10
12115.61185537672
 20
-6967.773381472253
 30
0.0
  0
POINT
  5
A3D8
330
A308
100
AcDbEntity
  8
DEFPOINTS
  6
ByBlock
 62
     0
440
 16777216
100
AcDbPoint
 10
13669.61185537672
 20
-8578.906865134788
 30
0.0
  0
POINT
  5
A3D9
330
A308
100
AcDbEntity
  8
DEFPOINTS
  6
ByBlock
 62
     0
440
 16777216
100
AcDbPoint
 10
13669.61185537672
 20
-6862.338101524139
 30
0.0
  0
ENDBLK
  5
A3DA
330
A308
100
AcDbEntity
  8
0
100
AcDbBlockEnd
  0
BLOCK
  5
A3F1
330
A315
100
AcDbEntity
  8
0
100
AcDbBlockBegin
  2
*D15
 70
     1
 10
0.0
 20
0.0
 30
0.0
  3
*D15
  1

  0
LINE
  5
A3F2
330
A315
100
AcDbEntity
  8
0
  6
ByBlock
440
 16777216
100
AcDbLine
 10
10895.61185537672
 20
-8518.906865134788
 30
0.0
 11
10539.26670593919
 21
-8518.906865134788
 31
0.0
  0
LINE
  5
A3F3
330
A315
100
AcDbEntity
  8
0
  6
ByBlock
440
 16777216
100
AcDbLine
 10
10895.61185537672
 20
-10368.90686513479
 30
0.0
 11
10539.26670593919
 21
-10368.90686513479
 31
0.0
  0
LINE
  5
A3F4
330
A315
100
AcDbEntity
  8
0
  6
ByBlock
440
 16777216
100
AcDbLine
 10
10594.26670593919
 20
-8628.906865134787
 30
0.0
 11
10594.26670593919
 21
-10258.90686513479
 31
0.0
  0
INSERT
  5
A3F5
330
A315
100
AcDbEntity
  8
0
  6
ByBlock
440
 16777216
100
AcDbBlockReference
  2
_OPEN
 10
10594.26670593919
 20
-8518.906865134788
 30
0.0
 41
110.0
 42
110.0
 43
110.0
 50
90.0
  0
INSERT
  5
A3F6
330
A315
100
AcDbEntity
  8
0
  6
ByBlock
440
 16777216
100
AcDbBlockReference
  2
_OPEN
 10
10594.26670593919
 20
-10368.90686513479
 30
0.0
 41
110.0
 42
110.0
 43
110.0
 50
270.0
  0
MTEXT
  5
A3F7
330
A315
100
AcDbEntity
  8
0
  6
ByBlock
440
 16777216
100
AcDbMText
 10
10470.51670593919
 20
-9443.906865134788
 30
0.0
 40
137.5
 41
0.0
 46
0.0
 71
     5
 72
     5
  1
\A1;1850
 11
0.0
 21
1.0
 31
0.0
 73
     1
 44
1.0
  0
POINT
  5
A3F8
330
A315
100
AcDbEntity
  8
DEFPOINTS
  6
ByBlock
 62
     0
440
 16777216
100
AcDbPoint
 10
10950.61185537671
 20
-8518.906865134788
 30
0.0
  0
POINT
  5
A3F9
330
A315
100
AcDbEntity
  8
DEFPOINTS
  6
ByBlock
 62
     0
440
 16777216
100
AcDbPoint
 10
10950.61185537672
 20
-10368.90686513479
 30
0.0
  0
POINT
  5
A3FA
330
A315
100
AcDbEntity
  8
DEFPOINTS
  6
ByBlock
 62
     0
440
 16777216
100
AcDbPoint
 10
10594.26670593919
 20
-10368.90686513479
 30
0.0
  0
ENDBLK
  5
A3FB
330
A315
100
AcDbEntity
  8
0
100
AcDbBlockEnd
  0
BLOCK
  5
A3E6
330
A322
100
AcDbEntity
  8
0
100
AcDbBlockBegin
  2
*D16
 70
     1
 10
0.0
 20
0.0
 30
0.0
  3
*D16
  1

  0
LINE
  5
A3E7
330
A322
100
AcDbEntity
  8
0
  6
ByBlock
440
 16777216
100
AcDbLine
 10
10895.61185537672
 20
-10368.90686513479
 30
0.0
 11
10179.3868928186
 21
-10368.90686513479
 31
0.0
  0
LINE
  5
A3E8
330
A322
100
AcDbEntity
  8
0
  6
ByBlock
440
 16777216
100
AcDbLine
 10
10750.17046135165
 20
-8447.906865134788
 30
0.0
 11
10179.3868928186
 21
-8447.906865134788
 31
0.0
  0
LINE
  5
A3E9
330
A322
100
AcDbEntity
  8
0
  6
ByBlock
440
 16777216
100
AcDbLine
 10
10234.3868928186
 20
-10258.90686513479
 30
0.0
 11
10234.3868928186
 21
-8557.906865134787
 31
0.0
  0
INSERT
  5
A3EA
330
A322
100
AcDbEntity
  8
0
  6
ByBlock
440
 16777216
100
AcDbBlockReference
  2
_OPEN
 10
10234.3868928186
 20
-10368.90686513479
 30
0.0
 41
110.0
 42
110.0
 43
110.0
 50
270.0
  0
INSERT
  5
A3EB
330
A322
100
AcDbEntity
  8
0
  6
ByBlock
440
 16777216
100
AcDbBlockReference
  2
_OPEN
 10
10234.3868928186
 20
-8447.906865134788
 30
0.0
 41
110.0
 42
110.0
 43
110.0
 50
90.0
  0
MTEXT
  5
A3EC
330
A322
100
AcDbEntity
  8
0
  6
ByBlock
440
 16777216
100
AcDbMText
 10
10110.6368928186
 20
-9408.406865134788
 30
0.0
 40
137.5
 41
0.0
 46
0.0
 71
     5
 72
     5
  1
\A1;1921
 11
0.0
 21
1.0
 31
0.0
 73
     1
 44
1.0
  0
POINT
  5
A3ED
330
A322
100
AcDbEntity
  8
DEFPOINTS
  6
ByBlock
 62
     0
440
 16777216
100
AcDbPoint
 10
10950.61185537672
 20
-10368.90686513479
 30
0.0
  0
POINT
  5
A3EE
330
A322
100
AcDbEntity
  8
DEFPOINTS
  6
ByBlock
 62
     0
440
 16777216
100
AcDbPoint
 10
10805.17046135165
 20
-8447.906865134788
 30
0.0
  0
POINT
  5
A3EF
330
A322
100
AcDbEntity
  8
DEFPOINTS
  6
ByBlock
 62
     0
440
 16777216
100
AcDbPoint
 10
10234.3868928186
 20
-8447.906865134788
 30
0.0
  0
ENDBLK
  5
A3F0
330
A322
100
AcDbEntity
  8
0
100
AcDbBlockEnd
  0
BLOCK
  5
A3DB
330
A32F
100
AcDbEntity
  8
0
100
AcDbBlockBegin
  2
*D17
 70
     1
 10
0.0
 20
0.0
 30
0.0
  3
*D17
  1

  0
LINE
  5
A3DC
330
A32F
100
AcDbEntity
  8
0
  6
ByBlock
440
 16777216
100
AcDbLine
 10
11000.61185537672
 20
-10597.90686513478
 30
0.0
 11
9819.507079698007
 21
-10597.90686513478
 31
0.0
  0
LINE
  5
A3DD
330
A32F
100
AcDbEntity
  8
0
  6
ByBlock
440
 16777216
100
AcDbLine
 10
10750.17046135165
 20
-8447.906865134788
 30
0.0
 11
9819.507079698007
 21
-8447.906865134788
 31
0.0
  0
LINE
  5
A3DE
330
A32F
100
AcDbEntity
  8
0
  6
ByBlock
440
 16777216
100
AcDbLine
 10
9874.507079698007
 20
-10487.90686513479
 30
0.0
 11
9874.507079698007
 21
-8557.906865134787
 31
0.0
  0
INSERT
  5
A3DF
330
A32F
100
AcDbEntity
  8
0
  6
ByBlock
440
 16777216
100
AcDbBlockReference
  2
_OPEN
 10
9874.507079698007
 20
-10597.90686513478
 30
0.0
 41
110.0
 42
110.0
 43
110.0
 50
270.0
  0
INSERT
  5
A3E0
330
A32F
100
AcDbEntity
  8
0
  6
ByBlock
440
 16777216
100
AcDbBlockReference
  2
_OPEN
 10
9874.507079698007
 20
-8447.906865134788
 30
0.0
 41
110.0
 42
110.0
 43
110.0
 50
90.0
  0
MTEXT
  5
A3E1
330
A32F
100
AcDbEntity
  8
0
  6
ByBlock
440
 16777216
100
AcDbMText
 10
9750.757079698008
 20
-9522.906865134789
 30
0.0
 40
137.5
 41
0.0
 46
0.0
 71
     5
 72
     5
  1
\A1;2150
 11
0.0
 21
1.0
 31
0.0
 73
     1
 44
1.0
  0
POINT
  5
A3E2
330
A32F
100
AcDbEntity
  8
DEFPOINTS
  6
ByBlock
 62
     0
440
 16777216
100
AcDbPoint
 10
11055.61185537672
 20
-10597.90686513478
 30
0.0
  0
POINT
  5
A3E3
330
A32F
100
AcDbEntity
  8
DEFPOINTS
  6
ByBlock
 62
     0
440
 16777216
100
AcDbPoint
 10
10805.17046135165
 20
-8447.906865134788
 30
0.0
  0
POINT
  5
A3E4
330
A32F
100
AcDbEntity
  8
DEFPOINTS
  6
ByBlock
 62
     0
440
 16777216
100
AcDbPoint
 10
9874.507079698007
 20
-8447.906865134788
 30
0.0
  0
ENDBLK
  5
A3E5
330
A32F
100
AcDbEntity
  8
0
100
AcDbBlockEnd
  0
BLOCK
  5
A3AF
330
A33C
100
AcDbEntity
  8
0
100
AcDbBlockBegin
  2
*D18
 70
     1
 10
0.0
 20
0.0
 30
0.0
  3
*D18
  1

  0
LINE
  5
A3B0
330
A33C
100
AcDbEntity
  8
0
  6
ByBlock
440
 16777216
100
AcDbLine
 10
12191.61185537672
 20
-7155.906865134788
 30
0.0
 11
9819.507079698007
 21
-7155.906865134788
 31
0.0
  0
LINE
  5
A3B1
330
A33C
100
AcDbEntity
  8
0
  6
ByBlock
440
 16777216
100
AcDbLine
 10
10750.17046135165
 20
-8447.906865134788
 30
0.0
 11
9819.507079698007
 21
-8447.906865134788
 31
0.0
  0
LINE
  5
A3B2
330
A33C
100
AcDbEntity
  8
0
  6
ByBlock
440
 16777216
100
AcDbLine
 10
9874.507079698007
 20
-7265.906865134788
 30
0.0
 11
9874.507079698007
 21
-8337.906865134788
 31
0.0
  0
INSERT
  5
A3B3
330
A33C
100
AcDbEntity
  8
0
  6
ByBlock
440
 16777216
100
AcDbBlockReference
  2
_OPEN
 10
9874.507079698007
 20
-7155.906865134788
 30
0.0
 41
110.0
 42
110.0
 43
110.0
 50
90.0
  0
INSERT
  5
A3B4
330
A33C
100
AcDbEntity
  8
0
  6
ByBlock
440
 16777216
100
AcDbBlockReference
  2
_OPEN
 10
9874.507079698007
 20
-8447.906865134788
 30
0.0
 41
110.0
 42
110.0
 43
110.0
 50
270.0
  0
MTEXT
  5
A3B5
330
A33C
100
AcDbEntity
  8
0
  6
ByBlock
440
 16777216
100
AcDbMText
 10
9750.757079698008
 20
-7801.906865134788
 30
0.0
 40
137.5
 41
0.0
 46
0.0
 71
     5
 72
     5
  1
\A1;1292
 11
0.0
 21
1.0
 31
0.0
 73
     1
 44
1.0
  0
POINT
  5
A3B6
330
A33C
100
AcDbEntity
  8
DEFPOINTS
  6
ByBlock
 62
     0
440
 16777216
100
AcDbPoint
 10
12246.61185537672
 20
-7155.906865134788
 30
0.0
  0
POINT
  5
A3B7
330
A33C
100
AcDbEntity
  8
DEFPOINTS
  6
ByBlock
 62
     0
440
 16777216
100
AcDbPoint
 10
10805.17046135165
 20
-8447.906865134788
 30
0.0
  0
POINT
  5
A3B8
330
A33C
100
AcDbEntity
  8
DEFPOINTS
  6
ByBlock
 62
     0
440
 16777216
100
AcDbPoint
 10
9874.507079698007
 20
-8447.906865134788
 30
0.0
  0
ENDBLK
  5
A3B9
330
A33C
100
AcDbEntity
  8
0
100
AcDbBlockEnd
  0
BLOCK
  5
A34A
330
A349
100
AcDbEntity
  8
0
100
AcDbBlockBegin
  2
*D19
 70
     1
 10
0.0
 20
0.0
 30
0.0
  3
*D19
  1

  0
LINE
  5
A47B
330
A349
100
AcDbEntity
  8
SP
440
 16777216
370
    -2
100
AcDbLine
 10
16721.6940608491
 20
-6537.48237652436
 30
0.0
 11
16721.6940608491
 21
-6511.986227515037
 31
0.0
  0
LINE
  5
A47C
330
A349
100
AcDbEntity
  8
SP
440
 16777216
370
    -2
100
AcDbLine
 10
14921.6940608491
 20
-7912.90686513479
 30
0.0
 11
14921.6940608491
 21
-6511.986227515037
 31
0.0
  0
LINE
  5
A47D
330
A349
100
AcDbEntity
  8
SP
440
 16777216
370
    -2
100
AcDbLine
 10
16611.6940608491
 20
-6566.986227515037
 30
0.0
 11
15031.6940608491
 21
-6566.986227515037
 31
0.0
  0
INSERT
  5
A47E
330
A349
100
AcDbEntity
  8
SP
440
 16777216
370
    -2
100
AcDbBlockReference
  2
_OPEN
 10
16721.6940608491
 20
-6566.986227515037
 30
0.0
 41
110.0
 42
110.0
 43
110.0
  0
INSERT
  5
A47F
330
A349
100
AcDbEntity
  8
SP
440
 16777216
370
    -2
100
AcDbBlockReference
  2
_OPEN
 10
14921.6940608491
 20
-6566.986227515037
 30
0.0
 41
110.0
 42
110.0
 43
110.0
 50
180.0
  0
MTEXT
  5
A480
330
A349
100
AcDbEntity
  8
SP
440
 16777216
100
AcDbMText
 10
15821.6940608491
 20
-6407.224322753133
 30
0.0
 40
137.5
 41
0.0
 46
0.0
 71
     5
 72
     1
  1
\A1;(1800)
 73
     1
 44
1.0
  0
POINT
  5
A481
330
A349
100
AcDbEntity
  8
DEFPOINTS
 62
     0
440
 16777216
100
AcDbPoint
 10
16721.6940608491
 20
-6592.48237652436
 30
0.0
  0
POINT
  5
A482
330
A349
100
AcDbEntity
  8
DEFPOINTS
 62
     0
440
 16777216
100
AcDbPoint
 10
14921.6940608491
 20
-7967.90686513479
 30
0.0
  0
POINT
  5
A483
330
A349
100
AcDbEntity
  8
DEFPOINTS
 62
     0
440
 16777216
100
AcDbPoint
 10
14921.6940608491
 20
-6566.986227515037
 30
0.0
  0
ENDBLK
  5
A354
330
A349
100
AcDbEntity
  8
0
100
AcDbBlockEnd
  0
BLOCK
  5
A357
330
A356
100
AcDbEntity
  8
0
100
AcDbBlockBegin
  2
*D20
 70
     1
 10
0.0
 20
0.0
 30
0.0
  3
*D20
  1

  0
LINE
  5
A484
330
A356
100
AcDbEntity
  8
SP
440
 16777216
370
    -2
100
AcDbLine
 10
16721.6940608491
 20
-6537.48237652436
 30
0.0
 11
16721.6940608491
 21
-6511.986227515037
 31
0.0
  0
LINE
  5
A485
330
A356
100
AcDbEntity
  8
SP
440
 16777216
370
    -2
100
AcDbLine
 10
18171.6940608491
 20
-8472.906865134788
 30
0.0
 11
18171.6940608491
 21
-6511.986227515037
 31
0.0
  0
LINE
  5
A486
330
A356
100
AcDbEntity
  8
SP
440
 16777216
370
    -2
100
AcDbLine
 10
16831.6940608491
 20
-6566.986227515037
 30
0.0
 11
18061.6940608491
 21
-6566.986227515037
 31
0.0
  0
INSERT
  5
A487
330
A356
100
AcDbEntity
  8
SP
440
 16777216
370
    -2
100
AcDbBlockReference
  2
_OPEN
 10
16721.6940608491
 20
-6566.986227515037
 30
0.0
 41
110.0
 42
110.0
 43
110.0
 50
180.0
  0
INSERT
  5
A488
330
A356
100
AcDbEntity
  8
SP
440
 16777216
370
    -2
100
AcDbBlockReference
  2
_OPEN
 10
18171.6940608491
 20
-6566.986227515037
 30
0.0
 41
110.0
 42
110.0
 43
110.0
  0
MTEXT
  5
A489
330
A356
100
AcDbEntity
  8
SP
440
 16777216
100
AcDbMText
 10
17446.6940608491
 20
-6407.224322753133
 30
0.0
 40
137.5
 41
0.0
 46
0.0
 71
     5
 72
     1
  1
\A1;(1450)
 73
     1
 44
1.0
  0
POINT
  5
A48A
330
A356
100
AcDbEntity
  8
DEFPOINTS
 62
     0
440
 16777216
100
AcDbPoint
 10
16721.6940608491
 20
-6592.48237652436
 30
0.0
  0
POINT
  5
A48B
330
A356
100
AcDbEntity
  8
DEFPOINTS
 62
     0
440
 16777216
100
AcDbPoint
 10
18171.6940608491
 20
-8527.906865134788
 30
0.0
  0
POINT
  5
A48C
330
A356
100
AcDbEntity
  8
DEFPOINTS
 62
     0
440
 16777216
100
AcDbPoint
 10
18171.6940608491
 20
-6566.986227515037
 30
0.0
  0
ENDBLK
  5
A361
330
A356
100
AcDbEntity
  8
0
100
AcDbBlockEnd
  0
ENDSEC
  0
SECTION
  2
ENTITIES
  0
LINE
  5
5648
330
19
100
AcDbEntity
  8
CT
100
AcDbLine
 10
13316.66744841509
 20
-8447.906865134786
 30
0.0
 11
10351.37240228788
 21
-8447.906865134788
 31
0.0
  0
LINE
  5
564B
330
19
100
AcDbEntity
  8
FUTO
100
AcDbLine
 10
10601.81379631294
 20
-10417.90686513479
 30
0.0
 11
14201.81379631294
 21
-10417.90686513478
 31
0.0
  0
LINE
  5
564C
330
19
100
AcDbEntity
  8
FUTO
100
AcDbLine
 10
10601.81379631294
 20
-10597.90686513478
 30
0.0
 11
14201.81379631294
 21
-10597.90686513479
 31
0.0
  0
LINE
  5
564F
330
19
100
AcDbEntity
  8
FUTO
100
AcDbLine
 10
11661.81379631294
 20
-10258.80686215842
 30
0.0
 11
10496.81379631294
 21
-10368.90686513479
 31
0.0
  0
ARC
  5
5657
330
19
100
AcDbEntity
  8
FUTO
100
AcDbCircle
 10
11792.81379631294
 20
-8578.906865134788
 30
0.0
 40
1423.0
100
AcDbArc
 50
0.0
 51
4.918254988085051
  0
ARC
  5
565B
330
19
100
AcDbEntity
  8
FUTO
100
AcDbCircle
 10
11530.81379631294
 20
-8578.906865134788
 30
0.0
 40
1685.0
100
AcDbArc
 50
274.458948880937
 51
0.0
  0
LINE
  5
565C
330
19
100
AcDbEntity
  8
CT
100
AcDbLine
 10
11661.81379631294
 20
-10597.90686513479
 30
0.0
 11
11661.81379631294
 21
-6967.773381472253
 31
0.0
  0
LINE
  5
566D
330
19
100
AcDbEntity
  8
FUTO
100
AcDbLine
 10
10561.81379631294
 20
-10362.76394651378
 30
0.0
 11
10561.81379631294
 21
-8518.906865134786
 31
0.0
  0
LINE
  5
566E
330
19
100
AcDbEntity
  8
FUTO
100
AcDbLine
 10
10496.81379631294
 20
-10437.90686513479
 30
0.0
 11
10496.81379631294
 21
-8449.90686513479
 31
0.0
  0
LINE
  5
5674
330
19
100
AcDbEntity
  8
FUTO
100
AcDbLine
 10
10608.11816443162
 20
-8518.906865134788
 30
0.0
 11
10496.81379631294
 21
-8518.906865134788
 31
0.0
  0
CIRCLE
  5
663A
330
19
100
AcDbEntity
  8
SL
100
AcDbCircle
 10
11661.81379631294
 20
-8447.906865134788
 30
0.0
 40
400.0
  0
ARC
  5
67DA
330
19
100
AcDbEntity
  8
FUTO
100
AcDbCircle
 10
11792.81379631294
 20
-8578.906865134788
 30
0.0
 40
1423.0
100
AcDbArc
 50
5.646104120255266
 51
90.0
  0
ARC
  5
67E7
330
19
100
AcDbEntity
  8
FUTO
100
AcDbCircle
 10
11551.31379631294
 20
-8337.406865134788
 30
0.0
 40
960.5
100
AcDbArc
 50
180.0
 51
190.8923353408944
  0
ARC
  5
6938
330
19
100
AcDbEntity
  8
FUTO
100
AcDbCircle
 10
11772.31379631294
 20
-8337.406865134788
 30
0.0
 40
1181.5
100
AcDbArc
 50
90.0
 51
180.0
  0
LINE
  5
7990
330
19
100
AcDbEntity
  8
FUTO
100
AcDbLine
 10
10601.81379631294
 20
-10417.90686513479
 30
0.0
 11
10601.81379631294
 21
-10597.90686513478
 31
0.0
  0
LINE
  5
7991
330
19
100
AcDbEntity
  8
FUTO
100
AcDbLine
 10
14201.81379631294
 20
-10417.90686513479
 30
0.0
 11
14201.81379631294
 21
-10597.90686513478
 31
0.0
  0
LINE
  5
7AB6
330
19
100
AcDbEntity
  8
FUTO
100
AcDbLine
 10
13461.81379631294
 20
-10347.90686513478
 30
0.0
 11
13531.81379631294
 21
-10347.90686513478
 31
0.0
  0
LINE
  5
7AB7
330
19
100
AcDbEntity
  8
FUTO
100
AcDbLine
 10
14161.81379631294
 20
-10347.90686513478
 30
0.0
 11
14161.81379631294
 21
-10417.90686513478
 31
0.0
  0
LINE
  5
7AB8
330
19
100
AcDbEntity
  8
FUTO
100
AcDbLine
 10
13461.81379631294
 20
-10347.90686513478
 30
0.0
 11
13461.81379631294
 21
-10417.90686513478
 31
0.0
  0
LINE
  5
7AC0
330
19
100
AcDbEntity
  8
FUTO
100
AcDbLine
 10
14081.81379631294
 20
-4128.166814773274
 30
0.0
 11
13541.81379631294
 21
-4128.166814773274
 31
0.0
  0
LINE
  5
7AC6
330
19
100
AcDbEntity
  8
FUTO
100
AcDbLine
 10
13541.81379631294
 20
-5031.666814773274
 30
0.0
 11
14081.81379631294
 21
-5031.666814773274
 31
0.0
  0
LINE
  5
7AFE
330
19
100
AcDbEntity
  8
FUTO
100
AcDbLine
 10
13854.31379631294
 20
-5098.166814773275
 30
0.0
 11
13854.31379631294
 21
-5031.666814773274
 31
0.0
  0
LINE
  5
7AFF
330
19
100
AcDbEntity
  8
FUTO
100
AcDbLine
 10
13769.31379631294
 20
-5031.666814773274
 30
0.0
 11
13769.31379631294
 21
-5098.166814773275
 31
0.0
  0
ARC
  5
7B35
330
19
100
AcDbEntity
  8
FUTO
100
AcDbCircle
 10
13811.81379631294
 20
-10067.90686513478
 30
0.0
 40
287.5
100
AcDbArc
 50
329.6527344126618
 51
210.3472654840073
  0
LINE
  5
7B36
330
19
100
AcDbEntity
  8
CT
100
AcDbLine
 10
13811.81379631294
 20
-10597.90686513479
 30
0.0
 11
13811.81379631294
 21
-9684.744545134785
 31
0.0
  0
LINE
  5
7B38
330
19
100
AcDbEntity
  8
CT
100
AcDbLine
 10
14131.81379631294
 20
-10067.90686513478
 30
0.0
 11
13491.81379631294
 21
-10067.90686513478
 31
0.0
  0
LINE
  5
7B3B
330
19
100
AcDbEntity
  8
FUTO
100
AcDbLine
 10
14082.18251631294
 20
-10226.66032813478
 30
0.0
 11
14059.92027331294
 21
-10213.16327913478
 31
0.0
  0
LINE
  5
7B3C
330
19
100
AcDbEntity
  8
FUTO
100
AcDbLine
 10
14091.81379631294
 20
-10347.90686513478
 30
0.0
 11
14091.81379631294
 21
-10243.76265713478
 31
0.0
  0
ARC
  5
7B3E
330
19
100
AcDbEntity
  8
FUTO
100
AcDbCircle
 10
14071.81379631294
 20
-10243.76265713478
 30
0.0
 40
20.0
100
AcDbArc
 50
0.0
 51
58.77259900000001
  0
LINE
  5
7B4A
330
19
100
AcDbEntity
  8
FUTO
100
AcDbLine
 10
13531.81379631294
 20
-10347.90686513478
 30
0.0
 11
13531.81379631294
 21
-10243.76265713478
 31
0.0
  0
LINE
  5
7B57
330
19
100
AcDbEntity
  8
FUTO
100
AcDbLine
 10
13541.44507531294
 20
-10226.66032813478
 30
0.0
 11
13563.70731866054
 21
-10213.16327892404
 31
0.0
  0
ARC
  5
7B5A
330
19
100
AcDbEntity
  8
FUTO
100
AcDbCircle
 10
13551.81379631294
 20
-10243.76265713478
 30
0.0
 40
20.0
100
AcDbArc
 50
121.227401
 51
180.0
  0
CIRCLE
  5
7B75
330
19
100
AcDbEntity
  8
SL
100
AcDbCircle
 10
13811.81379631294
 20
-10067.90686513478
 30
0.0
 40
140.0
  0
LINE
  5
7B82
330
19
100
AcDbEntity
  8
FUTO
100
AcDbLine
 10
14091.81379631294
 20
-10347.90686513478
 30
0.0
 11
14161.81379631294
 21
-10347.90686513478
 31
0.0
  0
LINE
  5
8CEA
330
19
100
AcDbEntity
  8
CT
100
AcDbLine
 10
14921.6940608491
 20
-8447.906865134791
 30
0.0
 11
18204.17843685405
 21
-8447.906865134788
 31
0.0
  0
LINE
  5
8D2E
330
19
100
AcDbEntity
  8
CT
100
AcDbLine
 10
16721.6940608491
 20
-6967.773381472253
 30
0.0
 11
16721.6940608491
 21
-10597.90686513478
 31
0.0
  0
LINE
  5
8D2F
330
19
100
AcDbEntity
  8
FUTO
100
AcDbLine
 10
17901.6940608491
 20
-10372.90686513478
 30
0.0
 11
17901.6940608491
 21
-7155.906865134788
 31
0.0
  0
LINE
  5
8D30
330
19
100
AcDbEntity
  8
FUTO
100
AcDbLine
 10
17970.6940608491
 20
-10417.90686513477
 30
0.0
 11
17970.6940608491
 21
-8777.906865134792
 31
0.0
  0
LINE
  5
8D31
330
19
100
AcDbEntity
  8
FUTO
100
AcDbLine
 10
15541.6940608491
 20
-10372.90686513478
 30
0.0
 11
15541.6940608491
 21
-10337.90686513479
 31
0.0
  0
LINE
  5
8D32
330
19
100
AcDbEntity
  8
FUTO
100
AcDbLine
 10
15472.69406084909
 20
-10417.90686513478
 30
0.0
 11
15472.69406084909
 21
-10337.90686513479
 31
0.0
  0
LINE
  5
8D34
330
19
100
AcDbEntity
  8
FUTO
100
AcDbLine
 10
17980.6940608491
 20
-10417.90686513478
 30
0.0
 11
17970.6940608491
 21
-10417.90686513478
 31
0.0
  0
LINE
  5
8D35
330
19
100
AcDbEntity
  8
FUTO
100
AcDbLine
 10
17901.6940608491
 20
-8777.906865134792
 30
0.0
 11
18171.6940608491
 21
-8777.90686513479
 31
0.0
  0
LINE
  5
8D38
330
19
100
AcDbEntity
  8
FUTO
100
AcDbLine
 10
17901.6940608491
 20
-8527.906865134786
 30
0.0
 11
18171.6940608491
 21
-8527.906865134788
 31
0.0
  0
LINE
  5
8D3D
330
19
100
AcDbEntity
  8
FUTO
100
AcDbLine
 10
17980.6940608491
 20
-10597.90686513478
 30
0.0
 11
15130.6940608491
 21
-10597.90686513478
 31
0.0
  0
LINE
  5
8D3E
330
19
100
AcDbEntity
  8
FUTO
100
AcDbLine
 10
17901.6940608491
 20
-8449.906865134789
 30
0.0
 11
17970.6940608491
 21
-8449.906865134789
 31
0.0
  0
LINE
  5
8D59
330
19
100
AcDbEntity
  8
FUTO
100
AcDbLine
 10
15541.6940608491
 20
-8787.906865134788
 30
0.0
 11
15307.6940608491
 21
-8787.906865134788
 31
0.0
  0
LINE
  5
8D5A
330
19
100
AcDbEntity
  8
FUTO
100
AcDbLine
 10
15541.6940608491
 20
-8537.906865134784
 30
0.0
 11
15307.6940608491
 21
-8537.906865134788
 31
0.0
  0
LINE
  5
8D5F
330
19
100
AcDbEntity
  8
FUTO
100
AcDbLine
 10
15130.6940608491
 20
-10417.90686513479
 30
0.0
 11
15130.6940608491
 21
-10597.90686513478
 31
0.0
  0
LINE
  5
8D73
330
19
100
AcDbEntity
  8
FUTO
100
AcDbLine
 10
15307.6940608491
 20
-8537.906865134788
 30
0.0
 11
15307.6940608491
 21
-8787.90686513479
 31
0.0
  0
LINE
  5
8D8E
330
19
100
AcDbEntity
  8
FUTO
100
AcDbLine
 10
15161.6940608491
 20
-8390.406865134789
 30
0.0
 11
15541.6940608491
 21
-8390.40686513479
 31
0.0
  0
LINE
  5
8D8F
330
19
100
AcDbEntity
  8
FUTO
100
AcDbLine
 10
15161.6940608491
 20
-8505.406865134787
 30
0.0
 11
15541.6940608491
 21
-8505.406865134787
 31
0.0
  0
LINE
  5
8D9A
330
19
100
AcDbEntity
  8
FUTO
100
AcDbLine
 10
17980.6940608491
 20
-10417.90686513479
 30
0.0
 11
17980.6940608491
 21
-10597.90686513478
 31
0.0
  0
LINE
  5
8DA9
330
19
100
AcDbEntity
  8
FUTO
100
AcDbLine
 10
18171.6940608491
 20
-8527.906865134788
 30
0.0
 11
18171.6940608491
 21
-8777.90686513479
 31
0.0
  0
LINE
  5
8DBE
330
19
100
AcDbEntity
  8
FUTO
100
AcDbLine
 10
15541.6940608491
 20
-10372.90686513479
 30
0.0
 11
17901.6940608491
 21
-10372.90686513479
 31
0.0
  0
LINE
  5
8DC8
330
19
100
AcDbEntity
  8
SP
100
AcDbLine
 10
16721.6940608491
 20
-6592.48237652436
 30
0.0
 11
16721.6940608491
 21
-6537.48237652436
 31
0.0
  0
LINE
  5
98B1
330
19
100
AcDbEntity
  8
SL
100
AcDbLine
 10
14921.6940608491
 20
-7967.90686513479
 30
0.0
 11
14921.6940608491
 21
-10287.90686513479
 31
0.0
  0
LINE
  5
98B2
330
19
100
AcDbEntity
  8
SL
100
AcDbLine
 10
14921.6940608491
 20
-7967.90686513479
 30
0.0
 11
15211.6940608491
 21
-7967.90686513479
 31
0.0
  0
LINE
  5
98B4
330
19
100
AcDbEntity
  8
SL
100
AcDbLine
 10
15211.6940608491
 20
-10287.90686513479
 30
0.0
 11
14921.6940608491
 21
-10287.90686513479
 31
0.0
  0
LINE
  5
98B5
330
19
100
AcDbEntity
  8
SL
100
AcDbLine
 10
15211.6940608491
 20
-7967.90686513479
 30
0.0
 11
15211.6940608491
 21
-8017.906865134792
 31
0.0
  0
LINE
  5
98B6
330
19
100
AcDbEntity
  8
SL
100
AcDbLine
 10
15021.6940608491
 20
-8047.906865134791
 30
0.0
 11
15161.6940608491
 21
-8047.906865134793
 31
0.0
  0
LINE
  5
98B7
330
19
100
AcDbEntity
  8
SL
100
AcDbLine
 10
15021.6940608491
 20
-8847.906865134794
 30
0.0
 11
15161.6940608491
 21
-8847.906865134794
 31
0.0
  0
LINE
  5
98B8
330
19
100
AcDbEntity
  8
SL
100
AcDbLine
 10
15161.6940608491
 20
-9927.90686513479
 30
0.0
 11
15021.6940608491
 21
-9927.906865134788
 31
0.0
  0
LINE
  5
98B9
330
19
100
AcDbEntity
  8
SL
100
AcDbLine
 10
15161.6940608491
 20
-10207.90686513478
 30
0.0
 11
15021.6940608491
 21
-10207.90686513478
 31
0.0
  0
LINE
  5
98BA
330
19
100
AcDbEntity
  8
SL
100
AcDbLine
 10
15021.6940608491
 20
-8047.906865134791
 30
0.0
 11
15021.6940608491
 21
-10207.90686513478
 31
0.0
  0
LINE
  5
98BC
330
19
100
AcDbEntity
  8
SL
100
AcDbLine
 10
15161.6940608491
 20
-8047.906865134791
 30
0.0
 11
15161.6940608491
 21
-10207.90686513478
 31
0.0
  0
LINE
  5
98BF
330
19
100
AcDbEntity
  8
SL
100
AcDbLine
 10
15211.6940608491
 20
-10237.90686513479
 30
0.0
 11
15211.6940608491
 21
-10287.90686513479
 31
0.0
  0
LINE
  5
98C4
330
19
100
AcDbEntity
  8
FUTO
100
AcDbLine
 10
13541.81379631294
 20
-5031.666814773274
 30
0.0
 11
13541.81379631294
 21
-4128.166814773274
 31
0.0
  0
LINE
  5
98C5
330
19
100
AcDbEntity
  8
FUTO
100
AcDbLine
 10
14081.81379631294
 20
-5031.666814773274
 30
0.0
 11
14081.81379631294
 21
-4128.166814773274
 31
0.0
  0
LINE
  5
98C6
330
19
100
AcDbEntity
  8
FUTO
100
AcDbLine
 10
15228.1940608491
 20
-10337.90686513478
 30
0.0
 11
16131.6940608491
 21
-10337.9068651348
 31
0.0
  0
LINE
  5
98C7
330
19
100
AcDbEntity
  8
FUTO
100
AcDbLine
 10
15228.1940608491
 20
-9797.906865134786
 30
0.0
 11
16131.6940608491
 21
-9797.906865134786
 31
0.0
  0
LINE
  5
98C8
330
19
100
AcDbEntity
  8
CT
100
AcDbLine
 10
14921.6940608491
 20
-10067.90686513478
 30
0.0
 11
16186.26513406927
 21
-10067.90686513479
 31
0.0
  0
LINE
  5
98CA
330
19
100
AcDbEntity
  8
FUTO
100
AcDbLine
 10
15228.1940608491
 20
-10337.90686513478
 30
0.0
 11
15228.1940608491
 21
-9797.906865134786
 31
0.0
  0
LINE
  5
98CC
330
19
100
AcDbEntity
  8
FUTO
100
AcDbLine
 10
15161.6940608491
 20
-10025.40686513478
 30
0.0
 11
15228.1940608491
 21
-10025.40686513478
 31
0.0
  0
LINE
  5
98CD
330
19
100
AcDbEntity
  8
FUTO
100
AcDbLine
 10
15228.1940608491
 20
-10110.40686513478
 30
0.0
 11
15161.6940608491
 21
-10110.40686513478
 31
0.0
  0
LINE
  5
98CF
330
19
100
AcDbEntity
  8
FUTO
100
AcDbLine
 10
10601.81379631294
 20
-5129.166814773274
 30
0.0
 11
14201.81379631294
 21
-5129.16681477328
 31
0.0
  0
LINE
  5
98D1
330
19
100
AcDbEntity
  8
FUTO
100
AcDbLine
 10
10601.81379631294
 20
-5129.166814773274
 30
0.0
 11
10601.81379631294
 21
-4718.166814773272
 31
0.0
  0
LINE
  5
98D2
330
19
100
AcDbEntity
  8
FUTO
100
AcDbLine
 10
10601.81379631294
 20
-2279.166814773274
 30
0.0
 11
12721.81379631294
 21
-2279.166814773274
 31
0.0
  0
LINE
  5
98D3
330
19
100
AcDbEntity
  8
FUTO
100
AcDbLine
 10
12721.81379631294
 20
-2279.166814773274
 30
0.0
 11
12721.81379631294
 21
-2358.166814773275
 31
0.0
  0
LINE
  5
98D4
330
19
100
AcDbEntity
  8
FUTO
100
AcDbLine
 10
14201.81379631294
 20
-5129.16681477328
 30
0.0
 11
14201.81379631294
 21
-3929.16681477328
 31
0.0
  0
LINE
  5
98D5
330
19
100
AcDbEntity
  8
FUTO
100
AcDbLine
 10
14201.81379631294
 20
-3929.16681477328
 30
0.0
 11
13215.81379631294
 21
-3929.16681477328
 31
0.0
  0
LINE
  5
98D6
330
19
100
AcDbEntity
  8
CT
100
AcDbLine
 10
13811.81379631294
 20
-5338.166814773274
 30
0.0
 11
13811.81379631294
 21
-4108.554878427432
 31
0.0
  0
LINE
  5
98D7
330
19
100
AcDbEntity
  8
CT
100
AcDbLine
 10
11661.81379631294
 20
-2147.194717401173
 30
0.0
 11
11661.81379631294
 21
-5338.166814773274
 31
0.0
  0
LINE
  5
98D8
330
19
100
AcDbEntity
  8
CT
100
AcDbLine
 10
10363.98076187768
 20
-3538.166814773275
 30
0.0
 11
13348.88906040308
 21
-3538.166814773275
 31
0.0
  0
LINE
  5
98DA
330
19
100
AcDbEntity
  8
SL
100
AcDbLine
 10
11261.81379631294
 20
-5238.166814773275
 30
0.0
 11
13951.81379631294
 21
-5238.166814773275
 31
0.0
  0
LINE
  5
98DB
330
19
100
AcDbEntity
  8
SL
100
AcDbLine
 10
11261.81379631294
 20
-5098.166814773275
 30
0.0
 11
13951.81379631294
 21
-5098.166814773275
 31
0.0
  0
LINE
  5
98DC
330
19
100
AcDbEntity
  8
SL
100
AcDbLine
 10
11261.81379631294
 20
-5098.166814773275
 30
0.0
 11
11261.81379631294
 21
-5238.166814773275
 31
0.0
  0
LINE
  5
98DD
330
19
100
AcDbEntity
  8
SL
100
AcDbLine
 10
12061.81379631294
 20
-5098.166814773275
 30
0.0
 11
12061.81379631294
 21
-5238.166814773275
 31
0.0
  0
LINE
  5
98DE
330
19
100
AcDbEntity
  8
SL
100
AcDbLine
 10
13671.81379631294
 20
-5238.166814773275
 30
0.0
 11
13671.81379631294
 21
-5098.166814773275
 31
0.0
  0
LINE
  5
98DF
330
19
100
AcDbEntity
  8
SL
100
AcDbLine
 10
13951.81379631294
 20
-5238.166814773275
 30
0.0
 11
13951.81379631294
 21
-5098.166814773275
 31
0.0
  0
LINE
  5
98E1
330
19
100
AcDbEntity
  8
SL
100
AcDbLine
 10
11181.81379631294
 20
-5338.166814773274
 30
0.0
 11
14031.81379631294
 21
-5338.166814773274
 31
0.0
  0
LINE
  5
98E3
330
19
100
AcDbEntity
  8
SL
100
AcDbLine
 10
11181.81379631294
 20
-5048.166814773274
 30
0.0
 11
11181.81379631294
 21
-5338.166814773274
 31
0.0
  0
LINE
  5
98E4
330
19
100
AcDbEntity
  8
SL
100
AcDbLine
 10
14031.81379631294
 20
-5338.166814773274
 30
0.0
 11
14031.81379631294
 21
-5048.166814773274
 31
0.0
  0
LINE
  5
98E5
330
19
100
AcDbEntity
  8
SL
100
AcDbLine
 10
11181.81379631294
 20
-5048.166814773274
 30
0.0
 11
11231.81379631294
 21
-5048.166814773274
 31
0.0
  0
LINE
  5
98E8
330
19
100
AcDbEntity
  8
SL
100
AcDbLine
 10
13981.81379631294
 20
-5048.166814773274
 30
0.0
 11
14031.81379631294
 21
-5048.166814773274
 31
0.0
  0
CIRCLE
  5
98EB
330
19
100
AcDbEntity
  8
FUTO
100
AcDbCircle
 10
11661.81379631294
 20
-8447.906865134788
 30
0.0
 40
900.0
  0
CIRCLE
  5
98EC
330
19
100
AcDbEntity
  8
FUTO
100
AcDbCircle
 10
11661.81379631294
 20
-8447.906865134788
 30
0.0
 40
965.0
  0
LINE
  5
98ED
330
19
100
AcDbEntity
  8
FUTO
100
AcDbLine
 10
10496.81379631294
 20
-4787.166814773274
 30
0.0
 11
10496.81379631294
 21
-2289.166814773274
 31
0.0
  0
LINE
  5
98EE
330
19
100
AcDbEntity
  8
FUTO
100
AcDbLine
 10
13215.81379631294
 20
-4718.166814773274
 30
0.0
 11
13215.81379631294
 21
-2358.166814773275
 31
0.0
  0
LINE
  5
98EF
330
19
100
AcDbEntity
  8
FUTO
100
AcDbLine
 10
10496.81379631294
 20
-2358.166814773275
 30
0.0
 11
13215.81379631294
 21
-2358.166814773275
 31
0.0
  0
LINE
  5
98F0
330
19
100
AcDbEntity
  8
FUTO
100
AcDbLine
 10
10496.81379631294
 20
-4718.166814773274
 30
0.0
 11
13215.81379631294
 21
-4718.166814773274
 31
0.0
  0
LINE
  5
98F1
330
19
100
AcDbEntity
  8
FUTO
100
AcDbLine
 10
10601.81379631294
 20
-2358.166814773275
 30
0.0
 11
10601.81379631294
 21
-2279.166814773274
 31
0.0
  0
LINE
  5
98F4
330
19
100
AcDbEntity
  8
FUTO
100
AcDbLine
 10
10561.81379631294
 20
-4718.166814773272
 30
0.0
 11
10561.81379631294
 21
-2358.166814773275
 31
0.0
  0
DIMENSION
  5
9D6B
330
19
100
AcDbEntity
  8
SP
100
AcDbDimension
280
     0
  2
*D1
 10
14547.41154840692
 20
-5129.16681477328
 30
0.0
 11
14434.91154840693
 21
-4529.166814773279
 31
0.0
 12
-453.7980590637744
 22
0.0
 32
0.0
 70
    32
 71
     5
 42
-1.0
 73
     0
 74
     0
 75
     0
  3
MATSU
100
AcDbAlignedDimension
 13
14201.81379631294
 23
-3929.16681477328
 33
0.0
 14
14201.81379631294
 24
-5129.16681477328
 34
0.0
 50
270.0
100
AcDbRotatedDimension
1001
ACAD
1000
DSTYLE
1002
{
1070
   140
1040
2.5
1070
    40
1040
50.0
1070
   147
1040
1.0
1070
   271
1070
     0
1002
}
  0
DIMENSION
  5
9D78
330
19
100
AcDbEntity
  8
SP
100
AcDbDimension
280
     0
  2
*D2
 10
10601.81379631294
 20
-5652.171877547662
 30
0.0
 11
12401.81379631294
 21
-5539.671877547662
 31
0.0
 12
-453.7980590637744
 22
0.0
 32
0.0
 70
    32
 71
     5
 42
-1.0
 73
     0
 74
     0
 75
     0
  3
MATSU
100
AcDbAlignedDimension
 13
14201.81379631294
 23
-5129.16681477328
 33
0.0
 14
10601.81379631294
 24
-5129.166814773274
 34
0.0
100
AcDbRotatedDimension
1001
ACAD
1000
DSTYLE
1002
{
1070
   140
1040
2.5
1070
    40
1040
50.0
1070
   147
1040
1.0
1070
   271
1070
     0
1002
}
  0
DIMENSION
  5
9D85
330
19
100
AcDbEntity
  8
SP
100
AcDbDimension
280
     0
  2
*D3
 10
10067.26833273049
 20
-5129.166814773274
 30
0.0
 11
9954.768332730491
 21
-3704.166814773274
 31
0.0
 12
-453.7980590637744
 22
0.0
 32
0.0
 70
    32
 71
     5
 42
-1.0
 73
     0
 74
     0
 75
     0
  3
MATSU
100
AcDbAlignedDimension
 13
10601.81379631294
 23
-2279.166814773274
 33
0.0
 14
10601.81379631294
 24
-5129.166814773274
 34
0.0
 50
270.0
100
AcDbRotatedDimension
1001
ACAD
1000
DSTYLE
1002
{
1070
   140
1040
2.5
1070
    40
1040
50.0
1070
   147
1040
1.0
1070
   271
1070
     0
1002
}
  0
DIMENSION
  5
9D92
330
19
100
AcDbEntity
  8
SP
100
AcDbDimension
280
     0
  2
*D4
 10
10601.81379631294
 20
-1983.199102532606
 30
0.0
 11
11661.81379631294
 21
-1870.699102532606
 31
0.0
 12
-453.7980590637744
 22
0.0
 32
0.0
 70
    32
 71
     5
 42
-1.0
 73
     0
 74
     0
 75
     0
  3
MATSU
100
AcDbAlignedDimension
 13
12721.81379631294
 23
-2279.166814773274
 33
0.0
 14
10601.81379631294
 24
-2279.166814773274
 34
0.0
100
AcDbRotatedDimension
1001
ACAD
1000
DSTYLE
1002
{
1070
   140
1040
2.5
1070
    40
1040
50.0
1070
   147
1040
1.0
1070
   271
1070
     0
1002
}
  0
DIMENSION
  5
9D9F
330
19
100
AcDbEntity
  8
SP
100
AcDbDimension
280
     0
  2
*D5
 10
14201.81379631294
 20
-1983.199102532606
 30
0.0
 11
13461.81379631294
 21
-1870.699102532606
 31
0.0
 12
-453.7980590637744
 22
0.0
 32
0.0
 70
    32
 71
     5
 42
-1.0
 73
     0
 74
     0
 75
     0
  3
MATSU
100
AcDbAlignedDimension
 13
12721.81379631294
 23
-2279.166814773274
 33
0.0
 14
14201.81379631294
 24
-3929.16681477328
 34
0.0
100
AcDbRotatedDimension
1001
ACAD
1000
DSTYLE
1002
{
1070
   140
1040
2.5
1070
    40
1040
50.0
1070
   147
1040
1.0
1070
   271
1070
     0
1002
}
  0
DIMENSION
  5
9DD3
330
19
100
AcDbEntity
  8
SP
100
AcDbDimension
280
     0
  2
*D6
 10
11661.81379631294
 20
-10910.89450325237
 30
0.0
 11
12931.81379631294
 21
-10798.39450325237
 31
0.0
 12
-453.7980590637744
 22
0.0
 32
0.0
 70
    32
 71
     5
 42
-1.0
 73
     0
 74
     0
 75
     0
  3
MATSU
100
AcDbAlignedDimension
 13
14201.81379631294
 23
-10597.90686513479
 33
0.0
 14
11661.81379631294
 24
-10597.90686513478
 34
0.0
100
AcDbRotatedDimension
1001
ACAD
1000
DSTYLE
1002
{
1070
   140
1040
2.5
1070
    40
1040
50.0
1070
   147
1040
1.0
1070
   271
1070
     0
1002
}
  0
DIMENSION
  5
9DE0
330
19
100
AcDbEntity
  8
SP
100
AcDbDimension
280
     0
  2
*D7
 10
10601.81379631294
 20
-10910.89450325237
 30
0.0
 11
11131.81379631294
 21
-10798.39450325237
 31
0.0
 12
-453.7980590637744
 22
0.0
 32
0.0
 70
    32
 71
     5
 42
-1.0
 73
     0
 74
     0
 75
     0
  3
MATSU
100
AcDbAlignedDimension
 13
11661.81379631294
 23
-10597.90686513478
 33
0.0
 14
10601.81379631294
 24
-10597.90686513478
 34
0.0
100
AcDbRotatedDimension
1001
ACAD
1000
DSTYLE
1002
{
1070
   140
1040
2.5
1070
    40
1040
50.0
1070
   147
1040
1.0
1070
   271
1070
     0
1002
}
  0
DIMENSION
  5
9DFA
330
19
100
AcDbEntity
  8
SP
100
AcDbDimension
280
     0
  2
*D8
 10
16721.6940608491
 20
-10910.89450325237
 30
0.0
 11
15926.1940608491
 21
-10798.39450325237
 31
0.0
 12
11813.21153917894
 22
834.7069760527737
 32
0.0
 70
    32
 71
     5
 42
-1.0
 73
     0
 74
     0
 75
     0
  3
MATSU
100
AcDbAlignedDimension
 13
15130.6940608491
 23
-10597.90686513478
 33
0.0
 14
16721.6940608491
 24
-10597.90686513478
 34
0.0
100
AcDbRotatedDimension
1001
ACAD
1000
DSTYLE
1002
{
1070
   140
1040
2.5
1070
    40
1040
50.0
1070
   147
1040
1.0
1070
   271
1070
     0
1002
}
  0
DIMENSION
  5
9E07
330
19
100
AcDbEntity
  8
SP
100
AcDbDimension
280
     0
  2
*D9
 10
17980.6940608491
 20
-10910.89450325237
 30
0.0
 11
17351.1940608491
 21
-10798.39450325237
 31
0.0
 12
11813.21153917894
 22
834.7069760527737
 32
0.0
 70
    32
 71
     5
 42
-1.0
 73
     0
 74
     0
 75
     0
  3
MATSU
100
AcDbAlignedDimension
 13
16721.6940608491
 23
-10597.90686513478
 33
0.0
 14
17980.6940608491
 24
-10597.90686513478
 34
0.0
100
AcDbRotatedDimension
1001
ACAD
1000
DSTYLE
1002
{
1070
   140
1040
2.5
1070
    40
1040
50.0
1070
   147
1040
1.0
1070
   271
1070
     0
1002
}
  0
DIMENSION
  5
9E14
330
19
100
AcDbEntity
  8
SP
100
AcDbDimension
280
     0
  2
*D10
 10
17980.6940608491
 20
-11228.87215109569
 30
0.0
 11
16555.6940608491
 21
-11116.37215109569
 31
0.0
 12
11813.21153917894
 22
834.7069760527737
 32
0.0
 70
    32
 71
     5
 42
-1.0
 73
     0
 74
     0
 75
     0
  3
MATSU
100
AcDbAlignedDimension
 13
15130.6940608491
 23
-10597.90686513478
 33
0.0
 14
17980.6940608491
 24
-10597.90686513478
 34
0.0
100
AcDbRotatedDimension
1001
ACAD
1000
DSTYLE
1002
{
1070
   140
1040
2.5
1070
    40
1040
50.0
1070
   147
1040
1.0
1070
   271
1070
     0
1002
}
  0
DIMENSION
  5
9E55
330
19
100
AcDbEntity
  8
SP
100
AcDbDimension
280
     0
  2
*D11
 10
10601.81379631294
 20
-11228.87215109569
 30
0.0
 11
12401.81379631294
 21
-11116.37215109569
 31
0.0
 12
-453.7980590637744
 22
0.0
 32
0.0
 70
    32
 71
     5
 42
-1.0
 73
     0
 74
     0
 75
     0
  3
MATSU
100
AcDbAlignedDimension
 13
14201.81379631294
 23
-10597.90686513478
 33
0.0
 14
10601.81379631294
 24
-10597.90686513478
 34
0.0
100
AcDbRotatedDimension
1001
ACAD
1000
DSTYLE
1002
{
1070
   140
1040
2.5
1070
    40
1040
50.0
1070
   147
1040
1.0
1070
   271
1070
     0
1002
}
  0
LINE
  5
A0E7
330
19
100
AcDbEntity
  8
4
100
AcDbLine
 10
17961.16669783403
 20
-12040.48813421171
 30
0.0
 11
17961.16669783403
 21
-13140.48813421171
 31
0.0
  0
LINE
  5
A0E8
330
19
100
AcDbEntity
  8
4
100
AcDbLine
 10
14111.16669783403
 20
-12040.48813421171
 30
0.0
 11
14111.16669783403
 21
-13140.48813421171
 31
0.0
  0
LINE
  5
A0E9
330
19
100
AcDbEntity
  8
4
100
AcDbLine
 10
11361.16669783403
 20
-12040.48813421171
 30
0.0
 11
11361.16669783403
 21
-13140.48813421171
 31
0.0
  0
LINE
  5
A0EC
330
19
100
AcDbEntity
  8
4
100
AcDbLine
 10
11361.16669783403
 20
-13140.48813421171
 30
0.0
 11
17961.16669783403
 21
-13140.48813421171
 31
0.0
  0
LINE
  5
A0ED
330
19
100
AcDbEntity
  8
4
100
AcDbLine
 10
11361.16669783403
 20
-12590.48813421171
 30
0.0
 11
17961.16669783403
 21
-12590.48813421171
 31
0.0
  0
TEXT
  5
A0EE
330
19
100
AcDbEntity
  8
4
100
AcDbText
 10
11572.92814249199
 20
-12417.00149194534
 30
0.0
 40
275.0
  1
機器名称
100
AcDbText
  0
TEXT
  5
A0EF
330
19
100
AcDbEntity
  8
4
100
AcDbText
 10
11560.58628097042
 20
-13021.43977218565
 30
0.0
 40
275.0
  1
機器型番
100
AcDbText
  0
TEXT
  5
A0F0
330
19
100
AcDbEntity
  8
4
100
AcDbText
 10
14274.28609399308
 20
-12457.34307415221
 30
0.0
 40
233.75
  1
ミツヤリミットロ－ドファン
100
AcDbText
  0
TEXT
  5
A0F1
330
19
100
AcDbEntity
  8
4
100
AcDbText
 10
14312.76642355418
 20
-13046.11042067202
 30
0.0
 40
275.0
  1
LL#11-5
100
AcDbText
  0
TEXT
  5
A0F3
330
19
100
AcDbEntity
  8
4
100
AcDbText
 10
12185.97715136576
 20
-1128.56058470239
 30
0.0
 40
297.0
  1
床置ベット
100
AcDbText
  0
TEXT
  5
A0F4
330
19
100
AcDbEntity
  8
4
100
AcDbText
 10
9429.003240898744
 20
-301.0738429350895
 30
0.0
 40
396.0000000000001
  1
遠心式両吸込両持リミットロ－ドファン
100
AcDbText
  0
LINE
  5
A0F5
330
19
100
AcDbEntity
  8
4
100
AcDbLine
 10
9161.166697834037
 20
-655.6710635748004
 30
0.0
 11
17961.16669783403
 21
-655.6710635748004
 31
0.0
  0
LINE
  5
A0F6
330
19
100
AcDbEntity
  8
4
100
AcDbLine
 10
9161.166697834037
 20
444.3289364251995
 30
0.0
 11
17961.16669783403
 21
444.3289364251995
 31
0.0
  0
LINE
  5
A0F7
330
19
100
AcDbEntity
  8
4
100
AcDbLine
 10
11361.16669783403
 20
-12040.48813421171
 30
0.0
 11
17961.16669783403
 21
-12040.48813421171
 31
0.0
  0
LINE
  5
A0F8
330
19
100
AcDbEntity
  8
4
100
AcDbLine
 10
9161.166697834037
 20
444.3289364251995
 30
0.0
 11
9161.166697834037
 21
-655.6710635748004
 31
0.0
  0
TEXT
  5
A0F9
330
19
100
AcDbEntity
  8
4
100
AcDbText
 10
9788.753574030897
 20
-1134.662085526339
 30
0.0
 40
297.0
  1
右回転左横向
100
AcDbText
  0
TEXT
  5
A0FA
330
19
100
AcDbEntity
  8
4
100
AcDbText
 10
15865.49927370513
 20
645.9167361929703
 30
0.0
 40
308.0
  1
No.
100
AcDbText
  0
TEXT
  5
A0FB
330
19
100
AcDbEntity
  8
4
100
AcDbText
 10
14998.29504213411
 20
-1128.56058470239
 30
0.0
 40
297.0
  1
縮尺：1/55
100
AcDbText
  0
LINE
  5
A0FC
330
19
100
AcDbEntity
  8
4
100
AcDbLine
 10
17961.16669783403
 20
444.3289364251995
 30
0.0
 11
17961.16669783403
 21
-655.6710635748004
 31
0.0
  0
LINE
  5
A0FD
330
19
100
AcDbEntity
  8
4
100
AcDbLine
 10
19336.16669783403
 20
1987.580787968773
 30
0.0
 11
19336.16669783403
 21
1987.580787968773
 31
0.0
  0
LINE
  5
A0FE
330
19
100
AcDbEntity
  8
4
100
AcDbLine
 10
15709.56252081329
 20
509.5304951584785
 30
0.0
 11
15709.56252081329
 21
1089.168226492411
 31
0.0
  0
LINE
  5
A0FF
330
19
100
AcDbEntity
  8
4
100
AcDbLine
 10
15709.56252081329
 20
1089.168226492411
 30
0.0
 11
17961.16669783403
 21
1089.168226492411
 31
0.0
  0
LINE
  5
A100
330
19
100
AcDbEntity
  8
4
100
AcDbLine
 10
17961.16669783403
 20
1089.168226492411
 30
0.0
 11
17961.16669783403
 21
509.5304951584785
 31
0.0
  0
LINE
  5
A101
330
19
100
AcDbEntity
  8
4
100
AcDbLine
 10
17961.16669783403
 20
509.5304951584785
 30
0.0
 11
15709.56252081329
 21
509.5304951584785
 31
0.0
  0
LINE
  5
A102
330
19
100
AcDbEntity
  8
4
100
AcDbLine
 10
7786.166697834037
 20
-14237.41921203123
 30
0.0
 11
7786.166697834037
 21
1987.580787968773
 31
0.0
  0
LINE
  5
A103
330
19
100
AcDbEntity
  8
4
100
AcDbLine
 10
7786.166697834037
 20
1987.580787968773
 30
0.0
 11
19336.16669783403
 21
1987.580787968773
 31
0.0
  0
LINE
  5
A104
330
19
100
AcDbEntity
  8
4
100
AcDbLine
 10
19336.16669783403
 20
1987.580787968773
 30
0.0
 11
19336.16669783403
 21
-14237.41921203123
 31
0.0
  0
LINE
  5
A105
330
19
100
AcDbEntity
  8
4
100
AcDbLine
 10
19336.16669783403
 20
-14237.41921203123
 30
0.0
 11
7786.166697834037
 21
-14237.41921203123
 31
0.0
  0
LINE
  5
A2EA
330
19
100
AcDbEntity
  8
FUTO
100
AcDbLine
 10
11792.81379631294
 20
-7155.906865134788
 30
0.0
 11
11772.31379631294
 21
-7155.906865134788
 31
0.0
  0
LINE
  5
A2EB
330
19
100
AcDbEntity
  8
FUTO
100
AcDbLine
 10
15541.69406084911
 20
-7155.906865134788
 30
0.0
 11
17901.6940608491
 21
-7155.906865134788
 31
0.0
  0
LINE
  5
A2ED
330
19
100
AcDbEntity
  8
FUTO
100
AcDbLine
 10
17980.6940608491
 20
-10417.90686513477
 30
0.0
 11
15130.6940608491
 21
-10417.90686513479
 31
0.0
  0
DIMENSION
  5
A2FA
330
19
100
AcDbEntity
  8
SP
100
AcDbDimension
280
     0
  2
*D12
 10
17901.6940608491
 20
-6862.338101524139
 30
0.0
 11
16721.6940608491
 21
-6738.58810152414
 31
0.0
 70
    32
 71
     5
 42
-1.0
 73
     0
 74
     0
 75
     0
  3
MATSU
100
AcDbAlignedDimension
 13
15541.69406084911
 23
-7155.906865134788
 33
0.0
 14
17901.6940608491
 24
-7155.906865134788
 34
0.0
100
AcDbRotatedDimension
1001
ACAD
1000
DSTYLE
1002
{
1070
   140
1040
2.5
1070
    40
1040
55.0
1070
   147
1040
1.0
1070
   271
1070
     0
1002
}
  0
DIMENSION
  5
A307
330
19
100
AcDbEntity
  8
SP
100
AcDbDimension
280
     0
  2
*D13
 10
10496.81379631294
 20
-6862.338101524139
 30
0.0
 11
11079.31379631294
 21
-6738.58810152414
 31
0.0
 12
-453.7980590637744
 22
0.0
 32
0.0
 70
    32
 71
     5
 42
-1.0
 73
     0
 74
     0
 75
     0
  3
MATSU
100
AcDbAlignedDimension
 13
11661.81379631294
 23
-6967.773381472253
 33
0.0
 14
10496.81379631294
 24
-8449.90686513479
 34
0.0
100
AcDbRotatedDimension
1001
ACAD
1000
DSTYLE
1002
{
1070
   140
1040
2.5
1070
    40
1040
55.0
1070
   147
1040
1.0
1070
   271
1070
     0
1002
}
  0
DIMENSION
  5
A314
330
19
100
AcDbEntity
  8
SP
100
AcDbDimension
280
     0
  2
*D14
 10
13215.81379631294
 20
-6862.338101524139
 30
0.0
 11
12438.81379631294
 21
-6738.58810152414
 31
0.0
 12
-453.7980590637744
 22
0.0
 32
0.0
 70
    32
 71
     5
 42
-1.0
 73
     0
 74
     0
 75
     0
  3
MATSU
100
AcDbAlignedDimension
 13
11661.81379631294
 23
-6967.773381472253
 33
0.0
 14
13215.81379631294
 24
-8578.906865134788
 34
0.0
100
AcDbRotatedDimension
1001
ACAD
1000
DSTYLE
1002
{
1070
   140
1040
2.5
1070
    40
1040
55.0
1070
   147
1040
1.0
1070
   271
1070
     0
1002
}
  0
DIMENSION
  5
A321
330
19
100
AcDbEntity
  8
SP
100
AcDbDimension
280
     0
  2
*D15
 10
10140.46864687541
 20
-10368.90686513479
 30
0.0
 11
10016.71864687541
 21
-9443.906865134788
 31
0.0
 12
-453.7980590637744
 22
0.0
 32
0.0
 70
    32
 71
     5
 42
-1.0
 73
     0
 74
     0
 75
     0
  3
MATSU
100
AcDbAlignedDimension
 13
10496.81379631294
 23
-8518.906865134788
 33
0.0
 14
10496.81379631294
 24
-10368.90686513479
 34
0.0
 50
270.0
100
AcDbRotatedDimension
1001
ACAD
1000
DSTYLE
1002
{
1070
   140
1040
2.5
1070
    40
1040
55.0
1070
   147
1040
1.0
1070
   271
1070
     0
1002
}
  0
DIMENSION
  5
A32E
330
19
100
AcDbEntity
  8
SP
100
AcDbDimension
280
     0
  2
*D16
 10
9780.588833754825
 20
-8447.906865134788
 30
0.0
 11
9656.838833754825
 21
-9408.406865134788
 31
0.0
 12
-453.7980590637744
 22
0.0
 32
0.0
 70
    32
 71
     5
 42
-1.0
 73
     0
 74
     0
 75
     0
  3
MATSU
100
AcDbAlignedDimension
 13
10496.81379631294
 23
-10368.90686513479
 33
0.0
 14
10351.37240228788
 24
-8447.906865134788
 34
0.0
 50
270.0
100
AcDbRotatedDimension
1001
ACAD
1000
DSTYLE
1002
{
1070
   140
1040
2.5
1070
    40
1040
55.0
1070
   147
1040
1.0
1070
   271
1070
     0
1002
}
  0
DIMENSION
  5
A33B
330
19
100
AcDbEntity
  8
SP
100
AcDbDimension
280
     0
  2
*D17
 10
9420.709020634232
 20
-8447.906865134788
 30
0.0
 11
9296.959020634233
 21
-9522.906865134789
 31
0.0
 12
-453.7980590637744
 22
0.0
 32
0.0
 70
    32
 71
     5
 42
-1.0
 73
     0
 74
     0
 75
     0
  3
MATSU
100
AcDbAlignedDimension
 13
10601.81379631294
 23
-10597.90686513478
 33
0.0
 14
10351.37240228788
 24
-8447.906865134788
 34
0.0
 50
270.0
100
AcDbRotatedDimension
1001
ACAD
1000
DSTYLE
1002
{
1070
   140
1040
2.5
1070
    40
1040
55.0
1070
   147
1040
1.0
1070
   271
1070
     0
1002
}
  0
DIMENSION
  5
A348
330
19
100
AcDbEntity
  8
SP
100
AcDbDimension
280
     0
  2
*D18
 10
9420.709020634232
 20
-8447.906865134788
 30
0.0
 11
9296.959020634233
 21
-7801.906865134788
 31
0.0
 12
-453.7980590637744
 22
0.0
 32
0.0
 70
    32
 71
     5
 42
-1.0
 73
     0
 74
     0
 75
     0
  3
MATSU
100
AcDbAlignedDimension
 13
11792.81379631294
 23
-7155.906865134788
 33
0.0
 14
10351.37240228788
 24
-8447.906865134788
 34
0.0
 50
270.0
100
AcDbRotatedDimension
1001
ACAD
1000
DSTYLE
1002
{
1070
   140
1040
2.5
1070
    40
1040
55.0
1070
   147
1040
1.0
1070
   271
1070
     0
1002
}
  0
DIMENSION
  5
A355
330
19
100
AcDbEntity
  8
SP
100
AcDbDimension
280
     0
  2
*D19
 10
14921.6940608491
 20
-6566.986227515037
 30
0.0
 11
15821.6940608491
 21
-6407.224322753133
 31
0.0
 70
    32
 71
     5
 42
1800.0
 73
     0
 74
     0
 75
     0
  3
MATSU
100
AcDbAlignedDimension
 13
16721.6940608491
 23
-6592.48237652436
 33
0.0
 14
14921.6940608491
 24
-7967.90686513479
 34
0.0
100
AcDbRotatedDimension
1001
ACAD
1000
DSTYLE
1002
{
1070
   140
1040
2.5
1070
    40
1040
55.0
1070
     3
1000
(<>)
1070
   147
1040
1.0
1070
   271
1070
     0
1002
}
  0
DIMENSION
  5
A362
330
19
100
AcDbEntity
  8
SP
100
AcDbDimension
280
     0
  2
*D20
 10
18171.6940608491
 20
-6566.986227515037
 30
0.0
 11
17446.6940608491
 21
-6407.224322753133
 31
0.0
 70
    32
 71
     5
 42
1450.0
 73
     0
 74
     0
 75
     0
  3
MATSU
100
AcDbAlignedDimension
 13
16721.6940608491
 23
-6592.48237652436
 33
0.0
 14
18171.6940608491
 24
-8527.906865134788
 34
0.0
100
AcDbRotatedDimension
1001
ACAD
1000
DSTYLE
1002
{
1070
   140
1040
2.5
1070
    40
1040
55.0
1070
     3
1000
(<>)
1070
   147
1040
1.0
1070
   271
1070
     0
1002
}
  0
ARC
  5
A363
330
19
100
AcDbEntity
  8
SL
100
AcDbCircle
 10
11661.81379631294
 20
-8447.906865134788
 30
0.0
 40
480.0
100
AcDbArc
 50
47.46000669463884
 51
238.5447937730881
  0
ARC
  5
A364
330
19
100
AcDbEntity
  8
SL
100
AcDbCircle
 10
13811.81379631294
 20
-10067.90686513478
 30
0.0
 40
220.0
100
AcDbArc
 50
238.5447937730882
 51
47.46000669463889
  0
LINE
  5
A365
330
19
100
AcDbEntity
  8
SL
100
AcDbLine
 10
13960.55682448884
 20
-9905.809636382825
 30
0.0
 11
11986.3440396058
 21
-8094.240184221423
 31
0.0
  0
LINE
  5
A367
330
19
100
AcDbEntity
  8
SL
100
AcDbLine
 10
13906.46845060669
 20
-9964.754083201718
 30
0.0
 11
11932.25566572366
 21
-8153.184631040316
 31
0.0
  0
LINE
  5
A368
330
19
100
AcDbEntity
  8
SL
100
AcDbLine
 10
13738.75734262911
 20
-10187.33364008555
 30
0.0
 11
11453.08107150198
 21
-8789.126222136985
 31
0.0
  0
LINE
  5
A369
330
19
100
AcDbEntity
  8
SL
100
AcDbLine
 10
13697.01079766692
 20
-10255.57751148599
 30
0.0
 11
11411.33452653979
 21
-8857.370093537426
 31
0.0
  0
LINE
  5
A412
330
19
100
AcDbEntity
  8
FUTO
100
AcDbLine
 10
17970.6940608491
 20
-8527.906865134786
 30
0.0
 11
17970.6940608491
 21
-8449.906865134789
 31
0.0
  0
LINE
  5
A413
330
19
100
AcDbEntity
  8
FUTO
100
AcDbLine
 10
15472.6940608491
 20
-8537.906865134786
 30
0.0
 11
15472.6940608491
 21
-8505.406865134787
 31
0.0
  0
LINE
  5
A418
330
19
100
AcDbEntity
  8
FUTO
100
AcDbLine
 10
16131.6940608491
 20
-10337.90686513478
 30
0.0
 11
16131.6940608491
 21
-9797.906865134786
 31
0.0
  0
LINE
  5
A41A
330
19
100
AcDbEntity
  8
FUTO
100
AcDbLine
 10
15541.6940608491
 20
-9797.906865134786
 30
0.0
 11
15541.6940608491
 21
-7155.906865134788
 31
0.0
  0
LINE
  5
A41B
330
19
100
AcDbEntity
  8
FUTO
100
AcDbLine
 10
15472.69406084909
 20
-9797.906865134786
 30
0.0
 11
15472.6940608491
 21
-8787.906865134788
 31
0.0
  0
ENDSEC
  0
SECTION
  2
OBJECTS
  0
DICTIONARY
  5
C
330
0
100
AcDbDictionary
281
     1
  3
ACAD_CIP_PREVIOUS_PRODUCT_INFO
350
A47A
  3
ACAD_COLOR
350
A45C
  3
ACAD_DETAILVIEWSTYLE
350
A475
  3
ACAD_GROUP
350
D
  3
ACAD_LAYOUT
350
A420
  3
ACAD_MATERIAL
350
A42A
  3
ACAD_MLEADERSTYLE
350
A471
  3
ACAD_MLINESTYLE
350
E
  3
ACAD_PLOTSETTINGS
350
A421
  3
ACAD_PLOTSTYLENAME
350
A41E
  3
ACAD_SCALELIST
350
A45F
  3
ACAD_SECTIONVIEWSTYLE
350
A473
  3
ACAD_TABLESTYLE
350
A45D
  3
ACAD_VISUALSTYLE
350
A443
  3
ACDB_RECOMPOSE_DATA
350
A4BA
  3
AcDbVariableDictionary
350
A4A8
  3
AcDsDecomposeData
350
A4C0
  0
DICTIONARY
  5
A49C
330
2
100
AcDbDictionary
280
     1
281
     1
  3
ACAD_LAYERSTATES
360
A49D
  0
DICTIONARY
  5
A48D
330
F
100
AcDbDictionary
280
     1
281
     1
  3
ADSK_XREC_LAYER_RECONCILED
360
A48E
  0
DICTIONARY
  5
A48F
330
2F
100
AcDbDictionary
280
     1
281
     1
  3
ADSK_XREC_LAYER_RECONCILED
360
A490
  0
DICTIONARY
  5
A491
330
30
100
AcDbDictionary
280
     1
281
     1
  3
ADSK_XREC_LAYER_RECONCILED
360
A492
  0
DICTIONARY
  5
A493
330
35
100
AcDbDictionary
280
     1
281
     1
  3
ADSK_XREC_LAYER_RECONCILED
360
A494
  0
DICTIONARY
  5
A495
330
36
100
AcDbDictionary
280
     1
281
     1
  3
ADSK_XREC_LAYER_RECONCILED
360
A496
  0
DICTIONARY
  5
A497
330
99F1
100
AcDbDictionary
280
     1
281
     1
  3
ADSK_XREC_LAYER_RECONCILED
360
A498
  0
XRECORD
  5
A47A
102
{ACAD_REACTORS
330
C
102
}
330
C
100
AcDbXrecord
280
     1
300
ACDLT
300
2023
300

  0
DICTIONARY
  5
A45C
102
{ACAD_REACTORS
330
C
102
}
330
C
100
AcDbDictionary
281
     1
  0
DICTIONARY
  5
A475
102
{ACAD_REACTORS
330
C
102
}
330
C
100
AcDbDictionary
281
     1
  3
Metric50
350
A476
  0
DICTIONARY
  5
D
102
{ACAD_REACTORS
330
C
102
}
330
C
100
AcDbDictionary
281
     1
  0
DICTIONARY
  5
A420
102
{ACAD_REACTORS
330
C
102
}
330
C
100
AcDbDictionary
281
     1
  3
Model
350
A422
  3
ﾚｲｱｳﾄ1
350
A423
  0
DICTIONARY
  5
A42A
102
{ACAD_REACTORS
330
C
102
}
330
C
100
AcDbDictionary
281
     1
  3
ByBlock
350
A433
  3
ByLayer
350
A42B
  3
Global
350
A43B
  0
DICTIONARY
  5
A471
102
{ACAD_REACTORS
330
C
102
}
330
C
100
AcDbDictionary
281
     1
  3
Standard
350
A472
  0
DICTIONARY
  5
E
102
{ACAD_REACTORS
330
C
102
}
330
C
100
AcDbDictionary
281
     1
  3
STANDARD
350
1C
  0
DICTIONARY
  5
A421
102
{ACAD_REACTORS
330
C
102
}
330
C
100
AcDbDictionary
281
     1
  0
ACDBDICTIONARYWDFLT
  5
A41E
102
{ACAD_REACTORS
330
C
102
}
330
C
100
AcDbDictionary
281
     1
  3
Normal
350
A41F
100
AcDbDictionaryWithDefault
340
A41F
  0
DICTIONARY
  5
A45F
102
{ACAD_REACTORS
330
C
102
}
330
C
100
AcDbDictionary
281
     1
  3
A0
350
A460
  3
A1
350
A461
  3
A2
350
A462
  3
A3
350
A463
  3
A4
350
A464
  3
A5
350
A465
  3
A6
350
A466
  3
A7
350
A467
  3
A8
350
A468
  3
A9
350
A469
  3
B0
350
A46A
  3
B1
350
A46B
  3
B2
350
A46C
  3
B3
350
A46D
  3
B4
350
A46E
  3
B5
350
A46F
  3
B6
350
A470
  0
DICTIONARY
  5
A473
102
{ACAD_REACTORS
330
C
102
}
330
C
100
AcDbDictionary
281
     1
  3
Metric50
350
A474
  0
DICTIONARY
  5
A45D
102
{ACAD_REACTORS
330
C
102
}
330
C
100
AcDbDictionary
281
     1
  3
Standard
350
A45E
  0
DICTIONARY
  5
A443
102
{ACAD_REACTORS
330
C
102
}
330
C
100
AcDbDictionary
281
     1
  3
2dWireframe
350
A449
  3
Basic
350
A448
  3
Brighten
350
A44F
  3
ColorChange
350
A453
  3
Conceptual
350
A44C
  3
Dim
350
A44E
  3
EdgeColorOff
350
A45B
  3
Facepattern
350
A452
  3
Flat
350
A444
  3
FlatWithEdges
350
A445
  3
Gouraud
350
A446
  3
GouraudWithEdges
350
A447
  3
Hidden
350
A44B
  3
JitterOff
350
A459
  3
Linepattern
350
A451
  3
OverhangOff
350
A45A
  3
Realistic
350
A44D
  3
Shaded
350
A458
  3
Shaded with edges
350
A457
  3
Shades of Gray
350
A454
  3
Sketchy
350
A455
  3
Thicken
350
A450
  3
Wireframe
350
A44A
  3
X-Ray
350
A456
  0
XRECORD
  5
A4BA
102
{ACAD_REACTORS
330
C
102
}
330
C
100
AcDbXrecord
280
     1
 90
        1
330
A45E
  0
DICTIONARY
  5
A4A8
102
{ACAD_REACTORS
330
C
102
}
330
C
100
AcDbDictionary
281
     1
  3
CANNOSCALE
350
A4AE
  3
CMLEADERSTYLE
350
A4AA
  3
CTABLESTYLE
350
A4A9
  3
CVIEWDETAILSTYLE
350
A4AB
  3
CVIEWSECTIONSTYLE
350
A4AC
  3
LAYEREVAL
350
A4B0
  3
LAYERNOTIFY
350
A4B1
  3
LIGHTINGUNITS
350
A4AF
  3
MARKUPASSISTMODE
350
A4B7
  3
MSLTSCALE
350
A4AD
  0
DICTIONARY
  5
A4C0
102
{ACAD_REACTORS
330
C
102
}
330
C
100
AcDbDictionary
281
     1
  3
AcDsRecords
350
A4C2
  3
AcDsSchemas
350
A4C1
1001
ACAD
1070
     2
  0
DICTIONARY
  5
A49D
102
{ACAD_REACTORS
330
A49C
102
}
330
A49C
100
AcDbDictionary
281
     1
  0
XRECORD
  5
A48E
102
{ACAD_REACTORS
330
A48D
102
}
330
A48D
100
AcDbXrecord
280
     1
290
     1
  0
XRECORD
  5
A490
102
{ACAD_REACTORS
330
A48F
102
}
330
A48F
100
AcDbXrecord
280
     1
290
     1
  0
XRECORD
  5
A492
102
{ACAD_REACTORS
330
A491
102
}
330
A491
100
AcDbXrecord
280
     1
290
     1
  0
XRECORD
  5
A494
102
{ACAD_REACTORS
330
A493
102
}
330
A493
100
AcDbXrecord
280
     1
290
     1
  0
XRECORD
  5
A496
102
{ACAD_REACTORS
330
A495
102
}
330
A495
100
AcDbXrecord
280
     1
290
     1
  0
XRECORD
  5
A498
102
{ACAD_REACTORS
330
A497
102
}
330
A497
100
AcDbXrecord
280
     1
290
     1
  0
ACDBDETAILVIEWSTYLE
  5
A476
102
{ACAD_XDICTIONARY
360
A4C5
102
}
102
{ACAD_REACTORS
330
A475
102
}
330
A475
100
AcDbModelDocViewStyle
 70
     0
  3
Metric50
290
     0
100
AcDbDetailViewStyle
 70
     0
 71
     0
 90
        3
 71
     1
340
10
 62
   256
 40
5.0
340
0
 62
   256
 40
5.0
300

 40
0.0
280
     1
 71
     2
340
15
 90
       25
 62
   256
 71
     3
340
10
 62
   256
 40
5.0
 90
        0
 40
15.0
 90
        1
300
%<\AcVar ViewDetailId>% (%<\AcVar ViewScale \f "%sn">%)
 71
     4
340
15
 90
       25
 62
   256
340
15
 90
       25
 62
   256
280
     0
  0
LAYOUT
  5
A422
102
{ACAD_REACTORS
330
A420
102
}
330
A420
100
AcDbPlotSettings
  1

  2
EPSON LP-9300
  4

  6

 40
0.0
 41
0.0
 42
0.0
 43
0.0
 44
0.0
 45
0.0
 46
0.0
 47
0.0
 48
0.0
 49
0.0
140
0.0
141
0.0
142
1.0
143
1.0
 70
  1712
 72
     0
 73
     0
 74
     0
  7

 75
     0
147
1.0
 76
     0
 77
     2
 78
   300
148
0.0
149
0.0
100
AcDbLayout
  1
Model
 70
     1
 71
     0
 10
0.0
 20
0.0
 11
12.0
 21
9.0
 12
0.0
 22
0.0
 32
0.0
 14
0.0
 24
0.0
 34
0.0
 15
0.0
 25
0.0
 35
0.0
146
0.0
 13
0.0
 23
0.0
 33
0.0
 16
1.0
 26
0.0
 36
0.0
 17
0.0
 27
1.0
 37
0.0
 76
     0
330
19
331
A428
  0
LAYOUT
  5
A423
102
{ACAD_REACTORS
330
A420
102
}
330
A420
100
AcDbPlotSettings
  1

  2
EPSON LP-9300
  4

  6

 40
0.0
 41
0.0
 42
0.0
 43
0.0
 44
0.0
 45
0.0
 46
0.0
 47
0.0
 48
0.0
 49
0.0
140
0.0
141
0.0
142
1.0
143
1.0
 70
   688
 72
     0
 73
     0
 74
     5
  7

 75
    16
147
1.0
 76
     0
 77
     2
 78
   300
148
0.0
149
0.0
100
AcDbLayout
  1
ﾚｲｱｳﾄ1
 70
     0
 71
     1
 10
0.0
 20
0.0
 11
12.0
 21
9.0
 12
0.0
 22
0.0
 32
0.0
 14
1.000000000000000E+20
 24
1.000000000000000E+20
 34
1.000000000000000E+20
 15
-1.000000000000000E+20
 25
-1.000000000000000E+20
 35
-1.000000000000000E+20
146
0.0
 13
0.0
 23
0.0
 33
0.0
 16
1.0
 26
0.0
 36
0.0
 17
0.0
 27
1.0
 37
0.0
 76
     0
330
16
  0
MATERIAL
  5
A433
102
{ACAD_XDICTIONARY
360
A434
102
}
102
{ACAD_REACTORS
330
A42A
102
}
330
A42A
100
AcDbMaterial
  1
ByBlock
 72
     0
 43
0.0208333333333333
 43
0.0
 43
0.0
 43
0.0
 43
0.0
 43
0.0208333333333333
 43
0.0
 43
0.0
 43
0.0
 43
0.0
 43
1.0
 43
0.0
 43
0.0
 43
0.0
 43
0.0
 43
1.0
 77
     0
 47
0.0208333333333333
 47
0.0
 47
0.0
 47
0.0
 47
0.0
 47
0.0208333333333333
 47
0.0
 47
0.0
 47
0.0
 47
0.0
 47
1.0
 47
0.0
 47
0.0
 47
0.0
 47
0.0
 47
1.0
171
     0
 49
0.0208333333333333
 49
0.0
 49
0.0
 49
0.0
 49
0.0
 49
0.0208333333333333
 49
0.0
 49
0.0
 49
0.0
 49
0.0
 49
1.0
 49
0.0
 49
0.0
 49
0.0
 49
0.0
 49
1.0
175
     0
142
0.0208333333333333
142
0.0
142
0.0
142
0.0
142
0.0
142
0.0208333333333333
142
0.0
142
0.0
142
0.0
142
0.0
142
1.0
142
0.0
142
0.0
142
0.0
142
0.0
142
1.0
179
     0
144
0.0208333333333333
144
0.0
144
0.0
144
0.0
144
0.0
144
0.0208333333333333
144
0.0
144
0.0
144
0.0
144
0.0
144
1.0
144
0.0
144
0.0
144
0.0
144
0.0
144
1.0
147
0.0208333333333333
147
0.0
147
0.0
147
0.0
147
0.0
147
0.0208333333333333
147
0.0
147
0.0
147
0.0
147
0.0
147
1.0
147
0.0
147
0.0
147
0.0
147
0.0
147
1.0
  0
MATERIAL
  5
A42B
102
{ACAD_XDICTIONARY
360
A42C
102
}
102
{ACAD_REACTORS
330
A42A
102
}
330
A42A
100
AcDbMaterial
  1
ByLayer
 72
     0
 43
0.0208333333333333
 43
0.0
 43
0.0
 43
0.0
 43
0.0
 43
0.0208333333333333
 43
0.0
 43
0.0
 43
0.0
 43
0.0
 43
1.0
 43
0.0
 43
0.0
 43
0.0
 43
0.0
 43
1.0
 77
     0
 47
0.0208333333333333
 47
0.0
 47
0.0
 47
0.0
 47
0.0
 47
0.0208333333333333
 47
0.0
 47
0.0
 47
0.0
 47
0.0
 47
1.0
 47
0.0
 47
0.0
 47
0.0
 47
0.0
 47
1.0
171
     0
 49
0.0208333333333333
 49
0.0
 49
0.0
 49
0.0
 49
0.0
 49
0.0208333333333333
 49
0.0
 49
0.0
 49
0.0
 49
0.0
 49
1.0
 49
0.0
 49
0.0
 49
0.0
 49
0.0
 49
1.0
175
     0
142
0.0208333333333333
142
0.0
142
0.0
142
0.0
142
0.0
142
0.0208333333333333
142
0.0
142
0.0
142
0.0
142
0.0
142
1.0
142
0.0
142
0.0
142
0.0
142
0.0
142
1.0
179
     0
144
0.0208333333333333
144
0.0
144
0.0
144
0.0
144
0.0
144
0.0208333333333333
144
0.0
144
0.0
144
0.0
144
0.0
144
1.0
144
0.0
144
0.0
144
0.0
144
0.0
144
1.0
147
0.0208333333333333
147
0.0
147
0.0
147
0.0
147
0.0
147
0.0208333333333333
147
0.0
147
0.0
147
0.0
147
0.0
147
1.0
147
0.0
147
0.0
147
0.0
147
0.0
147
1.0
  0
MATERIAL
  5
A43B
102
{ACAD_XDICTIONARY
360
A43C
102
}
102
{ACAD_REACTORS
330
A42A
102
}
330
A42A
100
AcDbMaterial
  1
Global
 72
     0
 43
0.0208333333333333
 43
0.0
 43
0.0
 43
0.0
 43
0.0
 43
0.0208333333333333
 43
0.0
 43
0.0
 43
0.0
 43
0.0
 43
1.0
 43
0.0
 43
0.0
 43
0.0
 43
0.0
 43
1.0
 77
     0
 47
0.0208333333333333
 47
0.0
 47
0.0
 47
0.0
 47
0.0
 47
0.0208333333333333
 47
0.0
 47
0.0
 47
0.0
 47
0.0
 47
1.0
 47
0.0
 47
0.0
 47
0.0
 47
0.0
 47
1.0
171
     0
 49
0.0208333333333333
 49
0.0
 49
0.0
 49
0.0
 49
0.0
 49
0.0208333333333333
 49
0.0
 49
0.0
 49
0.0
 49
0.0
 49
1.0
 49
0.0
 49
0.0
 49
0.0
 49
0.0
 49
1.0
175
     0
142
0.0208333333333333
142
0.0
142
0.0
142
0.0
142
0.0
142
0.0208333333333333
142
0.0
142
0.0
142
0.0
142
0.0
142
1.0
142
0.0
142
0.0
142
0.0
142
0.0
142
1.0
179
     0
144
0.0208333333333333
144
0.0
144
0.0
144
0.0
144
0.0
144
0.0208333333333333
144
0.0
144
0.0
144
0.0
144
0.0
144
1.0
144
0.0
144
0.0
144
0.0
144
0.0
144
1.0
147
0.0208333333333333
147
0.0
147
0.0
147
0.0
147
0.0
147
0.0208333333333333
147
0.0
147
0.0
147
0.0
147
0.0
147
1.0
147
0.0
147
0.0
147
0.0
147
0.0
147
1.0
  0
MLEADERSTYLE
  5
A472
102
{ACAD_REACTORS
330
A471
102
}
330
A471
100
AcDbMLeaderStyle
179
     2
170
     2
171
     1
172
     0
 90
        2
 40
0.0
 41
0.0
173
     1
 91
-1056964608
340
13
 92
       -2
290
     1
 42
2.0
291
     1
 43
0.36
  3
Standard
 44
4.0
300

342
10
174
     1
178
     6
175
     1
176
     0
 93
-1056964608
 45
4.0
292
     0
297
     0
 46
4.0
 94
-1056964608
 47
1.0
 49
1.0
140
1.0
293
     1
141
0.0
294
     1
177
     0
142
1.0
295
     0
296
     0
143
0.125
271
     0
272
     9
273
     9
298
     1
  0
MLINESTYLE
  5
1C
102
{ACAD_REACTORS
330
E
102
}
330
E
100
AcDbMlineStyle
  2
STANDARD
 70
     0
  3

 62
     0
 51
90.0
 52
90.0
 71
     2
 49
0.5
 62
   256
  6
BYLAYER
 49
-0.5
 62
   256
  6
BYLAYER
  0
ACDBPLACEHOLDER
  5
A41F
102
{ACAD_REACTORS
330
A41E
102
}
330
A41E
  0
SCALE
  5
A460
102
{ACAD_REACTORS
330
A45F
102
}
330
A45F
100
AcDbScale
 70
     0
300
1:1
140
1.0
141
1.0
290
     1
  0
SCALE
  5
A461
102
{ACAD_REACTORS
330
A45F
102
}
330
A45F
100
AcDbScale
 70
     0
300
1:2
140
1.0
141
2.0
290
     0
  0
SCALE
  5
A462
102
{ACAD_REACTORS
330
A45F
102
}
330
A45F
100
AcDbScale
 70
     0
300
1:4
140
1.0
141
4.0
290
     0
  0
SCALE
  5
A463
102
{ACAD_REACTORS
330
A45F
102
}
330
A45F
100
AcDbScale
 70
     0
300
1:5
140
1.0
141
5.0
290
     0
  0
SCALE
  5
A464
102
{ACAD_REACTORS
330
A45F
102
}
330
A45F
100
AcDbScale
 70
     0
300
1:8
140
1.0
141
8.0
290
     0
  0
SCALE
  5
A465
102
{ACAD_REACTORS
330
A45F
102
}
330
A45F
100
AcDbScale
 70
     0
300
1:10
140
1.0
141
10.0
290
     0
  0
SCALE
  5
A466
102
{ACAD_REACTORS
330
A45F
102
}
330
A45F
100
AcDbScale
 70
     0
300
1:16
140
1.0
141
16.0
290
     0
  0
SCALE
  5
A467
102
{ACAD_REACTORS
330
A45F
102
}
330
A45F
100
AcDbScale
 70
     0
300
1:20
140
1.0
141
20.0
290
     0
  0
SCALE
  5
A468
102
{ACAD_REACTORS
330
A45F
102
}
330
A45F
100
AcDbScale
 70
     0
300
1:30
140
1.0
141
30.0
290
     0
  0
SCALE
  5
A469
102
{ACAD_REACTORS
330
A45F
102
}
330
A45F
100
AcDbScale
 70
     0
300
1:40
140
1.0
141
40.0
290
     0
  0
SCALE
  5
A46A
102
{ACAD_REACTORS
330
A45F
102
}
330
A45F
100
AcDbScale
 70
     0
300
1:50
140
1.0
141
50.0
290
     0
  0
SCALE
  5
A46B
102
{ACAD_REACTORS
330
A45F
102
}
330
A45F
100
AcDbScale
 70
     0
300
1:100
140
1.0
141
100.0
290
     0
  0
SCALE
  5
A46C
102
{ACAD_REACTORS
330
A45F
102
}
330
A45F
100
AcDbScale
 70
     0
300
2:1
140
2.0
141
1.0
290
     0
  0
SCALE
  5
A46D
102
{ACAD_REACTORS
330
A45F
102
}
330
A45F
100
AcDbScale
 70
     0
300
4:1
140
4.0
141
1.0
290
     0
  0
SCALE
  5
A46E
102
{ACAD_REACTORS
330
A45F
102
}
330
A45F
100
AcDbScale
 70
     0
300
8:1
140
8.0
141
1.0
290
     0
  0
SCALE
  5
A46F
102
{ACAD_REACTORS
330
A45F
102
}
330
A45F
100
AcDbScale
 70
     0
300
10:1
140
10.0
141
1.0
290
     0
  0
SCALE
  5
A470
102
{ACAD_REACTORS
330
A45F
102
}
330
A45F
100
AcDbScale
 70
     0
300
100:1
140
100.0
141
1.0
290
     0
  0
ACDBSECTIONVIEWSTYLE
  5
A474
102
{ACAD_XDICTIONARY
360
A4C3
102
}
102
{ACAD_REACTORS
330
A473
102
}
330
A473
100
AcDbModelDocViewStyle
 70
     0
  3
Metric50
290
     0
100
AcDbSectionViewStyle
 70
     0
 71
     0
 90
      102
 71
     1
340
10
 62
   256
 40
5.0
340
0
340
0
 62
   256
 40
5.0
300
I, O, Q, S, X, Z
 40
10.0
 90
        0
 40
2.5
 90
        0
 71
     2
340
15
 90
       25
 62
   256
340
15
 90
       50
 62
   256
 40
5.0
 40
2.5
 40
5.0
 71
     3
340
10
 62
   256
 40
5.0
 90
        0
 40
15.0
 90
        1
300
%<\AcVar ViewSectionStartId>%-%<\AcVar ViewSectionEndId>% (%<\AcVar ViewScale \f "%sn">%)
 71
     4
 62
   256
 62
   257
300
ANSI31
 40
1.0
 90
        0
290
     0
290
     0
 90
        6
 40
0.0
 40
1.570796326794896
 40
0.2617993877991494
 40
1.308996938995747
 40
-0.2617993877991494
 40
1.832595714594046
  0
TABLESTYLE
  5
A45E
102
{ACAD_XDICTIONARY
360
A4B8
102
}
102
{ACAD_REACTORS
330
A45D
102
}
330
A45D
100
AcDbTableStyle
280
     0
  3
Standard
 70
     0
 71
     0
 40
1.5
 41
1.5
280
     0
281
     0
  7
STANDARD
140
4.5
170
     2
 62
     0
 63
     7
283
     0
 90
      512
 91
        0
  1

274
    -2
284
     1
 64
     0
275
    -2
285
     1
 65
     0
276
    -2
286
     1
 66
     0
277
    -2
287
     1
 67
     0
278
    -2
288
     1
 68
     0
279
    -2
289
     1
 69
     0
  7
STANDARD
140
6.0
170
     5
 62
     0
 63
     7
283
     0
 90
      512
 91
        0
  1

274
    -2
284
     1
 64
     0
275
    -2
285
     1
 65
     0
276
    -2
286
     1
 66
     0
277
    -2
287
     1
 67
     0
278
    -2
288
     1
 68
     0
279
    -2
289
     1
 69
     0
  7
STANDARD
140
4.5
170
     5
 62
     0
 63
     7
283
     0
 90
      512
 91
        0
  1

274
    -2
284
     1
 64
     0
275
    -2
285
     1
 65
     0
276
    -2
286
     1
 66
     0
277
    -2
287
     1
 67
     0
278
    -2
288
     1
 68
     0
279
    -2
289
     1
 69
     0
  0
VISUALSTYLE
  5
A449
102
{ACAD_REACTORS
330
A443
102
}
330
A443
100
AcDbVisualStyle
  2
2dWireframe
 70
     4
177
     3
291
     0
 70
    58
 90
        0
176
     1
 90
        2
176
     1
 90
        0
176
     1
 90
        0
176
     1
 40
0.6
176
     1
 40
30.0
176
     1
 62
     7
420
 16777215
176
     1
 90
        1
176
     1
 90
        4
176
     1
 62
     7
176
     1
 62
   257
176
     1
 90
        1
176
     1
 90
        1
176
     1
 40
1.0
176
     1
 90
        0
176
     1
 62
   257
176
     1
 40
1.0
176
     1
 90
        1
176
     1
 90
        6
176
     1
 90
        2
176
     1
 62
     7
176
     1
 90
        5
176
     1
 90
        0
176
     1
 90
        0
176
     1
290
     0
176
     1
 90
        1
176
     1
 40
0.0
176
     1
 90
        0
176
     1
290
     1
176
     1
290
     1
176
     1
290
     0
176
     1
290
     0
176
     1
290
     0
176
     1
290
     0
176
     1
290
     0
176
     1
290
     0
176
     1
290
     0
176
     1
 90
       50
176
     1
 40
0.0
176
     1
 40
1.0
176
     1
 90
        0
176
     1
 62
    18
420
        0
176
     1
 90
       50
176
     1
 90
        3
176
     1
 62
     5
420
      255
176
     1
290
     0
176
     1
 90
       50
176
     1
 90
       50
176
     1
 90
       50
176
     1
290
     0
176
     1
 90
       50
176
     1
 62
   256
176
     0
 40
1.0
176
     0
 90
        2
176
     1
  1
strokes_ogs.tif
176
     1
290
     0
176
     1
 40
1.0
176
     1
 40
1.0
176
     1
1001
ACAD
1000
AcDbSavedByObjectVersion
1070
     0
  0
VISUALSTYLE
  5
A448
102
{ACAD_REACTORS
330
A443
102
}
330
A443
100
AcDbVisualStyle
  2
Basic
 70
     7
177
     3
291
     1
 70
    58
 90
        1
176
     1
 90
        0
176
     1
 90
        1
176
     1
 90
        0
176
     1
 40
0.6
176
     1
 40
30.0
176
     1
 62
     7
420
 16777215
176
     1
 90
        0
176
     1
 90
        4
176
     1
 62
     7
176
     1
 62
   257
176
     1
 90
        1
176
     1
 90
        1
176
     1
 40
1.0
176
     1
 90
        8
176
     1
 62
     7
176
     1
 40
1.0
176
     1
 90
        1
176
     1
 90
        6
176
     1
 90
        2
176
     1
 62
     7
176
     1
 90
        5
176
     1
 90
        0
176
     1
 90
        0
176
     1
290
     0
176
     1
 90
        1
176
     1
 40
0.0
176
     1
 90
        0
176
     1
290
     0
176
     1
290
     1
176
     1
290
     1
176
     1
290
     0
176
     1
290
     0
176
     1
290
     0
176
     1
290
     0
176
     1
290
     0
176
     1
290
     0
176
     1
 90
       50
176
     1
 40
0.0
176
     1
 40
1.0
176
     1
 90
        0
176
     1
 62
    18
420
        0
176
     1
 90
       50
176
     1
 90
        3
176
     1
 62
     5
420
      255
176
     1
290
     0
176
     1
 90
       50
176
     1
 90
       50
176
     1
 90
       50
176
     1
290
     0
176
     1
 90
       50
176
     1
 62
   256
176
     0
 40
1.0
176
     0
 90
        2
176
     1
  1
strokes_ogs.tif
176
     1
290
     0
176
     1
 40
1.0
176
     1
 40
1.0
176
     1
1001
ACAD
1000
AcDbSavedByObjectVersion
1070
     0
  0
VISUALSTYLE
  5
A44F
102
{ACAD_REACTORS
330
A443
102
}
330
A443
100
AcDbVisualStyle
  2
Brighten
 70
    12
177
     3
291
     1
 70
    58
 90
        2
176
     1
 90
        2
176
     1
 90
        0
176
     1
 90
        0
176
     1
 40
0.6
176
     1
 40
30.0
176
     1
 62
     7
420
 16777215
176
     1
 90
        1
176
     1
 90
        4
176
     1
 62
     7
176
     1
 62
   257
176
     1
 90
        1
176
     1
 90
        1
176
     1
 40
1.0
176
     1
 90
        8
176
     1
 62
     7
176
     1
 40
1.0
176
     1
 90
        1
176
     1
 90
        6
176
     1
 90
        2
176
     1
 62
     7
176
     1
 90
        5
176
     1
 90
        0
176
     1
 90
        0
176
     1
290
     0
176
     1
 90
        1
176
     1
 40
50.0
176
     1
 90
        0
176
     1
290
     0
176
     1
290
     1
176
     1
290
     1
176
     1
290
     0
176
     1
290
     0
176
     1
290
     0
176
     1
290
     0
176
     1
290
     0
176
     1
290
     0
176
     1
 90
       50
176
     1
 40
0.0
176
     1
 40
1.0
176
     1
 90
        0
176
     1
 62
    18
420
        0
176
     1
 90
       50
176
     1
 90
        3
176
     1
 62
     5
420
      255
176
     1
290
     0
176
     1
 90
       50
176
     1
 90
       50
176
     1
 90
       50
176
     1
290
     0
176
     1
 90
       50
176
     1
 62
   256
176
     0
 40
1.0
176
     0
 90
        2
176
     1
  1
strokes_ogs.tif
176
     1
290
     0
176
     1
 40
1.0
176
     1
 40
1.0
176
     1
1001
ACAD
1000
AcDbSavedByObjectVersion
1070
     0
  0
VISUALSTYLE
  5
A453
102
{ACAD_REACTORS
330
A443
102
}
330
A443
100
AcDbVisualStyle
  2
ColorChange
 70
    16
177
     3
291
     1
 70
    58
 90
        2
176
     1
 90
        2
176
     1
 90
        3
176
     1
 90
        0
176
     1
 40
0.6
176
     1
 40
30.0
176
     1
 62
     8
420
  8421504
176
     1
 90
        1
176
     1
 90
        4
176
     1
 62
     7
176
     1
 62
   257
176
     1
 90
        1
176
     1
 90
        1
176
     1
 40
1.0
176
     1
 90
        8
176
     1
 62
     8
420
  8421504
176
     1
 40
1.0
176
     1
 90
        1
176
     1
 90
        6
176
     1
 90
        2
176
     1
 62
     7
176
     1
 90
        5
176
     1
 90
        0
176
     1
 90
        0
176
     1
290
     0
176
     1
 90
        1
176
     1
 40
0.0
176
     1
 90
        0
176
     1
290
     0
176
     1
290
     1
176
     1
290
     1
176
     1
290
     0
176
     1
290
     0
176
     1
290
     0
176
     1
290
     0
176
     1
290
     0
176
     1
290
     0
176
     1
 90
       50
176
     1
 40
0.0
176
     1
 40
1.0
176
     1
 90
        0
176
     1
 62
    18
420
        0
176
     1
 90
       50
176
     1
 90
        3
176
     1
 62
     5
420
      255
176
     1
290
     0
176
     1
 90
       50
176
     1
 90
       50
176
     1
 90
       50
176
     1
290
     0
176
     1
 90
       50
176
     1
 62
   256
176
     0
 40
1.0
176
     0
 90
        2
176
     1
  1
strokes_ogs.tif
176
     1
290
     0
176
     1
 40
1.0
176
     1
 40
1.0
176
     1
1001
ACAD
1000
AcDbSavedByObjectVersion
1070
     0
  0
VISUALSTYLE
  5
A44C
102
{ACAD_REACTORS
330
A443
102
}
330
A443
100
AcDbVisualStyle
  2
Conceptual
 70
     9
177
     3
291
     0
 70
    58
 90
        3
176
     1
 90
        2
176
     1
 90
        0
176
     1
 90
        0
176
     1
 40
0.6
176
     1
 40
30.0
176
     1
 62
     7
420
 16777215
176
     1
 90
        2
176
     1
 90
        2
176
     1
 62
     7
176
     1
 62
   257
176
     1
 90
        1
176
     1
 90
        1
176
     1
 40
179.0
176
     1
 90
        8
176
     1
 62
     7
176
     1
 40
1.0
176
     1
 90
        1
176
     1
 90
        6
176
     1
 90
        2
176
     1
 62
     7
176
     1
 90
        3
176
     1
 90
        0
176
     1
 90
        0
176
     1
290
     0
176
     1
 90
        1
176
     1
 40
0.0
176
     1
 90
        0
176
     1
290
     0
176
     1
290
     1
176
     1
290
     1
176
     1
290
     0
176
     1
290
     0
176
     1
290
     0
176
     1
290
     0
176
     1
290
     0
176
     1
290
     0
176
     1
 90
       50
176
     1
 40
0.0
176
     1
 40
1.0
176
     1
 90
        0
176
     1
 62
    18
420
        0
176
     1
 90
       50
176
     1
 90
        3
176
     1
 62
     5
420
      255
176
     1
290
     0
176
     1
 90
       50
176
     1
 90
       50
176
     1
 90
       50
176
     1
290
     0
176
     1
 90
       50
176
     1
 62
   256
176
     0
 40
1.0
176
     0
 90
        2
176
     1
  1
strokes_ogs.tif
176
     1
290
     0
176
     1
 40
1.0
176
     1
 40
1.0
176
     1
1001
ACAD
1000
AcDbSavedByObjectVersion
1070
     0
  0
VISUALSTYLE
  5
A44E
102
{ACAD_REACTORS
330
A443
102
}
330
A443
100
AcDbVisualStyle
  2
Dim
 70
    11
177
     3
291
     1
 70
    58
 90
        2
176
     1
 90
        2
176
     1
 90
        0
176
     1
 90
        0
176
     1
 40
0.6
176
     1
 40
30.0
176
     1
 62
     7
420
 16777215
176
     1
 90
        1
176
     1
 90
        4
176
     1
 62
     7
176
     1
 62
   257
176
     1
 90
        1
176
     1
 90
        1
176
     1
 40
1.0
176
     1
 90
        8
176
     1
 62
     7
176
     1
 40
1.0
176
     1
 90
        1
176
     1
 90
        6
176
     1
 90
        2
176
     1
 62
     7
176
     1
 90
        5
176
     1
 90
        0
176
     1
 90
        0
176
     1
290
     0
176
     1
 90
        1
176
     1
 40
-50.0
176
     1
 90
        0
176
     1
290
     0
176
     1
290
     1
176
     1
290
     1
176
     1
290
     0
176
     1
290
     0
176
     1
290
     0
176
     1
290
     0
176
     1
290
     0
176
     1
290
     0
176
     1
 90
       50
176
     1
 40
0.0
176
     1
 40
1.0
176
     1
 90
        0
176
     1
 62
    18
420
        0
176
     1
 90
       50
176
     1
 90
        3
176
     1
 62
     5
420
      255
176
     1
290
     0
176
     1
 90
       50
176
     1
 90
       50
176
     1
 90
       50
176
     1
290
     0
176
     1
 90
       50
176
     1
 62
   256
176
     0
 40
1.0
176
     0
 90
        2
176
     1
  1
strokes_ogs.tif
176
     1
290
     0
176
     1
 40
1.0
176
     1
 40
1.0
176
     1
1001
ACAD
1000
AcDbSavedByObjectVersion
1070
     0
  0
VISUALSTYLE
  5
A45B
102
{ACAD_REACTORS
330
A443
102
}
330
A443
100
AcDbVisualStyle
  2
EdgeColorOff
 70
    22
177
     3
291
     1
 70
    58
 90
        2
176
     0
 90
        2
176
     0
 90
        0
176
     0
 90
        0
176
     0
 40
0.6
176
     0
 40
30.0
176
     0
 62
     7
420
 16777215
176
     0
 90
        1
176
     0
 90
        4
176
     0
 62
     7
176
     0
 62
   257
176
     0
 90
        1
176
     0
 90
        1
176
     0
 40
1.0
176
     0
 90
        8
176
     2
 62
     7
176
     0
 40
1.0
176
     0
 90
        1
176
     0
 90
        6
176
     0
 90
        2
176
     0
 62
     7
176
     0
 90
        5
176
     0
 90
        0
176
     0
 90
        0
176
     0
290
     0
176
     0
 90
        1
176
     0
 40
0.0
176
     0
 90
        0
176
     0
290
     0
176
     0
290
     1
176
     0
290
     1
176
     0
290
     0
176
     0
290
     0
176
     0
290
     0
176
     0
290
     0
176
     0
290
     0
176
     0
290
     0
176
     0
 90
       50
176
     0
 40
0.0
176
     0
 40
1.0
176
     0
 90
        0
176
     0
 62
    18
420
        0
176
     0
 90
       50
176
     0
 90
        3
176
     0
 62
     5
420
      255
176
     0
290
     0
176
     0
 90
       50
176
     0
 90
       50
176
     0
 90
       50
176
     0
290
     0
176
     0
 90
       50
176
     0
 62
   256
176
     0
 40
1.0
176
     0
 90
        2
176
     0
  1
strokes_ogs.tif
176
     0
290
     0
176
     0
 40
1.0
176
     0
 40
1.0
176
     0
1001
ACAD
1000
AcDbSavedByObjectVersion
1070
     0
  0
VISUALSTYLE
  5
A452
102
{ACAD_REACTORS
330
A443
102
}
330
A443
100
AcDbVisualStyle
  2
Facepattern
 70
    15
177
     3
291
     1
 70
    58
 90
        2
176
     1
 90
        2
176
     1
 90
        0
176
     1
 90
        0
176
     1
 40
0.6
176
     1
 40
30.0
176
     1
 62
     7
420
 16777215
176
     1
 90
        1
176
     1
 90
        4
176
     1
 62
     7
176
     1
 62
   257
176
     1
 90
        1
176
     1
 90
        1
176
     1
 40
1.0
176
     1
 90
        8
176
     1
 62
     7
176
     1
 40
1.0
176
     1
 90
        1
176
     1
 90
        6
176
     1
 90
        2
176
     1
 62
     7
176
     1
 90
        5
176
     1
 90
        0
176
     1
 90
        0
176
     1
290
     0
176
     1
 90
        1
176
     1
 40
0.0
176
     1
 90
        0
176
     1
290
     0
176
     1
290
     1
176
     1
290
     1
176
     1
290
     0
176
     1
290
     0
176
     1
290
     0
176
     1
290
     0
176
     1
290
     0
176
     1
290
     0
176
     1
 90
       50
176
     1
 40
0.0
176
     1
 40
1.0
176
     1
 90
        0
176
     1
 62
    18
420
        0
176
     1
 90
       50
176
     1
 90
        3
176
     1
 62
     5
420
      255
176
     1
290
     0
176
     1
 90
       50
176
     1
 90
       50
176
     1
 90
       50
176
     1
290
     0
176
     1
 90
       50
176
     1
 62
   256
176
     0
 40
1.0
176
     0
 90
        2
176
     1
  1
strokes_ogs.tif
176
     1
290
     0
176
     1
 40
1.0
176
     1
 40
1.0
176
     1
1001
ACAD
1000
AcDbSavedByObjectVersion
1070
     0
  0
VISUALSTYLE
  5
A444
102
{ACAD_REACTORS
330
A443
102
}
330
A443
100
AcDbVisualStyle
  2
Flat
 70
     0
177
     3
291
     1
 70
    58
 90
        2
176
     1
 90
        1
176
     1
 90
        1
176
     1
 90
        2
176
     1
 40
0.6
176
     1
 40
30.0
176
     1
 62
     7
420
 16777215
176
     1
 90
        0
176
     1
 90
        0
176
     1
 62
     7
176
     1
 62
   257
176
     1
 90
        1
176
     1
 90
        1
176
     1
 40
1.0
176
     1
 90
        8
176
     1
 62
     7
176
     1
 40
1.0
176
     1
 90
        1
176
     1
 90
        6
176
     1
 90
        2
176
     1
 62
     7
176
     1
 90
        5
176
     1
 90
        0
176
     1
 90
        0
176
     1
290
     0
176
     1
 90
       13
176
     1
 40
0.0
176
     1
 90
        0
176
     1
290
     0
176
     1
290
     1
176
     1
290
     1
176
     1
290
     0
176
     1
290
     0
176
     1
290
     0
176
     1
290
     0
176
     1
290
     0
176
     1
290
     0
176
     1
 90
       50
176
     1
 40
0.0
176
     1
 40
1.0
176
     1
 90
        0
176
     1
 62
    18
420
        0
176
     1
 90
       50
176
     1
 90
        3
176
     1
 62
     5
420
      255
176
     1
290
     0
176
     1
 90
       50
176
     1
 90
       50
176
     1
 90
       50
176
     1
290
     0
176
     1
 90
       50
176
     1
 62
   256
176
     0
 40
1.0
176
     0
 90
        2
176
     1
  1
strokes_ogs.tif
176
     1
290
     0
176
     1
 40
1.0
176
     1
 40
1.0
176
     1
1001
ACAD
1000
AcDbSavedByObjectVersion
1070
     0
  0
VISUALSTYLE
  5
A445
102
{ACAD_REACTORS
330
A443
102
}
330
A443
100
AcDbVisualStyle
  2
FlatWithEdges
 70
     1
177
     3
291
     1
 70
    58
 90
        2
176
     1
 90
        1
176
     1
 90
        1
176
     1
 90
        2
176
     1
 40
0.6
176
     1
 40
30.0
176
     1
 62
     7
420
 16777215
176
     1
 90
        1
176
     1
 90
        0
176
     1
 62
     7
176
     1
 62
   257
176
     1
 90
        1
176
     1
 90
        1
176
     1
 40
1.0
176
     1
 90
        0
176
     1
 62
   257
176
     1
 40
1.0
176
     1
 90
        1
176
     1
 90
        6
176
     1
 90
        2
176
     1
 62
     7
176
     1
 90
        5
176
     1
 90
        0
176
     1
 90
        0
176
     1
290
     0
176
     1
 90
       13
176
     1
 40
0.0
176
     1
 90
        0
176
     1
290
     0
176
     1
290
     1
176
     1
290
     1
176
     1
290
     0
176
     1
290
     0
176
     1
290
     0
176
     1
290
     0
176
     1
290
     0
176
     1
290
     0
176
     1
 90
       50
176
     1
 40
0.0
176
     1
 40
1.0
176
     1
 90
        0
176
     1
 62
    18
420
        0
176
     1
 90
       50
176
     1
 90
        3
176
     1
 62
     5
420
      255
176
     1
290
     0
176
     1
 90
       50
176
     1
 90
       50
176
     1
 90
       50
176
     1
290
     0
176
     1
 90
       50
176
     1
 62
   256
176
     0
 40
1.0
176
     0
 90
        2
176
     1
  1
strokes_ogs.tif
176
     1
290
     0
176
     1
 40
1.0
176
     1
 40
1.0
176
     1
1001
ACAD
1000
AcDbSavedByObjectVersion
1070
     0
  0
VISUALSTYLE
  5
A446
102
{ACAD_REACTORS
330
A443
102
}
330
A443
100
AcDbVisualStyle
  2
Gouraud
 70
     2
177
     3
291
     1
 70
    58
 90
        2
176
     1
 90
        2
176
     1
 90
        1
176
     1
 90
        2
176
     1
 40
0.6
176
     1
 40
30.0
176
     1
 62
     7
420
 16777215
176
     1
 90
        0
176
     1
 90
        0
176
     1
 62
     7
176
     1
 62
   257
176
     1
 90
        1
176
     1
 90
        1
176
     1
 40
1.0
176
     1
 90
        0
176
     1
 62
     7
176
     1
 40
1.0
176
     1
 90
        1
176
     1
 90
        6
176
     1
 90
        2
176
     1
 62
     7
176
     1
 90
        5
176
     1
 90
        0
176
     1
 90
        0
176
     1
290
     0
176
     1
 90
       13
176
     1
 40
0.0
176
     1
 90
        0
176
     1
290
     0
176
     1
290
     1
176
     1
290
     1
176
     1
290
     0
176
     1
290
     0
176
     1
290
     0
176
     1
290
     0
176
     1
290
     0
176
     1
290
     0
176
     1
 90
       50
176
     1
 40
0.0
176
     1
 40
1.0
176
     1
 90
        0
176
     1
 62
    18
420
        0
176
     1
 90
       50
176
     1
 90
        3
176
     1
 62
     5
420
      255
176
     1
290
     0
176
     1
 90
       50
176
     1
 90
       50
176
     1
 90
       50
176
     1
290
     0
176
     1
 90
       50
176
     1
 62
   256
176
     0
 40
1.0
176
     0
 90
        2
176
     1
  1
strokes_ogs.tif
176
     1
290
     0
176
     1
 40
1.0
176
     1
 40
1.0
176
     1
1001
ACAD
1000
AcDbSavedByObjectVersion
1070
     0
  0
VISUALSTYLE
  5
A447
102
{ACAD_REACTORS
330
A443
102
}
330
A443
100
AcDbVisualStyle
  2
GouraudWithEdges
 70
     3
177
     3
291
     1
 70
    58
 90
        2
176
     1
 90
        2
176
     1
 90
        1
176
     1
 90
        2
176
     1
 40
0.6
176
     1
 40
30.0
176
     1
 62
     7
420
 16777215
176
     1
 90
        1
176
     1
 90
        0
176
     1
 62
     7
176
     1
 62
   257
176
     1
 90
        1
176
     1
 90
        1
176
     1
 40
1.0
176
     1
 90
        0
176
     1
 62
   257
176
     1
 40
1.0
176
     1
 90
        1
176
     1
 90
        6
176
     1
 90
        2
176
     1
 62
     7
176
     1
 90
        5
176
     1
 90
        0
176
     1
 90
        0
176
     1
290
     0
176
     1
 90
       13
176
     1
 40
0.0
176
     1
 90
        0
176
     1
290
     0
176
     1
290
     1
176
     1
290
     1
176
     1
290
     0
176
     1
290
     0
176
     1
290
     0
176
     1
290
     0
176
     1
290
     0
176
     1
290
     0
176
     1
 90
       50
176
     1
 40
0.0
176
     1
 40
1.0
176
     1
 90
        0
176
     1
 62
    18
420
        0
176
     1
 90
       50
176
     1
 90
        3
176
     1
 62
     5
420
      255
176
     1
290
     0
176
     1
 90
       50
176
     1
 90
       50
176
     1
 90
       50
176
     1
290
     0
176
     1
 90
       50
176
     1
 62
   256
176
     0
 40
1.0
176
     0
 90
        2
176
     1
  1
strokes_ogs.tif
176
     1
290
     0
176
     1
 40
1.0
176
     1
 40
1.0
176
     1
1001
ACAD
1000
AcDbSavedByObjectVersion
1070
     0
  0
VISUALSTYLE
  5
A44B
102
{ACAD_REACTORS
330
A443
102
}
330
A443
100
AcDbVisualStyle
  2
Hidden
 70
     6
177
     3
291
     0
 70
    58
 90
        1
176
     1
 90
        2
176
     1
 90
        2
176
     1
 90
        0
176
     1
 40
0.6
176
     1
 40
30.0
176
     1
 62
     7
420
 16777215
176
     1
 90
        2
176
     1
 90
        2
176
     1
 62
     7
176
     1
 62
   257
176
     1
 90
        2
176
     1
 90
        1
176
     1
 40
40.0
176
     1
 90
        0
176
     1
 62
   257
176
     1
 40
1.0
176
     1
 90
        1
176
     1
 90
        6
176
     1
 90
        2
176
     1
 62
     7
176
     1
 90
        3
176
     1
 90
        0
176
     1
 90
        0
176
     1
290
     0
176
     1
 90
        1
176
     1
 40
0.0
176
     1
 90
        0
176
     1
290
     0
176
     1
290
     1
176
     1
290
     1
176
     1
290
     0
176
     1
290
     0
176
     1
290
     0
176
     1
290
     0
176
     1
290
     0
176
     1
290
     0
176
     1
 90
       50
176
     1
 40
0.0
176
     1
 40
1.0
176
     1
 90
        0
176
     1
 62
    18
420
        0
176
     1
 90
       50
176
     1
 90
        3
176
     1
 62
     5
420
      255
176
     1
290
     0
176
     1
 90
       50
176
     1
 90
       50
176
     1
 90
       50
176
     1
290
     0
176
     1
 90
       50
176
     1
 62
   256
176
     0
 40
1.0
176
     0
 90
        2
176
     1
  1
strokes_ogs.tif
176
     1
290
     0
176
     1
 40
1.0
176
     1
 40
1.0
176
     1
1001
ACAD
1000
AcDbSavedByObjectVersion
1070
     0
  0
VISUALSTYLE
  5
A459
102
{ACAD_REACTORS
330
A443
102
}
330
A443
100
AcDbVisualStyle
  2
JitterOff
 70
    20
177
     3
291
     1
 70
    58
 90
        2
176
     0
 90
        2
176
     0
 90
        0
176
     0
 90
        0
176
     0
 40
0.6
176
     0
 40
30.0
176
     0
 62
     7
420
 16777215
176
     0
 90
        1
176
     0
 90
        4
176
     0
 62
     7
176
     0
 62
   257
176
     0
 90
        1
176
     0
 90
        1
176
     0
 40
1.0
176
     0
 90
       10
176
     2
 62
     7
176
     0
 40
1.0
176
     0
 90
        1
176
     0
 90
        6
176
     0
 90
        2
176
     0
 62
     7
176
     0
 90
        5
176
     0
 90
        0
176
     0
 90
        0
176
     0
290
     0
176
     0
 90
        1
176
     0
 40
0.0
176
     0
 90
        0
176
     0
290
     0
176
     0
290
     1
176
     0
290
     1
176
     0
290
     0
176
     0
290
     0
176
     0
290
     0
176
     0
290
     0
176
     0
290
     0
176
     0
290
     0
176
     0
 90
       50
176
     0
 40
0.0
176
     0
 40
1.0
176
     0
 90
        0
176
     0
 62
    18
420
        0
176
     0
 90
       50
176
     0
 90
        3
176
     0
 62
     5
420
      255
176
     0
290
     0
176
     0
 90
       50
176
     0
 90
       50
176
     0
 90
       50
176
     0
290
     0
176
     0
 90
       50
176
     0
 62
   256
176
     0
 40
1.0
176
     0
 90
        2
176
     0
  1
strokes_ogs.tif
176
     0
290
     0
176
     0
 40
1.0
176
     0
 40
1.0
176
     0
1001
ACAD
1000
AcDbSavedByObjectVersion
1070
     0
  0
VISUALSTYLE
  5
A451
102
{ACAD_REACTORS
330
A443
102
}
330
A443
100
AcDbVisualStyle
  2
Linepattern
 70
    14
177
     3
291
     1
 70
    58
 90
        2
176
     1
 90
        2
176
     1
 90
        0
176
     1
 90
        0
176
     1
 40
0.6
176
     1
 40
30.0
176
     1
 62
     7
420
 16777215
176
     1
 90
        1
176
     1
 90
        4
176
     1
 62
     7
176
     1
 62
   257
176
     1
 90
        7
176
     1
 90
        7
176
     1
 40
1.0
176
     1
 90
        8
176
     1
 62
     7
176
     1
 40
1.0
176
     1
 90
        1
176
     1
 90
        6
176
     1
 90
        2
176
     1
 62
     7
176
     1
 90
        5
176
     1
 90
        0
176
     1
 90
        0
176
     1
290
     0
176
     1
 90
        1
176
     1
 40
0.0
176
     1
 90
        0
176
     1
290
     0
176
     1
290
     1
176
     1
290
     1
176
     1
290
     0
176
     1
290
     0
176
     1
290
     0
176
     1
290
     0
176
     1
290
     0
176
     1
290
     0
176
     1
 90
       50
176
     1
 40
0.0
176
     1
 40
1.0
176
     1
 90
        0
176
     1
 62
    18
420
        0
176
     1
 90
       50
176
     1
 90
        3
176
     1
 62
     5
420
      255
176
     1
290
     0
176
     1
 90
       50
176
     1
 90
       50
176
     1
 90
       50
176
     1
290
     0
176
     1
 90
       50
176
     1
 62
   256
176
     0
 40
1.0
176
     0
 90
        2
176
     1
  1
strokes_ogs.tif
176
     1
290
     0
176
     1
 40
1.0
176
     1
 40
1.0
176
     1
1001
ACAD
1000
AcDbSavedByObjectVersion
1070
     0
  0
VISUALSTYLE
  5
A45A
102
{ACAD_REACTORS
330
A443
102
}
330
A443
100
AcDbVisualStyle
  2
OverhangOff
 70
    21
177
     3
291
     1
 70
    58
 90
        2
176
     0
 90
        2
176
     0
 90
        0
176
     0
 90
        0
176
     0
 40
0.6
176
     0
 40
30.0
176
     0
 62
     7
420
 16777215
176
     0
 90
        1
176
     0
 90
        4
176
     0
 62
     7
176
     0
 62
   257
176
     0
 90
        1
176
     0
 90
        1
176
     0
 40
1.0
176
     0
 90
        9
176
     2
 62
     7
176
     0
 40
1.0
176
     0
 90
        1
176
     0
 90
        6
176
     0
 90
        2
176
     0
 62
     7
176
     0
 90
        5
176
     0
 90
        0
176
     0
 90
        0
176
     0
290
     0
176
     0
 90
        1
176
     0
 40
0.0
176
     0
 90
        0
176
     0
290
     0
176
     0
290
     1
176
     0
290
     1
176
     0
290
     0
176
     0
290
     0
176
     0
290
     0
176
     0
290
     0
176
     0
290
     0
176
     0
290
     0
176
     0
 90
       50
176
     0
 40
0.0
176
     0
 40
1.0
176
     0
 90
        0
176
     0
 62
    18
420
        0
176
     0
 90
       50
176
     0
 90
        3
176
     0
 62
     5
420
      255
176
     0
290
     0
176
     0
 90
       50
176
     0
 90
       50
176
     0
 90
       50
176
     0
290
     0
176
     0
 90
       50
176
     0
 62
   256
176
     0
 40
1.0
176
     0
 90
        2
176
     0
  1
strokes_ogs.tif
176
     0
290
     0
176
     0
 40
1.0
176
     0
 40
1.0
176
     0
1001
ACAD
1000
AcDbSavedByObjectVersion
1070
     0
  0
VISUALSTYLE
  5
A44D
102
{ACAD_REACTORS
330
A443
102
}
330
A443
100
AcDbVisualStyle
  2
Realistic
 70
     8
177
     3
291
     0
 70
    58
 90
        2
176
     1
 90
        3
176
     1
 90
        0
176
     1
 90
        2
176
     1
 40
0.6
176
     1
 40
30.0
176
     1
 62
     7
420
 16777215
176
     1
 90
        0
176
     1
 90
        0
176
     1
 62
     7
176
     1
 62
   257
176
     1
 90
        1
176
     1
 90
        1
176
     1
 40
1.0
176
     1
 90
        8
176
     1
 62
   257
176
     1
 40
1.0
176
     1
 90
        1
176
     1
 90
        6
176
     1
 90
        2
176
     1
 62
     7
176
     1
 90
        3
176
     1
 90
        0
176
     1
 90
        0
176
     1
290
     0
176
     1
 90
       13
176
     1
 40
0.0
176
     1
 90
        0
176
     1
290
     0
176
     1
290
     1
176
     1
290
     1
176
     1
290
     0
176
     1
290
     0
176
     1
290
     0
176
     1
290
     0
176
     1
290
     0
176
     1
290
     0
176
     1
 90
       50
176
     1
 40
0.0
176
     1
 40
1.0
176
     1
 90
        0
176
     1
 62
    18
420
        0
176
     1
 90
       50
176
     1
 90
        3
176
     1
 62
     5
420
      255
176
     1
290
     0
176
     1
 90
       50
176
     1
 90
       50
176
     1
 90
       50
176
     1
290
     0
176
     1
 90
       50
176
     1
 62
   256
176
     0
 40
1.0
176
     0
 90
        2
176
     1
  1
strokes_ogs.tif
176
     1
290
     0
176
     1
 40
1.0
176
     1
 40
1.0
176
     1
1001
ACAD
1000
AcDbSavedByObjectVersion
1070
     0
  0
VISUALSTYLE
  5
A458
102
{ACAD_REACTORS
330
A443
102
}
330
A443
100
AcDbVisualStyle
  2
Shaded
 70
    27
177
     3
291
     0
 70
    58
 90
        2
176
     1
 90
        2
176
     1
 90
        1
176
     1
 90
        2
176
     1
 40
0.6
176
     1
 40
30.0
176
     1
 62
     7
420
 16777215
176
     1
 90
        0
176
     1
 90
        4
176
     1
 62
     7
176
     1
 62
   257
176
     1
 90
        1
176
     1
 90
        1
176
     1
 40
1.0
176
     1
 90
        8
176
     1
 62
   257
176
     1
 40
1.0
176
     1
 90
        1
176
     1
 90
        6
176
     1
 90
        2
176
     1
 62
     8
420
  7895160
176
     1
 90
        3
176
     1
 90
        0
176
     1
 90
        0
176
     1
290
     0
176
     1
 90
        5
176
     1
 40
0.0
176
     1
 90
        0
176
     1
290
     0
176
     1
290
     1
176
     1
290
     1
176
     1
290
     0
176
     1
290
     0
176
     1
290
     0
176
     1
290
     0
176
     1
290
     0
176
     1
290
     0
176
     1
 90
       50
176
     1
 40
0.0
176
     1
 40
1.0
176
     1
 90
        0
176
     1
 62
    18
420
        0
176
     1
 90
       50
176
     1
 90
        3
176
     1
 62
     5
420
      255
176
     1
290
     0
176
     1
 90
       50
176
     1
 90
       50
176
     1
 90
       50
176
     1
290
     0
176
     1
 90
       50
176
     1
 62
   256
176
     0
 40
1.0
176
     0
 90
        2
176
     1
  1
strokes_ogs.tif
176
     1
290
     0
176
     1
 40
1.0
176
     1
 40
1.0
176
     1
1001
ACAD
1000
AcDbSavedByObjectVersion
1070
     0
  0
VISUALSTYLE
  5
A457
102
{ACAD_REACTORS
330
A443
102
}
330
A443
100
AcDbVisualStyle
  2
Shaded with edges
 70
    26
177
     3
291
     0
 70
    58
 90
        2
176
     1
 90
        2
176
     1
 90
        1
176
     1
 90
        2
176
     1
 40
0.6
176
     1
 40
30.0
176
     1
 62
     7
420
 16777215
176
     1
 90
        1
176
     1
 90
        2
176
     1
 62
     7
176
     1
 62
   257
176
     1
 90
        2
176
     1
 90
        1
176
     1
 40
1.0
176
     1
 90
        8
176
     1
 62
   257
176
     1
 40
1.0
176
     1
 90
        1
176
     1
 90
        6
176
     1
 90
        2
176
     1
 62
     7
176
     1
 90
        3
176
     1
 90
        0
176
     1
 90
        0
176
     1
290
     0
176
     1
 90
        5
176
     1
 40
0.0
176
     1
 90
        0
176
     1
290
     0
176
     1
290
     1
176
     1
290
     1
176
     1
290
     0
176
     1
290
     0
176
     1
290
     0
176
     1
290
     0
176
     1
290
     0
176
     1
290
     0
176
     1
 90
       50
176
     1
 40
0.0
176
     1
 40
1.0
176
     1
 90
        0
176
     1
 62
    18
420
        0
176
     1
 90
       50
176
     1
 90
        3
176
     1
 62
     5
420
      255
176
     1
290
     0
176
     1
 90
       50
176
     1
 90
       50
176
     1
 90
       50
176
     1
290
     0
176
     1
 90
       50
176
     1
 62
   256
176
     0
 40
1.0
176
     0
 90
        2
176
     1
  1
strokes_ogs.tif
176
     1
290
     0
176
     1
 40
1.0
176
     1
 40
1.0
176
     1
1001
ACAD
1000
AcDbSavedByObjectVersion
1070
     0
  0
VISUALSTYLE
  5
A454
102
{ACAD_REACTORS
330
A443
102
}
330
A443
100
AcDbVisualStyle
  2
Shades of Gray
 70
    23
177
     3
291
     0
 70
    58
 90
        2
176
     1
 90
        2
176
     1
 90
        3
176
     1
 90
        0
176
     1
 40
0.6
176
     1
 40
30.0
176
     1
 62
     7
420
 16777215
176
     1
 90
        2
176
     1
 90
        2
176
     1
 62
     7
176
     1
 62
     7
176
     1
 90
        1
176
     1
 90
        1
176
     1
 40
40.0
176
     1
 90
        8
176
     1
 62
     7
176
     1
 40
1.0
176
     1
 90
        1
176
     1
 90
        6
176
     1
 90
        2
176
     1
 62
     7
176
     1
 90
        3
176
     1
 90
        0
176
     1
 90
        0
176
     1
290
     0
176
     1
 90
        1
176
     1
 40
0.0
176
     1
 90
        0
176
     1
290
     0
176
     1
290
     1
176
     1
290
     1
176
     1
290
     0
176
     1
290
     0
176
     1
290
     0
176
     1
290
     0
176
     1
290
     0
176
     1
290
     0
176
     1
 90
       50
176
     1
 40
0.0
176
     1
 40
1.0
176
     1
 90
        0
176
     1
 62
    18
420
        0
176
     1
 90
       50
176
     1
 90
        3
176
     1
 62
     5
420
      255
176
     1
290
     0
176
     1
 90
       50
176
     1
 90
       50
176
     1
 90
       50
176
     1
290
     0
176
     1
 90
       50
176
     1
 62
   256
176
     0
 40
1.0
176
     0
 90
        2
176
     1
  1
strokes_ogs.tif
176
     1
290
     0
176
     1
 40
1.0
176
     1
 40
1.0
176
     1
1001
ACAD
1000
AcDbSavedByObjectVersion
1070
     0
  0
VISUALSTYLE
  5
A455
102
{ACAD_REACTORS
330
A443
102
}
330
A443
100
AcDbVisualStyle
  2
Sketchy
 70
    24
177
     3
291
     0
 70
    58
 90
        1
176
     1
 90
        2
176
     1
 90
        2
176
     1
 90
        0
176
     1
 40
0.6
176
     1
 40
30.0
176
     1
 62
     7
420
 16777215
176
     1
 90
        2
176
     1
 90
        2
176
     1
 62
     7
176
     1
 62
     7
176
     1
 90
        1
176
     1
 90
        1
176
     1
 40
40.0
176
     1
 90
       11
176
     1
 62
     7
176
     1
 40
1.0
176
     1
 90
        1
176
     1
 90
        6
176
     1
 90
        2
176
     1
 62
     7
176
     1
 90
        6
176
     1
 90
        0
176
     1
 90
        0
176
     1
290
     0
176
     1
 90
        1
176
     1
 40
0.0
176
     1
 90
        0
176
     1
290
     0
176
     1
290
     1
176
     1
290
     1
176
     1
290
     0
176
     1
290
     0
176
     1
290
     0
176
     1
290
     0
176
     1
290
     0
176
     1
290
     0
176
     1
 90
       50
176
     1
 40
0.0
176
     1
 40
1.0
176
     1
 90
        0
176
     1
 62
    18
420
        0
176
     1
 90
       50
176
     1
 90
        3
176
     1
 62
     5
420
      255
176
     1
290
     0
176
     1
 90
       50
176
     1
 90
       50
176
     1
 90
       50
176
     1
290
     0
176
     1
 90
       50
176
     1
 62
   256
176
     0
 40
1.0
176
     0
 90
        2
176
     1
  1
strokes_ogs.tif
176
     1
290
     0
176
     1
 40
1.0
176
     1
 40
1.0
176
     1
1001
ACAD
1000
AcDbSavedByObjectVersion
1070
     0
  0
VISUALSTYLE
  5
A450
102
{ACAD_REACTORS
330
A443
102
}
330
A443
100
AcDbVisualStyle
  2
Thicken
 70
    13
177
     3
291
     1
 70
    58
 90
        2
176
     1
 90
        2
176
     1
 90
        0
176
     1
 90
        0
176
     1
 40
0.6
176
     1
 40
30.0
176
     1
 62
     7
420
 16777215
176
     1
 90
        1
176
     1
 90
        4
176
     1
 62
     7
176
     1
 62
   257
176
     1
 90
        1
176
     1
 90
        1
176
     1
 40
1.0
176
     1
 90
       12
176
     1
 62
     7
176
     1
 40
1.0
176
     1
 90
        1
176
     1
 90
        6
176
     1
 90
        2
176
     1
 62
     7
176
     1
 90
        5
176
     1
 90
        0
176
     1
 90
        0
176
     1
290
     0
176
     1
 90
        1
176
     1
 40
0.0
176
     1
 90
        0
176
     1
290
     0
176
     1
290
     1
176
     1
290
     1
176
     1
290
     0
176
     1
290
     0
176
     1
290
     0
176
     1
290
     0
176
     1
290
     0
176
     1
290
     0
176
     1
 90
       50
176
     1
 40
0.0
176
     1
 40
1.0
176
     1
 90
        0
176
     1
 62
    18
420
        0
176
     1
 90
       50
176
     1
 90
        3
176
     1
 62
     5
420
      255
176
     1
290
     0
176
     1
 90
       50
176
     1
 90
       50
176
     1
 90
       50
176
     1
290
     0
176
     1
 90
       50
176
     1
 62
   256
176
     0
 40
1.0
176
     0
 90
        2
176
     1
  1
strokes_ogs.tif
176
     1
290
     0
176
     1
 40
1.0
176
     1
 40
1.0
176
     1
1001
ACAD
1000
AcDbSavedByObjectVersion
1070
     0
  0
VISUALSTYLE
  5
A44A
102
{ACAD_REACTORS
330
A443
102
}
330
A443
100
AcDbVisualStyle
  2
Wireframe
 70
     5
177
     3
291
     0
 70
    58
 90
        0
176
     1
 90
        2
176
     1
 90
        0
176
     1
 90
        0
176
     1
 40
0.6
176
     1
 40
30.0
176
     1
 62
     7
420
 16777215
176
     1
 90
        1
176
     1
 90
        4
176
     1
 62
     7
176
     1
 62
   257
176
     1
 90
        1
176
     1
 90
        1
176
     1
 40
1.0
176
     1
 90
        0
176
     1
 62
   257
176
     1
 40
1.0
176
     1
 90
        1
176
     1
 90
        6
176
     1
 90
        2
176
     1
 62
     7
176
     1
 90
        3
176
     1
 90
        0
176
     1
 90
        0
176
     1
290
     0
176
     1
 90
        1
176
     1
 40
0.0
176
     1
 90
        0
176
     1
290
     0
176
     1
290
     1
176
     1
290
     1
176
     1
290
     0
176
     1
290
     0
176
     1
290
     0
176
     1
290
     0
176
     1
290
     0
176
     1
290
     0
176
     1
 90
       50
176
     1
 40
0.0
176
     1
 40
1.0
176
     1
 90
        0
176
     1
 62
    18
420
        0
176
     1
 90
       50
176
     1
 90
        3
176
     1
 62
     5
420
      255
176
     1
290
     0
176
     1
 90
       50
176
     1
 90
       50
176
     1
 90
       50
176
     1
290
     0
176
     1
 90
       50
176
     1
 62
   256
176
     0
 40
1.0
176
     0
 90
        2
176
     1
  1
strokes_ogs.tif
176
     1
290
     0
176
     1
 40
1.0
176
     1
 40
1.0
176
     1
1001
ACAD
1000
AcDbSavedByObjectVersion
1070
     0
  0
VISUALSTYLE
  5
A456
102
{ACAD_REACTORS
330
A443
102
}
330
A443
100
AcDbVisualStyle
  2
X-Ray
 70
    25
177
     3
291
     0
 70
    58
 90
        2
176
     1
 90
        2
176
     1
 90
        1
176
     1
 90
        1
176
     1
 40
0.5
176
     1
 40
30.0
176
     1
 62
     7
420
 16777215
176
     1
 90
        1
176
     1
 90
        0
176
     1
 62
     7
176
     1
 62
   257
176
     1
 90
        1
176
     1
 90
        1
176
     1
 40
1.0
176
     1
 90
        8
176
     1
 62
     7
176
     1
 40
1.0
176
     1
 90
        1
176
     1
 90
        6
176
     1
 90
        2
176
     1
 62
     7
176
     1
 90
        3
176
     1
 90
        0
176
     1
 90
        0
176
     1
290
     0
176
     1
 90
       13
176
     1
 40
0.0
176
     1
 90
        0
176
     1
290
     0
176
     1
290
     1
176
     1
290
     1
176
     1
290
     0
176
     1
290
     0
176
     1
290
     0
176
     1
290
     0
176
     1
290
     0
176
     1
290
     0
176
     1
 90
       50
176
     1
 40
0.0
176
     1
 40
1.0
176
     1
 90
        0
176
     1
 62
    18
420
        0
176
     1
 90
       50
176
     1
 90
        3
176
     1
 62
     5
420
      255
176
     1
290
     0
176
     1
 90
       50
176
     1
 90
       50
176
     1
 90
       50
176
     1
290
     0
176
     1
 90
       50
176
     1
 62
   256
176
     0
 40
1.0
176
     0
 90
        2
176
     1
  1
strokes_ogs.tif
176
     1
290
     0
176
     1
 40
1.0
176
     1
 40
1.0
176
     1
1001
ACAD
1000
AcDbSavedByObjectVersion
1070
     0
  0
DICTIONARYVAR
  5
A4AE
102
{ACAD_REACTORS
330
A4A8
102
}
330
A4A8
100
DictionaryVariables
280
     0
  1
1:1
  0
DICTIONARYVAR
  5
A4AA
102
{ACAD_REACTORS
330
A4A8
102
}
330
A4A8
100
DictionaryVariables
280
     0
  1
STANDARD
  0
DICTIONARYVAR
  5
A4A9
102
{ACAD_REACTORS
330
A4A8
102
}
330
A4A8
100
DictionaryVariables
280
     0
  1
STANDARD
  0
DICTIONARYVAR
  5
A4AB
102
{ACAD_REACTORS
330
A4A8
102
}
330
A4A8
100
DictionaryVariables
280
     0
  1
Metric50
  0
DICTIONARYVAR
  5
A4AC
102
{ACAD_REACTORS
330
A4A8
102
}
330
A4A8
100
DictionaryVariables
280
     0
  1
Metric50
  0
DICTIONARYVAR
  5
A4B0
102
{ACAD_REACTORS
330
A4A8
102
}
330
A4A8
100
DictionaryVariables
280
     0
  1
1
  0
DICTIONARYVAR
  5
A4B1
102
{ACAD_REACTORS
330
A4A8
102
}
330
A4A8
100
DictionaryVariables
280
     0
  1
15
  0
DICTIONARYVAR
  5
A4AF
102
{ACAD_REACTORS
330
A4A8
102
}
330
A4A8
100
DictionaryVariables
280
     0
  1
0
  0
DICTIONARYVAR
  5
A4B7
102
{ACAD_REACTORS
330
A4A8
102
}
330
A4A8
100
DictionaryVariables
280
     0
  1
0
  0
DICTIONARYVAR
  5
A4AD
102
{ACAD_REACTORS
330
A4A8
102
}
330
A4A8
100
DictionaryVariables
280
     0
  1
0
  0
DICTIONARY
  5
A4C2
102
{ACAD_REACTORS
330
A4C0
102
}
330
A4C0
100
AcDbDictionary
281
     1
  0
DICTIONARY
  5
A4C1
102
{ACAD_REACTORS
330
A4C0
102
}
330
A4C0
100
AcDbDictionary
281
     1
  3
2051520215856
350
A4BB
  3
2051520215872
350
A4BC
  3
2051520215888
350
A4BD
  3
2051520215904
350
A4BE
  3
2051520215920
350
A4BF
  0
DICTIONARY
  5
A4C5
330
A476
100
AcDbDictionary
280
     1
281
     1
  3
ACAD_XREC_ROUNDTRIP
360
A4C6
  0
DICTIONARY
  5
A434
330
A433
100
AcDbDictionary
280
     1
281
     1
  3
BUMPTILE
360
A436
  3
DIFFUSETILE
360
A435
  3
OPACITYTILE
360
A439
  3
REFLECTIONTILE
360
A438
  3
REFRACTIONTILE
360
A43A
  3
SPECULARTILE
360
A437
  0
DICTIONARY
  5
A42C
330
A42B
100
AcDbDictionary
280
     1
281
     1
  3
BUMPTILE
360
A42E
  3
DIFFUSETILE
360
A42D
  3
OPACITYTILE
360
A431
  3
REFLECTIONTILE
360
A430
  3
REFRACTIONTILE
360
A432
  3
SPECULARTILE
360
A42F
  0
DICTIONARY
  5
A43C
330
A43B
100
AcDbDictionary
280
     1
281
     1
  3
BUMPTILE
360
A43E
  3
DIFFUSETILE
360
A43D
  3
OPACITYTILE
360
A441
  3
REFLECTIONTILE
360
A440
  3
REFRACTIONTILE
360
A442
  3
SPECULARTILE
360
A43F
  0
DICTIONARY
  5
A4C3
330
A474
100
AcDbDictionary
280
     1
281
     1
  3
ACAD_XREC_ROUNDTRIP
360
A4C4
  0
DICTIONARY
  5
A4B8
330
A45E
100
AcDbDictionary
280
     1
281
     1
  3
ACAD_ROUNDTRIP_2008_TABLESTYLE_CELLSTYLEMAP
360
A4B9
  0
XRECORD
  5
A4BB
102
{ACAD_REACTORS
330
A4C1
102
}
330
A4C1
100
AcDbXrecord
280
     1
  1
AcDb_Thumbnail_Schema
102
{ATTRRECORD
341
A4BC
  2
AcDbDs::TreatedAsObjectData
280
     1
291
     1
102
ATTRRECORD}
102
{ATTRRECORD
341
A4BD
  2
AcDbDs::Legacy
280
     1
291
     1
102
ATTRRECORD}
  2
AcDbDs::ID
280
    10
 91
        8
102
{ATTRRECORD
341
A4BE
  2
AcDs:Indexable
280
     1
291
     1
102
ATTRRECORD}
102
{ATTRRECORD
341
A4BF
  2
AcDbDs::HandleAttribute
280
     7
282
     1
102
ATTRRECORD}
  2
Thumbnail_Data
280
    15
 91
        0
  0
XRECORD
  5
A4BC
102
{ACAD_REACTORS
330
A4C1
102
}
330
A4C1
100
AcDbXrecord
280
     1
  1
AcDbDs::TreatedAsObjectDataSchema
  2
AcDbDs::TreatedAsObjectData
280
     1
 91
        0
  0
XRECORD
  5
A4BD
102
{ACAD_REACTORS
330
A4C1
102
}
330
A4C1
100
AcDbXrecord
280
     1
  1
AcDbDs::LegacySchema
  2
AcDbDs::Legacy
280
     1
 91
        0
  0
XRECORD
  5
A4BE
102
{ACAD_REACTORS
330
A4C1
102
}
330
A4C1
100
AcDbXrecord
280
     1
  1
AcDbDs::IndexedPropertySchema
  2
AcDs:Indexable
280
     1
 91
        0
  0
XRECORD
  5
A4BF
102
{ACAD_REACTORS
330
A4C1
102
}
330
A4C1
100
AcDbXrecord
280
     1
  1
AcDbDs::HandleAttributeSchema
  2
AcDbDs::HandleAttribute
280
     7
 91
        1
284
     1
  0
XRECORD
  5
A4C6
102
{ACAD_REACTORS
330
A4C5
102
}
330
A4C5
100
AcDbXrecord
280
     1
102
DISPLAYNAME
  1
Metric50
102
FLAGS
 90
        0
  0
XRECORD
  5
A436
102
{ACAD_REACTORS
330
A434
102
}
330
A434
100
AcDbXrecord
280
     1
270
     1
271
     1
  0
XRECORD
  5
A435
102
{ACAD_REACTORS
330
A434
102
}
330
A434
100
AcDbXrecord
280
     1
270
     1
271
     1
  0
XRECORD
  5
A439
102
{ACAD_REACTORS
330
A434
102
}
330
A434
100
AcDbXrecord
280
     1
270
     1
271
     1
  0
XRECORD
  5
A438
102
{ACAD_REACTORS
330
A434
102
}
330
A434
100
AcDbXrecord
280
     1
270
     1
271
     1
  0
XRECORD
  5
A43A
102
{ACAD_REACTORS
330
A434
102
}
330
A434
100
AcDbXrecord
280
     1
270
     1
271
     1
  0
XRECORD
  5
A437
102
{ACAD_REACTORS
330
A434
102
}
330
A434
100
AcDbXrecord
280
     1
270
     1
271
     1
  0
XRECORD
  5
A42E
102
{ACAD_REACTORS
330
A42C
102
}
330
A42C
100
AcDbXrecord
280
     1
270
     1
271
     1
  0
XRECORD
  5
A42D
102
{ACAD_REACTORS
330
A42C
102
}
330
A42C
100
AcDbXrecord
280
     1
270
     1
271
     1
  0
XRECORD
  5
A431
102
{ACAD_REACTORS
330
A42C
102
}
330
A42C
100
AcDbXrecord
280
     1
270
     1
271
     1
  0
XRECORD
  5
A430
102
{ACAD_REACTORS
330
A42C
102
}
330
A42C
100
AcDbXrecord
280
     1
270
     1
271
     1
  0
XRECORD
  5
A432
102
{ACAD_REACTORS
330
A42C
102
}
330
A42C
100
AcDbXrecord
280
     1
270
     1
271
     1
  0
XRECORD
  5
A42F
102
{ACAD_REACTORS
330
A42C
102
}
330
A42C
100
AcDbXrecord
280
     1
270
     1
271
     1
  0
XRECORD
  5
A43E
102
{ACAD_REACTORS
330
A43C
102
}
330
A43C
100
AcDbXrecord
280
     1
270
     1
271
     1
  0
XRECORD
  5
A43D
102
{ACAD_REACTORS
330
A43C
102
}
330
A43C
100
AcDbXrecord
280
     1
270
     1
271
     1
  0
XRECORD
  5
A441
102
{ACAD_REACTORS
330
A43C
102
}
330
A43C
100
AcDbXrecord
280
     1
270
     1
271
     1
  0
XRECORD
  5
A440
102
{ACAD_REACTORS
330
A43C
102
}
330
A43C
100
AcDbXrecord
280
     1
270
     1
271
     1
  0
XRECORD
  5
A442
102
{ACAD_REACTORS
330
A43C
102
}
330
A43C
100
AcDbXrecord
280
     1
270
     1
271
     1
  0
XRECORD
  5
A43F
102
{ACAD_REACTORS
330
A43C
102
}
330
A43C
100
AcDbXrecord
280
     1
270
     1
271
     1
  0
XRECORD
  5
A4C4
102
{ACAD_REACTORS
330
A4C3
102
}
330
A4C3
100
AcDbXrecord
280
     1
102
DISPLAYNAME
  1
Metric50
102
FLAGS
 90
        0
  0
CELLSTYLEMAP
  5
A4B9
102
{ACAD_REACTORS
330
A4B8
102
}
330
A4B8
100
AcDbCellStyleMap
 90
        3
300
CELLSTYLE
  1
TABLEFORMAT_BEGIN
 90
        5
170
     1
 91
        0
 92
    32768
 62
   257
 93
        1
300
CONTENTFORMAT
  1
CONTENTFORMAT_BEGIN
 90
        0
 91
        0
 92
      512
 93
        0
300

 40
0.0
140
1.0
 94
        5
 62
     0
340
10
144
6.0
309
CONTENTFORMAT_END
171
     1
301
MARGIN
  1
CELLMARGIN_BEGIN
 40
1.5
 40
1.5
 40
1.5
 40
1.5
 40
4.5
 40
4.5
309
CELLMARGIN_END
 94
        6
 95
        1
302
GRIDFORMAT
  1
GRIDFORMAT_BEGIN
 90
        0
 91
        1
 62
     0
 92
       -2
340
0
 93
        0
 40
1.125
309
GRIDFORMAT_END
 95
        2
302
GRIDFORMAT
  1
GRIDFORMAT_BEGIN
 90
        0
 91
        1
 62
     0
 92
       -2
340
0
 93
        0
 40
1.125
309
GRIDFORMAT_END
 95
        4
302
GRIDFORMAT
  1
GRIDFORMAT_BEGIN
 90
        0
 91
        1
 62
     0
 92
       -2
340
0
 93
        0
 40
1.125
309
GRIDFORMAT_END
 95
        8
302
GRIDFORMAT
  1
GRIDFORMAT_BEGIN
 90
        0
 91
        1
 62
     0
 92
       -2
340
0
 93
        0
 40
1.125
309
GRIDFORMAT_END
 95
       16
302
GRIDFORMAT
  1
GRIDFORMAT_BEGIN
 90
        0
 91
        1
 62
     0
 92
       -2
340
0
 93
        0
 40
1.125
309
GRIDFORMAT_END
 95
       32
302
GRIDFORMAT
  1
GRIDFORMAT_BEGIN
 90
        0
 91
        1
 62
     0
 92
       -2
340
0
 93
        0
 40
1.125
309
GRIDFORMAT_END
309
TABLEFORMAT_END
  1
CELLSTYLE_BEGIN
 90
        1
 91
        1
300
_TITLE
309
CELLSTYLE_END
300
CELLSTYLE
  1
TABLEFORMAT_BEGIN
 90
        5
170
     1
 91
        0
 92
        0
 62
   257
 93
        1
300
CONTENTFORMAT
  1
CONTENTFORMAT_BEGIN
 90
        0
 91
        0
 92
      512
 93
        0
300

 40
0.0
140
1.0
 94
        5
 62
     0
340
10
144
4.5
309
CONTENTFORMAT_END
171
     1
301
MARGIN
  1
CELLMARGIN_BEGIN
 40
1.5
 40
1.5
 40
1.5
 40
1.5
 40
4.5
 40
4.5
309
CELLMARGIN_END
 94
        6
 95
        1
302
GRIDFORMAT
  1
GRIDFORMAT_BEGIN
 90
        0
 91
        1
 62
     0
 92
       -2
340
0
 93
        0
 40
1.125
309
GRIDFORMAT_END
 95
        2
302
GRIDFORMAT
  1
GRIDFORMAT_BEGIN
 90
        0
 91
        1
 62
     0
 92
       -2
340
0
 93
        0
 40
1.125
309
GRIDFORMAT_END
 95
        4
302
GRIDFORMAT
  1
GRIDFORMAT_BEGIN
 90
        0
 91
        1
 62
     0
 92
       -2
340
0
 93
        0
 40
1.125
309
GRIDFORMAT_END
 95
        8
302
GRIDFORMAT
  1
GRIDFORMAT_BEGIN
 90
        0
 91
        1
 62
     0
 92
       -2
340
0
 93
        0
 40
1.125
309
GRIDFORMAT_END
 95
       16
302
GRIDFORMAT
  1
GRIDFORMAT_BEGIN
 90
        0
 91
        1
 62
     0
 92
       -2
340
0
 93
        0
 40
1.125
309
GRIDFORMAT_END
 95
       32
302
GRIDFORMAT
  1
GRIDFORMAT_BEGIN
 90
        0
 91
        1
 62
     0
 92
       -2
340
0
 93
        0
 40
1.125
309
GRIDFORMAT_END
309
TABLEFORMAT_END
  1
CELLSTYLE_BEGIN
 90
        2
 91
        1
300
_HEADER
309
CELLSTYLE_END
300
CELLSTYLE
  1
TABLEFORMAT_BEGIN
 90
        5
170
     1
 91
        0
 92
        0
 62
   257
 93
        1
300
CONTENTFORMAT
  1
CONTENTFORMAT_BEGIN
 90
        0
 91
        0
 92
      512
 93
        0
300

 40
0.0
140
1.0
 94
        2
 62
     0
340
10
144
4.5
309
CONTENTFORMAT_END
171
     1
301
MARGIN
  1
CELLMARGIN_BEGIN
 40
1.5
 40
1.5
 40
1.5
 40
1.5
 40
4.5
 40
4.5
309
CELLMARGIN_END
 94
        6
 95
        1
302
GRIDFORMAT
  1
GRIDFORMAT_BEGIN
 90
        0
 91
        1
 62
     0
 92
       -2
340
0
 93
        0
 40
1.125
309
GRIDFORMAT_END
 95
        2
302
GRIDFORMAT
  1
GRIDFORMAT_BEGIN
 90
        0
 91
        1
 62
     0
 92
       -2
340
0
 93
        0
 40
1.125
309
GRIDFORMAT_END
 95
        4
302
GRIDFORMAT
  1
GRIDFORMAT_BEGIN
 90
        0
 91
        1
 62
     0
 92
       -2
340
0
 93
        0
 40
1.125
309
GRIDFORMAT_END
 95
        8
302
GRIDFORMAT
  1
GRIDFORMAT_BEGIN
 90
        0
 91
        1
 62
     0
 92
       -2
340
0
 93
        0
 40
1.125
309
GRIDFORMAT_END
 95
       16
302
GRIDFORMAT
  1
GRIDFORMAT_BEGIN
 90
        0
 91
        1
 62
     0
 92
       -2
340
0
 93
        0
 40
1.125
309
GRIDFORMAT_END
 95
       32
302
GRIDFORMAT
  1
GRIDFORMAT_BEGIN
 90
        0
 91
        1
 62
     0
 92
       -2
340
0
 93
        0
 40
1.125
309
GRIDFORMAT_END
309
TABLEFORMAT_END
  1
CELLSTYLE_BEGIN
 90
        3
 91
        2
300
_DATA
309
CELLSTYLE_END
  0
ENDSEC
  0
SECTION
  2
ACDSDATA
 70
     2
 71
     8
  0
ACDSSCHEMA
 90
        0
  1
AcDb_Thumbnail_Schema
  2
AcDbDs::ID
280
    10
 91
        8
  2
Thumbnail_Data
280
    15
 91
        0
101
ACDSRECORD
 95
        0
 90
        1
  2
AcDbDs::TreatedAsObjectData
280
     1
291
     1
101
ACDSRECORD
 95
        0
 90
        2
  2
AcDbDs::Legacy
280
     1
291
     1
101
ACDSRECORD
  1
AcDbDs::ID
 90
        3
  2
AcDs:Indexable
280
     1
291
     1
101
ACDSRECORD
  1
AcDbDs::ID
 90
        4
  2
AcDbDs::HandleAttribute
280
     7
282
     1
  0
ACDSSCHEMA
 90
        1
  1
AcDbDs::TreatedAsObjectDataSchema
  2
AcDbDs::TreatedAsObjectData
280
     1
 91
        0
  0
ACDSSCHEMA
 90
        2
  1
AcDbDs::LegacySchema
  2
AcDbDs::Legacy
280
     1
 91
        0
  0
ACDSSCHEMA
 90
        3
  1
AcDbDs::IndexedPropertySchema
  2
AcDs:Indexable
280
     1
 91
        0
  0
ACDSSCHEMA
 90
        4
  1
AcDbDs::HandleAttributeSchema
  2
AcDbDs::HandleAttribute
280
     7
 91
        1
284
     1
  0
ACDSRECORD
 90
        0
  2
AcDbDs::ID
280
    10
320
A422
  2
Thumbnail_Data
280
    15
 94
     1700
310
89504E470D0A1A0A0000000D49484452000001000000007C0803000000B13B9E5A00000300504C5445000000000000C8C8C80000000000000000000000000000000000000000000000000000330000660000990000CC0000FF0033000033330033660033990033CC0033FF0066000066330066660066990066CC0066FF0099
310
000099330099660099990099CC0099FF00CC0000CC3300CC6600CC9900CCCC00CCFF00FF0000FF3300FF6600FF9900FFCC00FFFF3300003300333300663300993300CC3300FF3333003333333333663333993333CC3333FF3366003366333366663366993366CC3366FF3399003399333399663399993399CC3399FF33CC00
310
33CC3333CC6633CC9933CCCC33CCFF33FF0033FF3333FF6633FF9933FFCC33FFFF6600006600336600666600996600CC6600FF6633006633336633666633996633CC6633FF6666006666336666666666996666CC6666FF6699006699336699666699996699CC6699FF66CC0066CC3366CC6666CC9966CCCC66CCFF66FF0066
310
FF3366FF6666FF9966FFCC66FFFF9900009900339900669900999900CC9900FF9933009933339933669933999933CC9933FF9966009966339966669966999966CC9966FF9999009999339999669999999999CC9999FF99CC0099CC3399CC6699CC9999CCCC99CCFF99FF0099FF3399FF6699FF9999FFCC99FFFFCC0000CC00
310
33CC0066CC0099CC00CCCC00FFCC3300CC3333CC3366CC3399CC33CCCC33FFCC6600CC6633CC6666CC6699CC66CCCC66FFCC9900CC9933CC9966CC9999CC99CCCC99FFCCCC00CCCC33CCCC66CCCC99CCCCCCCCCCFFCCFF00CCFF33CCFF66CCFF99CCFFCCCCFFFFFF0000FF0033FF0066FF0099FF00CCFF00FFFF3300FF3333
310
FF3366FF3399FF33CCFF33FFFF6600FF6633FF6666FF6699FF66CCFF66FFFF9900FF9933FF9966FF9999FF99CCFF99FFFFCC00FFCC33FFCC66FFCC99FFCCCCFFCCFFFFFF00FFFF33FFFF66FFFF99FFFFCCFFFFFF0000000D0D0D1A1A1A2828283535354343435050505D5D5D6B6B6B787878868686939393A1A1A1AEAEAEBB
310
BBBBC9C9C9D6D6D6E4E4E4F1F1F1FFFFFF00000000000000000000000000000000000000000000000000000000000008F1915C0000035F4944415478DAED9D5B8EC3200C45BD1C7EBCFF3F56C236F81FC2FB9574469A1905FB5AAAD2B44D541F2EC6382925FA03F37F64748AF9A34E0B00000000000000EFF9A60F839F1600
310
D3E15EA502D403F09A014CBDE06C00BF3A033812C0CB4E0600FF0F20CB785275DBC65E9F0F2A7ACF6FE4E3CF07903150F39CDA237B9E13808624BD4FDE8B5000F54D4F8312460E9D18CA460280A4E32A055F55F1EC9A4710441EA07032F470866301AC4DDA37EE24973814D0B6082C1080F7DD40DFA263899D3201D406F679
310
C0EB3F462201FCD6F1A8090200000800E082ED77A403700FA603C0FDBE2E00462380A8731E2DEEAB0140549CAD0AB80C00000000000000000000C40308C9BE6136ABB1510340BD0200600F204F0BBE37231619044368887322BD00C23E003039000000F90076A60800ED14408A82600460ED02200C835601805C14B57B939F
310
081515DC01103F1D068069C633695E0900EDD7065F7B5A0000000078CF371D62E21C20A5037083CF2EEF74A3A478009F46C9E301345FB683FF9C29B9F98DB3017CCE80DCCDC7A400D836F40A80E6B2C1E900364DCA0F00D6A2D1F10066F74CDCDC025814C0A20054CF120205005C0F808BC28BABF201B81E40F43F16410B01
310
5D0038E9DED40EC0DA0024E72C5547790470D58C0503E05C18BF2C131801588900BA5120F6FCE0A3699EEA03902F8C544F5500A8F91F1B636DBC37CA8627F19E29674600BCB9958ACDF10A70942F0C5505A4D65E155053C45E012C0140CA826B0CC87A6F822F00765DA042391D401B05A25F438F7F52C0E125B11E40219032
310
A1B09D01906C0049CD26B674F2583E8056F989AEC5E930975E10BA813600B9E0D142A0B5DA0014CF6C8A007A01944C20A446B283A0EB83E0E0594A8BD2E89F0170572F11390A7400CA9078E503B602E85C960D806BA3474BCE5E697FCAFEA503601E229F7805D4D9603233643FDC12C21603A6BB498F57404B001280D14CF5
310
916502E80A02ED57E32300D76A26E38FCBD395A1B301CC7D81FADB1F4695B8FE65579ECA01305D12DE0070ED655700388100EEAE927FBA8950FC9DA2FBD565A00029005E7B5A000000000080FFFBA6EA5795FDB967D200D016C0BAF27A5B845BAC02A6176958849DDAE2AA880112BB00DDFC8D888218B06DDABAEE3CD1B29C
310
B02600656D652D00B0BA3C526100000000000000000081000EFAEBED2FFF79709350A956190000000049454E44AE426082
  0
ENDSEC
  0
EOF
