  0
SECTION
  2
HEADER
  9
$ACADVER
  1
AC1027
  9
$ACADMAINTVER
 70
   125
  9
$DWGCODEPAGE
  3
ANSI_932
  9
$LASTSAVEDBY
  1
yasukiyo.ogawa
  9
$REQUIREDVERSIONS
160
                 0
  9
$INSBASE
 10
0.0
 20
0.0
 30
0.0
  9
$EXTMIN
 10
7786.166697834037
 20
-14237.41921203123
 30
0.0
  9
$EXTMAX
 10
19336.16669783403
 20
1987.580787968773
 30
0.0
  9
$LIMMIN
 10
0.0
 20
0.0
  9
$LIMMAX
 10
297.0
 20
210.0
  9
$ORTHOMODE
 70
     1
  9
$REGENMODE
 70
     1
  9
$FILLMODE
 70
     1
  9
$QTEXTMODE
 70
     0
  9
$MIRRTEXT
 70
     0
  9
$LTSCALE
 40
275.0
  9
$ATTMODE
 70
     1
  9
$TEXTSIZE
 40
137.5
  9
$TRACEWID
 40
0.05
  9
$TEXTSTYLE
  7
STANDARD
  9
$CLAYER
  8
SP
  9
$CELTYPE
  6
BYLAYER
  9
$CECOLOR
 62
   256
  9
$CELTSCALE
 40
1.0
  9
$DISPSILH
 70
     0
  9
$DIMSCALE
 40
55.0
  9
$DIMASZ
 40
2.0
  9
$DIMEXO
 40
1.0
  9
$DIMDLI
 40
10.0
  9
$DIMRND
 40
0.0
  9
$DIMDLE
 40
0.0
  9
$DIMEXE
 40
1.0
  9
$DIMTP
 40
0.0
  9
$DIMTM
 40
0.0
  9
$DIMTXT
 40
2.5
  9
$DIMCEN
 40
0.0
  9
$DIMTSZ
 40
0.0
  9
$DIMTOL
 70
     0
  9
$DIMLIM
 70
     0
  9
$DIMTIH
 70
     0
  9
$DIMTOH
 70
     0
  9
$DIMSE1
 70
     0
  9
$DIMSE2
 70
     0
  9
$DIMTAD
 70
     1
  9
$DIMZIN
 70
     8
  9
$DIMBLK
  1

  9
$DIMASO
 70
     1
  9
$DIMSHO
 70
     1
  9
$DIMPOST
  1
(<>)
  9
$DIMAPOST
  1

  9
$DIMALT
 70
     0
  9
$DIMALTD
 70
     2
  9
$DIMALTF
 40
0.03937
  9
$DIMLFAC
 40
1.0
  9
$DIMTOFL
 70
     1
  9
$DIMTVP
 40
0.0
  9
$DIMTIX
 70
     0
  9
$DIMSOXD
 70
     0
  9
$DIMSAH
 70
     1
  9
$DIMBLK1
  1
OPEN
  9
$DIMBLK2
  1
OPEN
  9
$DIMSTYLE
  2
MATSU
  9
$DIMCLRD
 70
   256
  9
$DIMCLRE
 70
   256
  9
$DIMCLRT
 70
   256
  9
$DIMTFAC
 40
1.0
  9
$DIMGAP
 40
1.0
  9
$DIMJUST
 70
     0
  9
$DIMSD1
 70
     0
  9
$DIMSD2
 70
     0
  9
$DIMTOLJ
 70
     1
  9
$DIMTZIN
 70
     8
  9
$DIMALTZ
 70
     0
  9
$DIMALTTZ
 70
     0
  9
$DIMUPT
 70
     0
  9
$DIMDEC
 70
     0
  9
$DIMTDEC
 70
     4
  9
$DIMALTU
 70
     2
  9
$DIMALTTD
 70
     2
  9
$DIMTXSTY
  7
STANDARD
  9
$DIMAUNIT
 70
     0
  9
$DIMADEC
 70
     0
  9
$DIMALTRND
 40
0.0
  9
$DIMAZIN
 70
     0
  9
$DIMDSEP
 70
    46
  9
$DIMATFIT
 70
     0
  9
$DIMFRAC
 70
     0
  9
$DIMLDRBLK
  1
OPEN
  9
$DIMLUNIT
 70
     2
  9
$DIMLWD
 70
    -2
  9
$DIMLWE
 70
    -2
  9
$DIMTMOVE
 70
     0
  9
$DIMFXL
 40
1.0
  9
$DIMFXLON
 70
     0
  9
$DIMJOGANG
 40
0.7853981633974483
  9
$DIMTFILL
 70
     0
  9
$DIMTFILLCLR
 70
     0
  9
$DIMARCSYM
 70
     0
  9
$DIMLTYPE
  6

  9
$DIMLTEX1
  6

  9
$DIMLTEX2
  6

  9
$DIMTXTDIRECTION
 70
     0
  9
$LUNITS
 70
     2
  9
$LUPREC
 70
     4
  9
$SKETCHINC
 40
0.1
  9
$FILLETRAD
 40
0.0
  9
$AUNITS
 70
     0
  9
$AUPREC
 70
     2
  9
$MENU
  1
acad
  9
$ELEVATION
 40
0.0
  9
$PELEVATION
 40
0.0
  9
$THICKNESS
 40
0.0
  9
$LIMCHECK
 70
     0
  9
$CHAMFERA
 40
20.0
  9
$CHAMFERB
 40
20.0
  9
$CHAMFERC
 40
20.0
  9
$CHAMFERD
 40
0.0
  9
$SKPOLY
 70
     0
  9
$TDCREATE
 40
2453950.639282407
  9
$TDUCREATE
 40
2453950.264283854
  9
$TDUPDATE
 40
2460245.608483797
  9
$TDUUPDATE
 40
2460245.233486528
  9
$TDINDWG
 40
0.3445917130
  9
$TDUSRTIMER
 40
0.3445917130
  9
$USRTIMER
 70
     1
  9
$ANGBASE
 50
0.0
  9
$ANGDIR
 70
     0
  9
$PDMODE
 70
     0
  9
$PDSIZE
 40
1.0
  9
$PLINEWID
 40
0.0
  9
$SPLFRAME
 70
     0
  9
$SPLINETYPE
 70
     6
  9
$SPLINESEGS
 70
     8
  9
$HANDSEED
  5
A38B
  9
$SURFTAB1
 70
     6
  9
$SURFTAB2
 70
     6
  9
$SURFTYPE
 70
     6
  9
$SURFU
 70
     6
  9
$SURFV
 70
     6
  9
$UCSBASE
  2

  9
$UCSNAME
  2

  9
$UCSORG
 10
0.0
 20
-0.0000000000000568
 30
0.0
  9
$UCSXDIR
 10
1.0
 20
0.0
 30
0.0
  9
$UCSYDIR
 10
0.0
 20
1.0
 30
0.0
  9
$UCSORTHOREF
  2

  9
$UCSORTHOVIEW
 70
     0
  9
$UCSORGTOP
 10
0.0
 20
0.0
 30
0.0
  9
$UCSORGBOTTOM
 10
0.0
 20
0.0
 30
0.0
  9
$UCSORGLEFT
 10
0.0
 20
0.0
 30
0.0
  9
$UCSORGRIGHT
 10
0.0
 20
0.0
 30
0.0
  9
$UCSORGFRONT
 10
0.0
 20
0.0
 30
0.0
  9
$UCSORGBACK
 10
0.0
 20
0.0
 30
0.0
  9
$PUCSBASE
  2

  9
$PUCSNAME
  2

  9
$PUCSORG
 10
0.0
 20
0.0
 30
0.0
  9
$PUCSXDIR
 10
1.0
 20
0.0
 30
0.0
  9
$PUCSYDIR
 10
0.0
 20
1.0
 30
0.0
  9
$PUCSORTHOREF
  2

  9
$PUCSORTHOVIEW
 70
     0
  9
$PUCSORGTOP
 10
0.0
 20
0.0
 30
0.0
  9
$PUCSORGBOTTOM
 10
0.0
 20
0.0
 30
0.0
  9
$PUCSORGLEFT
 10
0.0
 20
0.0
 30
0.0
  9
$PUCSORGRIGHT
 10
0.0
 20
0.0
 30
0.0
  9
$PUCSORGFRONT
 10
0.0
 20
0.0
 30
0.0
  9
$PUCSORGBACK
 10
0.0
 20
0.0
 30
0.0
  9
$USERI1
 70
     0
  9
$USERI2
 70
     0
  9
$USERI3
 70
     0
  9
$USERI4
 70
     0
  9
$USERI5
 70
     0
  9
$USERR1
 40
0.0
  9
$USERR2
 40
0.0
  9
$USERR3
 40
0.0
  9
$USERR4
 40
0.0
  9
$USERR5
 40
0.0
  9
$WORLDVIEW
 70
     1
  9
$SHADEDGE
 70
     3
  9
$SHADEDIF
 70
    70
  9
$TILEMODE
 70
     1
  9
$MAXACTVP
 70
    16
  9
$PINSBASE
 10
0.0
 20
0.0
 30
0.0
  9
$PLIMCHECK
 70
     0
  9
$PEXTMIN
 10
1.000000000000000E+20
 20
1.000000000000000E+20
 30
1.000000000000000E+20
  9
$PEXTMAX
 10
-1.000000000000000E+20
 20
-1.000000000000000E+20
 30
-1.000000000000000E+20
  9
$PLIMMIN
 10
0.0
 20
0.0
  9
$PLIMMAX
 10
12.0
 20
9.0
  9
$UNITMODE
 70
     0
  9
$VISRETAIN
 70
     0
  9
$PLINEGEN
 70
     0
  9
$PSLTSCALE
 70
     0
  9
$TREEDEPTH
 70
  3020
  9
$CMLSTYLE
  2
STANDARD
  9
$CMLJUST
 70
     0
  9
$CMLSCALE
 40
20.0
  9
$PROXYGRAPHICS
 70
     1
  9
$MEASUREMENT
 70
     1
  9
$CELWEIGHT
370
    -1
  9
$ENDCAPS
280
     0
  9
$JOINSTYLE
280
     0
  9
$LWDISPLAY
290
     0
  9
$INSUNITS
 70
     0
  9
$HYPERLINKBASE
  1

  9
$STYLESHEET
  1

  9
$XEDIT
290
     1
  9
$CEPSNTYPE
380
     0
  9
$PSTYLEMODE
290
     1
  9
$FINGERPRINTGUID
  2
{C8E69242-5820-407F-9D8F-E7730150E895}
  9
$VERSIONGUID
  2
{A12B7017-173F-4FBF-8968-31A7335F17A1}
  9
$EXTNAMES
290
     1
  9
$PSVPSCALE
 40
0.0
  9
$OLESTARTUP
290
     0
  9
$SORTENTS
280
   127
  9
$INDEXCTL
280
     0
  9
$HIDETEXT
280
     0
  9
$XCLIPFRAME
280
     2
  9
$HALOGAP
280
     0
  9
$OBSCOLOR
 70
   257
  9
$OBSLTYPE
280
     0
  9
$INTERSECTIONDISPLAY
280
     0
  9
$INTERSECTIONCOLOR
 70
   257
  9
$DIMASSOC
280
     1
  9
$PROJECTNAME
  1

  9
$CAMERADISPLAY
290
     0
  9
$LENSLENGTH
 40
50.0
  9
$CAMERAHEIGHT
 40
0.0
  9
$STEPSPERSEC
 40
2.0
  9
$STEPSIZE
 40
6.0
  9
$3DDWFPREC
 40
2.0
  9
$PSOLWIDTH
 40
0.25
  9
$PSOLHEIGHT
 40
4.0
  9
$LOFTANG1
 40
1.570796326794896
  9
$LOFTANG2
 40
1.570796326794896
  9
$LOFTMAG1
 40
0.0
  9
$LOFTMAG2
 40
0.0
  9
$LOFTPARAM
 70
     7
  9
$LOFTNORMALS
280
     1
  9
$LATITUDE
 40
37.795
  9
$LONGITUDE
 40
-122.394
  9
$NORTHDIRECTION
 40
0.0
  9
$TIMEZONE
 70
 -8000
  9
$LIGHTGLYPHDISPLAY
280
     1
  9
$TILEMODELIGHTSYNCH
280
     1
  9
$CMATERIAL
347
A2EF
  9
$SOLIDHIST
280
     0
  9
$SHOWHIST
280
     1
  9
$DWFFRAME
280
     2
  9
$DGNFRAME
280
     0
  9
$REALWORLDSCALE
290
     1
  9
$INTERFERECOLOR
 62
     1
  9
$INTERFEREOBJVS
345
A311
  9
$INTERFEREVPVS
346
A30E
  9
$CSHADOW
280
     0
  9
$SHADOWPLANELOCATION
 40
0.0
  0
ENDSEC
  0
SECTION
  2
CLASSES
  0
CLASS
  1
ACDBDICTIONARYWDFLT
  2
AcDbDictionaryWithDefault
  3
ObjectDBX Classes
 90
        0
 91
        1
280
     0
281
     0
  0
CLASS
  1
MATERIAL
  2
AcDbMaterial
  3
ObjectDBX Classes
 90
     1153
 91
        3
280
     0
281
     0
  0
CLASS
  1
VISUALSTYLE
  2
AcDbVisualStyle
  3
ObjectDBX Classes
 90
     4095
 91
       24
280
     0
281
     0
  0
CLASS
  1
TABLESTYLE
  2
AcDbTableStyle
  3
ObjectDBX Classes
 90
     4095
 91
        1
280
     0
281
     0
  0
CLASS
  1
SCALE
  2
AcDbScale
  3
ObjectDBX Classes
 90
     1153
 91
       17
280
     0
281
     0
  0
CLASS
  1
MLEADERSTYLE
  2
AcDbMLeaderStyle
  3
ACDB_MLEADERSTYLE_CLASS
 90
     4095
 91
        1
280
     0
281
     0
  0
CLASS
  1
ACDBSECTIONVIEWSTYLE
  2
AcDbSectionViewStyle
  3
ObjectDBX Classes
 90
     1025
 91
        1
280
     0
281
     0
  0
CLASS
  1
ACDBDETAILVIEWSTYLE
  2
AcDbDetailViewStyle
  3
ObjectDBX Classes
 90
     1025
 91
        1
280
     0
281
     0
  0
CLASS
  1
DICTIONARYVAR
  2
AcDbDictionaryVar
  3
ObjectDBX Classes
 90
        0
 91
       10
280
     0
281
     0
  0
CLASS
  1
CELLSTYLEMAP
  2
AcDbCellStyleMap
  3
ObjectDBX Classes
 90
     1152
 91
        1
280
     0
281
     0
  0
ENDSEC
  0
SECTION
  2
TABLES
  0
TABLE
  2
VPORT
  5
8
330
0
100
AcDbSymbolTable
 70
     1
1001
ACAD
1000
DbSaveVer
1071
      278
  0
VPORT
  5
A2EC
330
8
100
AcDbSymbolTableRecord
100
AcDbViewportTableRecord
  2
*Active
 70
     0
 10
0.0
 20
0.0
 11
1.0
 21
1.0
 12
15195.03397102364
 22
-6124.919174254455
 13
0.0
 23
0.0
 14
5.0
 24
5.0
 15
0.0
 25
0.0
 16
0.0
 26
0.0
 36
1.0
 17
0.0
 27
0.0
 37
0.0
 40
16329.89204756976
 41
2.250314465408805
 42
50.0
 43
0.0
 44
0.0
 50
0.0
 51
0.0
 71
     0
 72
   100
 73
     1
 74
     0
 75
     0
 76
     0
 77
     0
 78
     0
281
     0
 65
     1
110
0.0
120
-0.0000000000000568
130
0.0
111
1.0
121
0.0
131
0.0
112
0.0
122
1.0
132
0.0
 79
     0
146
0.0
348
A30D
 60
     3
 61
     5
292
     1
282
     1
141
0.0
142
0.0
 63
   250
421
  3355443
1001
ACAD_NAV_VCDISPLAY
1070
     3
  0
ENDTAB
  0
TABLE
  2
LTYPE
  5
5
330
0
100
AcDbSymbolTable
 70
     3
  0
LTYPE
  5
13
330
5
100
AcDbSymbolTableRecord
100
AcDbLinetypeTableRecord
  2
BYBLOCK
 70
     0
  3

 72
    65
 73
     0
 40
0.0
  0
LTYPE
  5
14
330
5
100
AcDbSymbolTableRecord
100
AcDbLinetypeTableRecord
  2
BYLAYER
 70
     0
  3

 72
    65
 73
     0
 40
0.0
  0
LTYPE
  5
15
330
5
100
AcDbSymbolTableRecord
100
AcDbLinetypeTableRecord
  2
CONTINUOUS
 70
     0
  3
Solid line
 72
    65
 73
     0
 40
0.0
  0
LTYPE
  5
1F
330
5
100
AcDbSymbolTableRecord
100
AcDbLinetypeTableRecord
  2
CENTER
 70
     0
  3
____ _ ____ _ ____ _ ____ _ ____ _ ____ _ ____ 
 72
    65
 73
     4
 40
2.0
 49
1.25
 74
     0
 49
-0.25
 74
     0
 49
0.25
 74
     0
 49
-0.25
 74
     0
  0
LTYPE
  5
21
330
5
100
AcDbSymbolTableRecord
100
AcDbLinetypeTableRecord
  2
PHANTOM
 70
     0
  3
______  __  __  ______  __  __  ______  __  __ 
 72
    65
 73
     6
 40
2.5
 49
1.25
 74
     0
 49
-0.25
 74
     0
 49
0.25
 74
     0
 49
-0.25
 74
     0
 49
0.25
 74
     0
 49
-0.25
 74
     0
  0
ENDTAB
  0
TABLE
  2
LAYER
  5
2
102
{ACAD_XDICTIONARY
360
A360
102
}
330
0
100
AcDbSymbolTable
 70
     7
  0
LAYER
  5
F
102
{ACAD_XDICTIONARY
360
A351
102
}
330
2
100
AcDbSymbolTableRecord
100
AcDbLayerTableRecord
  2
0
 70
     0
 62
     7
  6
CONTINUOUS
370
    -3
390
A2E3
347
A2FF
348
0
  0
LAYER
  5
2F
102
{ACAD_XDICTIONARY
360
A353
102
}
330
2
100
AcDbSymbolTableRecord
100
AcDbLayerTableRecord
  2
CT
 70
     0
 62
     3
  6
CENTER
370
    -3
390
A2E3
347
A2FF
348
0
  0
LAYER
  5
30
102
{ACAD_XDICTIONARY
360
A355
102
}
330
2
100
AcDbSymbolTableRecord
100
AcDbLayerTableRecord
  2
FUTO
 70
     0
 62
     4
  6
CONTINUOUS
370
    -3
390
A2E3
347
A2FF
348
0
  0
LAYER
  5
35
102
{ACAD_XDICTIONARY
360
A357
102
}
330
2
100
AcDbSymbolTableRecord
100
AcDbLayerTableRecord
  2
SL
 70
     0
 62
     1
  6
PHANTOM
370
    -3
390
A2E3
347
A2FF
348
0
  0
LAYER
  5
36
102
{ACAD_XDICTIONARY
360
A359
102
}
330
2
100
AcDbSymbolTableRecord
100
AcDbLayerTableRecord
  2
SP
 70
     0
 62
     2
  6
CONTINUOUS
370
    -3
390
A2E3
347
A2FF
348
0
  0
LAYER
  5
5241
330
2
100
AcDbSymbolTableRecord
100
AcDbLayerTableRecord
  2
DEFPOINTS
 70
     0
 62
     7
  6
CONTINUOUS
290
     0
370
    -3
390
A2E3
347
A2FF
348
0
  0
LAYER
  5
99F1
102
{ACAD_XDICTIONARY
360
A35B
102
}
330
2
100
AcDbSymbolTableRecord
100
AcDbLayerTableRecord
  2
4
 70
     0
 62
     7
  6
CONTINUOUS
370
    -3
390
A2E3
347
A2FF
348
0
  0
ENDTAB
  0
TABLE
  2
STYLE
  5
3
330
0
100
AcDbSymbolTable
 70
     1
  0
STYLE
  5
10
330
3
100
AcDbSymbolTableRecord
100
AcDbTextStyleTableRecord
  2
STANDARD
 70
     0
 40
0.0
 41
1.0
 50
15.0
 71
     0
 42
137.5
  3
C:\Program Files\AutoCAD LT\simplex.shx
  4
C:\Program Files\AutoCAD LT\extfont.shx
  0
ENDTAB
  0
TABLE
  2
VIEW
  5
6
330
0
100
AcDbSymbolTable
 70
     0
  0
ENDTAB
  0
TABLE
  2
UCS
  5
7
330
0
100
AcDbSymbolTable
 70
     0
  0
ENDTAB
  0
TABLE
  2
APPID
  5
9
330
0
100
AcDbSymbolTable
 70
     3
  0
APPID
  5
11
330
9
100
AcDbSymbolTableRecord
100
AcDbRegAppTableRecord
  2
ACAD
 70
     0
  0
APPID
  5
5333
330
9
100
AcDbSymbolTableRecord
100
AcDbRegAppTableRecord
  2
CONTENTBLOCKICON
 70
     0
  0
APPID
  5
A366
330
9
100
AcDbSymbolTableRecord
100
AcDbRegAppTableRecord
  2
ACAD_NAV_VCDISPLAY
 70
     0
  0
ENDTAB
  0
TABLE
  2
DIMSTYLE
  5
A
330
0
100
AcDbSymbolTable
 70
     2
100
AcDbDimStyleTable
 71
     1
340
2C
  0
DIMSTYLE
105
1D
330
A
100
AcDbSymbolTableRecord
100
AcDbDimStyleTableRecord
  2
STANDARD
 70
     0
340
10
  0
DIMSTYLE
105
2C
102
{ACAD_REACTORS
330
9D6B
330
9D78
330
9D85
330
9D92
330
9D9F
330
9DAC
330
9DB9
330
9DC6
330
9DD3
330
9DE0
330
9DFA
330
9E07
330
9E14
330
9E21
330
9E2E
330
9E48
330
9E55
330
9E87
330
9E94
102
}
330
A
100
AcDbSymbolTableRecord
100
AcDbDimStyleTableRecord
  2
MATSU
 70
     0
 41
2.0
 42
1.0
 43
10.0
 44
1.0
 73
     0
 74
     0
 77
     1
 78
     8
140
3.0
141
0.0
143
0.03937
147
0.5
172
     1
173
     1
176
   256
177
   256
178
   256
284
     8
289
     0
340
10
341
26
343
26
344
26
  0
ENDTAB
  0
TABLE
  2
BLOCK_RECORD
  5
1
330
0
100
AcDbSymbolTable
 70
    20
  0
BLOCK_RECORD
  5
19
330
1
100
AcDbSymbolTableRecord
100
AcDbBlockTableRecord
  2
*MODEL_SPACE
340
A2E6
 70
     0
280
     1
281
     0
  0
BLOCK_RECORD
  5
16
330
1
100
AcDbSymbolTableRecord
100
AcDbBlockTableRecord
  2
*PAPER_SPACE
340
A2E7
 70
     0
280
     1
281
     0
  0
BLOCK_RECORD
  5
26
330
1
100
AcDbSymbolTableRecord
100
AcDbBlockTableRecord
  2
_OPEN
340
0
102
{BLKREFS
331
9D64
331
9D65
331
9D71
331
9D72
331
9D7E
331
9D7F
331
9D8B
331
9D8C
331
A34B
331
A34C
331
9D98
331
9D99
331
9DA5
331
9DA6
331
9DB2
331
9DB3
331
9DBF
331
9DC0
331
9DCC
331
9DCD
331
9DD9
331
9DDA
331
9DF3
331
9DF4
331
9E00
331
9E01
331
9E0D
331
9E0E
331
9E1A
331
9E1B
331
9E27
331
9E28
331
9E41
331
9E42
331
9E4E
331
9E4F
331
A342
331
A343
102
}
 70
     0
280
     1
281
     0
  0
BLOCK_RECORD
  5
9D5F
330
1
100
AcDbSymbolTableRecord
100
AcDbBlockTableRecord
  2
*D1
340
0
 70
     0
280
     1
281
     0
  0
BLOCK_RECORD
  5
9D6C
330
1
100
AcDbSymbolTableRecord
100
AcDbBlockTableRecord
  2
*D2
340
0
 70
     0
280
     1
281
     0
  0
BLOCK_RECORD
  5
9D79
330
1
100
AcDbSymbolTableRecord
100
AcDbBlockTableRecord
  2
*D3
340
0
 70
     0
280
     1
281
     0
  0
BLOCK_RECORD
  5
9D86
330
1
100
AcDbSymbolTableRecord
100
AcDbBlockTableRecord
  2
*D4
340
0
 70
     0
280
     1
281
     0
  0
BLOCK_RECORD
  5
9D93
330
1
100
AcDbSymbolTableRecord
100
AcDbBlockTableRecord
  2
*D5
340
0
 70
     0
280
     1
281
     0
  0
BLOCK_RECORD
  5
9DA0
330
1
100
AcDbSymbolTableRecord
100
AcDbBlockTableRecord
  2
*D6
340
0
 70
     0
280
     1
281
     0
  0
BLOCK_RECORD
  5
9DAD
330
1
100
AcDbSymbolTableRecord
100
AcDbBlockTableRecord
  2
*D7
340
0
 70
     0
280
     1
281
     0
  0
BLOCK_RECORD
  5
9DBA
330
1
100
AcDbSymbolTableRecord
100
AcDbBlockTableRecord
  2
*D8
340
0
 70
     0
280
     1
281
     0
  0
BLOCK_RECORD
  5
9DC7
330
1
100
AcDbSymbolTableRecord
100
AcDbBlockTableRecord
  2
*D9
340
0
 70
     0
280
     1
281
     0
  0
BLOCK_RECORD
  5
9DD4
330
1
100
AcDbSymbolTableRecord
100
AcDbBlockTableRecord
  2
*D10
340
0
 70
     0
280
     1
281
     0
  0
BLOCK_RECORD
  5
9DEE
330
1
100
AcDbSymbolTableRecord
100
AcDbBlockTableRecord
  2
*D11
340
0
 70
     0
280
     1
281
     0
  0
BLOCK_RECORD
  5
9DFB
330
1
100
AcDbSymbolTableRecord
100
AcDbBlockTableRecord
  2
*D12
340
0
 70
     0
280
     1
281
     0
  0
BLOCK_RECORD
  5
9E08
330
1
100
AcDbSymbolTableRecord
100
AcDbBlockTableRecord
  2
*D13
340
0
 70
     0
280
     1
281
     0
  0
BLOCK_RECORD
  5
9E15
330
1
100
AcDbSymbolTableRecord
100
AcDbBlockTableRecord
  2
*D14
340
0
 70
     0
280
     1
281
     0
  0
BLOCK_RECORD
  5
9E22
330
1
100
AcDbSymbolTableRecord
100
AcDbBlockTableRecord
  2
*D15
340
0
 70
     0
280
     1
281
     0
  0
BLOCK_RECORD
  5
9E3C
330
1
100
AcDbSymbolTableRecord
100
AcDbBlockTableRecord
  2
*D16
340
0
 70
     0
280
     1
281
     0
  0
BLOCK_RECORD
  5
9E49
330
1
100
AcDbSymbolTableRecord
100
AcDbBlockTableRecord
  2
*D17
340
0
 70
     0
280
     1
281
     0
  0
BLOCK_RECORD
  5
9E7B
330
1
100
AcDbSymbolTableRecord
100
AcDbBlockTableRecord
  2
*D18
340
0
 70
     0
280
     1
281
     0
  0
BLOCK_RECORD
  5
9E88
330
1
100
AcDbSymbolTableRecord
100
AcDbBlockTableRecord
  2
*D19
340
0
 70
     0
280
     1
281
     0
  0
ENDTAB
  0
ENDSEC
  0
SECTION
  2
BLOCKS
  0
BLOCK
  5
1A
330
19
100
AcDbEntity
  8
0
100
AcDbBlockBegin
  2
*MODEL_SPACE
 70
     0
 10
0.0
 20
0.0
 30
0.0
  3
*MODEL_SPACE
  1

  0
ENDBLK
  5
1B
330
19
100
AcDbEntity
  8
0
100
AcDbBlockEnd
  0
BLOCK
  5
17
330
16
100
AcDbEntity
 67
     1
  8
0
100
AcDbBlockBegin
  2
*PAPER_SPACE
 70
     0
 10
0.0
 20
0.0
 30
0.0
  3
*PAPER_SPACE
  1

  0
ENDBLK
  5
18
330
16
100
AcDbEntity
 67
     1
  8
0
100
AcDbBlockEnd
  0
BLOCK
  5
27
330
26
100
AcDbEntity
  8
0
100
AcDbBlockBegin
  2
_OPEN
 70
     0
 10
0.0
 20
0.0
 30
0.0
  3
_OPEN
  1

  0
LINE
  5
28
330
26
100
AcDbEntity
  8
0
  6
ByBlock
 62
     0
100
AcDbLine
 10
-1.0
 20
0.1666666666666666
 30
0.0
 11
0.0
 21
0.0
 31
0.0
  0
LINE
  5
29
330
26
100
AcDbEntity
  8
0
  6
ByBlock
 62
     0
100
AcDbLine
 10
0.0
 20
0.0
 30
0.0
 11
-1.0
 21
-0.1666666666666666
 31
0.0
  0
LINE
  5
2A
330
26
100
AcDbEntity
  8
0
  6
ByBlock
 62
     0
100
AcDbLine
 10
0.0
 20
0.0
 30
0.0
 11
-1.0
 21
0.0
 31
0.0
  0
ENDBLK
  5
2B
330
26
100
AcDbEntity
  8
0
100
AcDbBlockEnd
  0
BLOCK
  5
9D60
330
9D5F
100
AcDbEntity
  8
0
100
AcDbBlockBegin
  2
*D1
 70
     1
 10
0.0
 20
0.0
 30
0.0
  3
*D1
  1

  0
LINE
  5
9D61
330
9D5F
100
AcDbEntity
  8
0
  6
ByBlock
440
 16777216
100
AcDbLine
 10
-2287.599683802221
 20
-4983.873790826054
 30
0.0
 11
-2633.197435896204
 21
-4983.873790826054
 31
0.0
  0
LINE
  5
9D62
330
9D5F
100
AcDbEntity
  8
0
  6
ByBlock
440
 16777216
100
AcDbLine
 10
-2287.599683802221
 20
-6183.873790826054
 30
0.0
 11
-2633.197435896204
 21
-6183.873790826054
 31
0.0
  0
LINE
  5
9D63
330
9D5F
100
AcDbEntity
  8
0
  6
ByBlock
440
 16777216
100
AcDbLine
 10
-2583.197435896204
 20
-5083.873790826054
 30
0.0
 11
-2583.197435896204
 21
-6083.873790826054
 31
0.0
  0
INSERT
  5
9D64
330
9D5F
100
AcDbEntity
  8
0
  6
ByBlock
440
 16777216
100
AcDbBlockReference
  2
_OPEN
 10
-2583.197435896204
 20
-4983.873790826054
 30
0.0
 41
100.0
 42
100.0
 43
100.0
 50
90.0
  0
INSERT
  5
9D65
330
9D5F
100
AcDbEntity
  8
0
  6
ByBlock
440
 16777216
100
AcDbBlockReference
  2
_OPEN
 10
-2583.197435896204
 20
-6183.873790826054
 30
0.0
 41
100.0
 42
100.0
 43
100.0
 50
270.0
  0
MTEXT
  5
9D66
330
9D5F
100
AcDbEntity
  8
0
  6
ByBlock
440
 16777216
100
AcDbMText
 10
-2695.697435896204
 20
-5583.873790826054
 30
0.0
 40
125.0
 41
0.0
 46
0.0
 71
     5
 72
     5
  1
\A1;1200
 11
0.0
 21
1.0
 31
0.0
 73
     1
 44
1.0
  0
POINT
  5
9D67
330
9D5F
100
AcDbEntity
  8
DEFPOINTS
  6
ByBlock
 62
     0
440
 16777216
100
AcDbPoint
 10
-2237.599683802221
 20
-4983.873790826054
 30
0.0
  0
POINT
  5
9D68
330
9D5F
100
AcDbEntity
  8
DEFPOINTS
  6
ByBlock
 62
     0
440
 16777216
100
AcDbPoint
 10
-2237.599683802221
 20
-6183.873790826054
 30
0.0
  0
POINT
  5
9D69
330
9D5F
100
AcDbEntity
  8
DEFPOINTS
  6
ByBlock
 62
     0
440
 16777216
100
AcDbPoint
 10
-2583.197435896204
 20
-6183.873790826054
 30
0.0
  0
ENDBLK
  5
9D6A
330
9D5F
100
AcDbEntity
  8
0
100
AcDbBlockEnd
  0
BLOCK
  5
9D6D
330
9D6C
100
AcDbEntity
  8
0
100
AcDbBlockBegin
  2
*D2
 70
     1
 10
0.0
 20
0.0
 30
0.0
  3
*D2
  1

  0
LINE
  5
9D6E
330
9D6C
100
AcDbEntity
  8
0
  6
ByBlock
440
 16777216
100
AcDbLine
 10
-2237.599683802221
 20
-6233.873790826054
 30
0.0
 11
-2237.599683802221
 21
-6756.878853600436
 31
0.0
  0
LINE
  5
9D6F
330
9D6C
100
AcDbEntity
  8
0
  6
ByBlock
440
 16777216
100
AcDbLine
 10
1362.400316197779
 20
-6233.873790826049
 30
0.0
 11
1362.400316197779
 21
-6756.878853600436
 31
0.0
  0
LINE
  5
9D70
330
9D6C
100
AcDbEntity
  8
0
  6
ByBlock
440
 16777216
100
AcDbLine
 10
-2137.599683802221
 20
-6706.878853600436
 30
0.0
 11
1262.400316197779
 21
-6706.878853600436
 31
0.0
  0
INSERT
  5
9D71
330
9D6C
100
AcDbEntity
  8
0
  6
ByBlock
440
 16777216
100
AcDbBlockReference
  2
_OPEN
 10
-2237.599683802221
 20
-6706.878853600436
 30
0.0
 41
100.0
 42
100.0
 43
100.0
 50
180.0
  0
INSERT
  5
9D72
330
9D6C
100
AcDbEntity
  8
0
  6
ByBlock
440
 16777216
100
AcDbBlockReference
  2
_OPEN
 10
1362.400316197779
 20
-6706.878853600436
 30
0.0
 41
100.0
 42
100.0
 43
100.0
  0
MTEXT
  5
9D73
330
9D6C
100
AcDbEntity
  8
0
  6
ByBlock
440
 16777216
100
AcDbMText
 10
-437.599683802221
 20
-6594.378853600436
 30
0.0
 40
125.0
 41
0.0
 46
0.0
 71
     5
 72
     5
  1
\A1;3600
 73
     1
 44
1.0
  0
POINT
  5
9D74
330
9D6C
100
AcDbEntity
  8
DEFPOINTS
  6
ByBlock
 62
     0
440
 16777216
100
AcDbPoint
 10
-2237.599683802221
 20
-6183.873790826054
 30
0.0
  0
POINT
  5
9D75
330
9D6C
100
AcDbEntity
  8
DEFPOINTS
  6
ByBlock
 62
     0
440
 16777216
100
AcDbPoint
 10
1362.400316197779
 20
-6183.873790826048
 30
0.0
  0
POINT
  5
9D76
330
9D6C
100
AcDbEntity
  8
DEFPOINTS
  6
ByBlock
 62
     0
440
 16777216
100
AcDbPoint
 10
1362.400316197779
 20
-6706.878853600436
 30
0.0
  0
ENDBLK
  5
9D77
330
9D6C
100
AcDbEntity
  8
0
100
AcDbBlockEnd
  0
BLOCK
  5
9D7A
330
9D79
100
AcDbEntity
  8
0
100
AcDbBlockBegin
  2
*D3
 70
     1
 10
0.0
 20
0.0
 30
0.0
  3
*D3
  1

  0
LINE
  5
9D7B
330
9D79
100
AcDbEntity
  8
0
  6
ByBlock
440
 16777216
100
AcDbLine
 10
1412.400316197779
 20
-3333.873790826049
 30
0.0
 11
1946.945779780232
 21
-3333.873790826049
 31
0.0
  0
LINE
  5
9D7C
330
9D79
100
AcDbEntity
  8
0
  6
ByBlock
440
 16777216
100
AcDbLine
 10
1412.400316197779
 20
-6183.873790826048
 30
0.0
 11
1946.945779780232
 21
-6183.873790826048
 31
0.0
  0
LINE
  5
9D7D
330
9D79
100
AcDbEntity
  8
0
  6
ByBlock
440
 16777216
100
AcDbLine
 10
1896.945779780232
 20
-3433.873790826048
 30
0.0
 11
1896.945779780232
 21
-6083.873790826048
 31
0.0
  0
INSERT
  5
9D7E
330
9D79
100
AcDbEntity
  8
0
  6
ByBlock
440
 16777216
100
AcDbBlockReference
  2
_OPEN
 10
1896.945779780232
 20
-3333.873790826049
 30
0.0
 41
100.0
 42
100.0
 43
100.0
 50
90.0
  0
INSERT
  5
9D7F
330
9D79
100
AcDbEntity
  8
0
  6
ByBlock
440
 16777216
100
AcDbBlockReference
  2
_OPEN
 10
1896.945779780232
 20
-6183.873790826048
 30
0.0
 41
100.0
 42
100.0
 43
100.0
 50
270.0
  0
MTEXT
  5
9D80
330
9D79
100
AcDbEntity
  8
0
  6
ByBlock
440
 16777216
100
AcDbMText
 10
1784.445779780232
 20
-4758.873790826048
 30
0.0
 40
125.0
 41
0.0
 46
0.0
 71
     5
 72
     5
  1
\A1;2850
 11
0.0
 21
1.0
 31
0.0
 73
     1
 44
1.0
  0
POINT
  5
9D81
330
9D79
100
AcDbEntity
  8
DEFPOINTS
  6
ByBlock
 62
     0
440
 16777216
100
AcDbPoint
 10
1362.400316197779
 20
-3333.873790826049
 30
0.0
  0
POINT
  5
9D82
330
9D79
100
AcDbEntity
  8
DEFPOINTS
  6
ByBlock
 62
     0
440
 16777216
100
AcDbPoint
 10
1362.400316197779
 20
-6183.873790826048
 30
0.0
  0
POINT
  5
9D83
330
9D79
100
AcDbEntity
  8
DEFPOINTS
  6
ByBlock
 62
     0
440
 16777216
100
AcDbPoint
 10
1896.945779780232
 20
-6183.873790826048
 30
0.0
  0
ENDBLK
  5
9D84
330
9D79
100
AcDbEntity
  8
0
100
AcDbBlockEnd
  0
BLOCK
  5
9D87
330
9D86
100
AcDbEntity
  8
0
100
AcDbBlockBegin
  2
*D4
 70
     1
 10
0.0
 20
0.0
 30
0.0
  3
*D4
  1

  0
LINE
  5
9D88
330
9D86
100
AcDbEntity
  8
0
  6
ByBlock
440
 16777216
100
AcDbLine
 10
-757.599683802221
 20
-3283.873790826048
 30
0.0
 11
-757.599683802221
 21
-2987.90607858538
 31
0.0
  0
LINE
  5
9D89
330
9D86
100
AcDbEntity
  8
0
  6
ByBlock
440
 16777216
100
AcDbLine
 10
1362.400316197779
 20
-3283.873790826048
 30
0.0
 11
1362.400316197779
 21
-2987.90607858538
 31
0.0
  0
LINE
  5
9D8A
330
9D86
100
AcDbEntity
  8
0
  6
ByBlock
440
 16777216
100
AcDbLine
 10
-657.599683802221
 20
-3037.90607858538
 30
0.0
 11
1262.400316197779
 21
-3037.90607858538
 31
0.0
  0
INSERT
  5
9D8B
330
9D86
100
AcDbEntity
  8
0
  6
ByBlock
440
 16777216
100
AcDbBlockReference
  2
_OPEN
 10
-757.599683802221
 20
-3037.90607858538
 30
0.0
 41
100.0
 42
100.0
 43
100.0
 50
180.0
  0
INSERT
  5
9D8C
330
9D86
100
AcDbEntity
  8
0
  6
ByBlock
440
 16777216
100
AcDbBlockReference
  2
_OPEN
 10
1362.400316197779
 20
-3037.90607858538
 30
0.0
 41
100.0
 42
100.0
 43
100.0
  0
MTEXT
  5
9D8D
330
9D86
100
AcDbEntity
  8
0
  6
ByBlock
440
 16777216
100
AcDbMText
 10
302.4003161977789
 20
-2925.40607858538
 30
0.0
 40
125.0
 41
0.0
 46
0.0
 71
     5
 72
     5
  1
\A1;2120
 73
     1
 44
1.0
  0
POINT
  5
9D8E
330
9D86
100
AcDbEntity
  8
DEFPOINTS
  6
ByBlock
 62
     0
440
 16777216
100
AcDbPoint
 10
-757.599683802221
 20
-3333.873790826049
 30
0.0
  0
POINT
  5
9D8F
330
9D86
100
AcDbEntity
  8
DEFPOINTS
  6
ByBlock
 62
     0
440
 16777216
100
AcDbPoint
 10
1362.400316197779
 20
-3333.873790826049
 30
0.0
  0
POINT
  5
9D90
330
9D86
100
AcDbEntity
  8
DEFPOINTS
  6
ByBlock
 62
     0
440
 16777216
100
AcDbPoint
 10
1362.400316197779
 20
-3037.90607858538
 30
0.0
  0
ENDBLK
  5
9D91
330
9D86
100
AcDbEntity
  8
0
100
AcDbBlockEnd
  0
BLOCK
  5
9D94
330
9D93
100
AcDbEntity
  8
0
100
AcDbBlockBegin
  2
*D5
 70
     1
 10
0.0
 20
0.0
 30
0.0
  3
*D5
  1

  0
LINE
  5
9D95
330
9D93
100
AcDbEntity
  8
0
  6
ByBlock
440
 16777216
100
AcDbLine
 10
-757.599683802221
 20
-3283.873790826048
 30
0.0
 11
-757.599683802221
 21
-2987.90607858538
 31
0.0
  0
LINE
  5
9D96
330
9D93
100
AcDbEntity
  8
0
  6
ByBlock
440
 16777216
100
AcDbLine
 10
-2237.599683802221
 20
-4933.873790826054
 30
0.0
 11
-2237.599683802221
 21
-2987.90607858538
 31
0.0
  0
LINE
  5
9D97
330
9D93
100
AcDbEntity
  8
0
  6
ByBlock
440
 16777216
100
AcDbLine
 10
-857.5996838022211
 20
-3037.90607858538
 30
0.0
 11
-2137.599683802221
 21
-3037.90607858538
 31
0.0
  0
INSERT
  5
9D98
330
9D93
100
AcDbEntity
  8
0
  6
ByBlock
440
 16777216
100
AcDbBlockReference
  2
_OPEN
 10
-757.599683802221
 20
-3037.90607858538
 30
0.0
 41
100.0
 42
100.0
 43
100.0
  0
INSERT
  5
9D99
330
9D93
100
AcDbEntity
  8
0
  6
ByBlock
440
 16777216
100
AcDbBlockReference
  2
_OPEN
 10
-2237.599683802221
 20
-3037.90607858538
 30
0.0
 41
100.0
 42
100.0
 43
100.0
 50
180.0
  0
MTEXT
  5
9D9A
330
9D93
100
AcDbEntity
  8
0
  6
ByBlock
440
 16777216
100
AcDbMText
 10
-1497.599683802221
 20
-2925.40607858538
 30
0.0
 40
125.0
 41
0.0
 46
0.0
 71
     5
 72
     5
  1
\A1;1480
 73
     1
 44
1.0
  0
POINT
  5
9D9B
330
9D93
100
AcDbEntity
  8
DEFPOINTS
  6
ByBlock
 62
     0
440
 16777216
100
AcDbPoint
 10
-757.599683802221
 20
-3333.873790826049
 30
0.0
  0
POINT
  5
9D9C
330
9D93
100
AcDbEntity
  8
DEFPOINTS
  6
ByBlock
 62
     0
440
 16777216
100
AcDbPoint
 10
-2237.599683802221
 20
-4983.873790826054
 30
0.0
  0
POINT
  5
9D9D
330
9D93
100
AcDbEntity
  8
DEFPOINTS
  6
ByBlock
 62
     0
440
 16777216
100
AcDbPoint
 10
-2237.599683802221
 20
-3037.90607858538
 30
0.0
  0
ENDBLK
  5
9D9E
330
9D93
100
AcDbEntity
  8
0
100
AcDbBlockEnd
  0
BLOCK
  5
9DA1
330
9DA0
100
AcDbEntity
  8
0
100
AcDbBlockBegin
  2
*D6
 70
     1
 10
0.0
 20
0.0
 30
0.0
  3
*D6
  1

  0
LINE
  5
9DA2
330
9DA0
100
AcDbEntity
  8
0
  6
ByBlock
440
 16777216
100
AcDbLine
 10
3728.482521670158
 20
-8127.613841187562
 30
0.0
 11
3728.482521670158
 21
-7806.490315763134
 31
0.0
  0
LINE
  5
9DA3
330
9DA0
100
AcDbEntity
  8
0
  6
ByBlock
440
 16777216
100
AcDbLine
 10
6088.482521670155
 20
-8127.61384118756
 30
0.0
 11
6088.482521670155
 21
-7806.490315763134
 31
0.0
  0
LINE
  5
9DA4
330
9DA0
100
AcDbEntity
  8
0
  6
ByBlock
440
 16777216
100
AcDbLine
 10
3828.482521670158
 20
-7856.490315763135
 30
0.0
 11
5988.482521670156
 21
-7856.490315763135
 31
0.0
  0
INSERT
  5
9DA5
330
9DA0
100
AcDbEntity
  8
0
  6
ByBlock
440
 16777216
100
AcDbBlockReference
  2
_OPEN
 10
3728.482521670158
 20
-7856.490315763135
 30
0.0
 41
100.0
 42
100.0
 43
100.0
 50
180.0
  0
INSERT
  5
9DA6
330
9DA0
100
AcDbEntity
  8
0
  6
ByBlock
440
 16777216
100
AcDbBlockReference
  2
_OPEN
 10
6088.482521670155
 20
-7856.490315763135
 30
0.0
 41
100.0
 42
100.0
 43
100.0
  0
MTEXT
  5
9DA7
330
9DA0
100
AcDbEntity
  8
0
  6
ByBlock
440
 16777216
100
AcDbMText
 10
4908.482521670157
 20
-7743.990315763134
 30
0.0
 40
125.0
 41
0.0
 46
0.0
 71
     5
 72
     5
  1
\A1;2360
 73
     1
 44
1.0
  0
POINT
  5
9DA8
330
9DA0
100
AcDbEntity
  8
DEFPOINTS
  6
ByBlock
 62
     0
440
 16777216
100
AcDbPoint
 10
3728.482521670158
 20
-8177.613841187563
 30
0.0
  0
POINT
  5
9DA9
330
9DA0
100
AcDbEntity
  8
DEFPOINTS
  6
ByBlock
 62
     0
440
 16777216
100
AcDbPoint
 10
6088.482521670155
 20
-8177.613841187561
 30
0.0
  0
POINT
  5
9DAA
330
9DA0
100
AcDbEntity
  8
DEFPOINTS
  6
ByBlock
 62
     0
440
 16777216
100
AcDbPoint
 10
6088.482521670155
 20
-7856.490315763135
 30
0.0
  0
ENDBLK
  5
9DAB
330
9DA0
100
AcDbEntity
  8
0
100
AcDbBlockEnd
  0
BLOCK
  5
9DAE
330
9DAD
100
AcDbEntity
  8
0
100
AcDbBlockBegin
  2
*D7
 70
     1
 10
0.0
 20
0.0
 30
0.0
  3
*D7
  1

  0
LINE
  5
9DAF
330
9DAD
100
AcDbEntity
  8
0
  6
ByBlock
440
 16777216
100
AcDbLine
 10
1467.400316197779
 20
-8062.613841187562
 30
0.0
 11
1467.400316197779
 21
-7806.490315763134
 31
0.0
  0
LINE
  5
9DB0
330
9DAD
100
AcDbEntity
  8
0
  6
ByBlock
440
 16777216
100
AcDbLine
 10
302.4003161977789
 20
-7997.514669795615
 30
0.0
 11
302.4003161977789
 21
-7806.490315763134
 31
0.0
  0
LINE
  5
9DB1
330
9DAD
100
AcDbEntity
  8
0
  6
ByBlock
440
 16777216
100
AcDbLine
 10
1367.400316197779
 20
-7856.490315763135
 30
0.0
 11
402.4003161977788
 21
-7856.490315763135
 31
0.0
  0
INSERT
  5
9DB2
330
9DAD
100
AcDbEntity
  8
0
  6
ByBlock
440
 16777216
100
AcDbBlockReference
  2
_OPEN
 10
1467.400316197779
 20
-7856.490315763135
 30
0.0
 41
100.0
 42
100.0
 43
100.0
  0
INSERT
  5
9DB3
330
9DAD
100
AcDbEntity
  8
0
  6
ByBlock
440
 16777216
100
AcDbBlockReference
  2
_OPEN
 10
302.4003161977789
 20
-7856.490315763135
 30
0.0
 41
100.0
 42
100.0
 43
100.0
 50
180.0
  0
MTEXT
  5
9DB4
330
9DAD
100
AcDbEntity
  8
0
  6
ByBlock
440
 16777216
100
AcDbMText
 10
884.900316197779
 20
-7743.990315763134
 30
0.0
 40
125.0
 41
0.0
 46
0.0
 71
     5
 72
     5
  1
\A1;1165
 73
     1
 44
1.0
  0
POINT
  5
9DB5
330
9DAD
100
AcDbEntity
  8
DEFPOINTS
  6
ByBlock
 62
     0
440
 16777216
100
AcDbPoint
 10
1467.400316197779
 20
-8112.613841187563
 30
0.0
  0
POINT
  5
9DB6
330
9DAD
100
AcDbEntity
  8
DEFPOINTS
  6
ByBlock
 62
     0
440
 16777216
100
AcDbPoint
 10
302.4003161977789
 20
-8047.514669795615
 30
0.0
  0
POINT
  5
9DB7
330
9DAD
100
AcDbEntity
  8
DEFPOINTS
  6
ByBlock
 62
     0
440
 16777216
100
AcDbPoint
 10
302.4003161977789
 20
-7856.490315763135
 30
0.0
  0
ENDBLK
  5
9DB8
330
9DAD
100
AcDbEntity
  8
0
100
AcDbBlockEnd
  0
BLOCK
  5
9DBB
330
9DBA
100
AcDbEntity
  8
0
100
AcDbBlockBegin
  2
*D8
 70
     1
 10
0.0
 20
0.0
 30
0.0
  3
*D8
  1

  0
LINE
  5
9DBC
330
9DBA
100
AcDbEntity
  8
0
  6
ByBlock
440
 16777216
100
AcDbLine
 10
302.4003161977789
 20
-7997.514669795615
 30
0.0
 11
302.4003161977789
 21
-7806.490315763134
 31
0.0
  0
LINE
  5
9DBD
330
9DBA
100
AcDbEntity
  8
0
  6
ByBlock
440
 16777216
100
AcDbLine
 10
-1251.599683802221
 20
-9921.613841187562
 30
0.0
 11
-1251.599683802221
 21
-7806.490315763134
 31
0.0
  0
LINE
  5
9DBE
330
9DBA
100
AcDbEntity
  8
0
  6
ByBlock
440
 16777216
100
AcDbLine
 10
202.4003161977789
 20
-7856.490315763135
 30
0.0
 11
-1151.599683802221
 21
-7856.490315763135
 31
0.0
  0
INSERT
  5
9DBF
330
9DBA
100
AcDbEntity
  8
0
  6
ByBlock
440
 16777216
100
AcDbBlockReference
  2
_OPEN
 10
302.4003161977789
 20
-7856.490315763135
 30
0.0
 41
100.0
 42
100.0
 43
100.0
  0
INSERT
  5
9DC0
330
9DBA
100
AcDbEntity
  8
0
  6
ByBlock
440
 16777216
100
AcDbBlockReference
  2
_OPEN
 10
-1251.599683802221
 20
-7856.490315763135
 30
0.0
 41
100.0
 42
100.0
 43
100.0
 50
180.0
  0
MTEXT
  5
9DC1
330
9DBA
100
AcDbEntity
  8
0
  6
ByBlock
440
 16777216
100
AcDbMText
 10
-474.599683802221
 20
-7743.990315763134
 30
0.0
 40
125.0
 41
0.0
 46
0.0
 71
     5
 72
     5
  1
\A1;1554
 73
     1
 44
1.0
  0
POINT
  5
9DC2
330
9DBA
100
AcDbEntity
  8
DEFPOINTS
  6
ByBlock
 62
     0
440
 16777216
100
AcDbPoint
 10
302.4003161977789
 20
-8047.514669795615
 30
0.0
  0
POINT
  5
9DC3
330
9DBA
100
AcDbEntity
  8
DEFPOINTS
  6
ByBlock
 62
     0
440
 16777216
100
AcDbPoint
 10
-1251.599683802221
 20
-9971.613841187561
 30
0.0
  0
POINT
  5
9DC4
330
9DBA
100
AcDbEntity
  8
DEFPOINTS
  6
ByBlock
 62
     0
440
 16777216
100
AcDbPoint
 10
-1251.599683802221
 20
-7856.490315763135
 30
0.0
  0
ENDBLK
  5
9DC5
330
9DBA
100
AcDbEntity
  8
0
100
AcDbBlockEnd
  0
BLOCK
  5
9DC8
330
9DC7
100
AcDbEntity
  8
0
100
AcDbBlockBegin
  2
*D9
 70
     1
 10
0.0
 20
0.0
 30
0.0
  3
*D9
  1

  0
LINE
  5
9DC9
330
9DC7
100
AcDbEntity
  8
0
  6
ByBlock
440
 16777216
100
AcDbLine
 10
-2237.599683802221
 20
-11482.61384118757
 30
0.0
 11
-2237.599683802221
 21
-11795.60147930514
 31
0.0
  0
LINE
  5
9DCA
330
9DC7
100
AcDbEntity
  8
0
  6
ByBlock
440
 16777216
100
AcDbLine
 10
302.4003161977789
 20
-11482.61384118756
 30
0.0
 11
302.4003161977789
 21
-11795.60147930514
 31
0.0
  0
LINE
  5
9DCB
330
9DC7
100
AcDbEntity
  8
0
  6
ByBlock
440
 16777216
100
AcDbLine
 10
-2137.599683802221
 20
-11745.60147930514
 30
0.0
 11
202.4003161977789
 21
-11745.60147930514
 31
0.0
  0
INSERT
  5
9DCC
330
9DC7
100
AcDbEntity
  8
0
  6
ByBlock
440
 16777216
100
AcDbBlockReference
  2
_OPEN
 10
-2237.599683802221
 20
-11745.60147930514
 30
0.0
 41
100.0
 42
100.0
 43
100.0
 50
180.0
  0
INSERT
  5
9DCD
330
9DC7
100
AcDbEntity
  8
0
  6
ByBlock
440
 16777216
100
AcDbBlockReference
  2
_OPEN
 10
302.4003161977789
 20
-11745.60147930514
 30
0.0
 41
100.0
 42
100.0
 43
100.0
  0
MTEXT
  5
9DCE
330
9DC7
100
AcDbEntity
  8
0
  6
ByBlock
440
 16777216
100
AcDbMText
 10
-967.5996838022211
 20
-11633.10147930514
 30
0.0
 40
125.0
 41
0.0
 46
0.0
 71
     5
 72
     5
  1
\A1;2540
 73
     1
 44
1.0
  0
POINT
  5
9DCF
330
9DC7
100
AcDbEntity
  8
DEFPOINTS
  6
ByBlock
 62
     0
440
 16777216
100
AcDbPoint
 10
-2237.599683802221
 20
-11432.61384118757
 30
0.0
  0
POINT
  5
9DD0
330
9DC7
100
AcDbEntity
  8
DEFPOINTS
  6
ByBlock
 62
     0
440
 16777216
100
AcDbPoint
 10
302.4003161977789
 20
-11432.61384118756
 30
0.0
  0
POINT
  5
9DD1
330
9DC7
100
AcDbEntity
  8
DEFPOINTS
  6
ByBlock
 62
     0
440
 16777216
100
AcDbPoint
 10
302.4003161977789
 20
-11745.60147930514
 30
0.0
  0
ENDBLK
  5
9DD2
330
9DC7
100
AcDbEntity
  8
0
100
AcDbBlockEnd
  0
BLOCK
  5
9DD5
330
9DD4
100
AcDbEntity
  8
0
100
AcDbBlockBegin
  2
*D10
 70
     1
 10
0.0
 20
0.0
 30
0.0
  3
*D10
  1

  0
LINE
  5
9DD6
330
9DD4
100
AcDbEntity
  8
0
  6
ByBlock
440
 16777216
100
AcDbLine
 10
302.4003161977789
 20
-11482.61384118756
 30
0.0
 11
302.4003161977789
 21
-11795.60147930514
 31
0.0
  0
LINE
  5
9DD7
330
9DD4
100
AcDbEntity
  8
0
  6
ByBlock
440
 16777216
100
AcDbLine
 10
1362.400316197779
 20
-11482.61384118756
 30
0.0
 11
1362.400316197779
 21
-11795.60147930514
 31
0.0
  0
LINE
  5
9DD8
330
9DD4
100
AcDbEntity
  8
0
  6
ByBlock
440
 16777216
100
AcDbLine
 10
402.4003161977788
 20
-11745.60147930514
 30
0.0
 11
1262.400316197779
 21
-11745.60147930514
 31
0.0
  0
INSERT
  5
9DD9
330
9DD4
100
AcDbEntity
  8
0
  6
ByBlock
440
 16777216
100
AcDbBlockReference
  2
_OPEN
 10
302.4003161977789
 20
-11745.60147930514
 30
0.0
 41
100.0
 42
100.0
 43
100.0
 50
180.0
  0
INSERT
  5
9DDA
330
9DD4
100
AcDbEntity
  8
0
  6
ByBlock
440
 16777216
100
AcDbBlockReference
  2
_OPEN
 10
1362.400316197779
 20
-11745.60147930514
 30
0.0
 41
100.0
 42
100.0
 43
100.0
  0
MTEXT
  5
9DDB
330
9DD4
100
AcDbEntity
  8
0
  6
ByBlock
440
 16777216
100
AcDbMText
 10
832.4003161977788
 20
-11633.10147930514
 30
0.0
 40
125.0
 41
0.0
 46
0.0
 71
     5
 72
     5
  1
\A1;1060
 73
     1
 44
1.0
  0
POINT
  5
9DDC
330
9DD4
100
AcDbEntity
  8
DEFPOINTS
  6
ByBlock
 62
     0
440
 16777216
100
AcDbPoint
 10
302.4003161977789
 20
-11432.61384118756
 30
0.0
  0
POINT
  5
9DDD
330
9DD4
100
AcDbEntity
  8
DEFPOINTS
  6
ByBlock
 62
     0
440
 16777216
100
AcDbPoint
 10
1362.400316197779
 20
-11432.61384118756
 30
0.0
  0
POINT
  5
9DDE
330
9DD4
100
AcDbEntity
  8
DEFPOINTS
  6
ByBlock
 62
     0
440
 16777216
100
AcDbPoint
 10
1362.400316197779
 20
-11745.60147930514
 30
0.0
  0
ENDBLK
  5
9DDF
330
9DD4
100
AcDbEntity
  8
0
100
AcDbBlockEnd
  0
BLOCK
  5
9DEF
330
9DEE
100
AcDbEntity
  8
0
100
AcDbBlockBegin
  2
*D11
 70
     1
 10
0.0
 20
0.0
 30
0.0
  3
*D11
  1

  0
LINE
  5
9DF0
330
9DEE
100
AcDbEntity
  8
0
  6
ByBlock
440
 16777216
100
AcDbLine
 10
3317.482521670158
 20
-11482.61384118756
 30
0.0
 11
3317.482521670158
 21
-11795.60147930514
 31
0.0
  0
LINE
  5
9DF1
330
9DEE
100
AcDbEntity
  8
0
  6
ByBlock
440
 16777216
100
AcDbLine
 10
4908.482521670157
 20
-11482.61384118756
 30
0.0
 11
4908.482521670157
 21
-11795.60147930514
 31
0.0
  0
LINE
  5
9DF2
330
9DEE
100
AcDbEntity
  8
0
  6
ByBlock
440
 16777216
100
AcDbLine
 10
3417.482521670158
 20
-11745.60147930514
 30
0.0
 11
4808.482521670157
 21
-11745.60147930514
 31
0.0
  0
INSERT
  5
9DF3
330
9DEE
100
AcDbEntity
  8
0
  6
ByBlock
440
 16777216
100
AcDbBlockReference
  2
_OPEN
 10
3317.482521670158
 20
-11745.60147930514
 30
0.0
 41
100.0
 42
100.0
 43
100.0
 50
180.0
  0
INSERT
  5
9DF4
330
9DEE
100
AcDbEntity
  8
0
  6
ByBlock
440
 16777216
100
AcDbBlockReference
  2
_OPEN
 10
4908.482521670157
 20
-11745.60147930514
 30
0.0
 41
100.0
 42
100.0
 43
100.0
  0
MTEXT
  5
9DF5
330
9DEE
100
AcDbEntity
  8
0
  6
ByBlock
440
 16777216
100
AcDbMText
 10
4112.982521670157
 20
-11633.10147930514
 30
0.0
 40
125.0
 41
0.0
 46
0.0
 71
     5
 72
     5
  1
\A1;1591
 73
     1
 44
1.0
  0
POINT
  5
9DF6
330
9DEE
100
AcDbEntity
  8
DEFPOINTS
  6
ByBlock
 62
     0
440
 16777216
100
AcDbPoint
 10
3317.482521670158
 20
-11432.61384118756
 30
0.0
  0
POINT
  5
9DF7
330
9DEE
100
AcDbEntity
  8
DEFPOINTS
  6
ByBlock
 62
     0
440
 16777216
100
AcDbPoint
 10
4908.482521670157
 20
-11432.61384118756
 30
0.0
  0
POINT
  5
9DF8
330
9DEE
100
AcDbEntity
  8
DEFPOINTS
  6
ByBlock
 62
     0
440
 16777216
100
AcDbPoint
 10
4908.482521670157
 20
-11745.60147930514
 30
0.0
  0
ENDBLK
  5
9DF9
330
9DEE
100
AcDbEntity
  8
0
100
AcDbBlockEnd
  0
BLOCK
  5
9DFC
330
9DFB
100
AcDbEntity
  8
0
100
AcDbBlockBegin
  2
*D12
 70
     1
 10
0.0
 20
0.0
 30
0.0
  3
*D12
  1

  0
LINE
  5
9DFD
330
9DFB
100
AcDbEntity
  8
0
  6
ByBlock
440
 16777216
100
AcDbLine
 10
4908.482521670157
 20
-11482.61384118756
 30
0.0
 11
4908.482521670157
 21
-11795.60147930514
 31
0.0
  0
LINE
  5
9DFE
330
9DFB
100
AcDbEntity
  8
0
  6
ByBlock
440
 16777216
100
AcDbLine
 10
6167.482521670158
 20
-11482.61384118756
 30
0.0
 11
6167.482521670158
 21
-11795.60147930514
 31
0.0
  0
LINE
  5
9DFF
330
9DFB
100
AcDbEntity
  8
0
  6
ByBlock
440
 16777216
100
AcDbLine
 10
5008.482521670157
 20
-11745.60147930514
 30
0.0
 11
6067.482521670157
 21
-11745.60147930514
 31
0.0
  0
INSERT
  5
9E00
330
9DFB
100
AcDbEntity
  8
0
  6
ByBlock
440
 16777216
100
AcDbBlockReference
  2
_OPEN
 10
4908.482521670157
 20
-11745.60147930514
 30
0.0
 41
100.0
 42
100.0
 43
100.0
 50
180.0
  0
INSERT
  5
9E01
330
9DFB
100
AcDbEntity
  8
0
  6
ByBlock
440
 16777216
100
AcDbBlockReference
  2
_OPEN
 10
6167.482521670158
 20
-11745.60147930514
 30
0.0
 41
100.0
 42
100.0
 43
100.0
  0
MTEXT
  5
9E02
330
9DFB
100
AcDbEntity
  8
0
  6
ByBlock
440
 16777216
100
AcDbMText
 10
5537.982521670158
 20
-11633.10147930514
 30
0.0
 40
125.0
 41
0.0
 46
0.0
 71
     5
 72
     5
  1
\A1;1259
 73
     1
 44
1.0
  0
POINT
  5
9E03
330
9DFB
100
AcDbEntity
  8
DEFPOINTS
  6
ByBlock
 62
     0
440
 16777216
100
AcDbPoint
 10
4908.482521670157
 20
-11432.61384118756
 30
0.0
  0
POINT
  5
9E04
330
9DFB
100
AcDbEntity
  8
DEFPOINTS
  6
ByBlock
 62
     0
440
 16777216
100
AcDbPoint
 10
6167.482521670158
 20
-11432.61384118756
 30
0.0
  0
POINT
  5
9E05
330
9DFB
100
AcDbEntity
  8
DEFPOINTS
  6
ByBlock
 62
     0
440
 16777216
100
AcDbPoint
 10
6167.482521670158
 20
-11745.60147930514
 30
0.0
  0
ENDBLK
  5
9E06
330
9DFB
100
AcDbEntity
  8
0
100
AcDbBlockEnd
  0
BLOCK
  5
9E09
330
9E08
100
AcDbEntity
  8
0
100
AcDbBlockBegin
  2
*D13
 70
     1
 10
0.0
 20
0.0
 30
0.0
  3
*D13
  1

  0
LINE
  5
9E0A
330
9E08
100
AcDbEntity
  8
0
  6
ByBlock
440
 16777216
100
AcDbLine
 10
3317.482521670158
 20
-11482.61384118756
 30
0.0
 11
3317.482521670158
 21
-12113.57912714846
 31
0.0
  0
LINE
  5
9E0B
330
9E08
100
AcDbEntity
  8
0
  6
ByBlock
440
 16777216
100
AcDbLine
 10
6167.482521670158
 20
-11482.61384118756
 30
0.0
 11
6167.482521670158
 21
-12113.57912714846
 31
0.0
  0
LINE
  5
9E0C
330
9E08
100
AcDbEntity
  8
0
  6
ByBlock
440
 16777216
100
AcDbLine
 10
3417.482521670158
 20
-12063.57912714846
 30
0.0
 11
6067.482521670157
 21
-12063.57912714846
 31
0.0
  0
INSERT
  5
9E0D
330
9E08
100
AcDbEntity
  8
0
  6
ByBlock
440
 16777216
100
AcDbBlockReference
  2
_OPEN
 10
3317.482521670158
 20
-12063.57912714846
 30
0.0
 41
100.0
 42
100.0
 43
100.0
 50
180.0
  0
INSERT
  5
9E0E
330
9E08
100
AcDbEntity
  8
0
  6
ByBlock
440
 16777216
100
AcDbBlockReference
  2
_OPEN
 10
6167.482521670158
 20
-12063.57912714846
 30
0.0
 41
100.0
 42
100.0
 43
100.0
  0
MTEXT
  5
9E0F
330
9E08
100
AcDbEntity
  8
0
  6
ByBlock
440
 16777216
100
AcDbMText
 10
4742.482521670157
 20
-11951.07912714846
 30
0.0
 40
125.0
 41
0.0
 46
0.0
 71
     5
 72
     5
  1
\A1;2850
 73
     1
 44
1.0
  0
POINT
  5
9E10
330
9E08
100
AcDbEntity
  8
DEFPOINTS
  6
ByBlock
 62
     0
440
 16777216
100
AcDbPoint
 10
3317.482521670158
 20
-11432.61384118756
 30
0.0
  0
POINT
  5
9E11
330
9E08
100
AcDbEntity
  8
DEFPOINTS
  6
ByBlock
 62
     0
440
 16777216
100
AcDbPoint
 10
6167.482521670158
 20
-11432.61384118756
 30
0.0
  0
POINT
  5
9E12
330
9E08
100
AcDbEntity
  8
DEFPOINTS
  6
ByBlock
 62
     0
440
 16777216
100
AcDbPoint
 10
6167.482521670158
 20
-12063.57912714846
 30
0.0
  0
ENDBLK
  5
9E13
330
9E08
100
AcDbEntity
  8
0
100
AcDbBlockEnd
  0
BLOCK
  5
9E16
330
9E15
100
AcDbEntity
  8
0
100
AcDbBlockBegin
  2
*D14
 70
     1
 10
0.0
 20
0.0
 30
0.0
  3
*D14
  1

  0
LINE
  5
9E17
330
9E15
100
AcDbEntity
  8
0
  6
ByBlock
440
 16777216
100
AcDbLine
 10
1517.400316197779
 20
-8181.613841187562
 30
0.0
 11
1897.98249097314
 21
-8181.613841187562
 31
0.0
  0
LINE
  5
9E18
330
9E15
100
AcDbEntity
  8
0
  6
ByBlock
440
 16777216
100
AcDbLine
 10
1517.40031619778
 20
-10031.61384118756
 30
0.0
 11
1897.98249097314
 21
-10031.61384118756
 31
0.0
  0
LINE
  5
9E19
330
9E15
100
AcDbEntity
  8
0
  6
ByBlock
440
 16777216
100
AcDbLine
 10
1847.98249097314
 20
-8281.613841187562
 30
0.0
 11
1847.98249097314
 21
-9931.613841187562
 31
0.0
  0
INSERT
  5
9E1A
330
9E15
100
AcDbEntity
  8
0
  6
ByBlock
440
 16777216
100
AcDbBlockReference
  2
_OPEN
 10
1847.98249097314
 20
-8181.613841187562
 30
0.0
 41
100.0
 42
100.0
 43
100.0
 50
90.0
  0
INSERT
  5
9E1B
330
9E15
100
AcDbEntity
  8
0
  6
ByBlock
440
 16777216
100
AcDbBlockReference
  2
_OPEN
 10
1847.98249097314
 20
-10031.61384118756
 30
0.0
 41
100.0
 42
100.0
 43
100.0
 50
270.0
  0
MTEXT
  5
9E1C
330
9E15
100
AcDbEntity
  8
0
  6
ByBlock
440
 16777216
100
AcDbMText
 10
1735.48249097314
 20
-9106.613841187561
 30
0.0
 40
125.0
 41
0.0
 46
0.0
 71
     5
 72
     5
  1
\A1;1850
 11
0.0
 21
1.0
 31
0.0
 73
     1
 44
1.0
  0
POINT
  5
9E1D
330
9E15
100
AcDbEntity
  8
DEFPOINTS
  6
ByBlock
 62
     0
440
 16777216
100
AcDbPoint
 10
1467.400316197779
 20
-8181.613841187562
 30
0.0
  0
POINT
  5
9E1E
330
9E15
100
AcDbEntity
  8
DEFPOINTS
  6
ByBlock
 62
     0
440
 16777216
100
AcDbPoint
 10
1467.40031619778
 20
-10031.61384118756
 30
0.0
  0
POINT
  5
9E1F
330
9E15
100
AcDbEntity
  8
DEFPOINTS
  6
ByBlock
 62
     0
440
 16777216
100
AcDbPoint
 10
1847.98249097314
 20
-10031.61384118756
 30
0.0
  0
ENDBLK
  5
9E20
330
9E15
100
AcDbEntity
  8
0
100
AcDbBlockEnd
  0
BLOCK
  5
9E23
330
9E22
100
AcDbEntity
  8
0
100
AcDbBlockBegin
  2
*D15
 70
     1
 10
0.0
 20
0.0
 30
0.0
  3
*D15
  1

  0
LINE
  5
9E24
330
9E22
100
AcDbEntity
  8
0
  6
ByBlock
440
 16777216
100
AcDbLine
 10
1567.400316197779
 20
-8181.613841187562
 30
0.0
 11
2265.207356141778
 21
-8181.613841187562
 31
0.0
  0
LINE
  5
9E25
330
9E22
100
AcDbEntity
  8
0
  6
ByBlock
440
 16777216
100
AcDbLine
 10
1662.841710222841
 20
-10102.61384118756
 30
0.0
 11
2265.207356141778
 21
-10102.61384118756
 31
0.0
  0
LINE
  5
9E26
330
9E22
100
AcDbEntity
  8
0
  6
ByBlock
440
 16777216
100
AcDbLine
 10
2215.207356141778
 20
-8281.613841187562
 30
0.0
 11
2215.207356141778
 21
-10002.61384118756
 31
0.0
  0
INSERT
  5
9E27
330
9E22
100
AcDbEntity
  8
0
  6
ByBlock
440
 16777216
100
AcDbBlockReference
  2
_OPEN
 10
2215.207356141778
 20
-8181.613841187562
 30
0.0
 41
100.0
 42
100.0
 43
100.0
 50
90.0
  0
INSERT
  5
9E28
330
9E22
100
AcDbEntity
  8
0
  6
ByBlock
440
 16777216
100
AcDbBlockReference
  2
_OPEN
 10
2215.207356141778
 20
-10102.61384118756
 30
0.0
 41
100.0
 42
100.0
 43
100.0
 50
270.0
  0
MTEXT
  5
9E29
330
9E22
100
AcDbEntity
  8
0
  6
ByBlock
440
 16777216
100
AcDbMText
 10
2102.707356141778
 20
-9142.113841187562
 30
0.0
 40
125.0
 41
0.0
 46
0.0
 71
     5
 72
     5
  1
\A1;1921
 11
0.0
 21
1.0
 31
0.0
 73
     1
 44
1.0
  0
POINT
  5
9E2A
330
9E22
100
AcDbEntity
  8
DEFPOINTS
  6
ByBlock
 62
     0
440
 16777216
100
AcDbPoint
 10
1517.400316197779
 20
-8181.613841187562
 30
0.0
  0
POINT
  5
9E2B
330
9E22
100
AcDbEntity
  8
DEFPOINTS
  6
ByBlock
 62
     0
440
 16777216
100
AcDbPoint
 10
1612.841710222841
 20
-10102.61384118756
 30
0.0
  0
POINT
  5
9E2C
330
9E22
100
AcDbEntity
  8
DEFPOINTS
  6
ByBlock
 62
     0
440
 16777216
100
AcDbPoint
 10
2215.207356141778
 20
-10102.61384118756
 30
0.0
  0
ENDBLK
  5
9E2D
330
9E22
100
AcDbEntity
  8
0
100
AcDbBlockEnd
  0
BLOCK
  5
9E3D
330
9E3C
100
AcDbEntity
  8
0
100
AcDbBlockBegin
  2
*D16
 70
     1
 10
0.0
 20
0.0
 30
0.0
  3
*D16
  1

  0
LINE
  5
9E3E
330
9E3C
100
AcDbEntity
  8
0
  6
ByBlock
440
 16777216
100
AcDbLine
 10
1662.841710222841
 20
-10102.61384118756
 30
0.0
 11
2265.207356141778
 21
-10102.61384118756
 31
0.0
  0
LINE
  5
9E3F
330
9E3C
100
AcDbEntity
  8
0
  6
ByBlock
440
 16777216
100
AcDbLine
 10
1412.400316197779
 20
-11432.61384118756
 30
0.0
 11
2265.207356141778
 21
-11432.61384118756
 31
0.0
  0
LINE
  5
9E40
330
9E3C
100
AcDbEntity
  8
0
  6
ByBlock
440
 16777216
100
AcDbLine
 10
2215.207356141778
 20
-10202.61384118756
 30
0.0
 11
2215.207356141778
 21
-11332.61384118756
 31
0.0
  0
INSERT
  5
9E41
330
9E3C
100
AcDbEntity
  8
0
  6
ByBlock
440
 16777216
100
AcDbBlockReference
  2
_OPEN
 10
2215.207356141778
 20
-10102.61384118756
 30
0.0
 41
100.0
 42
100.0
 43
100.0
 50
90.0
  0
INSERT
  5
9E42
330
9E3C
100
AcDbEntity
  8
0
  6
ByBlock
440
 16777216
100
AcDbBlockReference
  2
_OPEN
 10
2215.207356141778
 20
-11432.61384118756
 30
0.0
 41
100.0
 42
100.0
 43
100.0
 50
270.0
  0
MTEXT
  5
9E43
330
9E3C
100
AcDbEntity
  8
0
  6
ByBlock
440
 16777216
100
AcDbMText
 10
2102.707356141778
 20
-10767.61384118756
 30
0.0
 40
125.0
 41
0.0
 46
0.0
 71
     5
 72
     5
  1
\A1;1330
 11
0.0
 21
1.0
 31
0.0
 73
     1
 44
1.0
  0
POINT
  5
9E44
330
9E3C
100
AcDbEntity
  8
DEFPOINTS
  6
ByBlock
 62
     0
440
 16777216
100
AcDbPoint
 10
1612.841710222841
 20
-10102.61384118756
 30
0.0
  0
POINT
  5
9E45
330
9E3C
100
AcDbEntity
  8
DEFPOINTS
  6
ByBlock
 62
     0
440
 16777216
100
AcDbPoint
 10
1362.400316197779
 20
-11432.61384118756
 30
0.0
  0
POINT
  5
9E46
330
9E3C
100
AcDbEntity
  8
DEFPOINTS
  6
ByBlock
 62
     0
440
 16777216
100
AcDbPoint
 10
2215.207356141778
 20
-11432.61384118756
 30
0.0
  0
ENDBLK
  5
9E47
330
9E3C
100
AcDbEntity
  8
0
100
AcDbBlockEnd
  0
BLOCK
  5
9E4A
330
9E49
100
AcDbEntity
  8
0
100
AcDbBlockBegin
  2
*D17
 70
     1
 10
0.0
 20
0.0
 30
0.0
  3
*D17
  1

  0
LINE
  5
9E4B
330
9E49
100
AcDbEntity
  8
0
  6
ByBlock
440
 16777216
100
AcDbLine
 10
-2237.599683802221
 20
-11482.61384118756
 30
0.0
 11
-2237.599683802221
 21
-12113.57912714846
 31
0.0
  0
LINE
  5
9E4C
330
9E49
100
AcDbEntity
  8
0
  6
ByBlock
440
 16777216
100
AcDbLine
 10
1362.400316197779
 20
-11482.61384118756
 30
0.0
 11
1362.400316197779
 21
-12113.57912714846
 31
0.0
  0
LINE
  5
9E4D
330
9E49
100
AcDbEntity
  8
0
  6
ByBlock
440
 16777216
100
AcDbLine
 10
-2137.599683802221
 20
-12063.57912714846
 30
0.0
 11
1262.400316197779
 21
-12063.57912714846
 31
0.0
  0
INSERT
  5
9E4E
330
9E49
100
AcDbEntity
  8
0
  6
ByBlock
440
 16777216
100
AcDbBlockReference
  2
_OPEN
 10
-2237.599683802221
 20
-12063.57912714846
 30
0.0
 41
100.0
 42
100.0
 43
100.0
 50
180.0
  0
INSERT
  5
9E4F
330
9E49
100
AcDbEntity
  8
0
  6
ByBlock
440
 16777216
100
AcDbBlockReference
  2
_OPEN
 10
1362.400316197779
 20
-12063.57912714846
 30
0.0
 41
100.0
 42
100.0
 43
100.0
  0
MTEXT
  5
9E50
330
9E49
100
AcDbEntity
  8
0
  6
ByBlock
440
 16777216
100
AcDbMText
 10
-437.599683802221
 20
-11951.07912714846
 30
0.0
 40
125.0
 41
0.0
 46
0.0
 71
     5
 72
     5
  1
\A1;3600
 73
     1
 44
1.0
  0
POINT
  5
9E51
330
9E49
100
AcDbEntity
  8
DEFPOINTS
  6
ByBlock
 62
     0
440
 16777216
100
AcDbPoint
 10
-2237.599683802221
 20
-11432.61384118756
 30
0.0
  0
POINT
  5
9E52
330
9E49
100
AcDbEntity
  8
DEFPOINTS
  6
ByBlock
 62
     0
440
 16777216
100
AcDbPoint
 10
1362.400316197779
 20
-11432.61384118756
 30
0.0
  0
POINT
  5
9E53
330
9E49
100
AcDbEntity
  8
DEFPOINTS
  6
ByBlock
 62
     0
440
 16777216
100
AcDbPoint
 10
1362.400316197779
 20
-12063.57912714846
 30
0.0
  0
ENDBLK
  5
9E54
330
9E49
100
AcDbEntity
  8
0
100
AcDbBlockEnd
  0
BLOCK
  5
9E7C
330
9E7B
100
AcDbEntity
  8
0
100
AcDbBlockBegin
  2
*D18
 70
     1
 10
0.0
 20
0.0
 30
0.0
  3
*D18
  1

  0
LINE
  5
A33F
330
9E7B
100
AcDbEntity
  8
SP
440
 16777216
370
    -2
100
AcDbLine
 10
16721.6940608491
 20
-6476.67077492578
 30
0.0
 11
16721.6940608491
 21
-6399.532667477106
 31
0.0
  0
LINE
  5
A340
330
9E7B
100
AcDbEntity
  8
SP
440
 16777216
370
    -2
100
AcDbLine
 10
18171.6940608491
 20
-9077.906865134789
 30
0.0
 11
18171.6940608491
 21
-6399.532667477106
 31
0.0
  0
LINE
  5
A341
330
9E7B
100
AcDbEntity
  8
SP
440
 16777216
370
    -2
100
AcDbLine
 10
16821.6940608491
 20
-6449.532667477106
 30
0.0
 11
18071.6940608491
 21
-6449.532667477106
 31
0.0
  0
INSERT
  5
A342
330
9E7B
100
AcDbEntity
  8
SP
440
 16777216
370
    -2
100
AcDbBlockReference
  2
_OPEN
 10
16721.6940608491
 20
-6449.532667477106
 30
0.0
 41
100.0
 42
100.0
 43
100.0
 50
180.0
  0
INSERT
  5
A343
330
9E7B
100
AcDbEntity
  8
SP
440
 16777216
370
    -2
100
AcDbBlockReference
  2
_OPEN
 10
18171.6940608491
 20
-6449.532667477106
 30
0.0
 41
100.0
 42
100.0
 43
100.0
  0
MTEXT
  5
A344
330
9E7B
100
AcDbEntity
  8
SP
440
 16777216
100
AcDbMText
 10
17446.6940608491
 20
-6304.294572239011
 30
0.0
 40
125.0
 41
0.0
 46
0.0
 71
     5
 72
     1
  1
\A1;(1450)
 73
     1
 44
1.0
  0
POINT
  5
A345
330
9E7B
100
AcDbEntity
  8
DEFPOINTS
 62
     0
440
 16777216
100
AcDbPoint
 10
16721.6940608491
 20
-6526.67077492578
 30
0.0
  0
POINT
  5
A346
330
9E7B
100
AcDbEntity
  8
DEFPOINTS
 62
     0
440
 16777216
100
AcDbPoint
 10
18171.6940608491
 20
-9127.906865134788
 30
0.0
  0
POINT
  5
A347
330
9E7B
100
AcDbEntity
  8
DEFPOINTS
 62
     0
440
 16777216
100
AcDbPoint
 10
18171.6940608491
 20
-6449.532667477106
 30
0.0
  0
ENDBLK
  5
9E86
330
9E7B
100
AcDbEntity
  8
0
100
AcDbBlockEnd
  0
BLOCK
  5
9E89
330
9E88
100
AcDbEntity
  8
0
100
AcDbBlockBegin
  2
*D19
 70
     1
 10
0.0
 20
0.0
 30
0.0
  3
*D19
  1

  0
LINE
  5
A348
330
9E88
100
AcDbEntity
  8
SP
440
 16777216
370
    -2
100
AcDbLine
 10
16721.6940608491
 20
-6476.67077492578
 30
0.0
 11
16721.6940608491
 21
-6399.532667477106
 31
0.0
  0
LINE
  5
A349
330
9E88
100
AcDbEntity
  8
SP
440
 16777216
370
    -2
100
AcDbLine
 10
14921.6940608491
 20
-8517.90686513479
 30
0.0
 11
14921.6940608491
 21
-6399.532667477106
 31
0.0
  0
LINE
  5
A34A
330
9E88
100
AcDbEntity
  8
SP
440
 16777216
370
    -2
100
AcDbLine
 10
16621.6940608491
 20
-6449.532667477106
 30
0.0
 11
15021.6940608491
 21
-6449.532667477106
 31
0.0
  0
INSERT
  5
A34B
330
9E88
100
AcDbEntity
  8
SP
440
 16777216
370
    -2
100
AcDbBlockReference
  2
_OPEN
 10
16721.6940608491
 20
-6449.532667477106
 30
0.0
 41
100.0
 42
100.0
 43
100.0
  0
INSERT
  5
A34C
330
9E88
100
AcDbEntity
  8
SP
440
 16777216
370
    -2
100
AcDbBlockReference
  2
_OPEN
 10
14921.6940608491
 20
-6449.532667477106
 30
0.0
 41
100.0
 42
100.0
 43
100.0
 50
180.0
  0
MTEXT
  5
A34D
330
9E88
100
AcDbEntity
  8
SP
440
 16777216
100
AcDbMText
 10
15821.6940608491
 20
-6304.294572239011
 30
0.0
 40
125.0
 41
0.0
 46
0.0
 71
     5
 72
     1
  1
\A1;(1800)
 73
     1
 44
1.0
  0
POINT
  5
A34E
330
9E88
100
AcDbEntity
  8
DEFPOINTS
 62
     0
440
 16777216
100
AcDbPoint
 10
16721.6940608491
 20
-6526.67077492578
 30
0.0
  0
POINT
  5
A34F
330
9E88
100
AcDbEntity
  8
DEFPOINTS
 62
     0
440
 16777216
100
AcDbPoint
 10
14921.6940608491
 20
-8567.906865134791
 30
0.0
  0
POINT
  5
A350
330
9E88
100
AcDbEntity
  8
DEFPOINTS
 62
     0
440
 16777216
100
AcDbPoint
 10
14921.6940608491
 20
-6449.532667477106
 30
0.0
  0
ENDBLK
  5
9E93
330
9E88
100
AcDbEntity
  8
0
100
AcDbBlockEnd
  0
ENDSEC
  0
SECTION
  2
ENTITIES
  0
LINE
  5
5648
330
19
100
AcDbEntity
  8
CT
100
AcDbLine
 10
10460.75820327457
 20
-9047.906865134789
 30
0.0
 11
13426.05324940178
 21
-9047.906865134789
 31
0.0
  0
LINE
  5
564B
330
19
100
AcDbEntity
  8
FUTO
100
AcDbLine
 10
13175.61185537672
 20
-10197.90686513479
 30
0.0
 11
9575.611855376719
 21
-10197.90686513478
 31
0.0
  0
LINE
  5
564C
330
19
100
AcDbEntity
  8
FUTO
100
AcDbLine
 10
13175.61185537672
 20
-10377.90686513479
 30
0.0
 11
9575.611855376719
 21
-10377.90686513479
 31
0.0
  0
LINE
  5
564F
330
19
100
AcDbEntity
  8
FUTO
100
AcDbLine
 10
12115.61185537672
 20
-7237.006868111158
 30
0.0
 11
13280.61185537672
 21
-7126.906865134788
 31
0.0
  0
ARC
  5
5657
330
19
100
AcDbEntity
  8
FUTO
100
AcDbCircle
 10
11984.61185537672
 20
-8916.906865134789
 30
0.0
 40
1423.0
100
AcDbArc
 50
180.0
 51
184.918254988085
  0
ARC
  5
565B
330
19
100
AcDbEntity
  8
FUTO
100
AcDbCircle
 10
12246.61185537672
 20
-8916.906865134789
 30
0.0
 40
1685.0
100
AcDbArc
 50
94.458948880937
 51
180.0
  0
LINE
  5
565C
330
19
100
AcDbEntity
  8
CT
100
AcDbLine
 10
12115.61185537672
 20
-6992.807693742841
 30
0.0
 11
12115.61185537672
 21
-10377.90686513479
 31
0.0
  0
LINE
  5
566D
330
19
100
AcDbEntity
  8
FUTO
100
AcDbLine
 10
13215.61185537672
 20
-7133.04978375579
 30
0.0
 11
13215.61185537672
 21
-8976.90686513479
 31
0.0
  0
LINE
  5
566E
330
19
100
AcDbEntity
  8
FUTO
100
AcDbLine
 10
13280.61185537672
 20
-7057.906865134788
 30
0.0
 11
13280.61185537672
 21
-9045.906865134787
 31
0.0
  0
LINE
  5
5674
330
19
100
AcDbEntity
  8
FUTO
100
AcDbLine
 10
13169.30748725804
 20
-8976.906865134788
 30
0.0
 11
13280.61185537672
 21
-8976.906865134788
 31
0.0
  0
CIRCLE
  5
663A
330
19
100
AcDbEntity
  8
SL
100
AcDbCircle
 10
12115.61185537672
 20
-9047.906865134789
 30
0.0
 40
400.0
  0
ARC
  5
67DA
330
19
100
AcDbEntity
  8
FUTO
100
AcDbCircle
 10
11984.61185537672
 20
-8916.906865134789
 30
0.0
 40
1423.0
100
AcDbArc
 50
185.6461041202553
 51
244.1857927259331
  0
ARC
  5
67E7
330
19
100
AcDbEntity
  8
FUTO
100
AcDbCircle
 10
12226.11185537672
 20
-9158.406865134788
 30
0.0
 40
960.5
100
AcDbArc
 50
0.0
 51
10.89233534089441
  0
ARC
  5
6938
330
19
100
AcDbEntity
  8
FUTO
100
AcDbCircle
 10
12005.11185537672
 20
-9158.406865134788
 30
0.0
 40
1181.5
100
AcDbArc
 50
298.3800900954107
 51
0.0
  0
LINE
  5
7990
330
19
100
AcDbEntity
  8
FUTO
100
AcDbLine
 10
13175.61185537672
 20
-10197.90686513479
 30
0.0
 11
13175.61185537672
 21
-10377.90686513479
 31
0.0
  0
LINE
  5
7991
330
19
100
AcDbEntity
  8
FUTO
100
AcDbLine
 10
9575.611855376719
 20
-10197.90686513479
 30
0.0
 11
9575.611855376719
 21
-10377.90686513479
 31
0.0
  0
LINE
  5
7AB6
330
19
100
AcDbEntity
  8
FUTO
100
AcDbLine
 10
10315.61185537672
 20
-10127.90686513478
 30
0.0
 11
10245.61185537672
 21
-10127.90686513478
 31
0.0
  0
LINE
  5
7AB7
330
19
100
AcDbEntity
  8
FUTO
100
AcDbLine
 10
9615.61185537672
 20
-10127.90686513478
 30
0.0
 11
9615.61185537672
 21
-10197.90686513478
 31
0.0
  0
LINE
  5
7AB8
330
19
100
AcDbEntity
  8
FUTO
100
AcDbLine
 10
10315.61185537672
 20
-10127.90686513478
 30
0.0
 11
10315.61185537672
 21
-10197.90686513478
 31
0.0
  0
LINE
  5
7AC0
330
19
100
AcDbEntity
  8
FUTO
100
AcDbLine
 10
9695.61185537672
 20
-4128.166814773274
 30
0.0
 11
10235.61185537672
 21
-4128.166814773274
 31
0.0
  0
LINE
  5
7AC6
330
19
100
AcDbEntity
  8
FUTO
100
AcDbLine
 10
10235.61185537672
 20
-5031.666814773274
 30
0.0
 11
9695.61185537672
 21
-5031.666814773274
 31
0.0
  0
LINE
  5
7AFE
330
19
100
AcDbEntity
  8
FUTO
100
AcDbLine
 10
9923.111855376719
 20
-5098.166814773275
 30
0.0
 11
9923.111855376719
 21
-5031.666814773274
 31
0.0
  0
LINE
  5
7AFF
330
19
100
AcDbEntity
  8
FUTO
100
AcDbLine
 10
10008.11185537672
 20
-5031.666814773274
 30
0.0
 11
10008.11185537672
 21
-5098.166814773275
 31
0.0
  0
ARC
  5
7B35
330
19
100
AcDbEntity
  8
FUTO
100
AcDbCircle
 10
9965.611855376721
 20
-9847.906865134785
 30
0.0
 40
287.5
100
AcDbArc
 50
329.6527345159927
 51
210.3472655873382
  0
LINE
  5
7B36
330
19
100
AcDbEntity
  8
CT
100
AcDbLine
 10
9965.611855376721
 20
-10377.90686513479
 30
0.0
 11
9965.611855376721
 21
-9464.744545134784
 31
0.0
  0
LINE
  5
7B38
330
19
100
AcDbEntity
  8
CT
100
AcDbLine
 10
9645.611855376721
 20
-9847.906865134785
 30
0.0
 11
10285.61185537672
 21
-9847.906865134785
 31
0.0
  0
LINE
  5
7B3B
330
19
100
AcDbEntity
  8
FUTO
100
AcDbLine
 10
9695.24313537672
 20
-10006.66032813478
 30
0.0
 11
9717.505378376721
 21
-9993.163279134783
 31
0.0
  0
LINE
  5
7B3C
330
19
100
AcDbEntity
  8
FUTO
100
AcDbLine
 10
9685.61185537672
 20
-10127.90686513478
 30
0.0
 11
9685.61185537672
 21
-10023.76265713478
 31
0.0
  0
ARC
  5
7B3E
330
19
100
AcDbEntity
  8
FUTO
100
AcDbCircle
 10
9705.611855376719
 20
-10023.76265713478
 30
0.0
 40
20.0
100
AcDbArc
 50
121.227401
 51
180.0
  0
LINE
  5
7B4A
330
19
100
AcDbEntity
  8
FUTO
100
AcDbLine
 10
10245.61185537672
 20
-10127.90686513478
 30
0.0
 11
10245.61185537672
 21
-10023.76265713478
 31
0.0
  0
LINE
  5
7B57
330
19
100
AcDbEntity
  8
FUTO
100
AcDbLine
 10
10235.98057637672
 20
-10006.66032813478
 30
0.0
 11
10213.71833302912
 21
-9993.163278924045
 31
0.0
  0
ARC
  5
7B5A
330
19
100
AcDbEntity
  8
FUTO
100
AcDbCircle
 10
10225.61185537672
 20
-10023.76265713478
 30
0.0
 40
20.0
100
AcDbArc
 50
0.0
 51
58.77259899999999
  0
CIRCLE
  5
7B75
330
19
100
AcDbEntity
  8
SL
100
AcDbCircle
 10
9965.611855376721
 20
-9847.906865134785
 30
0.0
 40
140.0
  0
LINE
  5
7B76
330
19
100
AcDbEntity
  8
SL
100
AcDbLine
 10
9902.232469036931
 20
-9723.074764346598
 30
0.0
 11
11934.52789440589
 21
-8691.243720025687
 31
0.0
  0
LINE
  5
7B77
330
19
100
AcDbEntity
  8
SL
100
AcDbLine
 10
9999.248723901784
 20
-9983.805949295891
 30
0.0
 11
12211.71719401975
 21
-9436.189962737952
 31
0.0
  0
ARC
  5
7B78
330
19
100
AcDbEntity
  8
SL
100
AcDbCircle
 10
12115.61185537672
 20
-9047.906865134789
 30
0.0
 40
480.0
100
AcDbArc
 50
283.9020838080006
 51
116.9176818596071
  0
ARC
  5
7B79
330
19
100
AcDbEntity
  8
SL
100
AcDbCircle
 10
9965.611855376721
 20
-9847.906865134785
 30
0.0
 40
220.0
100
AcDbArc
 50
116.917681859607
 51
283.9020838080007
  0
LINE
  5
7B80
330
19
100
AcDbEntity
  8
SL
100
AcDbLine
 10
12230.93826174836
 20
-9513.846582258585
 30
0.0
 11
10018.46979163039
 21
-10061.46256881652
 31
0.0
  0
LINE
  5
7B81
330
19
100
AcDbEntity
  8
SL
100
AcDbLine
 10
11898.31110221172
 20
-8619.911091003867
 30
0.0
 11
9866.015676842767
 21
-9651.742135324781
 31
0.0
  0
LINE
  5
7B82
330
19
100
AcDbEntity
  8
FUTO
100
AcDbLine
 10
9685.61185537672
 20
-10127.90686513478
 30
0.0
 11
9615.61185537672
 21
-10127.90686513478
 31
0.0
  0
LINE
  5
8CEA
330
19
100
AcDbEntity
  8
CT
100
AcDbLine
 10
14921.6940608491
 20
-9047.906865134791
 30
0.0
 11
18204.17843685405
 21
-9047.906865134789
 31
0.0
  0
LINE
  5
8D2E
330
19
100
AcDbEntity
  8
CT
100
AcDbLine
 10
16721.6940608491
 20
-6805.465636889184
 30
0.0
 11
16721.6940608491
 21
-10377.90686513479
 31
0.0
  0
LINE
  5
8D2F
330
19
100
AcDbEntity
  8
FUTO
100
AcDbLine
 10
17901.6940608491
 20
-7122.906865134789
 30
0.0
 11
17901.6940608491
 21
-8980.906865134789
 31
0.0
  0
LINE
  5
8D30
330
19
100
AcDbEntity
  8
FUTO
100
AcDbLine
 10
17970.6940608491
 20
-7057.906865134789
 30
0.0
 11
17970.6940608491
 21
-9045.906865134787
 31
0.0
  0
LINE
  5
8D31
330
19
100
AcDbEntity
  8
FUTO
100
AcDbLine
 10
15541.6940608491
 20
-7122.906865134789
 30
0.0
 11
15541.6940608491
 21
-8980.906865134791
 31
0.0
  0
LINE
  5
8D32
330
19
100
AcDbEntity
  8
FUTO
100
AcDbLine
 10
15472.6940608491
 20
-7057.906865134789
 30
0.0
 11
15472.6940608491
 21
-9045.906865134787
 31
0.0
  0
LINE
  5
8D34
330
19
100
AcDbEntity
  8
FUTO
100
AcDbLine
 10
17980.6940608491
 20
-10197.90686513478
 30
0.0
 11
15130.6940608491
 21
-10197.90686513479
 31
0.0
  0
LINE
  5
8D35
330
19
100
AcDbEntity
  8
FUTO
100
AcDbLine
 10
17901.6940608491
 20
-9377.906865134789
 30
0.0
 11
18171.6940608491
 21
-9377.906865134789
 31
0.0
  0
LINE
  5
8D38
330
19
100
AcDbEntity
  8
FUTO
100
AcDbLine
 10
17901.6940608491
 20
-9127.906865134784
 30
0.0
 11
18171.6940608491
 21
-9127.906865134788
 31
0.0
  0
LINE
  5
8D3D
330
19
100
AcDbEntity
  8
FUTO
100
AcDbLine
 10
17980.6940608491
 20
-10377.90686513479
 30
0.0
 11
15130.6940608491
 21
-10377.90686513479
 31
0.0
  0
LINE
  5
8D3E
330
19
100
AcDbEntity
  8
FUTO
100
AcDbLine
 10
15472.6940608491
 20
-9045.906865134787
 30
0.0
 11
17970.6940608491
 21
-9045.906865134787
 31
0.0
  0
LINE
  5
8D3F
330
19
100
AcDbEntity
  8
FUTO
100
AcDbLine
 10
15541.6940608491
 20
-8980.906865134791
 30
0.0
 11
17901.6940608491
 21
-8980.906865134789
 31
0.0
  0
LINE
  5
8D59
330
19
100
AcDbEntity
  8
FUTO
100
AcDbLine
 10
15541.6940608491
 20
-9387.906865134787
 30
0.0
 11
15307.6940608491
 21
-9387.906865134787
 31
0.0
  0
LINE
  5
8D5A
330
19
100
AcDbEntity
  8
FUTO
100
AcDbLine
 10
15541.6940608491
 20
-9137.906865134786
 30
0.0
 11
15307.6940608491
 21
-9137.906865134787
 31
0.0
  0
LINE
  5
8D5F
330
19
100
AcDbEntity
  8
FUTO
100
AcDbLine
 10
15130.6940608491
 20
-10197.90686513479
 30
0.0
 11
15130.6940608491
 21
-10377.90686513479
 31
0.0
  0
LINE
  5
8D73
330
19
100
AcDbEntity
  8
FUTO
100
AcDbLine
 10
15307.6940608491
 20
-9137.906865134787
 30
0.0
 11
15307.6940608491
 21
-9387.906865134789
 31
0.0
  0
LINE
  5
8D75
330
19
100
AcDbEntity
  8
FUTO
100
AcDbLine
 10
15541.6940608491
 20
-9045.906865134787
 30
0.0
 11
15541.6940608491
 21
-10197.90686513479
 31
0.0
  0
LINE
  5
8D8E
330
19
100
AcDbEntity
  8
FUTO
100
AcDbLine
 10
15161.6940608491
 20
-8990.406865134788
 30
0.0
 11
15472.6940608491
 21
-8990.40686513479
 31
0.0
  0
LINE
  5
8D8F
330
19
100
AcDbEntity
  8
FUTO
100
AcDbLine
 10
15161.6940608491
 20
-9105.406865134787
 30
0.0
 11
15541.6940608491
 21
-9105.406865134787
 31
0.0
  0
LINE
  5
8D99
330
19
100
AcDbEntity
  8
FUTO
100
AcDbLine
 10
17901.6940608491
 20
-9045.906865134787
 30
0.0
 11
17901.6940608491
 21
-10197.90686513479
 31
0.0
  0
LINE
  5
8D9A
330
19
100
AcDbEntity
  8
FUTO
100
AcDbLine
 10
17980.6940608491
 20
-10197.90686513479
 30
0.0
 11
17980.6940608491
 21
-10377.90686513479
 31
0.0
  0
LINE
  5
8DA9
330
19
100
AcDbEntity
  8
FUTO
100
AcDbLine
 10
18171.6940608491
 20
-9127.906865134788
 30
0.0
 11
18171.6940608491
 21
-9377.906865134789
 31
0.0
  0
LINE
  5
8DBD
330
19
100
AcDbEntity
  8
FUTO
100
AcDbLine
 10
15472.6940608491
 20
-7057.906865134793
 30
0.0
 11
17970.6940608491
 21
-7057.906865134789
 31
0.0
  0
LINE
  5
8DBE
330
19
100
AcDbEntity
  8
FUTO
100
AcDbLine
 10
15541.6940608491
 20
-7122.906865134786
 30
0.0
 11
17901.6940608491
 21
-7122.906865134786
 31
0.0
  0
LINE
  5
8DC8
330
19
100
AcDbEntity
  8
SP
100
AcDbLine
 10
16721.6940608491
 20
-6526.67077492578
 30
0.0
 11
16721.6940608491
 21
-6471.67077492578
 31
0.0
  0
LINE
  5
98B1
330
19
100
AcDbEntity
  8
SL
100
AcDbLine
 10
14921.6940608491
 20
-8567.906865134791
 30
0.0
 11
14921.6940608491
 21
-10067.90686513479
 31
0.0
  0
LINE
  5
98B2
330
19
100
AcDbEntity
  8
SL
100
AcDbLine
 10
14921.6940608491
 20
-8567.906865134791
 30
0.0
 11
15211.6940608491
 21
-8567.906865134791
 31
0.0
  0
LINE
  5
98B4
330
19
100
AcDbEntity
  8
SL
100
AcDbLine
 10
15211.6940608491
 20
-10067.90686513479
 30
0.0
 11
14921.6940608491
 21
-10067.90686513479
 31
0.0
  0
LINE
  5
98B5
330
19
100
AcDbEntity
  8
SL
100
AcDbLine
 10
15211.6940608491
 20
-8567.906865134791
 30
0.0
 11
15211.6940608491
 21
-8617.906865134791
 31
0.0
  0
LINE
  5
98B6
330
19
100
AcDbEntity
  8
SL
100
AcDbLine
 10
15021.6940608491
 20
-8647.906865134791
 30
0.0
 11
15161.6940608491
 21
-8647.906865134793
 31
0.0
  0
LINE
  5
98B7
330
19
100
AcDbEntity
  8
SL
100
AcDbLine
 10
15021.6940608491
 20
-9447.906865134793
 30
0.0
 11
15161.6940608491
 21
-9447.906865134793
 31
0.0
  0
LINE
  5
98B8
330
19
100
AcDbEntity
  8
SL
100
AcDbLine
 10
15161.6940608491
 20
-9707.906865134789
 30
0.0
 11
15021.6940608491
 21
-9707.906865134788
 31
0.0
  0
LINE
  5
98B9
330
19
100
AcDbEntity
  8
SL
100
AcDbLine
 10
15161.6940608491
 20
-9987.906865134787
 30
0.0
 11
15021.6940608491
 21
-9987.906865134787
 31
0.0
  0
LINE
  5
98BA
330
19
100
AcDbEntity
  8
SL
100
AcDbLine
 10
15021.6940608491
 20
-8647.906865134791
 30
0.0
 11
15021.6940608491
 21
-9987.906865134787
 31
0.0
  0
LINE
  5
98BC
330
19
100
AcDbEntity
  8
SL
100
AcDbLine
 10
15161.6940608491
 20
-8647.906865134791
 30
0.0
 11
15161.6940608491
 21
-9987.906865134787
 31
0.0
  0
LINE
  5
98BF
330
19
100
AcDbEntity
  8
SL
100
AcDbLine
 10
15211.6940608491
 20
-10017.90686513479
 30
0.0
 11
15211.6940608491
 21
-10067.90686513479
 31
0.0
  0
LINE
  5
98C0
330
19
100
AcDbEntity
  8
FUTO
100
AcDbLine
 10
15541.6940608491
 20
-8980.906865134791
 30
0.0
 11
17901.6940608491
 21
-7122.906865134786
 31
0.0
  0
LINE
  5
98C1
330
19
100
AcDbEntity
  8
FUTO
100
AcDbLine
 10
15541.6940608491
 20
-7122.906865134789
 30
0.0
 11
17901.6940608491
 21
-8980.906865134789
 31
0.0
  0
LINE
  5
98C4
330
19
100
AcDbEntity
  8
FUTO
100
AcDbLine
 10
10235.61185537672
 20
-5031.666814773274
 30
0.0
 11
10235.61185537672
 21
-4128.166814773274
 31
0.0
  0
LINE
  5
98C5
330
19
100
AcDbEntity
  8
FUTO
100
AcDbLine
 10
9695.61185537672
 20
-5031.666814773274
 30
0.0
 11
9695.61185537672
 21
-4128.166814773274
 31
0.0
  0
LINE
  5
98C6
330
19
100
AcDbEntity
  8
FUTO
100
AcDbLine
 10
15228.1940608491
 20
-10117.90686513478
 30
0.0
 11
15541.6940608491
 21
-10117.90686513479
 31
0.0
  0
LINE
  5
98C7
330
19
100
AcDbEntity
  8
FUTO
100
AcDbLine
 10
15228.1940608491
 20
-9577.906865134787
 30
0.0
 11
15541.6940608491
 21
-9577.906865134787
 31
0.0
  0
LINE
  5
98C8
330
19
100
AcDbEntity
  8
CT
100
AcDbLine
 10
14921.6940608491
 20
-9847.906865134786
 30
0.0
 11
15541.6940608491
 21
-9847.906865134788
 31
0.0
  0
LINE
  5
98CA
330
19
100
AcDbEntity
  8
FUTO
100
AcDbLine
 10
15228.1940608491
 20
-10117.90686513478
 30
0.0
 11
15228.1940608491
 21
-9577.906865134787
 31
0.0
  0
LINE
  5
98CC
330
19
100
AcDbEntity
  8
FUTO
100
AcDbLine
 10
15161.6940608491
 20
-9805.406865134784
 30
0.0
 11
15228.1940608491
 21
-9805.406865134786
 31
0.0
  0
LINE
  5
98CD
330
19
100
AcDbEntity
  8
FUTO
100
AcDbLine
 10
15228.1940608491
 20
-9890.406865134787
 30
0.0
 11
15161.6940608491
 21
-9890.406865134787
 31
0.0
  0
LINE
  5
98CF
330
19
100
AcDbEntity
  8
FUTO
100
AcDbLine
 10
13175.61185537672
 20
-5129.166814773274
 30
0.0
 11
9575.611855376719
 21
-5129.16681477328
 31
0.0
  0
LINE
  5
98D1
330
19
100
AcDbEntity
  8
FUTO
100
AcDbLine
 10
13175.61185537672
 20
-5129.166814773274
 30
0.0
 11
13175.61185537672
 21
-4718.166814773272
 31
0.0
  0
LINE
  5
98D2
330
19
100
AcDbEntity
  8
FUTO
100
AcDbLine
 10
13175.61185537672
 20
-2279.166814773274
 30
0.0
 11
11055.61185537672
 21
-2279.166814773274
 31
0.0
  0
LINE
  5
98D3
330
19
100
AcDbEntity
  8
FUTO
100
AcDbLine
 10
11055.61185537672
 20
-2279.166814773274
 30
0.0
 11
11055.61185537672
 21
-2358.166814773275
 31
0.0
  0
LINE
  5
98D4
330
19
100
AcDbEntity
  8
FUTO
100
AcDbLine
 10
9575.611855376719
 20
-5129.16681477328
 30
0.0
 11
9575.611855376719
 21
-3929.16681477328
 31
0.0
  0
LINE
  5
98D5
330
19
100
AcDbEntity
  8
FUTO
100
AcDbLine
 10
9575.611855376719
 20
-3929.16681477328
 30
0.0
 11
10561.61185537672
 21
-3929.16681477328
 31
0.0
  0
LINE
  5
98D6
330
19
100
AcDbEntity
  8
CT
100
AcDbLine
 10
9965.611855376721
 20
-5338.166814773274
 30
0.0
 11
9965.611855376721
 21
-4108.554878427432
 31
0.0
  0
LINE
  5
98D7
330
19
100
AcDbEntity
  8
CT
100
AcDbLine
 10
12115.61185537672
 20
-2147.194717401173
 30
0.0
 11
12115.61185537672
 21
-5338.166814773274
 31
0.0
  0
LINE
  5
98D8
330
19
100
AcDbEntity
  8
CT
100
AcDbLine
 10
13413.44488981198
 20
-3538.166814773275
 30
0.0
 11
10428.53659128658
 21
-3538.166814773275
 31
0.0
  0
LINE
  5
98DA
330
19
100
AcDbEntity
  8
SL
100
AcDbLine
 10
12515.61185537672
 20
-5238.166814773275
 30
0.0
 11
9825.61185537672
 21
-5238.166814773275
 31
0.0
  0
LINE
  5
98DB
330
19
100
AcDbEntity
  8
SL
100
AcDbLine
 10
12515.61185537672
 20
-5098.166814773275
 30
0.0
 11
9825.61185537672
 21
-5098.166814773275
 31
0.0
  0
LINE
  5
98DC
330
19
100
AcDbEntity
  8
SL
100
AcDbLine
 10
12515.61185537672
 20
-5098.166814773275
 30
0.0
 11
12515.61185537672
 21
-5238.166814773275
 31
0.0
  0
LINE
  5
98DD
330
19
100
AcDbEntity
  8
SL
100
AcDbLine
 10
11715.61185537672
 20
-5098.166814773275
 30
0.0
 11
11715.61185537672
 21
-5238.166814773275
 31
0.0
  0
LINE
  5
98DE
330
19
100
AcDbEntity
  8
SL
100
AcDbLine
 10
10105.61185537672
 20
-5238.166814773275
 30
0.0
 11
10105.61185537672
 21
-5098.166814773275
 31
0.0
  0
LINE
  5
98DF
330
19
100
AcDbEntity
  8
SL
100
AcDbLine
 10
9825.61185537672
 20
-5238.166814773275
 30
0.0
 11
9825.61185537672
 21
-5098.166814773275
 31
0.0
  0
LINE
  5
98E1
330
19
100
AcDbEntity
  8
SL
100
AcDbLine
 10
12595.61185537672
 20
-5338.166814773274
 30
0.0
 11
9745.61185537672
 21
-5338.166814773274
 31
0.0
  0
LINE
  5
98E3
330
19
100
AcDbEntity
  8
SL
100
AcDbLine
 10
12595.61185537672
 20
-5048.166814773274
 30
0.0
 11
12595.61185537672
 21
-5338.166814773274
 31
0.0
  0
LINE
  5
98E4
330
19
100
AcDbEntity
  8
SL
100
AcDbLine
 10
9745.61185537672
 20
-5338.166814773274
 30
0.0
 11
9745.61185537672
 21
-5048.166814773274
 31
0.0
  0
LINE
  5
98E5
330
19
100
AcDbEntity
  8
SL
100
AcDbLine
 10
12595.61185537672
 20
-5048.166814773274
 30
0.0
 11
12545.61185537672
 21
-5048.166814773274
 31
0.0
  0
LINE
  5
98E8
330
19
100
AcDbEntity
  8
SL
100
AcDbLine
 10
9795.611855376721
 20
-5048.166814773274
 30
0.0
 11
9745.61185537672
 21
-5048.166814773274
 31
0.0
  0
CIRCLE
  5
98EB
330
19
100
AcDbEntity
  8
FUTO
100
AcDbCircle
 10
12115.61185537672
 20
-9047.906865134789
 30
0.0
 40
900.0
  0
CIRCLE
  5
98EC
330
19
100
AcDbEntity
  8
FUTO
100
AcDbCircle
 10
12115.61185537672
 20
-9047.906865134789
 30
0.0
 40
965.0
  0
LINE
  5
98ED
330
19
100
AcDbEntity
  8
FUTO
100
AcDbLine
 10
13280.61185537672
 20
-4787.166814773274
 30
0.0
 11
13280.61185537672
 21
-2289.166814773274
 31
0.0
  0
LINE
  5
98EE
330
19
100
AcDbEntity
  8
FUTO
100
AcDbLine
 10
10561.61185537672
 20
-4718.166814773274
 30
0.0
 11
10561.61185537672
 21
-2358.166814773275
 31
0.0
  0
LINE
  5
98EF
330
19
100
AcDbEntity
  8
FUTO
100
AcDbLine
 10
13280.61185537672
 20
-2358.166814773275
 30
0.0
 11
10561.61185537672
 21
-2358.166814773275
 31
0.0
  0
LINE
  5
98F0
330
19
100
AcDbEntity
  8
FUTO
100
AcDbLine
 10
13280.61185537672
 20
-4718.166814773274
 30
0.0
 11
10561.61185537672
 21
-4718.166814773274
 31
0.0
  0
LINE
  5
98F1
330
19
100
AcDbEntity
  8
FUTO
100
AcDbLine
 10
13175.61185537672
 20
-2358.166814773275
 30
0.0
 11
13175.61185537672
 21
-2279.166814773274
 31
0.0
  0
LINE
  5
98F4
330
19
100
AcDbEntity
  8
FUTO
100
AcDbLine
 10
13215.61185537672
 20
-4718.166814773272
 30
0.0
 11
13215.61185537672
 21
-2358.166814773275
 31
0.0
  0
DIMENSION
  5
9D6B
330
19
100
AcDbEntity
  8
SP
100
AcDbDimension
280
     0
  2
*D1
 10
9230.014103282739
 20
-5129.16681477328
 30
0.0
 11
9117.514103282738
 21
-4529.166814773279
 31
0.0
 12
11813.21153917894
 22
1054.706976052774
 32
0.0
 70
    32
 71
     5
 42
-1.0
 73
     0
 74
     0
 75
     0
  3
MATSU
100
AcDbAlignedDimension
 13
9575.611855376719
 23
-3929.16681477328
 33
0.0
 14
9575.611855376719
 24
-5129.16681477328
 34
0.0
 50
90.0
100
AcDbRotatedDimension
1001
ACAD
1000
DSTYLE
1002
{
1070
   140
1040
2.5
1070
    40
1040
50.0
1070
   147
1040
1.0
1070
   271
1070
     0
1002
}
  0
DIMENSION
  5
9D78
330
19
100
AcDbEntity
  8
SP
100
AcDbDimension
280
     0
  2
*D2
 10
13175.61185537672
 20
-5652.171877547662
 30
0.0
 11
11375.61185537672
 21
-5539.671877547662
 31
0.0
 12
11813.21153917894
 22
1054.706976052774
 32
0.0
 70
    32
 71
     5
 42
-1.0
 73
     0
 74
     0
 75
     0
  3
MATSU
100
AcDbAlignedDimension
 13
9575.611855376719
 23
-5129.16681477328
 33
0.0
 14
13175.61185537672
 24
-5129.166814773274
 34
0.0
100
AcDbRotatedDimension
1001
ACAD
1000
DSTYLE
1002
{
1070
   140
1040
2.5
1070
    40
1040
50.0
1070
   147
1040
1.0
1070
   271
1070
     0
1002
}
  0
DIMENSION
  5
9D85
330
19
100
AcDbEntity
  8
SP
100
AcDbDimension
280
     0
  2
*D3
 10
13710.15731895917
 20
-5129.166814773274
 30
0.0
 11
13597.65731895917
 21
-3704.166814773274
 31
0.0
 12
11813.21153917894
 22
1054.706976052774
 32
0.0
 70
    32
 71
     5
 42
-1.0
 73
     0
 74
     0
 75
     0
  3
MATSU
100
AcDbAlignedDimension
 13
13175.61185537672
 23
-2279.166814773274
 33
0.0
 14
13175.61185537672
 24
-5129.166814773274
 34
0.0
 50
90.0
100
AcDbRotatedDimension
1001
ACAD
1000
DSTYLE
1002
{
1070
   140
1040
2.5
1070
    40
1040
50.0
1070
   147
1040
1.0
1070
   271
1070
     0
1002
}
  0
DIMENSION
  5
9D92
330
19
100
AcDbEntity
  8
SP
100
AcDbDimension
280
     0
  2
*D4
 10
13175.61185537672
 20
-1983.199102532606
 30
0.0
 11
12115.61185537672
 21
-1870.699102532606
 31
0.0
 12
11813.21153917894
 22
1054.706976052774
 32
0.0
 70
    32
 71
     5
 42
-1.0
 73
     0
 74
     0
 75
     0
  3
MATSU
100
AcDbAlignedDimension
 13
11055.61185537672
 23
-2279.166814773274
 33
0.0
 14
13175.61185537672
 24
-2279.166814773274
 34
0.0
100
AcDbRotatedDimension
1001
ACAD
1000
DSTYLE
1002
{
1070
   140
1040
2.5
1070
    40
1040
50.0
1070
   147
1040
1.0
1070
   271
1070
     0
1002
}
  0
DIMENSION
  5
9D9F
330
19
100
AcDbEntity
  8
SP
100
AcDbDimension
280
     0
  2
*D5
 10
9575.611855376719
 20
-1983.199102532606
 30
0.0
 11
10315.61185537672
 21
-1870.699102532606
 31
0.0
 12
11813.21153917894
 22
1054.706976052774
 32
0.0
 70
    32
 71
     5
 42
-1.0
 73
     0
 74
     0
 75
     0
  3
MATSU
100
AcDbAlignedDimension
 13
11055.61185537672
 23
-2279.166814773274
 33
0.0
 14
9575.611855376719
 24
-3929.16681477328
 34
0.0
100
AcDbRotatedDimension
1001
ACAD
1000
DSTYLE
1002
{
1070
   140
1040
2.5
1070
    40
1040
50.0
1070
   147
1040
1.0
1070
   271
1070
     0
1002
}
  0
DIMENSION
  5
9DAC
330
19
100
AcDbEntity
  8
SP
100
AcDbDimension
280
     0
  2
*D6
 10
17901.6940608491
 20
-6801.78333971036
 30
0.0
 11
16721.6940608491
 21
-6689.28333971036
 31
0.0
 12
11813.21153917894
 22
1054.706976052774
 32
0.0
 70
    32
 71
     5
 42
-1.0
 73
     0
 74
     0
 75
     0
  3
MATSU
100
AcDbAlignedDimension
 13
15541.6940608491
 23
-7122.906865134789
 33
0.0
 14
17901.6940608491
 24
-7122.906865134786
 34
0.0
100
AcDbRotatedDimension
1001
ACAD
1000
DSTYLE
1002
{
1070
   140
1040
2.5
1070
    40
1040
50.0
1070
   147
1040
1.0
1070
   271
1070
     0
1002
}
  0
DIMENSION
  5
9DB9
330
19
100
AcDbEntity
  8
SP
100
AcDbDimension
280
     0
  2
*D7
 10
12115.61185537672
 20
-6801.78333971036
 30
0.0
 11
12698.11185537672
 21
-6689.28333971036
 31
0.0
 12
11813.21153917894
 22
1054.706976052774
 32
0.0
 70
    32
 71
     5
 42
-1.0
 73
     0
 74
     0
 75
     0
  3
MATSU
100
AcDbAlignedDimension
 13
13280.61185537672
 23
-7057.906865134788
 33
0.0
 14
12115.61185537672
 24
-6992.807693742841
 34
0.0
100
AcDbRotatedDimension
1001
ACAD
1000
DSTYLE
1002
{
1070
   140
1040
2.5
1070
    40
1040
50.0
1070
   147
1040
1.0
1070
   271
1070
     0
1002
}
  0
DIMENSION
  5
9DC6
330
19
100
AcDbEntity
  8
SP
100
AcDbDimension
280
     0
  2
*D8
 10
10561.61185537672
 20
-6801.78333971036
 30
0.0
 11
11338.61185537672
 21
-6689.28333971036
 31
0.0
 12
11813.21153917894
 22
1054.706976052774
 32
0.0
 70
    32
 71
     5
 42
-1.0
 73
     0
 74
     0
 75
     0
  3
MATSU
100
AcDbAlignedDimension
 13
12115.61185537672
 23
-6992.807693742841
 33
0.0
 14
10561.61185537672
 24
-8916.906865134789
 34
0.0
100
AcDbRotatedDimension
1001
ACAD
1000
DSTYLE
1002
{
1070
   140
1040
2.5
1070
    40
1040
50.0
1070
   147
1040
1.0
1070
   271
1070
     0
1002
}
  0
DIMENSION
  5
9DD3
330
19
100
AcDbEntity
  8
SP
100
AcDbDimension
280
     0
  2
*D9
 10
12115.61185537672
 20
-10690.89450325237
 30
0.0
 11
10845.61185537672
 21
-10578.39450325237
 31
0.0
 12
11813.21153917894
 22
1054.706976052774
 32
0.0
 70
    32
 71
     5
 42
-1.0
 73
     0
 74
     0
 75
     0
  3
MATSU
100
AcDbAlignedDimension
 13
9575.611855376719
 23
-10377.90686513479
 33
0.0
 14
12115.61185537672
 24
-10377.90686513479
 34
0.0
100
AcDbRotatedDimension
1001
ACAD
1000
DSTYLE
1002
{
1070
   140
1040
2.5
1070
    40
1040
50.0
1070
   147
1040
1.0
1070
   271
1070
     0
1002
}
  0
DIMENSION
  5
9DE0
330
19
100
AcDbEntity
  8
SP
100
AcDbDimension
280
     0
  2
*D10
 10
13175.61185537672
 20
-10690.89450325237
 30
0.0
 11
12645.61185537672
 21
-10578.39450325237
 31
0.0
 12
11813.21153917894
 22
1054.706976052774
 32
0.0
 70
    32
 71
     5
 42
-1.0
 73
     0
 74
     0
 75
     0
  3
MATSU
100
AcDbAlignedDimension
 13
12115.61185537672
 23
-10377.90686513479
 33
0.0
 14
13175.61185537672
 24
-10377.90686513479
 34
0.0
100
AcDbRotatedDimension
1001
ACAD
1000
DSTYLE
1002
{
1070
   140
1040
2.5
1070
    40
1040
50.0
1070
   147
1040
1.0
1070
   271
1070
     0
1002
}
  0
DIMENSION
  5
9DFA
330
19
100
AcDbEntity
  8
SP
100
AcDbDimension
280
     0
  2
*D11
 10
16721.6940608491
 20
-10690.89450325237
 30
0.0
 11
15926.1940608491
 21
-10578.39450325237
 31
0.0
 12
11813.21153917894
 22
1054.706976052774
 32
0.0
 70
    32
 71
     5
 42
-1.0
 73
     0
 74
     0
 75
     0
  3
MATSU
100
AcDbAlignedDimension
 13
15130.6940608491
 23
-10377.90686513479
 33
0.0
 14
16721.6940608491
 24
-10377.90686513479
 34
0.0
100
AcDbRotatedDimension
1001
ACAD
1000
DSTYLE
1002
{
1070
   140
1040
2.5
1070
    40
1040
50.0
1070
   147
1040
1.0
1070
   271
1070
     0
1002
}
  0
DIMENSION
  5
9E07
330
19
100
AcDbEntity
  8
SP
100
AcDbDimension
280
     0
  2
*D12
 10
17980.6940608491
 20
-10690.89450325237
 30
0.0
 11
17351.1940608491
 21
-10578.39450325237
 31
0.0
 12
11813.21153917894
 22
1054.706976052774
 32
0.0
 70
    32
 71
     5
 42
-1.0
 73
     0
 74
     0
 75
     0
  3
MATSU
100
AcDbAlignedDimension
 13
16721.6940608491
 23
-10377.90686513479
 33
0.0
 14
17980.6940608491
 24
-10377.90686513479
 34
0.0
100
AcDbRotatedDimension
1001
ACAD
1000
DSTYLE
1002
{
1070
   140
1040
2.5
1070
    40
1040
50.0
1070
   147
1040
1.0
1070
   271
1070
     0
1002
}
  0
DIMENSION
  5
9E14
330
19
100
AcDbEntity
  8
SP
100
AcDbDimension
280
     0
  2
*D13
 10
17980.6940608491
 20
-11008.87215109569
 30
0.0
 11
16555.6940608491
 21
-10896.37215109569
 31
0.0
 12
11813.21153917894
 22
1054.706976052774
 32
0.0
 70
    32
 71
     5
 42
-1.0
 73
     0
 74
     0
 75
     0
  3
MATSU
100
AcDbAlignedDimension
 13
15130.6940608491
 23
-10377.90686513479
 33
0.0
 14
17980.6940608491
 24
-10377.90686513479
 34
0.0
100
AcDbRotatedDimension
1001
ACAD
1000
DSTYLE
1002
{
1070
   140
1040
2.5
1070
    40
1040
50.0
1070
   147
1040
1.0
1070
   271
1070
     0
1002
}
  0
DIMENSION
  5
9E21
330
19
100
AcDbEntity
  8
SP
100
AcDbDimension
280
     0
  2
*D14
 10
13661.19403015208
 20
-8976.906865134788
 30
0.0
 11
13548.69403015208
 21
-8051.906865134787
 31
0.0
 12
11813.21153917894
 22
1054.706976052774
 32
0.0
 70
    32
 71
     5
 42
-1.0
 73
     0
 74
     0
 75
     0
  3
MATSU
100
AcDbAlignedDimension
 13
13280.61185537672
 23
-7126.906865134788
 33
0.0
 14
13280.61185537672
 24
-8976.906865134788
 34
0.0
 50
90.0
100
AcDbRotatedDimension
1001
ACAD
1000
DSTYLE
1002
{
1070
   140
1040
2.5
1070
    40
1040
50.0
1070
   147
1040
1.0
1070
   271
1070
     0
1002
}
  0
DIMENSION
  5
9E2E
330
19
100
AcDbEntity
  8
SP
100
AcDbDimension
280
     0
  2
*D15
 10
14028.41889532072
 20
-9047.906865134789
 30
0.0
 11
13915.91889532072
 21
-8087.406865134788
 31
0.0
 12
11813.21153917894
 22
1054.706976052774
 32
0.0
 70
    32
 71
     5
 42
-1.0
 73
     0
 74
     0
 75
     0
  3
MATSU
100
AcDbAlignedDimension
 13
13330.61185537672
 23
-7126.906865134788
 33
0.0
 14
13426.05324940178
 24
-9047.906865134789
 34
0.0
 50
90.0
100
AcDbRotatedDimension
1001
ACAD
1000
DSTYLE
1002
{
1070
   140
1040
2.5
1070
    40
1040
50.0
1070
   147
1040
1.0
1070
   271
1070
     0
1002
}
  0
DIMENSION
  5
9E48
330
19
100
AcDbEntity
  8
SP
100
AcDbDimension
280
     0
  2
*D16
 10
14028.41889532072
 20
-10377.90686513479
 30
0.0
 11
13915.91889532072
 21
-9712.906865134788
 31
0.0
 12
11813.21153917894
 22
1054.706976052774
 32
0.0
 70
    32
 71
     5
 42
-1.0
 73
     0
 74
     0
 75
     0
  3
MATSU
100
AcDbAlignedDimension
 13
13426.05324940178
 23
-9047.906865134789
 33
0.0
 14
13175.61185537672
 24
-10377.90686513479
 34
0.0
 50
90.0
100
AcDbRotatedDimension
1001
ACAD
1000
DSTYLE
1002
{
1070
   140
1040
2.5
1070
    40
1040
50.0
1070
   147
1040
1.0
1070
   271
1070
     0
1002
}
  0
DIMENSION
  5
9E55
330
19
100
AcDbEntity
  8
SP
100
AcDbDimension
280
     0
  2
*D17
 10
13175.61185537672
 20
-11008.87215109569
 30
0.0
 11
11375.61185537672
 21
-10896.37215109569
 31
0.0
 12
11813.21153917894
 22
1054.706976052774
 32
0.0
 70
    32
 71
     5
 42
-1.0
 73
     0
 74
     0
 75
     0
  3
MATSU
100
AcDbAlignedDimension
 13
9575.611855376719
 23
-10377.90686513479
 33
0.0
 14
13175.61185537672
 24
-10377.90686513479
 34
0.0
100
AcDbRotatedDimension
1001
ACAD
1000
DSTYLE
1002
{
1070
   140
1040
2.5
1070
    40
1040
50.0
1070
   147
1040
1.0
1070
   271
1070
     0
1002
}
  0
DIMENSION
  5
9E87
330
19
100
AcDbEntity
  8
SP
100
AcDbDimension
280
     0
  2
*D18
 10
18171.6940608491
 20
-6449.532667477106
 30
0.0
 11
17446.6940608491
 21
-6304.294572239011
 31
0.0
 70
    32
 71
     5
 42
1450.0
 73
     0
 74
     0
 75
     0
  3
MATSU
100
AcDbAlignedDimension
 13
16721.6940608491
 23
-6526.67077492578
 33
0.0
 14
18171.6940608491
 24
-9127.906865134788
 34
0.0
100
AcDbRotatedDimension
1001
ACAD
1000
DSTYLE
1002
{
1070
   140
1040
2.5
1070
    40
1040
50.0
1070
     3
1000
(<>)
1070
   147
1040
1.0
1070
   271
1070
     0
1002
}
  0
DIMENSION
  5
9E94
330
19
100
AcDbEntity
  8
SP
100
AcDbDimension
280
     0
  2
*D19
 10
14921.6940608491
 20
-6449.532667477106
 30
0.0
 11
15821.6940608491
 21
-6304.294572239011
 31
0.0
 70
    32
 71
     5
 42
1800.0
 73
     0
 74
     0
 75
     0
  3
MATSU
100
AcDbAlignedDimension
 13
16721.6940608491
 23
-6526.67077492578
 33
0.0
 14
14921.6940608491
 24
-8567.906865134791
 34
0.0
100
AcDbRotatedDimension
1001
ACAD
1000
DSTYLE
1002
{
1070
   140
1040
2.5
1070
    40
1040
50.0
1070
     3
1000
(<>)
1070
   147
1040
1.0
1070
   271
1070
     0
1002
}
  0
LINE
  5
A0E7
330
19
100
AcDbEntity
  8
4
100
AcDbLine
 10
17961.16669783403
 20
-12040.48813421171
 30
0.0
 11
17961.16669783403
 21
-13140.48813421171
 31
0.0
  0
LINE
  5
A0E8
330
19
100
AcDbEntity
  8
4
100
AcDbLine
 10
14111.16669783403
 20
-12040.48813421171
 30
0.0
 11
14111.16669783403
 21
-13140.48813421171
 31
0.0
  0
LINE
  5
A0E9
330
19
100
AcDbEntity
  8
4
100
AcDbLine
 10
11361.16669783403
 20
-12040.48813421171
 30
0.0
 11
11361.16669783403
 21
-13140.48813421171
 31
0.0
  0
LINE
  5
A0EC
330
19
100
AcDbEntity
  8
4
100
AcDbLine
 10
11361.16669783403
 20
-13140.48813421171
 30
0.0
 11
17961.16669783403
 21
-13140.48813421171
 31
0.0
  0
LINE
  5
A0ED
330
19
100
AcDbEntity
  8
4
100
AcDbLine
 10
11361.16669783403
 20
-12590.48813421171
 30
0.0
 11
17961.16669783403
 21
-12590.48813421171
 31
0.0
  0
TEXT
  5
A0EE
330
19
100
AcDbEntity
  8
4
100
AcDbText
 10
11572.92814249199
 20
-12417.00149194534
 30
0.0
 40
275.0
  1
機器名称
100
AcDbText
  0
TEXT
  5
A0EF
330
19
100
AcDbEntity
  8
4
100
AcDbText
 10
11560.58628097042
 20
-13021.43977218565
 30
0.0
 40
275.0
  1
機器型番
100
AcDbText
  0
TEXT
  5
A0F0
330
19
100
AcDbEntity
  8
4
100
AcDbText
 10
14274.28609399308
 20
-12457.34307415221
 30
0.0
 40
233.75
  1
ミツヤリミットロ－ドファン
100
AcDbText
  0
TEXT
  5
A0F1
330
19
100
AcDbEntity
  8
4
100
AcDbText
 10
14312.76642355418
 20
-13046.11042067202
 30
0.0
 40
275.0
  1
LL#11-5
100
AcDbText
  0
TEXT
  5
A0F3
330
19
100
AcDbEntity
  8
4
100
AcDbText
 10
12185.97715136576
 20
-1128.56058470239
 30
0.0
 40
297.0
  1
床置ベット
100
AcDbText
  0
TEXT
  5
A0F4
330
19
100
AcDbEntity
  8
4
100
AcDbText
 10
9429.003240898744
 20
-301.0738429350895
 30
0.0
 40
396.0000000000001
  1
遠心式両吸込両持リミットロ－ドファン
100
AcDbText
  0
LINE
  5
A0F5
330
19
100
AcDbEntity
  8
4
100
AcDbLine
 10
9161.166697834037
 20
-655.6710635748004
 30
0.0
 11
17961.16669783403
 21
-655.6710635748004
 31
0.0
  0
LINE
  5
A0F6
330
19
100
AcDbEntity
  8
4
100
AcDbLine
 10
9161.166697834037
 20
444.3289364251995
 30
0.0
 11
17961.16669783403
 21
444.3289364251995
 31
0.0
  0
LINE
  5
A0F7
330
19
100
AcDbEntity
  8
4
100
AcDbLine
 10
11361.16669783403
 20
-12040.48813421171
 30
0.0
 11
17961.16669783403
 21
-12040.48813421171
 31
0.0
  0
LINE
  5
A0F8
330
19
100
AcDbEntity
  8
4
100
AcDbLine
 10
9161.166697834037
 20
444.3289364251995
 30
0.0
 11
9161.166697834037
 21
-655.6710635748004
 31
0.0
  0
TEXT
  5
A0F9
330
19
100
AcDbEntity
  8
4
100
AcDbText
 10
9788.753574030897
 20
-1134.662085526339
 30
0.0
 40
297.0
  1
右回転右横向
100
AcDbText
  0
TEXT
  5
A0FA
330
19
100
AcDbEntity
  8
4
100
AcDbText
 10
15865.49927370513
 20
645.9167361929703
 30
0.0
 40
308.0
  1
No.
100
AcDbText
  0
TEXT
  5
A0FB
330
19
100
AcDbEntity
  8
4
100
AcDbText
 10
14998.29504213411
 20
-1128.56058470239
 30
0.0
 40
297.0
  1
縮尺：1/55
100
AcDbText
  0
LINE
  5
A0FC
330
19
100
AcDbEntity
  8
4
100
AcDbLine
 10
17961.16669783403
 20
444.3289364251995
 30
0.0
 11
17961.16669783403
 21
-655.6710635748004
 31
0.0
  0
LINE
  5
A0FD
330
19
100
AcDbEntity
  8
4
100
AcDbLine
 10
19336.16669783403
 20
1987.580787968773
 30
0.0
 11
19336.16669783403
 21
1987.580787968773
 31
0.0
  0
LINE
  5
A0FE
330
19
100
AcDbEntity
  8
4
100
AcDbLine
 10
15709.56252081329
 20
509.5304951584785
 30
0.0
 11
15709.56252081329
 21
1089.168226492411
 31
0.0
  0
LINE
  5
A0FF
330
19
100
AcDbEntity
  8
4
100
AcDbLine
 10
15709.56252081329
 20
1089.168226492411
 30
0.0
 11
17961.16669783403
 21
1089.168226492411
 31
0.0
  0
LINE
  5
A100
330
19
100
AcDbEntity
  8
4
100
AcDbLine
 10
17961.16669783403
 20
1089.168226492411
 30
0.0
 11
17961.16669783403
 21
509.5304951584785
 31
0.0
  0
LINE
  5
A101
330
19
100
AcDbEntity
  8
4
100
AcDbLine
 10
17961.16669783403
 20
509.5304951584785
 30
0.0
 11
15709.56252081329
 21
509.5304951584785
 31
0.0
  0
LINE
  5
A102
330
19
100
AcDbEntity
  8
4
100
AcDbLine
 10
7786.166697834037
 20
-14237.41921203123
 30
0.0
 11
7786.166697834037
 21
1987.580787968773
 31
0.0
  0
LINE
  5
A103
330
19
100
AcDbEntity
  8
4
100
AcDbLine
 10
7786.166697834037
 20
1987.580787968773
 30
0.0
 11
19336.16669783403
 21
1987.580787968773
 31
0.0
  0
LINE
  5
A104
330
19
100
AcDbEntity
  8
4
100
AcDbLine
 10
19336.16669783403
 20
1987.580787968773
 30
0.0
 11
19336.16669783403
 21
-14237.41921203123
 31
0.0
  0
LINE
  5
A105
330
19
100
AcDbEntity
  8
4
100
AcDbLine
 10
19336.16669783403
 20
-14237.41921203123
 30
0.0
 11
7786.166697834037
 21
-14237.41921203123
 31
0.0
  0
ENDSEC
  0
SECTION
  2
OBJECTS
  0
DICTIONARY
  5
C
330
0
100
AcDbDictionary
281
     1
  3
ACAD_CIP_PREVIOUS_PRODUCT_INFO
350
A33E
  3
ACAD_COLOR
350
A320
  3
ACAD_DETAILVIEWSTYLE
350
A339
  3
ACAD_GROUP
350
D
  3
ACAD_LAYOUT
350
A2E4
  3
ACAD_MATERIAL
350
A2EE
  3
ACAD_MLEADERSTYLE
350
A335
  3
ACAD_MLINESTYLE
350
E
  3
ACAD_PLOTSETTINGS
350
A2E5
  3
ACAD_PLOTSTYLENAME
350
A2E2
  3
ACAD_SCALELIST
350
A323
  3
ACAD_SECTIONVIEWSTYLE
350
A337
  3
ACAD_TABLESTYLE
350
A321
  3
ACAD_VISUALSTYLE
350
A307
  3
ACDB_RECOMPOSE_DATA
350
A37E
  3
AcDbVariableDictionary
350
A36C
  3
AcDsDecomposeData
350
A384
  0
DICTIONARY
  5
A360
330
2
100
AcDbDictionary
280
     1
281
     1
  3
ACAD_LAYERSTATES
360
A361
  0
DICTIONARY
  5
A351
330
F
100
AcDbDictionary
280
     1
281
     1
  3
ADSK_XREC_LAYER_RECONCILED
360
A352
  0
DICTIONARY
  5
A353
330
2F
100
AcDbDictionary
280
     1
281
     1
  3
ADSK_XREC_LAYER_RECONCILED
360
A354
  0
DICTIONARY
  5
A355
330
30
100
AcDbDictionary
280
     1
281
     1
  3
ADSK_XREC_LAYER_RECONCILED
360
A356
  0
DICTIONARY
  5
A357
330
35
100
AcDbDictionary
280
     1
281
     1
  3
ADSK_XREC_LAYER_RECONCILED
360
A358
  0
DICTIONARY
  5
A359
330
36
100
AcDbDictionary
280
     1
281
     1
  3
ADSK_XREC_LAYER_RECONCILED
360
A35A
  0
DICTIONARY
  5
A35B
330
99F1
100
AcDbDictionary
280
     1
281
     1
  3
ADSK_XREC_LAYER_RECONCILED
360
A35C
  0
XRECORD
  5
A33E
102
{ACAD_REACTORS
330
C
102
}
330
C
100
AcDbXrecord
280
     1
300
ACDLT
300
2023
300

  0
DICTIONARY
  5
A320
102
{ACAD_REACTORS
330
C
102
}
330
C
100
AcDbDictionary
281
     1
  0
DICTIONARY
  5
A339
102
{ACAD_REACTORS
330
C
102
}
330
C
100
AcDbDictionary
281
     1
  3
Metric50
350
A33A
  0
DICTIONARY
  5
D
102
{ACAD_REACTORS
330
C
102
}
330
C
100
AcDbDictionary
281
     1
  0
DICTIONARY
  5
A2E4
102
{ACAD_REACTORS
330
C
102
}
330
C
100
AcDbDictionary
281
     1
  3
Model
350
A2E6
  3
ﾚｲｱｳﾄ1
350
A2E7
  0
DICTIONARY
  5
A2EE
102
{ACAD_REACTORS
330
C
102
}
330
C
100
AcDbDictionary
281
     1
  3
ByBlock
350
A2F7
  3
ByLayer
350
A2EF
  3
Global
350
A2FF
  0
DICTIONARY
  5
A335
102
{ACAD_REACTORS
330
C
102
}
330
C
100
AcDbDictionary
281
     1
  3
Standard
350
A336
  0
DICTIONARY
  5
E
102
{ACAD_REACTORS
330
C
102
}
330
C
100
AcDbDictionary
281
     1
  3
STANDARD
350
1C
  0
DICTIONARY
  5
A2E5
102
{ACAD_REACTORS
330
C
102
}
330
C
100
AcDbDictionary
281
     1
  0
ACDBDICTIONARYWDFLT
  5
A2E2
102
{ACAD_REACTORS
330
C
102
}
330
C
100
AcDbDictionary
281
     1
  3
Normal
350
A2E3
100
AcDbDictionaryWithDefault
340
A2E3
  0
DICTIONARY
  5
A323
102
{ACAD_REACTORS
330
C
102
}
330
C
100
AcDbDictionary
281
     1
  3
A0
350
A324
  3
A1
350
A325
  3
A2
350
A326
  3
A3
350
A327
  3
A4
350
A328
  3
A5
350
A329
  3
A6
350
A32A
  3
A7
350
A32B
  3
A8
350
A32C
  3
A9
350
A32D
  3
B0
350
A32E
  3
B1
350
A32F
  3
B2
350
A330
  3
B3
350
A331
  3
B4
350
A332
  3
B5
350
A333
  3
B6
350
A334
  0
DICTIONARY
  5
A337
102
{ACAD_REACTORS
330
C
102
}
330
C
100
AcDbDictionary
281
     1
  3
Metric50
350
A338
  0
DICTIONARY
  5
A321
102
{ACAD_REACTORS
330
C
102
}
330
C
100
AcDbDictionary
281
     1
  3
Standard
350
A322
  0
DICTIONARY
  5
A307
102
{ACAD_REACTORS
330
C
102
}
330
C
100
AcDbDictionary
281
     1
  3
2dWireframe
350
A30D
  3
Basic
350
A30C
  3
Brighten
350
A313
  3
ColorChange
350
A317
  3
Conceptual
350
A310
  3
Dim
350
A312
  3
EdgeColorOff
350
A31F
  3
Facepattern
350
A316
  3
Flat
350
A308
  3
FlatWithEdges
350
A309
  3
Gouraud
350
A30A
  3
GouraudWithEdges
350
A30B
  3
Hidden
350
A30F
  3
JitterOff
350
A31D
  3
Linepattern
350
A315
  3
OverhangOff
350
A31E
  3
Realistic
350
A311
  3
Shaded
350
A31C
  3
Shaded with edges
350
A31B
  3
Shades of Gray
350
A318
  3
Sketchy
350
A319
  3
Thicken
350
A314
  3
Wireframe
350
A30E
  3
X-Ray
350
A31A
  0
XRECORD
  5
A37E
102
{ACAD_REACTORS
330
C
102
}
330
C
100
AcDbXrecord
280
     1
 90
        1
330
A322
  0
DICTIONARY
  5
A36C
102
{ACAD_REACTORS
330
C
102
}
330
C
100
AcDbDictionary
281
     1
  3
CANNOSCALE
350
A372
  3
CMLEADERSTYLE
350
A36E
  3
CTABLESTYLE
350
A36D
  3
CVIEWDETAILSTYLE
350
A36F
  3
CVIEWSECTIONSTYLE
350
A370
  3
LAYEREVAL
350
A374
  3
LAYERNOTIFY
350
A375
  3
LIGHTINGUNITS
350
A373
  3
MARKUPASSISTMODE
350
A37B
  3
MSLTSCALE
350
A371
  0
DICTIONARY
  5
A384
102
{ACAD_REACTORS
330
C
102
}
330
C
100
AcDbDictionary
281
     1
  3
AcDsRecords
350
A386
  3
AcDsSchemas
350
A385
1001
ACAD
1070
     2
  0
DICTIONARY
  5
A361
102
{ACAD_REACTORS
330
A360
102
}
330
A360
100
AcDbDictionary
281
     1
  0
XRECORD
  5
A352
102
{ACAD_REACTORS
330
A351
102
}
330
A351
100
AcDbXrecord
280
     1
290
     1
  0
XRECORD
  5
A354
102
{ACAD_REACTORS
330
A353
102
}
330
A353
100
AcDbXrecord
280
     1
290
     1
  0
XRECORD
  5
A356
102
{ACAD_REACTORS
330
A355
102
}
330
A355
100
AcDbXrecord
280
     1
290
     1
  0
XRECORD
  5
A358
102
{ACAD_REACTORS
330
A357
102
}
330
A357
100
AcDbXrecord
280
     1
290
     1
  0
XRECORD
  5
A35A
102
{ACAD_REACTORS
330
A359
102
}
330
A359
100
AcDbXrecord
280
     1
290
     1
  0
XRECORD
  5
A35C
102
{ACAD_REACTORS
330
A35B
102
}
330
A35B
100
AcDbXrecord
280
     1
290
     1
  0
ACDBDETAILVIEWSTYLE
  5
A33A
102
{ACAD_XDICTIONARY
360
A389
102
}
102
{ACAD_REACTORS
330
A339
102
}
330
A339
100
AcDbModelDocViewStyle
 70
     0
  3
Metric50
290
     0
100
AcDbDetailViewStyle
 70
     0
 71
     0
 90
        3
 71
     1
340
10
 62
   256
 40
5.0
340
0
 62
   256
 40
5.0
300

 40
0.0
280
     1
 71
     2
340
15
 90
       25
 62
   256
 71
     3
340
10
 62
   256
 40
5.0
 90
        0
 40
15.0
 90
        1
300
%<\AcVar ViewDetailId>% (%<\AcVar ViewScale \f "%sn">%)
 71
     4
340
15
 90
       25
 62
   256
340
15
 90
       25
 62
   256
280
     0
  0
LAYOUT
  5
A2E6
102
{ACAD_REACTORS
330
A2E4
102
}
330
A2E4
100
AcDbPlotSettings
  1

  2
EPSON LP-9300
  4

  6

 40
0.0
 41
0.0
 42
0.0
 43
0.0
 44
0.0
 45
0.0
 46
0.0
 47
0.0
 48
0.0
 49
0.0
140
0.0
141
0.0
142
1.0
143
1.0
 70
  1712
 72
     0
 73
     0
 74
     0
  7

 75
     0
147
1.0
 76
     0
 77
     2
 78
   300
148
0.0
149
0.0
100
AcDbLayout
  1
Model
 70
     1
 71
     0
 10
0.0
 20
0.0
 11
12.0
 21
9.0
 12
0.0
 22
0.0
 32
0.0
 14
0.0
 24
0.0
 34
0.0
 15
0.0
 25
0.0
 35
0.0
146
0.0
 13
0.0
 23
0.0
 33
0.0
 16
1.0
 26
0.0
 36
0.0
 17
0.0
 27
1.0
 37
0.0
 76
     0
330
19
331
A2EC
  0
LAYOUT
  5
A2E7
102
{ACAD_REACTORS
330
A2E4
102
}
330
A2E4
100
AcDbPlotSettings
  1

  2
EPSON LP-9300
  4

  6

 40
0.0
 41
0.0
 42
0.0
 43
0.0
 44
0.0
 45
0.0
 46
0.0
 47
0.0
 48
0.0
 49
0.0
140
0.0
141
0.0
142
1.0
143
1.0
 70
   688
 72
     0
 73
     0
 74
     5
  7

 75
    16
147
1.0
 76
     0
 77
     2
 78
   300
148
0.0
149
0.0
100
AcDbLayout
  1
ﾚｲｱｳﾄ1
 70
     0
 71
     1
 10
0.0
 20
0.0
 11
12.0
 21
9.0
 12
0.0
 22
0.0
 32
0.0
 14
1.000000000000000E+20
 24
1.000000000000000E+20
 34
1.000000000000000E+20
 15
-1.000000000000000E+20
 25
-1.000000000000000E+20
 35
-1.000000000000000E+20
146
0.0
 13
0.0
 23
0.0
 33
0.0
 16
1.0
 26
0.0
 36
0.0
 17
0.0
 27
1.0
 37
0.0
 76
     0
330
16
  0
MATERIAL
  5
A2F7
102
{ACAD_XDICTIONARY
360
A2F8
102
}
102
{ACAD_REACTORS
330
A2EE
102
}
330
A2EE
100
AcDbMaterial
  1
ByBlock
 72
     0
 43
0.0208333333333333
 43
0.0
 43
0.0
 43
0.0
 43
0.0
 43
0.0208333333333333
 43
0.0
 43
0.0
 43
0.0
 43
0.0
 43
1.0
 43
0.0
 43
0.0
 43
0.0
 43
0.0
 43
1.0
 77
     0
 47
0.0208333333333333
 47
0.0
 47
0.0
 47
0.0
 47
0.0
 47
0.0208333333333333
 47
0.0
 47
0.0
 47
0.0
 47
0.0
 47
1.0
 47
0.0
 47
0.0
 47
0.0
 47
0.0
 47
1.0
171
     0
 49
0.0208333333333333
 49
0.0
 49
0.0
 49
0.0
 49
0.0
 49
0.0208333333333333
 49
0.0
 49
0.0
 49
0.0
 49
0.0
 49
1.0
 49
0.0
 49
0.0
 49
0.0
 49
0.0
 49
1.0
175
     0
142
0.0208333333333333
142
0.0
142
0.0
142
0.0
142
0.0
142
0.0208333333333333
142
0.0
142
0.0
142
0.0
142
0.0
142
1.0
142
0.0
142
0.0
142
0.0
142
0.0
142
1.0
179
     0
144
0.0208333333333333
144
0.0
144
0.0
144
0.0
144
0.0
144
0.0208333333333333
144
0.0
144
0.0
144
0.0
144
0.0
144
1.0
144
0.0
144
0.0
144
0.0
144
0.0
144
1.0
147
0.0208333333333333
147
0.0
147
0.0
147
0.0
147
0.0
147
0.0208333333333333
147
0.0
147
0.0
147
0.0
147
0.0
147
1.0
147
0.0
147
0.0
147
0.0
147
0.0
147
1.0
  0
MATERIAL
  5
A2EF
102
{ACAD_XDICTIONARY
360
A2F0
102
}
102
{ACAD_REACTORS
330
A2EE
102
}
330
A2EE
100
AcDbMaterial
  1
ByLayer
 72
     0
 43
0.0208333333333333
 43
0.0
 43
0.0
 43
0.0
 43
0.0
 43
0.0208333333333333
 43
0.0
 43
0.0
 43
0.0
 43
0.0
 43
1.0
 43
0.0
 43
0.0
 43
0.0
 43
0.0
 43
1.0
 77
     0
 47
0.0208333333333333
 47
0.0
 47
0.0
 47
0.0
 47
0.0
 47
0.0208333333333333
 47
0.0
 47
0.0
 47
0.0
 47
0.0
 47
1.0
 47
0.0
 47
0.0
 47
0.0
 47
0.0
 47
1.0
171
     0
 49
0.0208333333333333
 49
0.0
 49
0.0
 49
0.0
 49
0.0
 49
0.0208333333333333
 49
0.0
 49
0.0
 49
0.0
 49
0.0
 49
1.0
 49
0.0
 49
0.0
 49
0.0
 49
0.0
 49
1.0
175
     0
142
0.0208333333333333
142
0.0
142
0.0
142
0.0
142
0.0
142
0.0208333333333333
142
0.0
142
0.0
142
0.0
142
0.0
142
1.0
142
0.0
142
0.0
142
0.0
142
0.0
142
1.0
179
     0
144
0.0208333333333333
144
0.0
144
0.0
144
0.0
144
0.0
144
0.0208333333333333
144
0.0
144
0.0
144
0.0
144
0.0
144
1.0
144
0.0
144
0.0
144
0.0
144
0.0
144
1.0
147
0.0208333333333333
147
0.0
147
0.0
147
0.0
147
0.0
147
0.0208333333333333
147
0.0
147
0.0
147
0.0
147
0.0
147
1.0
147
0.0
147
0.0
147
0.0
147
0.0
147
1.0
  0
MATERIAL
  5
A2FF
102
{ACAD_XDICTIONARY
360
A300
102
}
102
{ACAD_REACTORS
330
A2EE
102
}
330
A2EE
100
AcDbMaterial
  1
Global
 72
     0
 43
0.0208333333333333
 43
0.0
 43
0.0
 43
0.0
 43
0.0
 43
0.0208333333333333
 43
0.0
 43
0.0
 43
0.0
 43
0.0
 43
1.0
 43
0.0
 43
0.0
 43
0.0
 43
0.0
 43
1.0
 77
     0
 47
0.0208333333333333
 47
0.0
 47
0.0
 47
0.0
 47
0.0
 47
0.0208333333333333
 47
0.0
 47
0.0
 47
0.0
 47
0.0
 47
1.0
 47
0.0
 47
0.0
 47
0.0
 47
0.0
 47
1.0
171
     0
 49
0.0208333333333333
 49
0.0
 49
0.0
 49
0.0
 49
0.0
 49
0.0208333333333333
 49
0.0
 49
0.0
 49
0.0
 49
0.0
 49
1.0
 49
0.0
 49
0.0
 49
0.0
 49
0.0
 49
1.0
175
     0
142
0.0208333333333333
142
0.0
142
0.0
142
0.0
142
0.0
142
0.0208333333333333
142
0.0
142
0.0
142
0.0
142
0.0
142
1.0
142
0.0
142
0.0
142
0.0
142
0.0
142
1.0
179
     0
144
0.0208333333333333
144
0.0
144
0.0
144
0.0
144
0.0
144
0.0208333333333333
144
0.0
144
0.0
144
0.0
144
0.0
144
1.0
144
0.0
144
0.0
144
0.0
144
0.0
144
1.0
147
0.0208333333333333
147
0.0
147
0.0
147
0.0
147
0.0
147
0.0208333333333333
147
0.0
147
0.0
147
0.0
147
0.0
147
1.0
147
0.0
147
0.0
147
0.0
147
0.0
147
1.0
  0
MLEADERSTYLE
  5
A336
102
{ACAD_REACTORS
330
A335
102
}
330
A335
100
AcDbMLeaderStyle
179
     2
170
     2
171
     1
172
     0
 90
        2
 40
0.0
 41
0.0
173
     1
 91
-1056964608
340
13
 92
       -2
290
     1
 42
2.0
291
     1
 43
0.36
  3
Standard
 44
4.0
300

342
10
174
     1
178
     6
175
     1
176
     0
 93
-1056964608
 45
4.0
292
     0
297
     0
 46
4.0
 94
-1056964608
 47
1.0
 49
1.0
140
1.0
293
     1
141
0.0
294
     1
177
     0
142
1.0
295
     0
296
     0
143
0.125
271
     0
272
     9
273
     9
298
     1
  0
MLINESTYLE
  5
1C
102
{ACAD_REACTORS
330
E
102
}
330
E
100
AcDbMlineStyle
  2
STANDARD
 70
     0
  3

 62
     0
 51
90.0
 52
90.0
 71
     2
 49
0.5
 62
   256
  6
BYLAYER
 49
-0.5
 62
   256
  6
BYLAYER
  0
ACDBPLACEHOLDER
  5
A2E3
102
{ACAD_REACTORS
330
A2E2
102
}
330
A2E2
  0
SCALE
  5
A324
102
{ACAD_REACTORS
330
A323
102
}
330
A323
100
AcDbScale
 70
     0
300
1:1
140
1.0
141
1.0
290
     1
  0
SCALE
  5
A325
102
{ACAD_REACTORS
330
A323
102
}
330
A323
100
AcDbScale
 70
     0
300
1:2
140
1.0
141
2.0
290
     0
  0
SCALE
  5
A326
102
{ACAD_REACTORS
330
A323
102
}
330
A323
100
AcDbScale
 70
     0
300
1:4
140
1.0
141
4.0
290
     0
  0
SCALE
  5
A327
102
{ACAD_REACTORS
330
A323
102
}
330
A323
100
AcDbScale
 70
     0
300
1:5
140
1.0
141
5.0
290
     0
  0
SCALE
  5
A328
102
{ACAD_REACTORS
330
A323
102
}
330
A323
100
AcDbScale
 70
     0
300
1:8
140
1.0
141
8.0
290
     0
  0
SCALE
  5
A329
102
{ACAD_REACTORS
330
A323
102
}
330
A323
100
AcDbScale
 70
     0
300
1:10
140
1.0
141
10.0
290
     0
  0
SCALE
  5
A32A
102
{ACAD_REACTORS
330
A323
102
}
330
A323
100
AcDbScale
 70
     0
300
1:16
140
1.0
141
16.0
290
     0
  0
SCALE
  5
A32B
102
{ACAD_REACTORS
330
A323
102
}
330
A323
100
AcDbScale
 70
     0
300
1:20
140
1.0
141
20.0
290
     0
  0
SCALE
  5
A32C
102
{ACAD_REACTORS
330
A323
102
}
330
A323
100
AcDbScale
 70
     0
300
1:30
140
1.0
141
30.0
290
     0
  0
SCALE
  5
A32D
102
{ACAD_REACTORS
330
A323
102
}
330
A323
100
AcDbScale
 70
     0
300
1:40
140
1.0
141
40.0
290
     0
  0
SCALE
  5
A32E
102
{ACAD_REACTORS
330
A323
102
}
330
A323
100
AcDbScale
 70
     0
300
1:50
140
1.0
141
50.0
290
     0
  0
SCALE
  5
A32F
102
{ACAD_REACTORS
330
A323
102
}
330
A323
100
AcDbScale
 70
     0
300
1:100
140
1.0
141
100.0
290
     0
  0
SCALE
  5
A330
102
{ACAD_REACTORS
330
A323
102
}
330
A323
100
AcDbScale
 70
     0
300
2:1
140
2.0
141
1.0
290
     0
  0
SCALE
  5
A331
102
{ACAD_REACTORS
330
A323
102
}
330
A323
100
AcDbScale
 70
     0
300
4:1
140
4.0
141
1.0
290
     0
  0
SCALE
  5
A332
102
{ACAD_REACTORS
330
A323
102
}
330
A323
100
AcDbScale
 70
     0
300
8:1
140
8.0
141
1.0
290
     0
  0
SCALE
  5
A333
102
{ACAD_REACTORS
330
A323
102
}
330
A323
100
AcDbScale
 70
     0
300
10:1
140
10.0
141
1.0
290
     0
  0
SCALE
  5
A334
102
{ACAD_REACTORS
330
A323
102
}
330
A323
100
AcDbScale
 70
     0
300
100:1
140
100.0
141
1.0
290
     0
  0
ACDBSECTIONVIEWSTYLE
  5
A338
102
{ACAD_XDICTIONARY
360
A387
102
}
102
{ACAD_REACTORS
330
A337
102
}
330
A337
100
AcDbModelDocViewStyle
 70
     0
  3
Metric50
290
     0
100
AcDbSectionViewStyle
 70
     0
 71
     0
 90
      102
 71
     1
340
10
 62
   256
 40
5.0
340
0
340
0
 62
   256
 40
5.0
300
I, O, Q, S, X, Z
 40
10.0
 90
        0
 40
2.5
 90
        0
 71
     2
340
15
 90
       25
 62
   256
340
15
 90
       50
 62
   256
 40
5.0
 40
2.5
 40
5.0
 71
     3
340
10
 62
   256
 40
5.0
 90
        0
 40
15.0
 90
        1
300
%<\AcVar ViewSectionStartId>%-%<\AcVar ViewSectionEndId>% (%<\AcVar ViewScale \f "%sn">%)
 71
     4
 62
   256
 62
   257
300
ANSI31
 40
1.0
 90
        0
290
     0
290
     0
 90
        6
 40
0.0
 40
1.570796326794896
 40
0.2617993877991494
 40
1.308996938995747
 40
-0.2617993877991494
 40
1.832595714594046
  0
TABLESTYLE
  5
A322
102
{ACAD_XDICTIONARY
360
A37C
102
}
102
{ACAD_REACTORS
330
A321
102
}
330
A321
100
AcDbTableStyle
280
     0
  3
Standard
 70
     0
 71
     0
 40
1.5
 41
1.5
280
     0
281
     0
  7
STANDARD
140
4.5
170
     2
 62
     0
 63
     7
283
     0
 90
      512
 91
        0
  1

274
    -2
284
     1
 64
     0
275
    -2
285
     1
 65
     0
276
    -2
286
     1
 66
     0
277
    -2
287
     1
 67
     0
278
    -2
288
     1
 68
     0
279
    -2
289
     1
 69
     0
  7
STANDARD
140
6.0
170
     5
 62
     0
 63
     7
283
     0
 90
      512
 91
        0
  1

274
    -2
284
     1
 64
     0
275
    -2
285
     1
 65
     0
276
    -2
286
     1
 66
     0
277
    -2
287
     1
 67
     0
278
    -2
288
     1
 68
     0
279
    -2
289
     1
 69
     0
  7
STANDARD
140
4.5
170
     5
 62
     0
 63
     7
283
     0
 90
      512
 91
        0
  1

274
    -2
284
     1
 64
     0
275
    -2
285
     1
 65
     0
276
    -2
286
     1
 66
     0
277
    -2
287
     1
 67
     0
278
    -2
288
     1
 68
     0
279
    -2
289
     1
 69
     0
  0
VISUALSTYLE
  5
A30D
102
{ACAD_REACTORS
330
A307
102
}
330
A307
100
AcDbVisualStyle
  2
2dWireframe
 70
     4
177
     3
291
     0
 70
    58
 90
        0
176
     1
 90
        2
176
     1
 90
        0
176
     1
 90
        0
176
     1
 40
0.6
176
     1
 40
30.0
176
     1
 62
     7
420
 16777215
176
     1
 90
        1
176
     1
 90
        4
176
     1
 62
     7
176
     1
 62
   257
176
     1
 90
        1
176
     1
 90
        1
176
     1
 40
1.0
176
     1
 90
        0
176
     1
 62
   257
176
     1
 40
1.0
176
     1
 90
        1
176
     1
 90
        6
176
     1
 90
        2
176
     1
 62
     7
176
     1
 90
        5
176
     1
 90
        0
176
     1
 90
        0
176
     1
290
     0
176
     1
 90
        1
176
     1
 40
0.0
176
     1
 90
        0
176
     1
290
     1
176
     1
290
     1
176
     1
290
     0
176
     1
290
     0
176
     1
290
     0
176
     1
290
     0
176
     1
290
     0
176
     1
290
     0
176
     1
290
     0
176
     1
 90
       50
176
     1
 40
0.0
176
     1
 40
1.0
176
     1
 90
        0
176
     1
 62
    18
420
        0
176
     1
 90
       50
176
     1
 90
        3
176
     1
 62
     5
420
      255
176
     1
290
     0
176
     1
 90
       50
176
     1
 90
       50
176
     1
 90
       50
176
     1
290
     0
176
     1
 90
       50
176
     1
 62
   256
176
     0
 40
1.0
176
     0
 90
        2
176
     1
  1
strokes_ogs.tif
176
     1
290
     0
176
     1
 40
1.0
176
     1
 40
1.0
176
     1
1001
ACAD
1000
AcDbSavedByObjectVersion
1070
     0
  0
VISUALSTYLE
  5
A30C
102
{ACAD_REACTORS
330
A307
102
}
330
A307
100
AcDbVisualStyle
  2
Basic
 70
     7
177
     3
291
     1
 70
    58
 90
        1
176
     1
 90
        0
176
     1
 90
        1
176
     1
 90
        0
176
     1
 40
0.6
176
     1
 40
30.0
176
     1
 62
     7
420
 16777215
176
     1
 90
        0
176
     1
 90
        4
176
     1
 62
     7
176
     1
 62
   257
176
     1
 90
        1
176
     1
 90
        1
176
     1
 40
1.0
176
     1
 90
        8
176
     1
 62
     7
176
     1
 40
1.0
176
     1
 90
        1
176
     1
 90
        6
176
     1
 90
        2
176
     1
 62
     7
176
     1
 90
        5
176
     1
 90
        0
176
     1
 90
        0
176
     1
290
     0
176
     1
 90
        1
176
     1
 40
0.0
176
     1
 90
        0
176
     1
290
     0
176
     1
290
     1
176
     1
290
     1
176
     1
290
     0
176
     1
290
     0
176
     1
290
     0
176
     1
290
     0
176
     1
290
     0
176
     1
290
     0
176
     1
 90
       50
176
     1
 40
0.0
176
     1
 40
1.0
176
     1
 90
        0
176
     1
 62
    18
420
        0
176
     1
 90
       50
176
     1
 90
        3
176
     1
 62
     5
420
      255
176
     1
290
     0
176
     1
 90
       50
176
     1
 90
       50
176
     1
 90
       50
176
     1
290
     0
176
     1
 90
       50
176
     1
 62
   256
176
     0
 40
1.0
176
     0
 90
        2
176
     1
  1
strokes_ogs.tif
176
     1
290
     0
176
     1
 40
1.0
176
     1
 40
1.0
176
     1
1001
ACAD
1000
AcDbSavedByObjectVersion
1070
     0
  0
VISUALSTYLE
  5
A313
102
{ACAD_REACTORS
330
A307
102
}
330
A307
100
AcDbVisualStyle
  2
Brighten
 70
    12
177
     3
291
     1
 70
    58
 90
        2
176
     1
 90
        2
176
     1
 90
        0
176
     1
 90
        0
176
     1
 40
0.6
176
     1
 40
30.0
176
     1
 62
     7
420
 16777215
176
     1
 90
        1
176
     1
 90
        4
176
     1
 62
     7
176
     1
 62
   257
176
     1
 90
        1
176
     1
 90
        1
176
     1
 40
1.0
176
     1
 90
        8
176
     1
 62
     7
176
     1
 40
1.0
176
     1
 90
        1
176
     1
 90
        6
176
     1
 90
        2
176
     1
 62
     7
176
     1
 90
        5
176
     1
 90
        0
176
     1
 90
        0
176
     1
290
     0
176
     1
 90
        1
176
     1
 40
50.0
176
     1
 90
        0
176
     1
290
     0
176
     1
290
     1
176
     1
290
     1
176
     1
290
     0
176
     1
290
     0
176
     1
290
     0
176
     1
290
     0
176
     1
290
     0
176
     1
290
     0
176
     1
 90
       50
176
     1
 40
0.0
176
     1
 40
1.0
176
     1
 90
        0
176
     1
 62
    18
420
        0
176
     1
 90
       50
176
     1
 90
        3
176
     1
 62
     5
420
      255
176
     1
290
     0
176
     1
 90
       50
176
     1
 90
       50
176
     1
 90
       50
176
     1
290
     0
176
     1
 90
       50
176
     1
 62
   256
176
     0
 40
1.0
176
     0
 90
        2
176
     1
  1
strokes_ogs.tif
176
     1
290
     0
176
     1
 40
1.0
176
     1
 40
1.0
176
     1
1001
ACAD
1000
AcDbSavedByObjectVersion
1070
     0
  0
VISUALSTYLE
  5
A317
102
{ACAD_REACTORS
330
A307
102
}
330
A307
100
AcDbVisualStyle
  2
ColorChange
 70
    16
177
     3
291
     1
 70
    58
 90
        2
176
     1
 90
        2
176
     1
 90
        3
176
     1
 90
        0
176
     1
 40
0.6
176
     1
 40
30.0
176
     1
 62
     8
420
  8421504
176
     1
 90
        1
176
     1
 90
        4
176
     1
 62
     7
176
     1
 62
   257
176
     1
 90
        1
176
     1
 90
        1
176
     1
 40
1.0
176
     1
 90
        8
176
     1
 62
     8
420
  8421504
176
     1
 40
1.0
176
     1
 90
        1
176
     1
 90
        6
176
     1
 90
        2
176
     1
 62
     7
176
     1
 90
        5
176
     1
 90
        0
176
     1
 90
        0
176
     1
290
     0
176
     1
 90
        1
176
     1
 40
0.0
176
     1
 90
        0
176
     1
290
     0
176
     1
290
     1
176
     1
290
     1
176
     1
290
     0
176
     1
290
     0
176
     1
290
     0
176
     1
290
     0
176
     1
290
     0
176
     1
290
     0
176
     1
 90
       50
176
     1
 40
0.0
176
     1
 40
1.0
176
     1
 90
        0
176
     1
 62
    18
420
        0
176
     1
 90
       50
176
     1
 90
        3
176
     1
 62
     5
420
      255
176
     1
290
     0
176
     1
 90
       50
176
     1
 90
       50
176
     1
 90
       50
176
     1
290
     0
176
     1
 90
       50
176
     1
 62
   256
176
     0
 40
1.0
176
     0
 90
        2
176
     1
  1
strokes_ogs.tif
176
     1
290
     0
176
     1
 40
1.0
176
     1
 40
1.0
176
     1
1001
ACAD
1000
AcDbSavedByObjectVersion
1070
     0
  0
VISUALSTYLE
  5
A310
102
{ACAD_REACTORS
330
A307
102
}
330
A307
100
AcDbVisualStyle
  2
Conceptual
 70
     9
177
     3
291
     0
 70
    58
 90
        3
176
     1
 90
        2
176
     1
 90
        0
176
     1
 90
        0
176
     1
 40
0.6
176
     1
 40
30.0
176
     1
 62
     7
420
 16777215
176
     1
 90
        2
176
     1
 90
        2
176
     1
 62
     7
176
     1
 62
   257
176
     1
 90
        1
176
     1
 90
        1
176
     1
 40
179.0
176
     1
 90
        8
176
     1
 62
     7
176
     1
 40
1.0
176
     1
 90
        1
176
     1
 90
        6
176
     1
 90
        2
176
     1
 62
     7
176
     1
 90
        3
176
     1
 90
        0
176
     1
 90
        0
176
     1
290
     0
176
     1
 90
        1
176
     1
 40
0.0
176
     1
 90
        0
176
     1
290
     0
176
     1
290
     1
176
     1
290
     1
176
     1
290
     0
176
     1
290
     0
176
     1
290
     0
176
     1
290
     0
176
     1
290
     0
176
     1
290
     0
176
     1
 90
       50
176
     1
 40
0.0
176
     1
 40
1.0
176
     1
 90
        0
176
     1
 62
    18
420
        0
176
     1
 90
       50
176
     1
 90
        3
176
     1
 62
     5
420
      255
176
     1
290
     0
176
     1
 90
       50
176
     1
 90
       50
176
     1
 90
       50
176
     1
290
     0
176
     1
 90
       50
176
     1
 62
   256
176
     0
 40
1.0
176
     0
 90
        2
176
     1
  1
strokes_ogs.tif
176
     1
290
     0
176
     1
 40
1.0
176
     1
 40
1.0
176
     1
1001
ACAD
1000
AcDbSavedByObjectVersion
1070
     0
  0
VISUALSTYLE
  5
A312
102
{ACAD_REACTORS
330
A307
102
}
330
A307
100
AcDbVisualStyle
  2
Dim
 70
    11
177
     3
291
     1
 70
    58
 90
        2
176
     1
 90
        2
176
     1
 90
        0
176
     1
 90
        0
176
     1
 40
0.6
176
     1
 40
30.0
176
     1
 62
     7
420
 16777215
176
     1
 90
        1
176
     1
 90
        4
176
     1
 62
     7
176
     1
 62
   257
176
     1
 90
        1
176
     1
 90
        1
176
     1
 40
1.0
176
     1
 90
        8
176
     1
 62
     7
176
     1
 40
1.0
176
     1
 90
        1
176
     1
 90
        6
176
     1
 90
        2
176
     1
 62
     7
176
     1
 90
        5
176
     1
 90
        0
176
     1
 90
        0
176
     1
290
     0
176
     1
 90
        1
176
     1
 40
-50.0
176
     1
 90
        0
176
     1
290
     0
176
     1
290
     1
176
     1
290
     1
176
     1
290
     0
176
     1
290
     0
176
     1
290
     0
176
     1
290
     0
176
     1
290
     0
176
     1
290
     0
176
     1
 90
       50
176
     1
 40
0.0
176
     1
 40
1.0
176
     1
 90
        0
176
     1
 62
    18
420
        0
176
     1
 90
       50
176
     1
 90
        3
176
     1
 62
     5
420
      255
176
     1
290
     0
176
     1
 90
       50
176
     1
 90
       50
176
     1
 90
       50
176
     1
290
     0
176
     1
 90
       50
176
     1
 62
   256
176
     0
 40
1.0
176
     0
 90
        2
176
     1
  1
strokes_ogs.tif
176
     1
290
     0
176
     1
 40
1.0
176
     1
 40
1.0
176
     1
1001
ACAD
1000
AcDbSavedByObjectVersion
1070
     0
  0
VISUALSTYLE
  5
A31F
102
{ACAD_REACTORS
330
A307
102
}
330
A307
100
AcDbVisualStyle
  2
EdgeColorOff
 70
    22
177
     3
291
     1
 70
    58
 90
        2
176
     0
 90
        2
176
     0
 90
        0
176
     0
 90
        0
176
     0
 40
0.6
176
     0
 40
30.0
176
     0
 62
     7
420
 16777215
176
     0
 90
        1
176
     0
 90
        4
176
     0
 62
     7
176
     0
 62
   257
176
     0
 90
        1
176
     0
 90
        1
176
     0
 40
1.0
176
     0
 90
        8
176
     2
 62
     7
176
     0
 40
1.0
176
     0
 90
        1
176
     0
 90
        6
176
     0
 90
        2
176
     0
 62
     7
176
     0
 90
        5
176
     0
 90
        0
176
     0
 90
        0
176
     0
290
     0
176
     0
 90
        1
176
     0
 40
0.0
176
     0
 90
        0
176
     0
290
     0
176
     0
290
     1
176
     0
290
     1
176
     0
290
     0
176
     0
290
     0
176
     0
290
     0
176
     0
290
     0
176
     0
290
     0
176
     0
290
     0
176
     0
 90
       50
176
     0
 40
0.0
176
     0
 40
1.0
176
     0
 90
        0
176
     0
 62
    18
420
        0
176
     0
 90
       50
176
     0
 90
        3
176
     0
 62
     5
420
      255
176
     0
290
     0
176
     0
 90
       50
176
     0
 90
       50
176
     0
 90
       50
176
     0
290
     0
176
     0
 90
       50
176
     0
 62
   256
176
     0
 40
1.0
176
     0
 90
        2
176
     0
  1
strokes_ogs.tif
176
     0
290
     0
176
     0
 40
1.0
176
     0
 40
1.0
176
     0
1001
ACAD
1000
AcDbSavedByObjectVersion
1070
     0
  0
VISUALSTYLE
  5
A316
102
{ACAD_REACTORS
330
A307
102
}
330
A307
100
AcDbVisualStyle
  2
Facepattern
 70
    15
177
     3
291
     1
 70
    58
 90
        2
176
     1
 90
        2
176
     1
 90
        0
176
     1
 90
        0
176
     1
 40
0.6
176
     1
 40
30.0
176
     1
 62
     7
420
 16777215
176
     1
 90
        1
176
     1
 90
        4
176
     1
 62
     7
176
     1
 62
   257
176
     1
 90
        1
176
     1
 90
        1
176
     1
 40
1.0
176
     1
 90
        8
176
     1
 62
     7
176
     1
 40
1.0
176
     1
 90
        1
176
     1
 90
        6
176
     1
 90
        2
176
     1
 62
     7
176
     1
 90
        5
176
     1
 90
        0
176
     1
 90
        0
176
     1
290
     0
176
     1
 90
        1
176
     1
 40
0.0
176
     1
 90
        0
176
     1
290
     0
176
     1
290
     1
176
     1
290
     1
176
     1
290
     0
176
     1
290
     0
176
     1
290
     0
176
     1
290
     0
176
     1
290
     0
176
     1
290
     0
176
     1
 90
       50
176
     1
 40
0.0
176
     1
 40
1.0
176
     1
 90
        0
176
     1
 62
    18
420
        0
176
     1
 90
       50
176
     1
 90
        3
176
     1
 62
     5
420
      255
176
     1
290
     0
176
     1
 90
       50
176
     1
 90
       50
176
     1
 90
       50
176
     1
290
     0
176
     1
 90
       50
176
     1
 62
   256
176
     0
 40
1.0
176
     0
 90
        2
176
     1
  1
strokes_ogs.tif
176
     1
290
     0
176
     1
 40
1.0
176
     1
 40
1.0
176
     1
1001
ACAD
1000
AcDbSavedByObjectVersion
1070
     0
  0
VISUALSTYLE
  5
A308
102
{ACAD_REACTORS
330
A307
102
}
330
A307
100
AcDbVisualStyle
  2
Flat
 70
     0
177
     3
291
     1
 70
    58
 90
        2
176
     1
 90
        1
176
     1
 90
        1
176
     1
 90
        2
176
     1
 40
0.6
176
     1
 40
30.0
176
     1
 62
     7
420
 16777215
176
     1
 90
        0
176
     1
 90
        0
176
     1
 62
     7
176
     1
 62
   257
176
     1
 90
        1
176
     1
 90
        1
176
     1
 40
1.0
176
     1
 90
        8
176
     1
 62
     7
176
     1
 40
1.0
176
     1
 90
        1
176
     1
 90
        6
176
     1
 90
        2
176
     1
 62
     7
176
     1
 90
        5
176
     1
 90
        0
176
     1
 90
        0
176
     1
290
     0
176
     1
 90
       13
176
     1
 40
0.0
176
     1
 90
        0
176
     1
290
     0
176
     1
290
     1
176
     1
290
     1
176
     1
290
     0
176
     1
290
     0
176
     1
290
     0
176
     1
290
     0
176
     1
290
     0
176
     1
290
     0
176
     1
 90
       50
176
     1
 40
0.0
176
     1
 40
1.0
176
     1
 90
        0
176
     1
 62
    18
420
        0
176
     1
 90
       50
176
     1
 90
        3
176
     1
 62
     5
420
      255
176
     1
290
     0
176
     1
 90
       50
176
     1
 90
       50
176
     1
 90
       50
176
     1
290
     0
176
     1
 90
       50
176
     1
 62
   256
176
     0
 40
1.0
176
     0
 90
        2
176
     1
  1
strokes_ogs.tif
176
     1
290
     0
176
     1
 40
1.0
176
     1
 40
1.0
176
     1
1001
ACAD
1000
AcDbSavedByObjectVersion
1070
     0
  0
VISUALSTYLE
  5
A309
102
{ACAD_REACTORS
330
A307
102
}
330
A307
100
AcDbVisualStyle
  2
FlatWithEdges
 70
     1
177
     3
291
     1
 70
    58
 90
        2
176
     1
 90
        1
176
     1
 90
        1
176
     1
 90
        2
176
     1
 40
0.6
176
     1
 40
30.0
176
     1
 62
     7
420
 16777215
176
     1
 90
        1
176
     1
 90
        0
176
     1
 62
     7
176
     1
 62
   257
176
     1
 90
        1
176
     1
 90
        1
176
     1
 40
1.0
176
     1
 90
        0
176
     1
 62
   257
176
     1
 40
1.0
176
     1
 90
        1
176
     1
 90
        6
176
     1
 90
        2
176
     1
 62
     7
176
     1
 90
        5
176
     1
 90
        0
176
     1
 90
        0
176
     1
290
     0
176
     1
 90
       13
176
     1
 40
0.0
176
     1
 90
        0
176
     1
290
     0
176
     1
290
     1
176
     1
290
     1
176
     1
290
     0
176
     1
290
     0
176
     1
290
     0
176
     1
290
     0
176
     1
290
     0
176
     1
290
     0
176
     1
 90
       50
176
     1
 40
0.0
176
     1
 40
1.0
176
     1
 90
        0
176
     1
 62
    18
420
        0
176
     1
 90
       50
176
     1
 90
        3
176
     1
 62
     5
420
      255
176
     1
290
     0
176
     1
 90
       50
176
     1
 90
       50
176
     1
 90
       50
176
     1
290
     0
176
     1
 90
       50
176
     1
 62
   256
176
     0
 40
1.0
176
     0
 90
        2
176
     1
  1
strokes_ogs.tif
176
     1
290
     0
176
     1
 40
1.0
176
     1
 40
1.0
176
     1
1001
ACAD
1000
AcDbSavedByObjectVersion
1070
     0
  0
VISUALSTYLE
  5
A30A
102
{ACAD_REACTORS
330
A307
102
}
330
A307
100
AcDbVisualStyle
  2
Gouraud
 70
     2
177
     3
291
     1
 70
    58
 90
        2
176
     1
 90
        2
176
     1
 90
        1
176
     1
 90
        2
176
     1
 40
0.6
176
     1
 40
30.0
176
     1
 62
     7
420
 16777215
176
     1
 90
        0
176
     1
 90
        0
176
     1
 62
     7
176
     1
 62
   257
176
     1
 90
        1
176
     1
 90
        1
176
     1
 40
1.0
176
     1
 90
        0
176
     1
 62
     7
176
     1
 40
1.0
176
     1
 90
        1
176
     1
 90
        6
176
     1
 90
        2
176
     1
 62
     7
176
     1
 90
        5
176
     1
 90
        0
176
     1
 90
        0
176
     1
290
     0
176
     1
 90
       13
176
     1
 40
0.0
176
     1
 90
        0
176
     1
290
     0
176
     1
290
     1
176
     1
290
     1
176
     1
290
     0
176
     1
290
     0
176
     1
290
     0
176
     1
290
     0
176
     1
290
     0
176
     1
290
     0
176
     1
 90
       50
176
     1
 40
0.0
176
     1
 40
1.0
176
     1
 90
        0
176
     1
 62
    18
420
        0
176
     1
 90
       50
176
     1
 90
        3
176
     1
 62
     5
420
      255
176
     1
290
     0
176
     1
 90
       50
176
     1
 90
       50
176
     1
 90
       50
176
     1
290
     0
176
     1
 90
       50
176
     1
 62
   256
176
     0
 40
1.0
176
     0
 90
        2
176
     1
  1
strokes_ogs.tif
176
     1
290
     0
176
     1
 40
1.0
176
     1
 40
1.0
176
     1
1001
ACAD
1000
AcDbSavedByObjectVersion
1070
     0
  0
VISUALSTYLE
  5
A30B
102
{ACAD_REACTORS
330
A307
102
}
330
A307
100
AcDbVisualStyle
  2
GouraudWithEdges
 70
     3
177
     3
291
     1
 70
    58
 90
        2
176
     1
 90
        2
176
     1
 90
        1
176
     1
 90
        2
176
     1
 40
0.6
176
     1
 40
30.0
176
     1
 62
     7
420
 16777215
176
     1
 90
        1
176
     1
 90
        0
176
     1
 62
     7
176
     1
 62
   257
176
     1
 90
        1
176
     1
 90
        1
176
     1
 40
1.0
176
     1
 90
        0
176
     1
 62
   257
176
     1
 40
1.0
176
     1
 90
        1
176
     1
 90
        6
176
     1
 90
        2
176
     1
 62
     7
176
     1
 90
        5
176
     1
 90
        0
176
     1
 90
        0
176
     1
290
     0
176
     1
 90
       13
176
     1
 40
0.0
176
     1
 90
        0
176
     1
290
     0
176
     1
290
     1
176
     1
290
     1
176
     1
290
     0
176
     1
290
     0
176
     1
290
     0
176
     1
290
     0
176
     1
290
     0
176
     1
290
     0
176
     1
 90
       50
176
     1
 40
0.0
176
     1
 40
1.0
176
     1
 90
        0
176
     1
 62
    18
420
        0
176
     1
 90
       50
176
     1
 90
        3
176
     1
 62
     5
420
      255
176
     1
290
     0
176
     1
 90
       50
176
     1
 90
       50
176
     1
 90
       50
176
     1
290
     0
176
     1
 90
       50
176
     1
 62
   256
176
     0
 40
1.0
176
     0
 90
        2
176
     1
  1
strokes_ogs.tif
176
     1
290
     0
176
     1
 40
1.0
176
     1
 40
1.0
176
     1
1001
ACAD
1000
AcDbSavedByObjectVersion
1070
     0
  0
VISUALSTYLE
  5
A30F
102
{ACAD_REACTORS
330
A307
102
}
330
A307
100
AcDbVisualStyle
  2
Hidden
 70
     6
177
     3
291
     0
 70
    58
 90
        1
176
     1
 90
        2
176
     1
 90
        2
176
     1
 90
        0
176
     1
 40
0.6
176
     1
 40
30.0
176
     1
 62
     7
420
 16777215
176
     1
 90
        2
176
     1
 90
        2
176
     1
 62
     7
176
     1
 62
   257
176
     1
 90
        2
176
     1
 90
        1
176
     1
 40
40.0
176
     1
 90
        0
176
     1
 62
   257
176
     1
 40
1.0
176
     1
 90
        1
176
     1
 90
        6
176
     1
 90
        2
176
     1
 62
     7
176
     1
 90
        3
176
     1
 90
        0
176
     1
 90
        0
176
     1
290
     0
176
     1
 90
        1
176
     1
 40
0.0
176
     1
 90
        0
176
     1
290
     0
176
     1
290
     1
176
     1
290
     1
176
     1
290
     0
176
     1
290
     0
176
     1
290
     0
176
     1
290
     0
176
     1
290
     0
176
     1
290
     0
176
     1
 90
       50
176
     1
 40
0.0
176
     1
 40
1.0
176
     1
 90
        0
176
     1
 62
    18
420
        0
176
     1
 90
       50
176
     1
 90
        3
176
     1
 62
     5
420
      255
176
     1
290
     0
176
     1
 90
       50
176
     1
 90
       50
176
     1
 90
       50
176
     1
290
     0
176
     1
 90
       50
176
     1
 62
   256
176
     0
 40
1.0
176
     0
 90
        2
176
     1
  1
strokes_ogs.tif
176
     1
290
     0
176
     1
 40
1.0
176
     1
 40
1.0
176
     1
1001
ACAD
1000
AcDbSavedByObjectVersion
1070
     0
  0
VISUALSTYLE
  5
A31D
102
{ACAD_REACTORS
330
A307
102
}
330
A307
100
AcDbVisualStyle
  2
JitterOff
 70
    20
177
     3
291
     1
 70
    58
 90
        2
176
     0
 90
        2
176
     0
 90
        0
176
     0
 90
        0
176
     0
 40
0.6
176
     0
 40
30.0
176
     0
 62
     7
420
 16777215
176
     0
 90
        1
176
     0
 90
        4
176
     0
 62
     7
176
     0
 62
   257
176
     0
 90
        1
176
     0
 90
        1
176
     0
 40
1.0
176
     0
 90
       10
176
     2
 62
     7
176
     0
 40
1.0
176
     0
 90
        1
176
     0
 90
        6
176
     0
 90
        2
176
     0
 62
     7
176
     0
 90
        5
176
     0
 90
        0
176
     0
 90
        0
176
     0
290
     0
176
     0
 90
        1
176
     0
 40
0.0
176
     0
 90
        0
176
     0
290
     0
176
     0
290
     1
176
     0
290
     1
176
     0
290
     0
176
     0
290
     0
176
     0
290
     0
176
     0
290
     0
176
     0
290
     0
176
     0
290
     0
176
     0
 90
       50
176
     0
 40
0.0
176
     0
 40
1.0
176
     0
 90
        0
176
     0
 62
    18
420
        0
176
     0
 90
       50
176
     0
 90
        3
176
     0
 62
     5
420
      255
176
     0
290
     0
176
     0
 90
       50
176
     0
 90
       50
176
     0
 90
       50
176
     0
290
     0
176
     0
 90
       50
176
     0
 62
   256
176
     0
 40
1.0
176
     0
 90
        2
176
     0
  1
strokes_ogs.tif
176
     0
290
     0
176
     0
 40
1.0
176
     0
 40
1.0
176
     0
1001
ACAD
1000
AcDbSavedByObjectVersion
1070
     0
  0
VISUALSTYLE
  5
A315
102
{ACAD_REACTORS
330
A307
102
}
330
A307
100
AcDbVisualStyle
  2
Linepattern
 70
    14
177
     3
291
     1
 70
    58
 90
        2
176
     1
 90
        2
176
     1
 90
        0
176
     1
 90
        0
176
     1
 40
0.6
176
     1
 40
30.0
176
     1
 62
     7
420
 16777215
176
     1
 90
        1
176
     1
 90
        4
176
     1
 62
     7
176
     1
 62
   257
176
     1
 90
        7
176
     1
 90
        7
176
     1
 40
1.0
176
     1
 90
        8
176
     1
 62
     7
176
     1
 40
1.0
176
     1
 90
        1
176
     1
 90
        6
176
     1
 90
        2
176
     1
 62
     7
176
     1
 90
        5
176
     1
 90
        0
176
     1
 90
        0
176
     1
290
     0
176
     1
 90
        1
176
     1
 40
0.0
176
     1
 90
        0
176
     1
290
     0
176
     1
290
     1
176
     1
290
     1
176
     1
290
     0
176
     1
290
     0
176
     1
290
     0
176
     1
290
     0
176
     1
290
     0
176
     1
290
     0
176
     1
 90
       50
176
     1
 40
0.0
176
     1
 40
1.0
176
     1
 90
        0
176
     1
 62
    18
420
        0
176
     1
 90
       50
176
     1
 90
        3
176
     1
 62
     5
420
      255
176
     1
290
     0
176
     1
 90
       50
176
     1
 90
       50
176
     1
 90
       50
176
     1
290
     0
176
     1
 90
       50
176
     1
 62
   256
176
     0
 40
1.0
176
     0
 90
        2
176
     1
  1
strokes_ogs.tif
176
     1
290
     0
176
     1
 40
1.0
176
     1
 40
1.0
176
     1
1001
ACAD
1000
AcDbSavedByObjectVersion
1070
     0
  0
VISUALSTYLE
  5
A31E
102
{ACAD_REACTORS
330
A307
102
}
330
A307
100
AcDbVisualStyle
  2
OverhangOff
 70
    21
177
     3
291
     1
 70
    58
 90
        2
176
     0
 90
        2
176
     0
 90
        0
176
     0
 90
        0
176
     0
 40
0.6
176
     0
 40
30.0
176
     0
 62
     7
420
 16777215
176
     0
 90
        1
176
     0
 90
        4
176
     0
 62
     7
176
     0
 62
   257
176
     0
 90
        1
176
     0
 90
        1
176
     0
 40
1.0
176
     0
 90
        9
176
     2
 62
     7
176
     0
 40
1.0
176
     0
 90
        1
176
     0
 90
        6
176
     0
 90
        2
176
     0
 62
     7
176
     0
 90
        5
176
     0
 90
        0
176
     0
 90
        0
176
     0
290
     0
176
     0
 90
        1
176
     0
 40
0.0
176
     0
 90
        0
176
     0
290
     0
176
     0
290
     1
176
     0
290
     1
176
     0
290
     0
176
     0
290
     0
176
     0
290
     0
176
     0
290
     0
176
     0
290
     0
176
     0
290
     0
176
     0
 90
       50
176
     0
 40
0.0
176
     0
 40
1.0
176
     0
 90
        0
176
     0
 62
    18
420
        0
176
     0
 90
       50
176
     0
 90
        3
176
     0
 62
     5
420
      255
176
     0
290
     0
176
     0
 90
       50
176
     0
 90
       50
176
     0
 90
       50
176
     0
290
     0
176
     0
 90
       50
176
     0
 62
   256
176
     0
 40
1.0
176
     0
 90
        2
176
     0
  1
strokes_ogs.tif
176
     0
290
     0
176
     0
 40
1.0
176
     0
 40
1.0
176
     0
1001
ACAD
1000
AcDbSavedByObjectVersion
1070
     0
  0
VISUALSTYLE
  5
A311
102
{ACAD_REACTORS
330
A307
102
}
330
A307
100
AcDbVisualStyle
  2
Realistic
 70
     8
177
     3
291
     0
 70
    58
 90
        2
176
     1
 90
        3
176
     1
 90
        0
176
     1
 90
        2
176
     1
 40
0.6
176
     1
 40
30.0
176
     1
 62
     7
420
 16777215
176
     1
 90
        0
176
     1
 90
        0
176
     1
 62
     7
176
     1
 62
   257
176
     1
 90
        1
176
     1
 90
        1
176
     1
 40
1.0
176
     1
 90
        8
176
     1
 62
   257
176
     1
 40
1.0
176
     1
 90
        1
176
     1
 90
        6
176
     1
 90
        2
176
     1
 62
     7
176
     1
 90
        3
176
     1
 90
        0
176
     1
 90
        0
176
     1
290
     0
176
     1
 90
       13
176
     1
 40
0.0
176
     1
 90
        0
176
     1
290
     0
176
     1
290
     1
176
     1
290
     1
176
     1
290
     0
176
     1
290
     0
176
     1
290
     0
176
     1
290
     0
176
     1
290
     0
176
     1
290
     0
176
     1
 90
       50
176
     1
 40
0.0
176
     1
 40
1.0
176
     1
 90
        0
176
     1
 62
    18
420
        0
176
     1
 90
       50
176
     1
 90
        3
176
     1
 62
     5
420
      255
176
     1
290
     0
176
     1
 90
       50
176
     1
 90
       50
176
     1
 90
       50
176
     1
290
     0
176
     1
 90
       50
176
     1
 62
   256
176
     0
 40
1.0
176
     0
 90
        2
176
     1
  1
strokes_ogs.tif
176
     1
290
     0
176
     1
 40
1.0
176
     1
 40
1.0
176
     1
1001
ACAD
1000
AcDbSavedByObjectVersion
1070
     0
  0
VISUALSTYLE
  5
A31C
102
{ACAD_REACTORS
330
A307
102
}
330
A307
100
AcDbVisualStyle
  2
Shaded
 70
    27
177
     3
291
     0
 70
    58
 90
        2
176
     1
 90
        2
176
     1
 90
        1
176
     1
 90
        2
176
     1
 40
0.6
176
     1
 40
30.0
176
     1
 62
     7
420
 16777215
176
     1
 90
        0
176
     1
 90
        4
176
     1
 62
     7
176
     1
 62
   257
176
     1
 90
        1
176
     1
 90
        1
176
     1
 40
1.0
176
     1
 90
        8
176
     1
 62
   257
176
     1
 40
1.0
176
     1
 90
        1
176
     1
 90
        6
176
     1
 90
        2
176
     1
 62
     8
420
  7895160
176
     1
 90
        3
176
     1
 90
        0
176
     1
 90
        0
176
     1
290
     0
176
     1
 90
        5
176
     1
 40
0.0
176
     1
 90
        0
176
     1
290
     0
176
     1
290
     1
176
     1
290
     1
176
     1
290
     0
176
     1
290
     0
176
     1
290
     0
176
     1
290
     0
176
     1
290
     0
176
     1
290
     0
176
     1
 90
       50
176
     1
 40
0.0
176
     1
 40
1.0
176
     1
 90
        0
176
     1
 62
    18
420
        0
176
     1
 90
       50
176
     1
 90
        3
176
     1
 62
     5
420
      255
176
     1
290
     0
176
     1
 90
       50
176
     1
 90
       50
176
     1
 90
       50
176
     1
290
     0
176
     1
 90
       50
176
     1
 62
   256
176
     0
 40
1.0
176
     0
 90
        2
176
     1
  1
strokes_ogs.tif
176
     1
290
     0
176
     1
 40
1.0
176
     1
 40
1.0
176
     1
1001
ACAD
1000
AcDbSavedByObjectVersion
1070
     0
  0
VISUALSTYLE
  5
A31B
102
{ACAD_REACTORS
330
A307
102
}
330
A307
100
AcDbVisualStyle
  2
Shaded with edges
 70
    26
177
     3
291
     0
 70
    58
 90
        2
176
     1
 90
        2
176
     1
 90
        1
176
     1
 90
        2
176
     1
 40
0.6
176
     1
 40
30.0
176
     1
 62
     7
420
 16777215
176
     1
 90
        1
176
     1
 90
        2
176
     1
 62
     7
176
     1
 62
   257
176
     1
 90
        2
176
     1
 90
        1
176
     1
 40
1.0
176
     1
 90
        8
176
     1
 62
   257
176
     1
 40
1.0
176
     1
 90
        1
176
     1
 90
        6
176
     1
 90
        2
176
     1
 62
     7
176
     1
 90
        3
176
     1
 90
        0
176
     1
 90
        0
176
     1
290
     0
176
     1
 90
        5
176
     1
 40
0.0
176
     1
 90
        0
176
     1
290
     0
176
     1
290
     1
176
     1
290
     1
176
     1
290
     0
176
     1
290
     0
176
     1
290
     0
176
     1
290
     0
176
     1
290
     0
176
     1
290
     0
176
     1
 90
       50
176
     1
 40
0.0
176
     1
 40
1.0
176
     1
 90
        0
176
     1
 62
    18
420
        0
176
     1
 90
       50
176
     1
 90
        3
176
     1
 62
     5
420
      255
176
     1
290
     0
176
     1
 90
       50
176
     1
 90
       50
176
     1
 90
       50
176
     1
290
     0
176
     1
 90
       50
176
     1
 62
   256
176
     0
 40
1.0
176
     0
 90
        2
176
     1
  1
strokes_ogs.tif
176
     1
290
     0
176
     1
 40
1.0
176
     1
 40
1.0
176
     1
1001
ACAD
1000
AcDbSavedByObjectVersion
1070
     0
  0
VISUALSTYLE
  5
A318
102
{ACAD_REACTORS
330
A307
102
}
330
A307
100
AcDbVisualStyle
  2
Shades of Gray
 70
    23
177
     3
291
     0
 70
    58
 90
        2
176
     1
 90
        2
176
     1
 90
        3
176
     1
 90
        0
176
     1
 40
0.6
176
     1
 40
30.0
176
     1
 62
     7
420
 16777215
176
     1
 90
        2
176
     1
 90
        2
176
     1
 62
     7
176
     1
 62
     7
176
     1
 90
        1
176
     1
 90
        1
176
     1
 40
40.0
176
     1
 90
        8
176
     1
 62
     7
176
     1
 40
1.0
176
     1
 90
        1
176
     1
 90
        6
176
     1
 90
        2
176
     1
 62
     7
176
     1
 90
        3
176
     1
 90
        0
176
     1
 90
        0
176
     1
290
     0
176
     1
 90
        1
176
     1
 40
0.0
176
     1
 90
        0
176
     1
290
     0
176
     1
290
     1
176
     1
290
     1
176
     1
290
     0
176
     1
290
     0
176
     1
290
     0
176
     1
290
     0
176
     1
290
     0
176
     1
290
     0
176
     1
 90
       50
176
     1
 40
0.0
176
     1
 40
1.0
176
     1
 90
        0
176
     1
 62
    18
420
        0
176
     1
 90
       50
176
     1
 90
        3
176
     1
 62
     5
420
      255
176
     1
290
     0
176
     1
 90
       50
176
     1
 90
       50
176
     1
 90
       50
176
     1
290
     0
176
     1
 90
       50
176
     1
 62
   256
176
     0
 40
1.0
176
     0
 90
        2
176
     1
  1
strokes_ogs.tif
176
     1
290
     0
176
     1
 40
1.0
176
     1
 40
1.0
176
     1
1001
ACAD
1000
AcDbSavedByObjectVersion
1070
     0
  0
VISUALSTYLE
  5
A319
102
{ACAD_REACTORS
330
A307
102
}
330
A307
100
AcDbVisualStyle
  2
Sketchy
 70
    24
177
     3
291
     0
 70
    58
 90
        1
176
     1
 90
        2
176
     1
 90
        2
176
     1
 90
        0
176
     1
 40
0.6
176
     1
 40
30.0
176
     1
 62
     7
420
 16777215
176
     1
 90
        2
176
     1
 90
        2
176
     1
 62
     7
176
     1
 62
     7
176
     1
 90
        1
176
     1
 90
        1
176
     1
 40
40.0
176
     1
 90
       11
176
     1
 62
     7
176
     1
 40
1.0
176
     1
 90
        1
176
     1
 90
        6
176
     1
 90
        2
176
     1
 62
     7
176
     1
 90
        6
176
     1
 90
        0
176
     1
 90
        0
176
     1
290
     0
176
     1
 90
        1
176
     1
 40
0.0
176
     1
 90
        0
176
     1
290
     0
176
     1
290
     1
176
     1
290
     1
176
     1
290
     0
176
     1
290
     0
176
     1
290
     0
176
     1
290
     0
176
     1
290
     0
176
     1
290
     0
176
     1
 90
       50
176
     1
 40
0.0
176
     1
 40
1.0
176
     1
 90
        0
176
     1
 62
    18
420
        0
176
     1
 90
       50
176
     1
 90
        3
176
     1
 62
     5
420
      255
176
     1
290
     0
176
     1
 90
       50
176
     1
 90
       50
176
     1
 90
       50
176
     1
290
     0
176
     1
 90
       50
176
     1
 62
   256
176
     0
 40
1.0
176
     0
 90
        2
176
     1
  1
strokes_ogs.tif
176
     1
290
     0
176
     1
 40
1.0
176
     1
 40
1.0
176
     1
1001
ACAD
1000
AcDbSavedByObjectVersion
1070
     0
  0
VISUALSTYLE
  5
A314
102
{ACAD_REACTORS
330
A307
102
}
330
A307
100
AcDbVisualStyle
  2
Thicken
 70
    13
177
     3
291
     1
 70
    58
 90
        2
176
     1
 90
        2
176
     1
 90
        0
176
     1
 90
        0
176
     1
 40
0.6
176
     1
 40
30.0
176
     1
 62
     7
420
 16777215
176
     1
 90
        1
176
     1
 90
        4
176
     1
 62
     7
176
     1
 62
   257
176
     1
 90
        1
176
     1
 90
        1
176
     1
 40
1.0
176
     1
 90
       12
176
     1
 62
     7
176
     1
 40
1.0
176
     1
 90
        1
176
     1
 90
        6
176
     1
 90
        2
176
     1
 62
     7
176
     1
 90
        5
176
     1
 90
        0
176
     1
 90
        0
176
     1
290
     0
176
     1
 90
        1
176
     1
 40
0.0
176
     1
 90
        0
176
     1
290
     0
176
     1
290
     1
176
     1
290
     1
176
     1
290
     0
176
     1
290
     0
176
     1
290
     0
176
     1
290
     0
176
     1
290
     0
176
     1
290
     0
176
     1
 90
       50
176
     1
 40
0.0
176
     1
 40
1.0
176
     1
 90
        0
176
     1
 62
    18
420
        0
176
     1
 90
       50
176
     1
 90
        3
176
     1
 62
     5
420
      255
176
     1
290
     0
176
     1
 90
       50
176
     1
 90
       50
176
     1
 90
       50
176
     1
290
     0
176
     1
 90
       50
176
     1
 62
   256
176
     0
 40
1.0
176
     0
 90
        2
176
     1
  1
strokes_ogs.tif
176
     1
290
     0
176
     1
 40
1.0
176
     1
 40
1.0
176
     1
1001
ACAD
1000
AcDbSavedByObjectVersion
1070
     0
  0
VISUALSTYLE
  5
A30E
102
{ACAD_REACTORS
330
A307
102
}
330
A307
100
AcDbVisualStyle
  2
Wireframe
 70
     5
177
     3
291
     0
 70
    58
 90
        0
176
     1
 90
        2
176
     1
 90
        0
176
     1
 90
        0
176
     1
 40
0.6
176
     1
 40
30.0
176
     1
 62
     7
420
 16777215
176
     1
 90
        1
176
     1
 90
        4
176
     1
 62
     7
176
     1
 62
   257
176
     1
 90
        1
176
     1
 90
        1
176
     1
 40
1.0
176
     1
 90
        0
176
     1
 62
   257
176
     1
 40
1.0
176
     1
 90
        1
176
     1
 90
        6
176
     1
 90
        2
176
     1
 62
     7
176
     1
 90
        3
176
     1
 90
        0
176
     1
 90
        0
176
     1
290
     0
176
     1
 90
        1
176
     1
 40
0.0
176
     1
 90
        0
176
     1
290
     0
176
     1
290
     1
176
     1
290
     1
176
     1
290
     0
176
     1
290
     0
176
     1
290
     0
176
     1
290
     0
176
     1
290
     0
176
     1
290
     0
176
     1
 90
       50
176
     1
 40
0.0
176
     1
 40
1.0
176
     1
 90
        0
176
     1
 62
    18
420
        0
176
     1
 90
       50
176
     1
 90
        3
176
     1
 62
     5
420
      255
176
     1
290
     0
176
     1
 90
       50
176
     1
 90
       50
176
     1
 90
       50
176
     1
290
     0
176
     1
 90
       50
176
     1
 62
   256
176
     0
 40
1.0
176
     0
 90
        2
176
     1
  1
strokes_ogs.tif
176
     1
290
     0
176
     1
 40
1.0
176
     1
 40
1.0
176
     1
1001
ACAD
1000
AcDbSavedByObjectVersion
1070
     0
  0
VISUALSTYLE
  5
A31A
102
{ACAD_REACTORS
330
A307
102
}
330
A307
100
AcDbVisualStyle
  2
X-Ray
 70
    25
177
     3
291
     0
 70
    58
 90
        2
176
     1
 90
        2
176
     1
 90
        1
176
     1
 90
        1
176
     1
 40
0.5
176
     1
 40
30.0
176
     1
 62
     7
420
 16777215
176
     1
 90
        1
176
     1
 90
        0
176
     1
 62
     7
176
     1
 62
   257
176
     1
 90
        1
176
     1
 90
        1
176
     1
 40
1.0
176
     1
 90
        8
176
     1
 62
     7
176
     1
 40
1.0
176
     1
 90
        1
176
     1
 90
        6
176
     1
 90
        2
176
     1
 62
     7
176
     1
 90
        3
176
     1
 90
        0
176
     1
 90
        0
176
     1
290
     0
176
     1
 90
       13
176
     1
 40
0.0
176
     1
 90
        0
176
     1
290
     0
176
     1
290
     1
176
     1
290
     1
176
     1
290
     0
176
     1
290
     0
176
     1
290
     0
176
     1
290
     0
176
     1
290
     0
176
     1
290
     0
176
     1
 90
       50
176
     1
 40
0.0
176
     1
 40
1.0
176
     1
 90
        0
176
     1
 62
    18
420
        0
176
     1
 90
       50
176
     1
 90
        3
176
     1
 62
     5
420
      255
176
     1
290
     0
176
     1
 90
       50
176
     1
 90
       50
176
     1
 90
       50
176
     1
290
     0
176
     1
 90
       50
176
     1
 62
   256
176
     0
 40
1.0
176
     0
 90
        2
176
     1
  1
strokes_ogs.tif
176
     1
290
     0
176
     1
 40
1.0
176
     1
 40
1.0
176
     1
1001
ACAD
1000
AcDbSavedByObjectVersion
1070
     0
  0
DICTIONARYVAR
  5
A372
102
{ACAD_REACTORS
330
A36C
102
}
330
A36C
100
DictionaryVariables
280
     0
  1
1:1
  0
DICTIONARYVAR
  5
A36E
102
{ACAD_REACTORS
330
A36C
102
}
330
A36C
100
DictionaryVariables
280
     0
  1
STANDARD
  0
DICTIONARYVAR
  5
A36D
102
{ACAD_REACTORS
330
A36C
102
}
330
A36C
100
DictionaryVariables
280
     0
  1
STANDARD
  0
DICTIONARYVAR
  5
A36F
102
{ACAD_REACTORS
330
A36C
102
}
330
A36C
100
DictionaryVariables
280
     0
  1
Metric50
  0
DICTIONARYVAR
  5
A370
102
{ACAD_REACTORS
330
A36C
102
}
330
A36C
100
DictionaryVariables
280
     0
  1
Metric50
  0
DICTIONARYVAR
  5
A374
102
{ACAD_REACTORS
330
A36C
102
}
330
A36C
100
DictionaryVariables
280
     0
  1
1
  0
DICTIONARYVAR
  5
A375
102
{ACAD_REACTORS
330
A36C
102
}
330
A36C
100
DictionaryVariables
280
     0
  1
15
  0
DICTIONARYVAR
  5
A373
102
{ACAD_REACTORS
330
A36C
102
}
330
A36C
100
DictionaryVariables
280
     0
  1
0
  0
DICTIONARYVAR
  5
A37B
102
{ACAD_REACTORS
330
A36C
102
}
330
A36C
100
DictionaryVariables
280
     0
  1
0
  0
DICTIONARYVAR
  5
A371
102
{ACAD_REACTORS
330
A36C
102
}
330
A36C
100
DictionaryVariables
280
     0
  1
0
  0
DICTIONARY
  5
A386
102
{ACAD_REACTORS
330
A384
102
}
330
A384
100
AcDbDictionary
281
     1
  0
DICTIONARY
  5
A385
102
{ACAD_REACTORS
330
A384
102
}
330
A384
100
AcDbDictionary
281
     1
  3
2050789690224
350
A37F
  3
2050789690240
350
A380
  3
2050789690256
350
A381
  3
2050789690272
350
A382
  3
2050789690288
350
A383
  0
DICTIONARY
  5
A389
330
A33A
100
AcDbDictionary
280
     1
281
     1
  3
ACAD_XREC_ROUNDTRIP
360
A38A
  0
DICTIONARY
  5
A2F8
330
A2F7
100
AcDbDictionary
280
     1
281
     1
  3
BUMPTILE
360
A2FA
  3
DIFFUSETILE
360
A2F9
  3
OPACITYTILE
360
A2FD
  3
REFLECTIONTILE
360
A2FC
  3
REFRACTIONTILE
360
A2FE
  3
SPECULARTILE
360
A2FB
  0
DICTIONARY
  5
A2F0
330
A2EF
100
AcDbDictionary
280
     1
281
     1
  3
BUMPTILE
360
A2F2
  3
DIFFUSETILE
360
A2F1
  3
OPACITYTILE
360
A2F5
  3
REFLECTIONTILE
360
A2F4
  3
REFRACTIONTILE
360
A2F6
  3
SPECULARTILE
360
A2F3
  0
DICTIONARY
  5
A300
330
A2FF
100
AcDbDictionary
280
     1
281
     1
  3
BUMPTILE
360
A302
  3
DIFFUSETILE
360
A301
  3
OPACITYTILE
360
A305
  3
REFLECTIONTILE
360
A304
  3
REFRACTIONTILE
360
A306
  3
SPECULARTILE
360
A303
  0
DICTIONARY
  5
A387
330
A338
100
AcDbDictionary
280
     1
281
     1
  3
ACAD_XREC_ROUNDTRIP
360
A388
  0
DICTIONARY
  5
A37C
330
A322
100
AcDbDictionary
280
     1
281
     1
  3
ACAD_ROUNDTRIP_2008_TABLESTYLE_CELLSTYLEMAP
360
A37D
  0
XRECORD
  5
A37F
102
{ACAD_REACTORS
330
A385
102
}
330
A385
100
AcDbXrecord
280
     1
  1
AcDb_Thumbnail_Schema
102
{ATTRRECORD
341
A380
  2
AcDbDs::TreatedAsObjectData
280
     1
291
     1
102
ATTRRECORD}
102
{ATTRRECORD
341
A381
  2
AcDbDs::Legacy
280
     1
291
     1
102
ATTRRECORD}
  2
AcDbDs::ID
280
    10
 91
        8
102
{ATTRRECORD
341
A382
  2
AcDs:Indexable
280
     1
291
     1
102
ATTRRECORD}
102
{ATTRRECORD
341
A383
  2
AcDbDs::HandleAttribute
280
     7
282
     1
102
ATTRRECORD}
  2
Thumbnail_Data
280
    15
 91
        0
  0
XRECORD
  5
A380
102
{ACAD_REACTORS
330
A385
102
}
330
A385
100
AcDbXrecord
280
     1
  1
AcDbDs::TreatedAsObjectDataSchema
  2
AcDbDs::TreatedAsObjectData
280
     1
 91
        0
  0
XRECORD
  5
A381
102
{ACAD_REACTORS
330
A385
102
}
330
A385
100
AcDbXrecord
280
     1
  1
AcDbDs::LegacySchema
  2
AcDbDs::Legacy
280
     1
 91
        0
  0
XRECORD
  5
A382
102
{ACAD_REACTORS
330
A385
102
}
330
A385
100
AcDbXrecord
280
     1
  1
AcDbDs::IndexedPropertySchema
  2
AcDs:Indexable
280
     1
 91
        0
  0
XRECORD
  5
A383
102
{ACAD_REACTORS
330
A385
102
}
330
A385
100
AcDbXrecord
280
     1
  1
AcDbDs::HandleAttributeSchema
  2
AcDbDs::HandleAttribute
280
     7
 91
        1
284
     1
  0
XRECORD
  5
A38A
102
{ACAD_REACTORS
330
A389
102
}
330
A389
100
AcDbXrecord
280
     1
102
DISPLAYNAME
  1
Metric50
102
FLAGS
 90
        0
  0
XRECORD
  5
A2FA
102
{ACAD_REACTORS
330
A2F8
102
}
330
A2F8
100
AcDbXrecord
280
     1
270
     1
271
     1
  0
XRECORD
  5
A2F9
102
{ACAD_REACTORS
330
A2F8
102
}
330
A2F8
100
AcDbXrecord
280
     1
270
     1
271
     1
  0
XRECORD
  5
A2FD
102
{ACAD_REACTORS
330
A2F8
102
}
330
A2F8
100
AcDbXrecord
280
     1
270
     1
271
     1
  0
XRECORD
  5
A2FC
102
{ACAD_REACTORS
330
A2F8
102
}
330
A2F8
100
AcDbXrecord
280
     1
270
     1
271
     1
  0
XRECORD
  5
A2FE
102
{ACAD_REACTORS
330
A2F8
102
}
330
A2F8
100
AcDbXrecord
280
     1
270
     1
271
     1
  0
XRECORD
  5
A2FB
102
{ACAD_REACTORS
330
A2F8
102
}
330
A2F8
100
AcDbXrecord
280
     1
270
     1
271
     1
  0
XRECORD
  5
A2F2
102
{ACAD_REACTORS
330
A2F0
102
}
330
A2F0
100
AcDbXrecord
280
     1
270
     1
271
     1
  0
XRECORD
  5
A2F1
102
{ACAD_REACTORS
330
A2F0
102
}
330
A2F0
100
AcDbXrecord
280
     1
270
     1
271
     1
  0
XRECORD
  5
A2F5
102
{ACAD_REACTORS
330
A2F0
102
}
330
A2F0
100
AcDbXrecord
280
     1
270
     1
271
     1
  0
XRECORD
  5
A2F4
102
{ACAD_REACTORS
330
A2F0
102
}
330
A2F0
100
AcDbXrecord
280
     1
270
     1
271
     1
  0
XRECORD
  5
A2F6
102
{ACAD_REACTORS
330
A2F0
102
}
330
A2F0
100
AcDbXrecord
280
     1
270
     1
271
     1
  0
XRECORD
  5
A2F3
102
{ACAD_REACTORS
330
A2F0
102
}
330
A2F0
100
AcDbXrecord
280
     1
270
     1
271
     1
  0
XRECORD
  5
A302
102
{ACAD_REACTORS
330
A300
102
}
330
A300
100
AcDbXrecord
280
     1
270
     1
271
     1
  0
XRECORD
  5
A301
102
{ACAD_REACTORS
330
A300
102
}
330
A300
100
AcDbXrecord
280
     1
270
     1
271
     1
  0
XRECORD
  5
A305
102
{ACAD_REACTORS
330
A300
102
}
330
A300
100
AcDbXrecord
280
     1
270
     1
271
     1
  0
XRECORD
  5
A304
102
{ACAD_REACTORS
330
A300
102
}
330
A300
100
AcDbXrecord
280
     1
270
     1
271
     1
  0
XRECORD
  5
A306
102
{ACAD_REACTORS
330
A300
102
}
330
A300
100
AcDbXrecord
280
     1
270
     1
271
     1
  0
XRECORD
  5
A303
102
{ACAD_REACTORS
330
A300
102
}
330
A300
100
AcDbXrecord
280
     1
270
     1
271
     1
  0
XRECORD
  5
A388
102
{ACAD_REACTORS
330
A387
102
}
330
A387
100
AcDbXrecord
280
     1
102
DISPLAYNAME
  1
Metric50
102
FLAGS
 90
        0
  0
CELLSTYLEMAP
  5
A37D
102
{ACAD_REACTORS
330
A37C
102
}
330
A37C
100
AcDbCellStyleMap
 90
        3
300
CELLSTYLE
  1
TABLEFORMAT_BEGIN
 90
        5
170
     1
 91
        0
 92
    32768
 62
   257
 93
        1
300
CONTENTFORMAT
  1
CONTENTFORMAT_BEGIN
 90
        0
 91
        0
 92
      512
 93
        0
300

 40
0.0
140
1.0
 94
        5
 62
     0
340
10
144
6.0
309
CONTENTFORMAT_END
171
     1
301
MARGIN
  1
CELLMARGIN_BEGIN
 40
1.5
 40
1.5
 40
1.5
 40
1.5
 40
4.5
 40
4.5
309
CELLMARGIN_END
 94
        6
 95
        1
302
GRIDFORMAT
  1
GRIDFORMAT_BEGIN
 90
        0
 91
        1
 62
     0
 92
       -2
340
0
 93
        0
 40
1.125
309
GRIDFORMAT_END
 95
        2
302
GRIDFORMAT
  1
GRIDFORMAT_BEGIN
 90
        0
 91
        1
 62
     0
 92
       -2
340
0
 93
        0
 40
1.125
309
GRIDFORMAT_END
 95
        4
302
GRIDFORMAT
  1
GRIDFORMAT_BEGIN
 90
        0
 91
        1
 62
     0
 92
       -2
340
0
 93
        0
 40
1.125
309
GRIDFORMAT_END
 95
        8
302
GRIDFORMAT
  1
GRIDFORMAT_BEGIN
 90
        0
 91
        1
 62
     0
 92
       -2
340
0
 93
        0
 40
1.125
309
GRIDFORMAT_END
 95
       16
302
GRIDFORMAT
  1
GRIDFORMAT_BEGIN
 90
        0
 91
        1
 62
     0
 92
       -2
340
0
 93
        0
 40
1.125
309
GRIDFORMAT_END
 95
       32
302
GRIDFORMAT
  1
GRIDFORMAT_BEGIN
 90
        0
 91
        1
 62
     0
 92
       -2
340
0
 93
        0
 40
1.125
309
GRIDFORMAT_END
309
TABLEFORMAT_END
  1
CELLSTYLE_BEGIN
 90
        1
 91
        1
300
_TITLE
309
CELLSTYLE_END
300
CELLSTYLE
  1
TABLEFORMAT_BEGIN
 90
        5
170
     1
 91
        0
 92
        0
 62
   257
 93
        1
300
CONTENTFORMAT
  1
CONTENTFORMAT_BEGIN
 90
        0
 91
        0
 92
      512
 93
        0
300

 40
0.0
140
1.0
 94
        5
 62
     0
340
10
144
4.5
309
CONTENTFORMAT_END
171
     1
301
MARGIN
  1
CELLMARGIN_BEGIN
 40
1.5
 40
1.5
 40
1.5
 40
1.5
 40
4.5
 40
4.5
309
CELLMARGIN_END
 94
        6
 95
        1
302
GRIDFORMAT
  1
GRIDFORMAT_BEGIN
 90
        0
 91
        1
 62
     0
 92
       -2
340
0
 93
        0
 40
1.125
309
GRIDFORMAT_END
 95
        2
302
GRIDFORMAT
  1
GRIDFORMAT_BEGIN
 90
        0
 91
        1
 62
     0
 92
       -2
340
0
 93
        0
 40
1.125
309
GRIDFORMAT_END
 95
        4
302
GRIDFORMAT
  1
GRIDFORMAT_BEGIN
 90
        0
 91
        1
 62
     0
 92
       -2
340
0
 93
        0
 40
1.125
309
GRIDFORMAT_END
 95
        8
302
GRIDFORMAT
  1
GRIDFORMAT_BEGIN
 90
        0
 91
        1
 62
     0
 92
       -2
340
0
 93
        0
 40
1.125
309
GRIDFORMAT_END
 95
       16
302
GRIDFORMAT
  1
GRIDFORMAT_BEGIN
 90
        0
 91
        1
 62
     0
 92
       -2
340
0
 93
        0
 40
1.125
309
GRIDFORMAT_END
 95
       32
302
GRIDFORMAT
  1
GRIDFORMAT_BEGIN
 90
        0
 91
        1
 62
     0
 92
       -2
340
0
 93
        0
 40
1.125
309
GRIDFORMAT_END
309
TABLEFORMAT_END
  1
CELLSTYLE_BEGIN
 90
        2
 91
        1
300
_HEADER
309
CELLSTYLE_END
300
CELLSTYLE
  1
TABLEFORMAT_BEGIN
 90
        5
170
     1
 91
        0
 92
        0
 62
   257
 93
        1
300
CONTENTFORMAT
  1
CONTENTFORMAT_BEGIN
 90
        0
 91
        0
 92
      512
 93
        0
300

 40
0.0
140
1.0
 94
        2
 62
     0
340
10
144
4.5
309
CONTENTFORMAT_END
171
     1
301
MARGIN
  1
CELLMARGIN_BEGIN
 40
1.5
 40
1.5
 40
1.5
 40
1.5
 40
4.5
 40
4.5
309
CELLMARGIN_END
 94
        6
 95
        1
302
GRIDFORMAT
  1
GRIDFORMAT_BEGIN
 90
        0
 91
        1
 62
     0
 92
       -2
340
0
 93
        0
 40
1.125
309
GRIDFORMAT_END
 95
        2
302
GRIDFORMAT
  1
GRIDFORMAT_BEGIN
 90
        0
 91
        1
 62
     0
 92
       -2
340
0
 93
        0
 40
1.125
309
GRIDFORMAT_END
 95
        4
302
GRIDFORMAT
  1
GRIDFORMAT_BEGIN
 90
        0
 91
        1
 62
     0
 92
       -2
340
0
 93
        0
 40
1.125
309
GRIDFORMAT_END
 95
        8
302
GRIDFORMAT
  1
GRIDFORMAT_BEGIN
 90
        0
 91
        1
 62
     0
 92
       -2
340
0
 93
        0
 40
1.125
309
GRIDFORMAT_END
 95
       16
302
GRIDFORMAT
  1
GRIDFORMAT_BEGIN
 90
        0
 91
        1
 62
     0
 92
       -2
340
0
 93
        0
 40
1.125
309
GRIDFORMAT_END
 95
       32
302
GRIDFORMAT
  1
GRIDFORMAT_BEGIN
 90
        0
 91
        1
 62
     0
 92
       -2
340
0
 93
        0
 40
1.125
309
GRIDFORMAT_END
309
TABLEFORMAT_END
  1
CELLSTYLE_BEGIN
 90
        3
 91
        2
300
_DATA
309
CELLSTYLE_END
  0
ENDSEC
  0
SECTION
  2
ACDSDATA
 70
     2
 71
     8
  0
ACDSSCHEMA
 90
        0
  1
AcDb_Thumbnail_Schema
  2
AcDbDs::ID
280
    10
 91
        8
  2
Thumbnail_Data
280
    15
 91
        0
101
ACDSRECORD
 95
        0
 90
        1
  2
AcDbDs::TreatedAsObjectData
280
     1
291
     1
101
ACDSRECORD
 95
        0
 90
        2
  2
AcDbDs::Legacy
280
     1
291
     1
101
ACDSRECORD
  1
AcDbDs::ID
 90
        3
  2
AcDs:Indexable
280
     1
291
     1
101
ACDSRECORD
  1
AcDbDs::ID
 90
        4
  2
AcDbDs::HandleAttribute
280
     7
282
     1
  0
ACDSSCHEMA
 90
        1
  1
AcDbDs::TreatedAsObjectDataSchema
  2
AcDbDs::TreatedAsObjectData
280
     1
 91
        0
  0
ACDSSCHEMA
 90
        2
  1
AcDbDs::LegacySchema
  2
AcDbDs::Legacy
280
     1
 91
        0
  0
ACDSSCHEMA
 90
        3
  1
AcDbDs::IndexedPropertySchema
  2
AcDs:Indexable
280
     1
 91
        0
  0
ACDSSCHEMA
 90
        4
  1
AcDbDs::HandleAttributeSchema
  2
AcDbDs::HandleAttribute
280
     7
 91
        1
284
     1
  0
ACDSRECORD
 90
        0
  2
AcDbDs::ID
280
    10
320
A2E6
  2
Thumbnail_Data
280
    15
 94
     1713
310
89504E470D0A1A0A0000000D49484452000001000000007C0803000000B13B9E5A00000300504C5445000000000000C8C8C80000000000000000000000000000000000000000000000000000330000660000990000CC0000FF0033000033330033660033990033CC0033FF0066000066330066660066990066CC0066FF0099
310
000099330099660099990099CC0099FF00CC0000CC3300CC6600CC9900CCCC00CCFF00FF0000FF3300FF6600FF9900FFCC00FFFF3300003300333300663300993300CC3300FF3333003333333333663333993333CC3333FF3366003366333366663366993366CC3366FF3399003399333399663399993399CC3399FF33CC00
310
33CC3333CC6633CC9933CCCC33CCFF33FF0033FF3333FF6633FF9933FFCC33FFFF6600006600336600666600996600CC6600FF6633006633336633666633996633CC6633FF6666006666336666666666996666CC6666FF6699006699336699666699996699CC6699FF66CC0066CC3366CC6666CC9966CCCC66CCFF66FF0066
310
FF3366FF6666FF9966FFCC66FFFF9900009900339900669900999900CC9900FF9933009933339933669933999933CC9933FF9966009966339966669966999966CC9966FF9999009999339999669999999999CC9999FF99CC0099CC3399CC6699CC9999CCCC99CCFF99FF0099FF3399FF6699FF9999FFCC99FFFFCC0000CC00
310
33CC0066CC0099CC00CCCC00FFCC3300CC3333CC3366CC3399CC33CCCC33FFCC6600CC6633CC6666CC6699CC66CCCC66FFCC9900CC9933CC9966CC9999CC99CCCC99FFCCCC00CCCC33CCCC66CCCC99CCCCCCCCCCFFCCFF00CCFF33CCFF66CCFF99CCFFCCCCFFFFFF0000FF0033FF0066FF0099FF00CCFF00FFFF3300FF3333
310
FF3366FF3399FF33CCFF33FFFF6600FF6633FF6666FF6699FF66CCFF66FFFF9900FF9933FF9966FF9999FF99CCFF99FFFFCC00FFCC33FFCC66FFCC99FFCCCCFFCCFFFFFF00FFFF33FFFF66FFFF99FFFFCCFFFFFF0000000D0D0D1A1A1A2828283535354343435050505D5D5D6B6B6B787878868686939393A1A1A1AEAEAEBB
310
BBBBC9C9C9D6D6D6E4E4E4F1F1F1FFFFFF00000000000000000000000000000000000000000000000000000000000008F1915C0000036C4944415478DAED9D5B8EEB200C86BD1CBF78FF6F5909DBE0FD04C2C580939E4A33A3601B6926694AA2FAE3C7984B29C02FA4F84B09764971ABC73A0007E0001C800378CF277D68FC
310
AC00986E8F2615601E40B40C60AA057B03F8D11EC096005EF63007F0F7008A8C2755F763AEF5E5A6AAF7F246B97F7F00050374CBA1FF15CB4B00D0915CEF438C2A1400BCE86150C2C88189A11E3400B874DCA4109B2A9E4D8BEE043D0E30D8197A78C2B600D622E5853BC9253705200E022B0410236BE8BB77ACBE531B8056
310
C4BDCF1B59666EBE2E003F75BF8F093A0007B02B8070A6BB57EA0184A7640280787A73C1080034098088024DE9BB6AB03B807EA92980BE52810370000EC001380007E000360580846B22341F083900E50052AC5F037FA30052270893F5469D6002701A6C1540080EC00138800A404A969C20986C0592028E03690570580110
310
C221273B83A2370000AC0C8B9B07C0CF27C9DB00607D6EF0F58F75000EE04D9F947B86D94B5800102C03F8D8562800D0AD11DAC02066646F6C0E2074BBCE7FD75958008495941A009F02A170934B9302E6D35B050CEB88F401C8C6B5EE70137BBAB82C23227500AE79826B8884F2650EA00D9D60CBAE0B4036900F89CD00A0
310
20C09A5D17001AEBB704A064C29A5D150082FF01005525E5851E0073FDCE93A3028032924CA00C00810820AC00CE13A49E471B80EEEAEF01003BD102809AF9D49B414B0A20E00EAE7A781180521F30C50164AF15B80CACB30239C8E100CEABEAE30002362F3201382E00AA2341A26C3B266B6F00E8EE0B9C00D2BC70991DAE
310
93A31D80BC86400700244C06221E798DE8711E5A7FF819002951C035250E4501B90A14BD330062B4481A0024E34A2B77B0666006400200DA1FC06530B166A0C70400AC0A80A800D81C00B5562FE920BDC041DB1D00890AD81E40AEFC55F9D90D600B8326003A158007B3BDF586BA691500E6AF1468AD0243AD271A7ABECA15
310
50478159421A96D0B3F1E29BC5947B0360A52997AEF0950A4D0A08AB02C2F0E5E93E1D2EE7D91E403D0E7340C2E4689F1CBCC9A37E95D8A73CEAD7098621DF7AD515B0BF02C461B20F39B707F0FAC73A0007E0001C8003F8B34F6A7E57D9EF2DD306004400EBCEEB7D136EB50A982EC2B0093BF4CD55DD0768AC0270F33322
310
067C8058B46DDF7980653B614B00EADECA5600F8EEF21E0A3B0007E0001C800370000A016CF4D3DBFF0047EC2E944AE4427B0000000049454E44AE426082
  0
ENDSEC
  0
EOF
