  0
SECTION
  2
HEADER
  9
$ACADVER
  1
AC1009
  9
$INSBASE
 10
0.0
 20
0.0
 30
0.0
  9
$EXTMIN
 10
0.0
 20
0.0
 30
0.0
  9
$EXTMAX
 10
9450.0
 20
13275.0
 30
0.0
  9
$LIMMIN
 10
0.0
 20
0.0
  9
$LIMMAX
 10
297.0
 20
210.0
  9
$ORTHOMODE
 70
     1
  9
$REGENMODE
 70
     1
  9
$FILLMODE
 70
     0
  9
$QTEXTMODE
 70
     0
  9
$MIRRTEXT
 70
     1
  9
$DRAGMODE
 70
     2
  9
$LTSCALE
 40
100.0
  9
$OSMODE
 70
   545
  9
$ATTMODE
 70
     1
  9
$TEXTSIZE
 40
180.0
  9
$TRACEWID
 40
0.05
  9
$TEXTSTYLE
  7
STANDARD
  9
$CLAYER
  8
3
  9
$CELTYPE
  6
BYLAYER
  9
$CECOLOR
 62
   256
  9
$DIMSCALE
 40
45.0
  9
$DIMASZ
 40
2.0
  9
$DIMEXO
 40
0.5
  9
$DIMDLI
 40
10.0
  9
$DIMRND
 40
0.0
  9
$DIMDLE
 40
0.0
  9
$DIMEXE
 40
1.0
  9
$DIMTP
 40
1.0
  9
$DIMTM
 40
1.0
  9
$DIMTXT
 40
3.0
  9
$DIMCEN
 40
0.0
  9
$DIMTSZ
 40
0.0
  9
$DIMTOL
 70
     0
  9
$DIMLIM
 70
     0
  9
$DIMTIH
 70
     0
  9
$DIMTOH
 70
     0
  9
$DIMSE1
 70
     0
  9
$DIMSE2
 70
     0
  9
$DIMTAD
 70
     1
  9
$DIMZIN
 70
     8
  9
$DIMBLK
  1

  9
$DIMASO
 70
     1
  9
$DIMSHO
 70
     1
  9
$DIMPOST
  1

  9
$DIMAPOST
  1

  9
$DIMALT
 70
     0
  9
$DIMALTD
 70
     2
  9
$DIMALTF
 40
0.039
  9
$DIMLFAC
 40
1.0
  9
$DIMTOFL
 70
     0
  9
$DIMTVP
 40
0.0
  9
$DIMTIX
 70
     0
  9
$DIMSOXD
 70
     0
  9
$DIMSAH
 70
     1
  9
$DIMBLK1
  1
OPEN
  9
$DIMBLK2
  1
OPEN
  9
$DIMSTYLE
  2
IGA
  9
$DIMCLRD
 70
     0
  9
$DIMCLRE
 70
     0
  9
$DIMCLRT
 70
     0
  9
$DIMTFAC
 40
10.0
  9
$DIMGAP
 40
1.0
  9
$LUNITS
 70
     2
  9
$LUPREC
 70
     3
  9
$SKETCHINC
 40
0.1
  9
$FILLETRAD
 40
50.0
  9
$AUNITS
 70
     0
  9
$AUPREC
 70
     0
  9
$MENU
  1
acad
  9
$ELEVATION
 40
0.0
  9
$PELEVATION
 40
0.0
  9
$THICKNESS
 40
0.0
  9
$LIMCHECK
 70
     0
  9
$BLIPMODE
 70
     0
  9
$CHAMFERA
 40
0.5
  9
$CHAMFERB
 40
0.5
  9
$SKPOLY
 70
     0
  9
$TDCREATE
 40
2451845.4205035879
  9
$TDUPDATE
 40
2455012.448746921
  9
$TDINDWG
 40
0.0573963426
  9
$TDUSRTIMER
 40
0.0573963426
  9
$USRTIMER
 70
     1
  9
$ANGBASE
 50
0.0
  9
$ANGDIR
 70
     0
  9
$PDMODE
 70
     0
  9
$PDSIZE
 40
0.0
  9
$PLINEWID
 40
0.0
  9
$COORDS
 70
     2
  9
$SPLFRAME
 70
     0
  9
$SPLINETYPE
 70
     6
  9
$SPLINESEGS
 70
     8
  9
$ATTDIA
 70
     0
  9
$ATTREQ
 70
     1
  9
$HANDLING
 70
 22529
  9
$HANDSEED
  5
8E69
  9
$SURFTAB1
 70
     6
  9
$SURFTAB2
 70
     6
  9
$SURFTYPE
 70
     6
  9
$SURFU
 70
     6
  9
$SURFV
 70
     6
  9
$UCSNAME
  2

  9
$UCSORG
 10
0.0
 20
0.0
 30
0.0
  9
$UCSXDIR
 10
1.0
 20
0.0
 30
0.0
  9
$UCSYDIR
 10
0.0
 20
1.0
 30
0.0
  9
$PUCSNAME
  2

  9
$PUCSORG
 10
0.0
 20
0.0
 30
0.0
  9
$PUCSXDIR
 10
1.0
 20
0.0
 30
0.0
  9
$PUCSYDIR
 10
0.0
 20
1.0
 30
0.0
  9
$USERI1
 70
     0
  9
$USERI2
 70
     0
  9
$USERI3
 70
     0
  9
$USERI4
 70
     0
  9
$USERI5
 70
     0
  9
$USERR1
 40
0.0
  9
$USERR2
 40
0.0
  9
$USERR3
 40
0.0
  9
$USERR4
 40
0.0
  9
$USERR5
 40
0.0
  9
$WORLDVIEW
 70
     1
  9
$SHADEDGE
 70
     3
  9
$SHADEDIF
 70
    70
  9
$TILEMODE
 70
     1
  9
$MAXACTVP
 70
    16
  9
$PLIMCHECK
 70
     0
  9
$PEXTMIN
 10
1.0000000000000000E+020
 20
1.0000000000000000E+020
 30
1.0000000000000000E+020
  9
$PEXTMAX
 10
-1.0000000000000000E+020
 20
-1.0000000000000000E+020
 30
-1.0000000000000000E+020
  9
$PLIMMIN
 10
0.0
 20
0.0
  9
$PLIMMAX
 10
12.0
 20
9.0
  9
$UNITMODE
 70
     0
  9
$VISRETAIN
 70
     0
  9
$PLINEGEN
 70
     0
  9
$PSLTSCALE
 70
     1
  0
ENDSEC
  0
SECTION
  2
TABLES
  0
TABLE
  2
VPORT
 70
     2
  0
VPORT
  2
*ACTIVE
 70
     0
 10
0.0
 20
0.0
 11
1.0
 21
1.0
 12
4725.0000220024922
 22
6637.5000309082689
 13
0.0
 23
0.0
 14
10.0
 24
10.0
 15
10.0
 25
10.0
 16
0.0
 26
0.0
 36
1.0
 17
0.0
 27
0.0
 37
0.0
 40
13384.18420285689
 41
1.6307901907356941
 42
50.0
 43
0.0
 44
0.0
 50
0.0
 51
0.0
 71
     0
 72
   100
 73
     1
 74
     0
 75
     0
 76
     0
 77
     0
 78
     0
  0
ENDTAB
  0
TABLE
  2
LTYPE
 70
     2
  0
LTYPE
  2
CONTINUOUS
 70
     0
  3
Solid line
 72
    65
 73
     0
 40
0.0
  0
LTYPE
  2
CENTER
 70
     0
  3
____ _ ____ _ ____ _ ____ _ ____ _ ____ _ ____ 
 72
    65
 73
     4
 40
2.0
 49
1.25
 49
-0.25
 49
0.25
 49
-0.25
  0
ENDTAB
  0
TABLE
  2
LAYER
 70
     6
  0
LAYER
  2
0
 70
     0
 62
     7
  6
CONTINUOUS
  0
LAYER
  2
3
 70
     0
 62
     2
  6
CONTINUOUS
  0
LAYER
  2
2
 70
     0
 62
     3
  6
CENTER
  0
LAYER
  2
1
 70
     0
 62
     4
  6
CONTINUOUS
  0
LAYER
  2
4
 70
     0
 62
     7
  6
CONTINUOUS
  0
LAYER
  2
DEFPOINTS
 70
     0
 62
     7
  6
CONTINUOUS
  0
ENDTAB
  0
TABLE
  2
STYLE
 70
     1
  0
STYLE
  2
STANDARD
 70
     0
 40
0.0
 41
1.0
 50
0.0
 71
     0
 42
180.0
  3
simplex.shx
  4
extfont.shx
  0
ENDTAB
  0
TABLE
  2
VIEW
 70
     0
  0
ENDTAB
  0
TABLE
  2
UCS
 70
     0
  0
ENDTAB
  0
TABLE
  2
APPID
 70
     1
  0
APPID
  2
ACAD
 70
     0
  0
ENDTAB
  0
TABLE
  2
DIMSTYLE
 70
     1
  0
DIMSTYLE
  2
IGA
 70
     0
  3

  4

  5

  6
OPEN
  7
OPEN
 40
2.0
 41
2.0
 42
0.5
 43
10.0
 44
1.0
 45
0.0
 46
0.0
 47
1.0
 48
1.0
140
3.0
141
0.0
142
0.0
143
0.03937
144
1.0
145
0.0
146
10.0
147
1.0
 71
     0
 72
     0
 73
     0
 74
     0
 75
     0
 76
     0
 77
     1
 78
     8
170
     0
171
     2
172
     0
173
     1
174
     0
175
     0
176
     0
177
     0
178
     0
  0
ENDTAB
  0
ENDSEC
  0
SECTION
  2
BLOCKS
  0
BLOCK
  8
0
  2
$MODEL_SPACE
 70
     0
 10
0.0
 20
0.0
 30
0.0
  3
$MODEL_SPACE
  1

  0
ENDBLK
  5
1B
  8
0
  0
BLOCK
 67
     1
  8
0
  2
$PAPER_SPACE
 70
     0
 10
0.0
 20
0.0
 30
0.0
  3
$PAPER_SPACE
  1

  0
ENDBLK
  5
18
 67
     1
  8
0
  0
BLOCK
  8
0
  2
YA_N
 70
     0
 10
0.0
 20
0.0
 30
0.0
  3
YA_N
  1

  0
ENDBLK
  5
79FE
  8
0
  0
BLOCK
  8
0
  2
_OPEN
 70
     0
 10
0.0
 20
0.0
 30
0.0
  3
_OPEN
  1

  0
LINE
  5
7B50
  8
0
  6
BYBLOCK
 62
     0
 10
-1.0
 20
0.166667
 30
0.0
 11
0.0
 21
0.0
 31
0.0
  0
LINE
  5
7B51
  8
0
  6
BYBLOCK
 62
     0
 10
0.0
 20
0.0
 30
0.0
 11
-1.0
 21
-0.166667
 31
0.0
  0
LINE
  5
7B52
  8
0
  6
BYBLOCK
 62
     0
 10
0.0
 20
0.0
 30
0.0
 11
-1.0
 21
0.0
 31
0.0
  0
ENDBLK
  5
7B53
  8
0
  0
BLOCK
  8
0
  2
_DOT
 70
     0
 10
0.0
 20
0.0
 30
0.0
  3
_DOT
  1

  0
LINE
  5
7D69
  8
0
  6
BYBLOCK
 62
     0
 10
0.0
 20
0.0
 30
0.0
 11
-1.0
 21
0.0
 31
0.0
  0
POLYLINE
  5
7D6A
  8
0
  6
BYBLOCK
 62
     0
 66
     1
 10
0.0
 20
0.0
 30
0.0
 70
     1
 40
0.166667
 41
0.166667
  0
VERTEX
  5
8D79
  8
0
  6
BYBLOCK
 62
     0
 10
-0.083333
 20
0.0
 30
0.0
 42
1.0
  0
VERTEX
  5
8D7A
  8
0
  6
BYBLOCK
 62
     0
 10
0.083333
 20
0.0
 30
0.0
 42
1.0
  0
SEQEND
  5
8D7B
  8
0
  6
BYBLOCK
 62
     0
  0
ENDBLK
  5
7D3B
  8
0
  0
BLOCK
  8
0
  2
*D3
 70
     1
 10
0.0
 20
0.0
 30
0.0
  3
*D3
  1

  0
LINE
  5
8D7C
  8
3
 62
     0
 10
6486.6376499999997
 20
3053.554669227151
 30
0.0
 11
6486.6376499999997
 21
2578.4288962645528
 31
0.0
  0
LINE
  5
8D7D
  8
3
 62
     0
 10
7597.6376499999997
 20
2998.9124062271499
 30
0.0
 11
7597.6376499999997
 21
2578.4288962645528
 31
0.0
  0
LINE
  5
8D7E
  8
3
 62
     0
 10
6576.6376499999988
 20
2623.4288962645528
 30
0.0
 11
7507.6376499999988
 21
2623.4288962645528
 31
0.0
  0
INSERT
  5
8D7F
  8
3
 62
     0
  2
_OPEN
 10
6486.6376499999997
 20
2623.4288962645528
 30
0.0
 41
90.0
 42
90.0
 43
90.0
 50
180.0
  0
INSERT
  5
8D80
  8
3
 62
     0
  2
_OPEN
 10
7597.6376499999997
 20
2623.4288962645528
 30
0.0
 41
90.0
 42
90.0
 43
90.0
  0
TEXT
  8
3
  40
135
  5
8E51
  62
0
  72
0
  71
0
 10
6794.64
 20
2496.98
 30
0.000000
  1
1111
  0
POINT
  5
8D82
  8
DEFPOINTS
 62
     0
 10
6486.6376499999997
 20
3076.054669227151
 30
0.0
  0
POINT
  5
8D83
  8
DEFPOINTS
 62
     0
 10
7597.6376499999997
 20
3021.4124062271512
 30
0.0
  0
POINT
  5
8D84
  8
DEFPOINTS
 62
     0
 10
7597.6376499999997
 20
2623.4288962645528
 30
0.0
  0
ENDBLK
  5
85EA
  8
0
  0
BLOCK
  8
0
  2
*D4
 70
     1
 10
0.0
 20
0.0
 30
0.0
  3
*D4
  1

  0
LINE
  5
8D85
  8
3
 62
     0
 10
8336.6376500000006
 20
3053.554669227151
 30
0.0
 11
8336.6376500000006
 21
2578.4288962645528
 31
0.0
  0
LINE
  5
8D86
  8
3
 62
     0
 10
7687.6376499999988
 20
2623.4288962645528
 30
0.0
 11
8246.6376500000024
 21
2623.4288962645528
 31
0.0
  0
INSERT
  5
8D87
  8
3
 62
     0
  2
_OPEN
 10
7597.6376499999997
 20
2623.4288962645528
 30
0.0
 41
90.0
 42
90.0
 43
90.0
 50
180.0
  0
INSERT
  5
8D88
  8
3
 62
     0
  2
_OPEN
 10
8336.6376500000006
 20
2623.4288962645528
 30
0.0
 41
90.0
 42
90.0
 43
90.0
  0
TEXT
  8
3
  40
135
  5
8E52
  62
0
  72
0
  71
0
 10
7697.14
 20
2496.98
 30
0.000000
  1
739
  0
POINT
  5
8D8A
  8
DEFPOINTS
 62
     0
 10
7597.6376499999997
 20
3021.4124062271512
 30
0.0
  0
POINT
  5
8D8B
  8
DEFPOINTS
 62
     0
 10
8336.6376500000006
 20
3076.054669227151
 30
0.0
  0
POINT
  5
8D8C
  8
DEFPOINTS
 62
     0
 10
8336.6376500000006
 20
2623.4288962645528
 30
0.0
  0
ENDBLK
  5
85DF
  8
0
  0
BLOCK
  8
0
  2
*D5
 70
     1
 10
0.0
 20
0.0
 30
0.0
  3
*D5
  1

  0
LINE
  5
8D8D
  8
3
 62
     0
 10
6486.6376499999997
 20
3053.554669227151
 30
0.0
 11
6486.6376499999997
 21
2250.0718941813898
 31
0.0
  0
LINE
  5
8D8E
  8
3
 62
     0
 10
8336.6376500000006
 20
3053.554669227151
 30
0.0
 11
8336.6376500000006
 21
2250.0718941813898
 31
0.0
  0
LINE
  5
8D8F
  8
3
 62
     0
 10
6576.6376499999988
 20
2295.0718941813898
 30
0.0
 11
8246.6376500000024
 21
2295.0718941813898
 31
0.0
  0
INSERT
  5
8D90
  8
3
 62
     0
  2
_OPEN
 10
6486.6376499999997
 20
2295.0718941813898
 30
0.0
 41
90.0
 42
90.0
 43
90.0
 50
180.0
  0
INSERT
  5
8D91
  8
3
 62
     0
  2
_OPEN
 10
8336.6376500000006
 20
2295.0718941813898
 30
0.0
 41
90.0
 42
90.0
 43
90.0
  0
TEXT
  8
3
  40
135
  5
8E53
  62
0
  72
0
  71
0
 10
7216.83
 20
2168.62
 30
0.000000
  1
1850
  0
POINT
  5
8D93
  8
DEFPOINTS
 62
     0
 10
6486.6376499999997
 20
3076.054669227151
 30
0.0
  0
POINT
  5
8D94
  8
DEFPOINTS
 62
     0
 10
8336.6376500000006
 20
3076.054669227151
 30
0.0
  0
POINT
  5
8D95
  8
DEFPOINTS
 62
     0
 10
8336.6376500000006
 20
2295.0718941813898
 30
0.0
  0
ENDBLK
  5
85F5
  8
0
  0
BLOCK
  8
0
  2
*D6
 70
     1
 10
0.0
 20
0.0
 30
0.0
  3
*D6
  1

  0
LINE
  5
8D96
  8
3
 62
     0
 10
8415.1376500000006
 20
5596.11824922715
 30
0.0
 11
8822.5519080000013
 21
5596.11824922715
 31
0.0
  0
LINE
  5
8D97
  8
3
 62
     0
 10
8415.1376500000006
 20
3796.11824922715
 30
0.0
 11
8822.5519079999995
 21
3796.11824922715
 31
0.0
  0
LINE
  5
8D98
  8
3
 62
     0
 10
8777.5519080000013
 20
5506.1182492271491
 30
0.0
 11
8777.5519079999995
 21
3886.11824922715
 31
0.0
  0
INSERT
  5
8D99
  8
3
 62
     0
  2
_OPEN
 10
8777.5519080000013
 20
5596.11824922715
 30
0.0
 41
90.0
 42
90.0
 43
90.0
 50
90.0
  0
INSERT
  5
8D9A
  8
3
 62
     0
  2
_OPEN
 10
8777.5519079999995
 20
3796.11824922715
 30
0.0
 41
90.0
 42
90.0
 43
90.0
 50
270.0
  0
TEXT
  8
3
  40
135
  5
8E54
  62
0
  72
0
  71
0
 10
8395.05
 20
4402.88
 30
0.000000
  1
φ1800
  0
POINT
  5
8D9C
  8
DEFPOINTS
 62
     0
 10
8392.6376500000006
 20
5596.11824922715
 30
0.0
  0
POINT
  5
8D9D
  8
DEFPOINTS
 62
     0
 10
8392.6376500000006
 20
3796.11824922715
 30
0.0
  0
POINT
  5
8D9E
  8
DEFPOINTS
 62
     0
 10
8777.5519079999995
 20
3796.11824922715
 30
0.0
  0
ENDBLK
  5
825D
  8
0
  0
BLOCK
  8
0
  2
*D7
 70
     1
 10
0.0
 20
0.0
 30
0.0
  3
*D7
  1

  0
LINE
  5
8D9F
  8
3
 62
     0
 10
8392.6376500000006
 20
5683.61824922715
 30
0.0
 11
8392.6376500000006
 21
7211.2087289752171
 31
0.0
  0
LINE
  5
8DA0
  8
3
 62
     0
 10
7597.6376499999997
 20
7047.555187372549
 30
0.0
 11
7597.6376499999997
 21
7211.2087289752171
 31
0.0
  0
LINE
  5
8DA1
  8
3
 62
     0
 10
8302.6376500000006
 20
7166.2087289752171
 30
0.0
 11
7687.6376499999988
 21
7166.2087289752171
 31
0.0
  0
INSERT
  5
8DA2
  8
3
 62
     0
  2
_OPEN
 10
8392.6376500000006
 20
7166.2087289752171
 30
0.0
 41
90.0
 42
90.0
 43
90.0
  0
INSERT
  5
8DA3
  8
3
 62
     0
  2
_OPEN
 10
7597.6376499999997
 20
7166.2087289752171
 30
0.0
 41
90.0
 42
90.0
 43
90.0
 50
180.0
  0
TEXT
  8
3
  40
135
  5
8E55
  62
0
  72
0
  71
0
 10
7735.53
 20
7039.76
 30
0.000000
  1
795
  0
POINT
  5
8DA5
  8
DEFPOINTS
 62
     0
 10
8392.6376500000006
 20
5661.118249227151
 30
0.0
  0
POINT
  5
8DA6
  8
DEFPOINTS
 62
     0
 10
7597.6376499999997
 20
7025.0551873725481
 30
0.0
  0
POINT
  5
8DA7
  8
DEFPOINTS
 62
     0
 10
7597.6376499999997
 20
7166.2087289752171
 30
0.0
  0
ENDBLK
  5
8670
  8
0
  0
BLOCK
  8
0
  2
*D8
 70
     1
 10
0.0
 20
0.0
 30
0.0
  3
*D8
  1

  0
LINE
  5
8DA8
  8
3
 62
     0
 10
6497.6376499999997
 20
5198.61824922715
 30
0.0
 11
6497.6376499999997
 21
7211.2087289752171
 31
0.0
  0
LINE
  5
8DA9
  8
3
 62
     0
 10
7507.6376499999988
 20
7166.2087289752171
 30
0.0
 11
6587.6376499999988
 21
7166.2087289752171
 31
0.0
  0
INSERT
  5
8DAA
  8
3
 62
     0
  2
_OPEN
 10
7597.6376499999997
 20
7166.2087289752171
 30
0.0
 41
90.0
 42
90.0
 43
90.0
  0
INSERT
  5
8DAB
  8
3
 62
     0
  2
_OPEN
 10
6497.6376499999997
 20
7166.2087289752171
 30
0.0
 41
90.0
 42
90.0
 43
90.0
 50
180.0
  0
TEXT
  8
3
  40
135
  5
8E56
  62
0
  72
0
  71
0
 10
6777.64
 20
7075.12
 30
0.000000
  1
(1150)
  0
POINT
  5
8DAD
  8
DEFPOINTS
 62
     0
 10
7597.6376499999997
 20
6855.407678258558
 30
0.0
  0
POINT
  5
8DAE
  8
DEFPOINTS
 62
     0
 10
6497.6376499999997
 20
5176.11824922715
 30
0.0
  0
POINT
  5
8DAF
  8
DEFPOINTS
 62
     0
 10
6497.6376499999997
 20
7166.2087289752171
 30
0.0
  0
ENDBLK
  5
865A
  8
0
  0
BLOCK
  8
0
  2
*D9
 70
     1
 10
0.0
 20
0.0
 30
0.0
  3
*D9
  1

  0
LINE
  5
8DB9
  8
3
 62
     0
 10
529.71085150795705
 20
3053.554669227151
 30
0.0
 11
529.71085150795705
 21
2628.4187662583299
 31
0.0
  0
LINE
  5
8DBA
  8
3
 62
     0
 10
3369.7108515079558
 20
2945.9689980150679
 30
0.0
 11
3369.7108515079558
 21
2628.4187662583299
 31
0.0
  0
LINE
  5
8DBB
  8
3
 62
     0
 10
619.71085150795705
 20
2673.418766258329
 30
0.0
 11
3279.7108515079558
 21
2673.418766258329
 31
0.0
  0
INSERT
  5
8DBC
  8
3
 62
     0
  2
_OPEN
 10
529.71085150795705
 20
2673.418766258329
 30
0.0
 41
90.0
 42
90.0
 43
90.0
 50
180.0
  0
INSERT
  5
8DBD
  8
3
 62
     0
  2
_OPEN
 10
3369.7108515079558
 20
2673.418766258329
 30
0.0
 41
90.0
 42
90.0
 43
90.0
  0
TEXT
  8
3
  40
135
  5
8E57
  62
0
  72
0
  71
0
 10
1761.79
 20
2546.97
 30
0.000000
  1
2840
  0
POINT
  5
8DBF
  8
DEFPOINTS
 62
     0
 10
529.71085150795705
 20
3076.054669227151
 30
0.0
  0
POINT
  5
8DC0
  8
DEFPOINTS
 62
     0
 10
3369.7108515079558
 20
2968.468998015067
 30
0.0
  0
POINT
  5
8DC1
  8
DEFPOINTS
 62
     0
 10
3369.7108515079558
 20
2673.418766258329
 30
0.0
  0
ENDBLK
  5
86AD
  8
0
  0
BLOCK
  8
0
  2
*D10
 70
     1
 10
0.0
 20
0.0
 30
0.0
  3
*D10
  1

  0
LINE
  5
8DC2
  8
3
 62
     0
 10
4429.7108515079562
 20
3053.554669227151
 30
0.0
 11
4429.7108515079562
 21
2628.4187662583299
 31
0.0
  0
LINE
  5
8DC3
  8
3
 62
     0
 10
3459.7108515079558
 20
2673.418766258329
 30
0.0
 11
4339.7108515079562
 21
2673.418766258329
 31
0.0
  0
INSERT
  5
8DC4
  8
3
 62
     0
  2
_OPEN
 10
3369.7108515079558
 20
2673.418766258329
 30
0.0
 41
90.0
 42
90.0
 43
90.0
 50
180.0
  0
INSERT
  5
8DC5
  8
3
 62
     0
  2
_OPEN
 10
4429.7108515079562
 20
2673.418766258329
 30
0.0
 41
90.0
 42
90.0
 43
90.0
  0
TEXT
  8
3
  40
135
  5
8E58
  62
0
  72
0
  71
0
 10
3629.71
 20
2546.97
 30
0.000000
  1
1060
  0
POINT
  5
8DC7
  8
DEFPOINTS
 62
     0
 10
3369.7108515079558
 20
2968.468998015067
 30
0.0
  0
POINT
  5
8DC8
  8
DEFPOINTS
 62
     0
 10
4429.7108515079562
 20
3076.054669227151
 30
0.0
  0
POINT
  5
8DC9
  8
DEFPOINTS
 62
     0
 10
4429.7108515079562
 20
2673.418766258329
 30
0.0
  0
ENDBLK
  5
86E5
  8
0
  0
BLOCK
  8
0
  2
*D11
 70
     1
 10
0.0
 20
0.0
 30
0.0
  3
*D11
  1

  0
LINE
  5
8DB0
  8
3
 62
     0
 10
529.71085150795705
 20
3053.554669227151
 30
0.0
 11
529.71085150795705
 21
2222.717789878232
 31
0.0
  0
LINE
  5
8DB1
  8
3
 62
     0
 10
4429.7108515079562
 20
3053.554669227151
 30
0.0
 11
4429.7108515079562
 21
2222.717789878232
 31
0.0
  0
LINE
  5
8DB2
  8
3
 62
     0
 10
619.71085150795705
 20
2267.717789878232
 30
0.0
 11
4339.7108515079562
 21
2267.717789878232
 31
0.0
  0
INSERT
  5
8DB3
  8
3
 62
     0
  2
_OPEN
 10
529.71085150795705
 20
2267.717789878232
 30
0.0
 41
90.0
 42
90.0
 43
90.0
 50
180.0
  0
INSERT
  5
8DB4
  8
3
 62
     0
  2
_OPEN
 10
4429.7108515079562
 20
2267.717789878232
 30
0.0
 41
90.0
 42
90.0
 43
90.0
  0
TEXT
  8
3
  40
135
  5
8E59
  62
0
  72
0
  71
0
 10
2364.92
 20
2141.27
 30
0.000000
  1
3900
  0
POINT
  5
8DB6
  8
DEFPOINTS
 62
     0
 10
529.71085150795705
 20
3076.054669227151
 30
0.0
  0
POINT
  5
8DB7
  8
DEFPOINTS
 62
     0
 10
4429.7108515079562
 20
3076.054669227151
 30
0.0
  0
POINT
  5
8DB8
  8
DEFPOINTS
 62
     0
 10
4429.7108515079562
 20
2267.717789878232
 30
0.0
  0
ENDBLK
  5
86B8
  8
0
  0
BLOCK
  8
0
  2
*D12
 70
     1
 10
0.0
 20
0.0
 30
0.0
  3
*D12
  1

  0
LINE
  5
8DCA
  8
3
 62
     0
 10
529.71085150795705
 20
3538.61824922715
 30
0.0
 11
529.71085150795739
 21
7102.8734099349231
 31
0.0
  0
LINE
  5
8DCB
  8
3
 62
     0
 10
4534.7108515079562
 20
6701.6182492271491
 30
0.0
 11
4534.7108515079562
 21
7102.8734099349231
 31
0.0
  0
LINE
  5
8DCC
  8
3
 62
     0
 10
619.71085150795727
 20
7057.873409934924
 30
0.0
 11
4444.7108515079562
 21
7057.873409934924
 31
0.0
  0
INSERT
  5
8DCD
  8
3
 62
     0
  2
_OPEN
 10
529.71085150795739
 20
7057.873409934924
 30
0.0
 41
90.0
 42
90.0
 43
90.0
 50
180.0
  0
INSERT
  5
8DCE
  8
3
 62
     0
  2
_OPEN
 10
4534.7108515079562
 20
7057.873409934924
 30
0.0
 41
90.0
 42
90.0
 43
90.0
  0
TEXT
  8
3
  40
135
  5
8E5A
  62
0
  72
0
  71
0
 10
2262.21
 20
6931.42
 30
0.000000
  1
4005
  0
POINT
  5
8DD0
  8
DEFPOINTS
 62
     0
 10
529.71085150795705
 20
3516.11824922715
 30
0.0
  0
POINT
  5
8DD1
  8
DEFPOINTS
 62
     0
 10
4534.7108515079562
 20
6679.1182492271491
 30
0.0
  0
POINT
  5
8DD2
  8
DEFPOINTS
 62
     0
 10
4534.7108515079562
 20
7057.873409934924
 30
0.0
  0
ENDBLK
  5
86A2
  8
0
  0
BLOCK
  8
0
  2
*D13
 70
     1
 10
0.0
 20
0.0
 30
0.0
  3
*D13
  1

  0
LINE
  5
8DD3
  8
3
 62
     0
 10
4534.7108515079562
 20
6724.1182492271491
 30
0.0
 11
4534.7108515079562
 21
6848.9506352395547
 31
0.0
  0
LINE
  5
8DD4
  8
3
 62
     0
 10
3369.7108515079558
 20
6627.6196802527547
 30
0.0
 11
3369.7108515079558
 21
6848.9506352395547
 31
0.0
  0
LINE
  5
8DD5
  8
3
 62
     0
 10
4444.7108515079562
 20
6803.9506352395547
 30
0.0
 11
3459.7108515079558
 21
6803.9506352395547
 31
0.0
  0
INSERT
  5
8DD6
  8
3
 62
     0
  2
_OPEN
 10
4534.7108515079562
 20
6803.9506352395547
 30
0.0
 41
90.0
 42
90.0
 43
90.0
  0
INSERT
  5
8DD7
  8
3
 62
     0
  2
_OPEN
 10
3369.7108515079558
 20
6803.9506352395547
 30
0.0
 41
90.0
 42
90.0
 43
90.0
 50
180.0
  0
TEXT
  8
3
  40
135
  5
8E5B
  62
0
  72
0
  71
0
 10
3682.21
 20
6677.50
 30
0.000000
  1
1165
  0
POINT
  5
8DD9
  8
DEFPOINTS
 62
     0
 10
4534.7108515079562
 20
6701.6182492271491
 30
0.0
  0
POINT
  5
8DDA
  8
DEFPOINTS
 62
     0
 10
3369.7108515079558
 20
6605.1196802527547
 30
0.0
  0
POINT
  5
8DDB
  8
DEFPOINTS
 62
     0
 10
3369.7108515079558
 20
6803.9506352395547
 30
0.0
  0
ENDBLK
  5
86FA
  8
0
  0
BLOCK
  8
0
  2
*D14
 70
     1
 10
0.0
 20
0.0
 30
0.0
  3
*D14
  1

  0
LINE
  5
8DDC
  8
3
 62
     0
 10
1815.710851507956
 20
4849.6182492271491
 30
0.0
 11
1815.710851507956
 21
6848.9506352395547
 31
0.0
  0
LINE
  5
8DDD
  8
3
 62
     0
 10
3279.7108515079558
 20
6803.9506352395547
 30
0.0
 11
1905.710851507956
 21
6803.9506352395547
 31
0.0
  0
INSERT
  5
8DDE
  8
3
 62
     0
  2
_OPEN
 10
3369.7108515079558
 20
6803.9506352395547
 30
0.0
 41
90.0
 42
90.0
 43
90.0
  0
INSERT
  5
8DDF
  8
3
 62
     0
  2
_OPEN
 10
1815.710851507956
 20
6803.9506352395547
 30
0.0
 41
90.0
 42
90.0
 43
90.0
 50
180.0
  0
TEXT
  8
3
  40
135
  5
8E5C
  62
0
  72
0
  71
0
 10
2322.71
 20
6677.50
 30
0.000000
  1
1554
  0
POINT
  5
8DE1
  8
DEFPOINTS
 62
     0
 10
3369.7108515079558
 20
6605.1196802527547
 30
0.0
  0
POINT
  5
8DE2
  8
DEFPOINTS
 62
     0
 10
1815.710851507956
 20
4827.1182492271491
 30
0.0
  0
POINT
  5
8DE3
  8
DEFPOINTS
 62
     0
 10
1815.710851507956
 20
6803.9506352395547
 30
0.0
  0
ENDBLK
  5
86EF
  8
0
  0
BLOCK
  8
0
  2
*D15
 70
     1
 10
0.0
 20
0.0
 30
0.0
  3
*D15
  1

  0
LINE
  5
8DE4
  8
3
 62
     0
 10
4556.9948845079571
 20
6617.4080872271506
 30
0.0
 11
5198.24628897397
 21
6617.4080872271506
 31
0.0
  0
LINE
  5
8DE5
  8
3
 62
     0
 10
4557.2108515079562
 20
4767.1182492271491
 30
0.0
 11
5198.2462889739691
 21
4767.1182492271491
 31
0.0
  0
LINE
  5
8DE6
  8
3
 62
     0
 10
5153.24628897397
 20
6527.4080872271497
 30
0.0
 11
5153.2462889739691
 21
4857.1182492271482
 31
0.0
  0
INSERT
  5
8DE7
  8
3
 62
     0
  2
_OPEN
 10
5153.24628897397
 20
6617.4080872271506
 30
0.0
 41
90.0
 42
90.0
 43
90.0
 50
90.0
  0
INSERT
  5
8DE8
  8
3
 62
     0
  2
_OPEN
 10
5153.2462889739691
 20
4767.1182492271491
 30
0.0
 41
90.0
 42
90.0
 43
90.0
 50
270.0
  0
TEXT
  8
3
  40
135
  5
8E5D
  62
0
  72
0
  71
0
 10
4770.75
 20
5453.31
 30
0.000000
  1
1850
  0
POINT
  5
8DEA
  8
DEFPOINTS
 62
     0
 10
4534.4948845079562
 20
6617.4080872271506
 30
0.0
  0
POINT
  5
8DEB
  8
DEFPOINTS
 62
     0
 10
4534.7108515079562
 20
4767.1182492271491
 30
0.0
  0
POINT
  5
8DEC
  8
DEFPOINTS
 62
     0
 10
5153.2462889739691
 20
4767.1182492271491
 30
0.0
  0
ENDBLK
  5
868C
  8
0
  0
BLOCK
  8
0
  2
*D16
 70
     1
 10
0.0
 20
0.0
 30
0.0
  3
*D16
  1

  0
LINE
  5
8DED
  8
3
 62
     0
 10
5175.7462889739691
 20
6617.4080872271506
 30
0.0
 11
5555.7333849367869
 21
6617.4080872271506
 31
0.0
  0
LINE
  5
8DEE
  8
3
 62
     0
 10
4648.494763461712
 20
4696.11824922715
 30
0.0
 11
5555.733384936786
 21
4696.11824922715
 31
0.0
  0
LINE
  5
8DEF
  8
3
 62
     0
 10
5510.7333849367869
 20
6527.4080872271497
 30
0.0
 11
5510.733384936786
 21
4786.11824922715
 31
0.0
  0
INSERT
  5
8DF0
  8
3
 62
     0
  2
_OPEN
 10
5510.7333849367869
 20
6617.4080872271506
 30
0.0
 41
90.0
 42
90.0
 43
90.0
 50
90.0
  0
INSERT
  5
8DF1
  8
3
 62
     0
  2
_OPEN
 10
5510.733384936786
 20
4696.11824922715
 30
0.0
 41
90.0
 42
90.0
 43
90.0
 50
270.0
  0
TEXT
  8
3
  40
135
  5
8E5E
  62
0
  72
0
  71
0
 10
5128.23
 20
5417.81
 30
0.000000
  1
1921
  0
POINT
  5
8DF3
  8
DEFPOINTS
 62
     0
 10
5153.2462889739691
 20
6617.4080872271506
 30
0.0
  0
POINT
  5
8DF4
  8
DEFPOINTS
 62
     0
 10
4625.994763461712
 20
4696.11824922715
 30
0.0
  0
POINT
  5
8DF5
  8
DEFPOINTS
 62
     0
 10
5510.733384936786
 20
4696.11824922715
 30
0.0
  0
ENDBLK
  5
8697
  8
0
  0
BLOCK
  8
0
  2
*D17
 70
     1
 10
0.0
 20
0.0
 30
0.0
  3
*D17
  1

  0
LINE
  5
8DF6
  8
3
 62
     0
 10
4452.2108515079562
 20
3366.11824922715
 30
0.0
 11
5555.733384936786
 21
3366.1182492271491
 31
0.0
  0
LINE
  5
8DF7
  8
3
 62
     0
 10
5510.733384936786
 20
4606.11824922715
 30
0.0
 11
5510.733384936786
 21
3456.11824922715
 31
0.0
  0
INSERT
  5
8DF8
  8
3
 62
     0
  2
_OPEN
 10
5510.733384936786
 20
4696.11824922715
 30
0.0
 41
90.0
 42
90.0
 43
90.0
 50
90.0
  0
INSERT
  5
8DF9
  8
3
 62
     0
  2
_OPEN
 10
5510.733384936786
 20
3366.1182492271491
 30
0.0
 41
90.0
 42
90.0
 43
90.0
 50
270.0
  0
TEXT
  8
3
  40
135
  5
8E5F
  62
0
  72
0
  71
0
 10
5128.23
 20
3792.17
 30
0.000000
  1
1330
  0
POINT
  5
8DFB
  8
DEFPOINTS
 62
     0
 10
4625.994763461712
 20
4696.11824922715
 30
0.0
  0
POINT
  5
8DFC
  8
DEFPOINTS
 62
     0
 10
4429.7108515079562
 20
3366.11824922715
 30
0.0
  0
POINT
  5
8DFD
  8
DEFPOINTS
 62
     0
 10
5510.733384936786
 20
3366.1182492271491
 30
0.0
  0
ENDBLK
  5
86C2
  8
0
  0
BLOCK
  8
0
  2
*D18
 70
     1
 10
0.0
 20
0.0
 30
0.0
  3
*D18
  1

  0
LINE
  5
8DFE
  8
3
 62
     0
 10
4452.2108515079562
 20
3226.054669227151
 30
0.0
 11
5555.733384936786
 21
3226.05466922715
 31
0.0
  0
LINE
  5
8DFF
  8
3
 62
     0
 10
5510.733384936786
 20
3456.11824922715
 30
0.0
 11
5510.733384936786
 21
3546.1182492271491
 31
0.0
  0
LINE
  5
8E00
  8
3
 62
     0
 10
5510.733384936786
 20
3136.05466922715
 30
0.0
 11
5510.733384936786
 21
3046.05466922715
 31
0.0
  0
LINE
  5
8E01
  8
3
 62
     0
 10
5510.733384936786
 20
3296.0864592271491
 30
0.0
 11
5825.733384936786
 21
3390.5864592271491
 31
0.0
  0
LINE
  5
8E02
  8
3
 62
     0
 10
5825.733384936786
 20
3390.5864592271491
 30
0.0
 11
5825.733384936786
 21
3802.0150306557221
 31
0.0
  0
TEXT
  8
3
  40
135
  5
8E60
  62
0
  72
0
  71
0
 10
5443.23
 20
3357.35
 30
0.000000
  1
140
  0
LINE
  5
8E04
  8
3
 62
     0
 10
5510.733384936786
 20
3366.1182492271491
 30
0.0
 11
5510.733384936786
 21
3226.05466922715
 31
0.0
  0
INSERT
  5
8E05
  8
3
 62
     0
  2
_OPEN
 10
5510.733384936786
 20
3366.1182492271491
 30
0.0
 41
90.0
 42
90.0
 43
90.0
 50
270.0
  0
INSERT
  5
8E06
  8
3
 62
     0
  2
_OPEN
 10
5510.733384936786
 20
3226.05466922715
 30
0.0
 41
90.0
 42
90.0
 43
90.0
 50
90.0
  0
POINT
  5
8E07
  8
DEFPOINTS
 62
     0
 10
4429.7108515079562
 20
3366.11824922715
 30
0.0
  0
POINT
  5
8E08
  8
DEFPOINTS
 62
     0
 10
4429.7108515079562
 20
3226.054669227151
 30
0.0
  0
POINT
  5
8E09
  8
DEFPOINTS
 62
     0
 10
5510.733384936786
 20
3226.05466922715
 30
0.0
  0
ENDBLK
  5
86D0
  8
0
  0
BLOCK
  8
0
  2
*D19
 70
     1
 10
0.0
 20
0.0
 30
0.0
  3
*D19
  1

  0
LINE
  5
8E0A
  8
3
 62
     0
 10
4452.2108515079562
 20
3076.054669227151
 30
0.0
 11
5555.733384936786
 21
3076.054669227151
 31
0.0
  0
LINE
  5
8E0B
  8
3
 62
     0
 10
5510.733384936786
 20
3316.05466922715
 30
0.0
 11
5510.733384936786
 21
3406.054669227151
 31
0.0
  0
LINE
  5
8E0C
  8
3
 62
     0
 10
5510.733384936786
 20
2986.05466922715
 30
0.0
 11
5510.733384936786
 21
2484.6260977985789
 31
0.0
  0
INSERT
  5
8E0D
  8
3
 62
     0
  2
_OPEN
 10
5510.733384936786
 20
3226.05466922715
 30
0.0
 41
90.0
 42
90.0
 43
90.0
 50
270.0
  0
INSERT
  5
8E0E
  8
3
 62
     0
  2
_OPEN
 10
5510.733384936786
 20
3076.054669227151
 30
0.0
 41
90.0
 42
90.0
 43
90.0
 50
90.0
  0
TEXT
  8
3
  40
135
  5
8E61
  62
0
  72
0
  71
0
 10
5128.23
 20
2451.39
 30
0.000000
  1
150
  0
POINT
  5
8E10
  8
DEFPOINTS
 62
     0
 10
4429.7108515079562
 20
3226.054669227151
 30
0.0
  0
POINT
  5
8E11
  8
DEFPOINTS
 62
     0
 10
4429.7108515079562
 20
3076.054669227151
 30
0.0
  0
POINT
  5
8E12
  8
DEFPOINTS
 62
     0
 10
5510.733384936786
 20
3076.054669227151
 30
0.0
  0
ENDBLK
  5
86DB
  8
0
  0
BLOCK
  8
0
  2
*D20
 70
     1
 10
0.0
 20
0.0
 30
0.0
  3
*D20
  1

  0
LINE
  5
8E13
  8
3
 62
     0
 10
5533.233384936786
 20
3076.054669227151
 30
0.0
 11
5997.2204099356604
 21
3076.054669227151
 31
0.0
  0
LINE
  5
8E14
  8
3
 62
     0
 10
5533.233384936786
 20
6617.4080872271506
 30
0.0
 11
5997.2204099356604
 21
6617.4080872271506
 31
0.0
  0
LINE
  5
8E15
  8
3
 62
     0
 10
5952.2204099356604
 20
3166.05466922715
 30
0.0
 11
5952.2204099356613
 21
6527.4080872271497
 31
0.0
  0
INSERT
  5
8E16
  8
3
 62
     0
  2
_OPEN
 10
5952.2204099356604
 20
3076.054669227151
 30
0.0
 41
90.0
 42
90.0
 43
90.0
 50
270.0
  0
INSERT
  5
8E17
  8
3
 62
     0
  2
_OPEN
 10
5952.2204099356613
 20
6617.4080872271506
 30
0.0
 41
90.0
 42
90.0
 43
90.0
 50
90.0
  0
TEXT
  8
3
  40
135
  5
8E62
  62
0
  72
0
  71
0
 10
5569.72
 20
4607.78
 30
0.000000
  1
3541
  0
POINT
  5
8E19
  8
DEFPOINTS
 62
     0
 10
5510.733384936786
 20
3076.054669227151
 30
0.0
  0
POINT
  5
8E1A
  8
DEFPOINTS
 62
     0
 10
5510.733384936786
 20
6617.4080872271506
 30
0.0
  0
POINT
  5
8E1B
  8
DEFPOINTS
 62
     0
 10
5952.2204099356613
 20
6617.4080872271506
 30
0.0
  0
ENDBLK
  5
8705
  8
0
  0
BLOCK
  8
0
  2
*D21
 70
     1
 10
0.0
 20
0.0
 30
0.0
  3
*D21
  1

  0
LINE
  5
8E1C
  8
3
 62
     0
 10
6937.6376499999988
 20
6701.6182492271491
 30
0.0
 11
6937.6376499999988
 21
6898.7585537930527
 31
0.0
  0
LINE
  5
8E1D
  8
3
 62
     0
 10
8257.6376500000006
 20
6701.618249227151
 30
0.0
 11
8257.6376500000006
 21
6898.7585537930527
 31
0.0
  0
LINE
  5
8E1E
  8
3
 62
     0
 10
7027.6376499999988
 20
6853.7585537930527
 30
0.0
 11
8167.6376500000006
 21
6853.7585537930527
 31
0.0
  0
INSERT
  5
8E1F
  8
3
 62
     0
  2
_OPEN
 10
6937.6376499999988
 20
6853.7585537930527
 30
0.0
 41
90.0
 42
90.0
 43
90.0
 50
180.0
  0
INSERT
  5
8E20
  8
3
 62
     0
  2
_OPEN
 10
8257.6376500000006
 20
6853.7585537930527
 30
0.0
 41
90.0
 42
90.0
 43
90.0
  0
TEXT
  8
3
  40
135
  5
8E63
  62
0
  72
0
  71
0
 10
7327.64
 20
6727.31
 30
0.000000
  1
1320
  0
POINT
  5
8E22
  8
DEFPOINTS
 62
     0
 10
6937.6376499999988
 20
6679.11824922715
 30
0.0
  0
POINT
  5
8E23
  8
DEFPOINTS
 62
     0
 10
8257.6376500000006
 20
6679.118249227151
 30
0.0
  0
POINT
  5
8E24
  8
DEFPOINTS
 62
     0
 10
8257.6376500000006
 20
6853.7585537930527
 30
0.0
  0
ENDBLK
  5
864F
  8
0
  0
BLOCK
  8
0
  2
*D22
 70
     1
 10
0.0
 20
0.0
 30
0.0
  3
*D22
  1

  0
LINE
  5
8E25
  8
3
 62
     0
 10
4452.2108515079544
 20
7839.0635380000012
 30
0.0
 11
5336.1939176059359
 21
7839.0635380000012
 31
0.0
  0
LINE
  5
8E26
  8
3
 62
     0
 10
4452.2108515079544
 20
9689.0635380000003
 30
0.0
 11
5336.1939176059359
 21
9689.0635380000003
 31
0.0
  0
LINE
  5
8E27
  8
3
 62
     0
 10
5291.1939176059368
 20
7929.0635380000012
 30
0.0
 11
5291.1939176059368
 21
9599.0635380000003
 31
0.0
  0
INSERT
  5
8E28
  8
3
 62
     0
  2
_OPEN
 10
5291.1939176059368
 20
7839.0635380000012
 30
0.0
 41
90.0
 42
90.0
 43
90.0
 50
270.0
  0
INSERT
  5
8E29
  8
3
 62
     0
  2
_OPEN
 10
5291.1939176059368
 20
9689.0635380000003
 30
0.0
 41
90.0
 42
90.0
 43
90.0
 50
90.0
  0
TEXT
  8
3
  40
135
  5
8E64
  62
0
  72
0
  71
0
 10
4908.69
 20
8525.11
 30
0.000000
  1
1850
  0
POINT
  5
8E2B
  8
DEFPOINTS
 62
     0
 10
4429.7108515079544
 20
7839.0635380000012
 30
0.0
  0
POINT
  5
8E2C
  8
DEFPOINTS
 62
     0
 10
4429.7108515079544
 20
9689.0635380000003
 30
0.0
  0
POINT
  5
8E2D
  8
DEFPOINTS
 62
     0
 10
5291.1939176059368
 20
9689.0635380000003
 30
0.0
  0
ENDBLK
  5
881D
  8
0
  0
BLOCK
  8
0
  2
*D23
 70
     1
 10
0.0
 20
0.0
 30
0.0
  3
*D23
  1

  0
LINE
  5
8E2E
  8
3
 62
     0
 10
529.71085150795443
 20
7816.5635380000012
 30
0.0
 11
529.71085150795443
 21
7312.77823410162
 31
0.0
  0
LINE
  5
8E2F
  8
3
 62
     0
 10
4429.7108515079544
 20
7816.5635380000012
 30
0.0
 11
4429.7108515079544
 21
7312.77823410162
 31
0.0
  0
LINE
  5
8E30
  8
3
 62
     0
 10
619.71085150795443
 20
7357.77823410162
 30
0.0
 11
4339.7108515079544
 21
7357.77823410162
 31
0.0
  0
INSERT
  5
8E31
  8
3
 62
     0
  2
_OPEN
 10
529.71085150795443
 20
7357.77823410162
 30
0.0
 41
90.0
 42
90.0
 43
90.0
 50
180.0
  0
INSERT
  5
8E32
  8
3
 62
     0
  2
_OPEN
 10
4429.7108515079544
 20
7357.77823410162
 30
0.0
 41
90.0
 42
90.0
 43
90.0
  0
TEXT
  8
3
  40
135
  5
8E65
  62
0
  72
0
  71
0
 10
2299.73
 20
7231.33
 30
0.000000
  1
3900
  0
POINT
  5
8E34
  8
DEFPOINTS
 62
     0
 10
529.71085150795443
 20
7839.0635380000012
 30
0.0
  0
POINT
  5
8E35
  8
DEFPOINTS
 62
     0
 10
4429.7108515079544
 20
7839.0635380000012
 30
0.0
  0
POINT
  5
8E36
  8
DEFPOINTS
 62
     0
 10
4429.7108515079544
 20
7357.77823410162
 30
0.0
  0
ENDBLK
  5
8829
  8
0
  0
BLOCK
  8
0
  2
*D24
 70
     1
 10
0.0
 20
0.0
 30
0.0
  3
*D24
  1

  0
LINE
  5
8E37
  8
3
 62
     0
 10
529.71085150795443
 20
9061.5635379999985
 30
0.0
 11
529.71085150795454
 21
10041.31577435536
 31
0.0
  0
LINE
  5
8E38
  8
3
 62
     0
 10
2219.710851507954
 20
9996.3157743553602
 30
0.0
 11
619.71085150795454
 21
9996.3157743553602
 31
0.0
  0
INSERT
  5
8E39
  8
3
 62
     0
  2
_OPEN
 10
2309.710851507954
 20
9996.3157743553602
 30
0.0
 41
90.0
 42
90.0
 43
90.0
  0
INSERT
  5
8E3A
  8
3
 62
     0
  2
_OPEN
 10
529.71085150795454
 20
9996.3157743553602
 30
0.0
 41
90.0
 42
90.0
 43
90.0
 50
180.0
  0
TEXT
  8
3
  40
135
  5
8E66
  62
0
  72
0
  71
0
 10
1149.71
 20
9869.87
 30
0.000000
  1
1780
  0
POINT
  5
8E3C
  8
DEFPOINTS
 62
     0
 10
2309.710851507954
 20
9689.0635380000003
 30
0.0
  0
POINT
  5
8E3D
  8
DEFPOINTS
 62
     0
 10
529.71085150795443
 20
9039.0635380000003
 30
0.0
  0
POINT
  5
8E3E
  8
DEFPOINTS
 62
     0
 10
529.71085150795454
 20
9996.3157743553602
 30
0.0
  0
ENDBLK
  5
8834
  8
0
  0
BLOCK
  8
0
  2
*D25
 70
     1
 10
0.0
 20
0.0
 30
0.0
  3
*D25
  1

  0
LINE
  5
8E3F
  8
3
 62
     0
 10
507.21085150795432
 20
9039.0635380000003
 30
0.0
 11
242.57880350795639
 21
9039.0635380000003
 31
0.0
  0
LINE
  5
8E40
  8
3
 62
     0
 10
507.21085150795449
 20
7839.0635380000012
 30
0.0
 11
242.57880350795611
 21
7839.0635380000012
 31
0.0
  0
LINE
  5
8E41
  8
3
 62
     0
 10
287.57880350795642
 20
8949.0635380000003
 30
0.0
 11
287.5788035079562
 21
7929.0635380000012
 31
0.0
  0
INSERT
  5
8E42
  8
3
 62
     0
  2
_OPEN
 10
287.57880350795642
 20
9039.0635380000003
 30
0.0
 41
90.0
 42
90.0
 43
90.0
 50
90.0
  0
INSERT
  5
8E43
  8
3
 62
     0
  2
_OPEN
 10
287.5788035079562
 20
7839.0635380000012
 30
0.0
 41
90.0
 42
90.0
 43
90.0
 50
270.0
  0
TEXT
  8
3
  40
135
  5
8E67
  62
0
  72
0
  71
0
 10
-94.9212
 20
8193.83
 30
0.000000
  1
1200
  0
POINT
  5
8E45
  8
DEFPOINTS
 62
     0
 10
529.71085150795443
 20
9039.0635380000003
 30
0.0
  0
POINT
  5
8E46
  8
DEFPOINTS
 62
     0
 10
529.71085150795443
 20
7839.0635380000012
 30
0.0
  0
POINT
  5
8E47
  8
DEFPOINTS
 62
     0
 10
287.5788035079562
 20
7839.0635380000012
 30
0.0
  0
ENDBLK
  5
8840
  8
0
  0
BLOCK
  8
0
  2
*D26
 70
     1
 10
0.0
 20
0.0
 30
0.0
  3
*D26
  1

  0
LINE
  5
8E48
  8
3
 62
     0
 10
4429.7108515079544
 20
9711.5635380000003
 30
0.0
 11
4429.7108515079544
 21
10041.31577435536
 31
0.0
  0
LINE
  5
8E49
  8
3
 62
     0
 10
2309.710851507954
 20
9711.5635380000003
 30
0.0
 11
2309.710851507954
 21
10041.31577435536
 31
0.0
  0
LINE
  5
8E4A
  8
3
 62
     0
 10
4339.7108515079544
 20
9996.3157743553602
 30
0.0
 11
2399.710851507954
 21
9996.3157743553602
 31
0.0
  0
INSERT
  5
8E4B
  8
3
 62
     0
  2
_OPEN
 10
4429.7108515079544
 20
9996.3157743553602
 30
0.0
 41
90.0
 42
90.0
 43
90.0
  0
INSERT
  5
8E4C
  8
3
 62
     0
  2
_OPEN
 10
2309.710851507954
 20
9996.3157743553602
 30
0.0
 41
90.0
 42
90.0
 43
90.0
 50
180.0
  0
TEXT
  8
3
  40
135
  5
8E68
  62
0
  72
0
  71
0
 10
3092.64
 20
9869.87
 30
0.000000
  1
2120
  0
POINT
  5
8E4E
  8
DEFPOINTS
 62
     0
 10
4429.7108515079544
 20
9689.0635380000003
 30
0.0
  0
POINT
  5
8E4F
  8
DEFPOINTS
 62
     0
 10
2309.710851507954
 20
9689.0635380000003
 30
0.0
  0
POINT
  5
8E50
  8
DEFPOINTS
 62
     0
 10
2309.710851507954
 20
9996.3157743553602
 30
0.0
  0
ENDBLK
  5
884C
  8
0
  0
ENDSEC
  0
SECTION
  2
ENTITIES
  0
INSERT
  5
7ADD
  8
0
  2
YA_N
 10
12518.736613999999
 20
-6524.6833909999987
 30
0.0
  0
INSERT
  5
7AF5
  8
0
  2
YA_N
 10
18386.038918999999
 20
2975.8020809999989
 30
0.0
  0
INSERT
  5
7DA2
  8
0
  2
YA_N
 10
12518.736613999999
 20
-6524.6833909999987
 30
0.0
  0
INSERT
  5
7DB4
  8
0
  2
YA_N
 10
18386.038918999999
 20
2975.8020809999989
 30
0.0
  0
LINE
  5
80D9
  8
1
 10
6486.6376499999997
 20
3516.11824922715
 30
0.0
 11
8336.6376500000006
 21
3516.11824922715
 31
0.0
  0
LINE
  5
80DA
  8
1
 10
6486.6376499999997
 20
3366.11824922715
 30
0.0
 11
8336.6376500000006
 21
3366.11824922715
 31
0.0
  0
LINE
  5
80E7
  8
1
 10
6561.6376499999997
 20
3516.11824922715
 30
0.0
 11
6486.6376499999997
 21
3516.11824922715
 31
0.0
  0
LINE
  5
80E8
  8
1
 10
6561.6376499999997
 20
3366.11824922715
 30
0.0
 11
6486.6376499999997
 21
3366.11824922715
 31
0.0
  0
LINE
  5
80EA
  8
2
 10
7597.6376499999997
 20
3021.4124062271512
 30
0.0
 11
7597.6376499999997
 21
6773.0185956053756
 31
0.0
  0
LINE
  5
80EB
  8
1
 10
8257.6376500000024
 20
3516.11824922715
 30
0.0
 11
8257.6376500000006
 21
6619.2122550463964
 31
0.0
  0
LINE
  5
80EC
  8
1
 10
8392.6376500000006
 20
3731.1182492271491
 30
0.0
 11
8392.6376500000006
 21
5661.118249227151
 31
0.0
  0
LINE
  5
80EE
  8
1
 10
8261.6376500000006
 20
3366.11824922715
 30
0.0
 11
8336.6376500000006
 21
3366.11824922715
 31
0.0
  0
LINE
  5
80EF
  8
1
 10
8261.6376500000006
 20
3516.11824922715
 30
0.0
 11
8336.6376500000006
 21
3516.11824922715
 31
0.0
  0
LINE
  5
80F0
  8
1
 10
8257.6376500000006
 20
3796.11824922715
 30
0.0
 11
8392.6376500000006
 21
3796.11824922715
 31
0.0
  0
LINE
  5
80F1
  8
1
 10
8257.6376500000006
 20
5596.11824922715
 30
0.0
 11
8392.6376500000006
 21
5596.11824922715
 31
0.0
  0
INSERT
  5
8103
  8
0
  2
YA_N
 10
12518.736613999999
 20
-6524.6833909999987
 30
0.0
  0
LINE
  5
8105
  8
2
 10
6397.6376499999997
 20
4696.11824922715
 30
0.0
 11
8498.3907209999998
 21
4696.11824922715
 31
0.0
  0
LINE
  5
8106
  8
1
 10
6497.6376499999978
 20
3581.11824922715
 30
0.0
 11
6497.6376499999997
 21
5176.11824922715
 31
0.0
  0
LINE
  5
8107
  8
1
 10
6697.6376499999997
 20
5176.11824922715
 30
0.0
 11
6697.6376499999978
 21
3581.11824922715
 31
0.0
  0
LINE
  5
8108
  8
1
 10
6697.6376499999978
 20
3581.11824922715
 30
0.0
 11
6497.6376499999978
 21
3581.11824922715
 31
0.0
  0
LINE
  5
8109
  8
1
 10
6657.6376499999988
 20
3716.11824922715
 30
0.0
 11
6657.6376499999988
 21
4046.11824922715
 31
0.0
  0
LINE
  5
810A
  8
1
 10
6537.6376499999988
 20
3716.11824922715
 30
0.0
 11
6537.6376499999988
 21
4046.11824922715
 31
0.0
  0
LINE
  5
810B
  8
1
 10
6537.6376499999988
 20
5096.11824922715
 30
0.0
 11
6657.6376499999988
 21
5096.11824922715
 31
0.0
  0
LINE
  5
810C
  8
1
 10
6657.6376499999988
 20
4296.11824922715
 30
0.0
 11
6537.6376499999988
 21
4296.11824922715
 31
0.0
  0
LINE
  5
810D
  8
1
 10
6537.6376499999988
 20
4046.11824922715
 30
0.0
 11
6537.6376499999988
 21
5096.11824922715
 31
0.0
  0
LINE
  5
810E
  8
1
 10
6657.6376499999988
 20
4046.11824922715
 30
0.0
 11
6657.6376499999988
 21
5096.11824922715
 31
0.0
  0
LINE
  5
810F
  8
2
 10
6597.6376499999997
 20
5141.96624922715
 30
0.0
 11
6597.6376499999988
 21
3480.81417422715
 31
0.0
  0
LINE
  5
8110
  8
1
 10
6697.6376499999997
 20
5176.11824922715
 30
0.0
 11
6497.6376499999997
 21
5176.11824922715
 31
0.0
  0
LINE
  5
8112
  8
2
 10
6463.3366499999993
 20
3866.11824922715
 30
0.0
 11
7693.2158207247703
 21
3866.11824922715
 31
0.0
  0
LINE
  5
8113
  8
1
 10
6537.6376499999988
 20
4016.11824922715
 30
0.0
 11
6657.6376499999988
 21
4016.11824922715
 31
0.0
  0
LINE
  5
8114
  8
1
 10
6537.6376499999988
 20
3716.11824922715
 30
0.0
 11
6657.6376499999988
 21
3716.11824922715
 31
0.0
  0
INSERT
  5
8115
  8
0
  2
YA_N
 10
18386.038918999999
 20
2975.8020809999989
 30
0.0
  0
LINE
  5
8124
  8
1
 10
6486.6376499999997
 20
3516.11824922715
 30
0.0
 11
6486.6376499999997
 21
3366.11824922715
 31
0.0
  0
LINE
  5
8125
  8
1
 10
8336.6376500000006
 20
3516.11824922715
 30
0.0
 11
8336.6376500000006
 21
3366.11824922715
 31
0.0
  0
LINE
  5
8126
  8
1
 10
6486.6376499999997
 20
3076.054669227151
 30
0.0
 11
8336.6376500000006
 21
3076.054669227151
 31
0.0
  0
LINE
  5
8127
  8
1
 10
6486.6376499999997
 20
3226.054669227151
 30
0.0
 11
8336.6376500000006
 21
3226.054669227151
 31
0.0
  0
LINE
  5
8128
  8
1
 10
6561.6376499999997
 20
3076.054669227151
 30
0.0
 11
6486.6376499999997
 21
3076.054669227151
 31
0.0
  0
LINE
  5
8129
  8
1
 10
6561.6376499999997
 20
3226.054669227151
 30
0.0
 11
6486.6376499999997
 21
3226.054669227151
 31
0.0
  0
LINE
  5
812A
  8
1
 10
6486.6376499999997
 20
3226.054669227151
 30
0.0
 11
6486.6376499999997
 21
3076.054669227151
 31
0.0
  0
LINE
  5
812B
  8
1
 10
8336.6376500000006
 20
3226.054669227151
 30
0.0
 11
8336.6376500000006
 21
3076.054669227151
 31
0.0
  0
LINE
  5
8146
  8
1
 10
6657.6376499999988
 20
4741.11824922715
 30
0.0
 11
6937.6376499999988
 21
4741.11824922715
 31
0.0
  0
LINE
  5
8147
  8
1
 10
6657.6376499999988
 20
4651.11824922715
 30
0.0
 11
6937.6376499999988
 21
4651.11824922715
 31
0.0
  0
LINE
  5
815A
  8
1
 10
7636.6376499999988
 20
4144.86824922715
 30
0.0
 11
6784.1376499999988
 21
4144.86824922715
 31
0.0
  0
LINE
  5
815B
  8
1
 10
6784.1376499999988
 20
3587.36824922715
 30
0.0
 11
7636.6376499999988
 21
3587.36824922715
 31
0.0
  0
LINE
  5
815C
  8
1
 10
6784.1376499999988
 20
3587.36824922715
 30
0.0
 11
6784.1376499999988
 21
4144.86824922715
 31
0.0
  0
LINE
  5
815D
  8
1
 10
6777.6376499999988
 20
3951.61824922715
 30
0.0
 11
6777.6376499999988
 21
3780.61824922715
 31
0.0
  0
LINE
  5
815E
  8
1
 10
6784.4860249999992
 20
3953.61824922715
 30
0.0
 11
6779.6376499999988
 21
3953.61824922715
 31
0.0
  0
ARC
  5
815F
  8
1
 10
6779.6376499999988
 20
3951.61824922715
 30
0.0
 40
2.0
 50
90.0
 51
180.0
  0
LINE
  5
8160
  8
1
 10
6597.6376499999988
 20
3823.61824922715
 30
0.0
 11
6762.1376499999978
 21
3823.61824922715
 31
0.0
  0
LINE
  5
8162
  8
1
 10
6597.6376499999988
 20
3908.61824922715
 30
0.0
 11
6767.6376499999988
 21
3908.61824922715
 31
0.0
  0
LINE
  5
8164
  8
1
 10
6784.1376499999988
 20
3778.61824922715
 30
0.0
 11
6779.6376499999988
 21
3778.61824922715
 31
0.0
  0
ARC
  5
8165
  8
1
 10
6779.6376499999988
 20
3780.61824922715
 30
0.0
 40
2.0
 50
180.0
 51
270.0
  0
LINE
  5
8166
  8
1
 10
6767.6376499999988
 20
3816.11824922715
 30
0.0
 11
6777.6376499999988
 21
3816.11824922715
 31
0.0
  0
LINE
  5
8167
  8
1
 10
6767.6376499999988
 20
3916.11824922715
 30
0.0
 11
6777.6376499999988
 21
3916.11824922715
 31
0.0
  0
LINE
  5
8168
  8
1
 10
6767.6376499999988
 20
3916.11824922715
 30
0.0
 11
6767.6376499999988
 21
3816.11824922715
 31
0.0
  0
DIMENSION
  5
8238
  8
3
  2
*D3
 10
7597.6376499999997
 20
2623.4288962645528
 30
0.0
 11
7064.637444
 21
2623.4288962645528
 31
0.0
 70
   128
 13
6486.6376499999997
 23
3076.054669227151
 33
0.0
 14
7597.6376499999997
 24
3021.4124062271512
 34
0.0
1001
ACAD
1000
DSTYLE
1002
{
1070
   287
1070
     3
1070
   287
1070
     3
1070
   287
1070
     3
1070
    40
1040
45.0
1070
   143
1040
0.039
1070
   172
1070
     1
1070
   271
1070
     0
1070
   279
1070
     0
1070
   288
1070
     1
1002
}
  0
DIMENSION
  5
8244
  8
3
  2
*D4
 10
8336.6376500000006
 20
2623.4288962645528
 30
0.0
 11
7967.1376500000006
 21
2735.9288962645528
 31
0.0
 70
     0
 13
7597.6376499999997
 23
3021.4124062271512
 33
0.0
 14
8336.6376500000006
 24
3076.054669227151
 34
0.0
1001
ACAD
1000
DSTYLE
1002
{
1070
   287
1070
     4
1070
   287
1070
     4
1070
   287
1070
     4
1070
    40
1040
45.0
1070
    75
1070
     1
1070
   143
1040
0.039
1070
   172
1070
     1
1070
   271
1070
     0
1070
   279
1070
     1
1070
   288
1070
     1
1002
}
  0
DIMENSION
  5
8251
  8
3
  2
*D5
 10
8336.6376500000006
 20
2295.0718941813898
 30
0.0
 11
7486.8346590000001
 21
2295.0718941813898
 31
0.0
 70
   128
 13
6486.6376499999997
 23
3076.054669227151
 33
0.0
 14
8336.6376500000006
 24
3076.054669227151
 34
0.0
1001
ACAD
1000
DSTYLE
1002
{
1070
   287
1070
     3
1070
   287
1070
     3
1070
   287
1070
     3
1070
    40
1040
45.0
1070
   143
1040
0.039
1070
   172
1070
     1
1070
   271
1070
     0
1070
   279
1070
     0
1070
   288
1070
     1
1002
}
  0
DIMENSION
  5
825E
  8
3
  2
*D6
 10
8777.5519079999995
 20
3796.11824922715
 30
0.0
 11
8777.5519079999995
 21
4641.8280002271504
 31
0.0
 70
   128
 13
8392.6376500000006
 23
5596.11824922715
 33
0.0
 14
8392.6376500000006
 24
3796.11824922715
 34
0.0
 50
90.0
1001
ACAD
1000
DSTYLE
1002
{
1070
   287
1070
     3
1070
   287
1070
     3
1070
   287
1070
     3
1070
     3
1000
φ<>
1070
    40
1040
45.0
1070
   143
1040
0.039
1070
   172
1070
     1
1070
   271
1070
     0
1070
   279
1070
     0
1070
   288
1070
     1
1002
}
  0
DIMENSION
  5
8278
  8
3
  2
*D7
 10
7597.6376499999997
 20
7166.2087289752171
 30
0.0
 11
8005.5341159999989
 21
7166.2087289752171
 31
0.0
 70
   128
 13
8392.6376500000006
 23
5661.118249227151
 33
0.0
 14
7597.6376499999997
 24
7025.0551873725481
 34
0.0
1001
ACAD
1000
DSTYLE
1002
{
1070
   287
1070
     3
1070
   287
1070
     3
1070
   287
1070
     3
1070
    40
1040
45.0
1070
   143
1040
0.039
1070
   172
1070
     1
1070
   271
1070
     0
1070
   279
1070
     0
1070
   288
1070
     1
1002
}
  0
DIMENSION
  5
8284
  8
3
  2
*D8
 10
6497.6376499999997
 20
7166.2087289752171
 30
0.0
 11
7047.6376499999997
 21
7314.0658718323593
 31
0.0
 70
     0
  1
(1150)
 13
7597.6376499999997
 23
6855.407678258558
 33
0.0
 14
6497.6376499999997
 24
5176.11824922715
 34
0.0
1001
ACAD
1000
DSTYLE
1002
{
1070
   287
1070
     4
1070
   287
1070
     4
1070
   287
1070
     4
1070
    40
1040
45.0
1070
    75
1070
     1
1070
   143
1040
0.039
1070
   172
1070
     1
1070
   271
1070
     0
1070
   279
1070
     1
1070
   288
1070
     1
1002
}
  0
LINE
  5
8285
  8
4
 10
8325.0
 20
1207.8904040690429
 30
0.0
 11
8325.0
 21
307.89040406904297
 31
0.0
  0
LINE
  5
8286
  8
4
 10
5175.0
 20
1207.8904040690429
 30
0.0
 11
5175.0
 21
307.89040406904297
 31
0.0
  0
LINE
  5
8287
  8
4
 10
2925.0
 20
1207.8904040690429
 30
0.0
 11
2925.0
 21
307.89040406904297
 31
0.0
  0
LINE
  5
828A
  8
4
 10
2925.0
 20
307.89040406904309
 30
0.0
 11
8325.0
 21
307.89040406904309
 31
0.0
  0
LINE
  5
828B
  8
4
 10
2925.0
 20
757.89040406904314
 30
0.0
 11
8325.0
 21
757.89040406904314
 31
0.0
  0
TEXT
  5
828C
  8
4
 10
3098.259364
 20
899.83402006904316
 30
0.0
 40
225.0
  1
機器名称
  0
TEXT
  5
828D
  8
4
 10
3088.1614769999992
 20
405.2936090690431
 30
0.0
 40
225.0
  1
機器型番
  0
TEXT
  5
828E
  8
4
 10
5197.1468829999994
 20
861.27912906904305
 30
0.0
 40
202.49999999999989
  1
ミツヤリミットロードファン
  0
TEXT
  5
828F
  8
4
 10
5339.9452299999994
 20
385.10853306904301
 30
0.0
 40
225.0
  1
LL#11-4
  0
TEXT
  5
8291
  8
4
 10
3619.4975020000002
 20
10725.429786000001
 30
0.0
 40
243.0
  1
床置防振ベット
  0
TEXT
  5
8292
  8
4
 10
1258.0479374325371
 20
11402.464393
 30
0.0
 40
324.0
  1
ベルト駆動式片吸込両持リミットロードファン
 41
0.8670367995036059
 72
     5
 11
8224.8620288039092
 21
11402.464393
 31
0.0
  0
LINE
  5
8293
  8
4
 10
1125.0
 20
11112.339394000001
 30
0.0
 11
8325.0
 21
11112.339394000001
 31
0.0
  0
LINE
  5
8294
  8
4
 10
1125.0
 20
12012.339394000001
 30
0.0
 11
8325.0
 21
12012.339394000001
 31
0.0
  0
LINE
  5
8295
  8
4
 10
2925.0
 20
1207.8904040690429
 30
0.0
 11
8325.0
 21
1207.8904040690429
 31
0.0
  0
LINE
  5
8296
  8
4
 10
1125.0
 20
12012.339394000001
 30
0.0
 11
1125.0
 21
11112.339394000001
 31
0.0
  0
TEXT
  5
8297
  8
4
 10
1658.1327570000001
 20
10720.437649
 30
0.0
 40
243.0
  1
右回転右横向
  0
TEXT
  5
8298
  8
4
 10
6610.3630169999997
 20
12177.274867
 30
0.0
 40
252.0
  1
No.
  0
TEXT
  5
8299
  8
4
 10
5900.8322820000003
 20
10725.429786000001
 30
0.0
 40
243.0
  1
縮尺：1/45
  0
LINE
  5
829A
  8
4
 10
8325.0
 20
12012.339394000001
 30
0.0
 11
8325.0
 21
11112.339394000001
 31
0.0
  0
LINE
  5
829B
  8
4
 10
9450.0
 20
13275.0
 30
0.0
 11
9450.0
 21
13275.0
 31
0.0
  0
LINE
  5
829C
  8
4
 10
6482.7784009999996
 20
12065.686124
 30
0.0
 11
6482.7784009999996
 21
12539.93517699999
 31
0.0
  0
LINE
  5
829D
  8
4
 10
6482.7784009999996
 20
12539.93517699999
 30
0.0
 11
8325.0
 21
12539.93517699999
 31
0.0
  0
LINE
  5
829E
  8
4
 10
8325.0
 20
12539.93517699999
 30
0.0
 11
8325.0
 21
12065.686124
 31
0.0
  0
LINE
  5
829F
  8
4
 10
8325.0
 20
12065.686124
 30
0.0
 11
6482.7784009999996
 21
12065.686124
 31
0.0
  0
LINE
  5
82A0
  8
4
 10
0.0
 20
0.0
 30
0.0
 11
0.0
 21
13275.0
 31
0.0
  0
LINE
  5
82A1
  8
4
 10
0.0
 20
13275.0
 30
0.0
 11
9450.0
 21
13275.0
 31
0.0
  0
LINE
  5
82A2
  8
4
 10
9450.0
 20
13275.0
 30
0.0
 11
9450.0
 21
0.0
 31
0.0
  0
LINE
  5
82A3
  8
4
 10
9450.0
 20
0.0
 30
0.0
 11
0.0
 21
0.0
 31
0.0
  0
LINE
  5
82B1
  8
1
 10
6937.6376499999988
 20
3516.11824922715
 30
0.0
 11
6937.6376499999988
 21
3587.36824922715
 31
0.0
  0
DIMENSION
  5
831C
  8
3
  2
*D11
 10
4429.7108515079562
 20
2267.717789878232
 30
0.0
 11
2634.9244895079569
 21
2267.717789878232
 31
0.0
 70
   128
 13
529.71085150795705
 23
3076.054669227151
 33
0.0
 14
4429.7108515079562
 24
3076.054669227151
 34
0.0
 50
180.0
1001
ACAD
1000
DSTYLE
1002
{
1070
   287
1070
     3
1070
   287
1070
     3
1070
   287
1070
     3
1070
    40
1040
45.0
1070
   143
1040
0.039
1070
   172
1070
     1
1070
   271
1070
     0
1070
   279
1070
     0
1070
   288
1070
     1
1002
}
  0
DIMENSION
  5
831D
  8
3
  2
*D9
 10
3369.7108515079558
 20
2673.418766258329
 30
0.0
 11
2031.785576507956
 21
2673.418766258329
 31
0.0
 70
   128
 13
529.71085150795705
 23
3076.054669227151
 33
0.0
 14
3369.7108515079558
 24
2968.468998015067
 34
0.0
 50
180.0
1001
ACAD
1000
DSTYLE
1002
{
1070
   287
1070
     3
1070
   287
1070
     3
1070
   287
1070
     3
1070
    40
1040
45.0
1070
   143
1040
0.039
1070
   172
1070
     1
1070
   271
1070
     0
1070
   279
1070
     0
1070
   288
1070
     1
1002
}
  0
LINE
  5
8320
  8
1
 10
3517.1906605079571
 20
4324.29879622715
 30
0.0
 11
1055.015779507956
 21
3726.68595422715
 31
0.0
  0
LINE
  5
8321
  8
1
 10
3146.5869715079571
 20
5028.1058012271506
 30
0.0
 11
916.03939650795735
 21
3990.6135812271509
 31
0.0
  0
LINE
  5
8322
  8
1
 10
3556.2248605079558
 20
4253.8376242271488
 30
0.0
 11
1108.511273507957
 21
3608.1212182271502
 31
0.0
  0
LINE
  5
8323
  8
1
 10
3110.5765145079572
 20
5100.1602202271497
 30
0.0
 11
848.54973850795704
 21
4101.8093992271488
 31
0.0
  0
LINE
  5
8324
  8
1
 10
4429.7108515079562
 20
3516.11824922715
 30
0.0
 11
529.71085150795705
 21
3516.11824922715
 31
0.0
  0
LINE
  5
8325
  8
1
 10
4429.7108515079562
 20
3366.11824922715
 30
0.0
 11
529.71085150795705
 21
3366.11824922715
 31
0.0
  0
LINE
  5
8326
  8
1
 10
4429.7108515079562
 20
3076.054669227151
 30
0.0
 11
529.71085150795705
 21
3076.054669227151
 31
0.0
  0
LINE
  5
8327
  8
1
 10
4429.7108515079562
 20
3226.054669227151
 30
0.0
 11
529.71085150795705
 21
3226.054669227151
 31
0.0
  0
LINE
  5
8328
  8
2
 10
1733.2322081895991
 20
4696.11824922715
 30
0.0
 11
4625.994763461712
 21
4696.11824922715
 31
0.0
  0
ARC
  5
8329
  8
1
 10
3500.7108515079558
 20
4827.1182492271491
 30
0.0
 40
1685.0
 50
95.387940999999998
 51
180.0
  0
LINE
  5
832A
  8
1
 10
4469.7108515079562
 20
4767.1182492271491
 30
0.0
 11
4469.7108515079562
 21
6611.2979502271501
 31
0.0
  0
LINE
  5
832B
  8
1
 10
4534.7108515079562
 20
4703.11824922715
 30
0.0
 11
4534.7108515079562
 21
6679.1182492271491
 31
0.0
  0
LINE
  5
832F
  8
1
 10
4534.4948845079562
 20
6617.4080872271506
 30
0.0
 11
3342.275450507957
 21
6506.9633352271494
 31
0.0
  0
LINE
  5
8331
  8
1
 10
844.23171950795665
 20
3597.92757222715
 30
0.0
 11
1155.189983507956
 21
3597.92757222715
 31
0.0
  0
LINE
  5
8332
  8
2
 10
662.25188750795678
 20
3866.11824922715
 30
0.0
 11
1342.9880735079571
 21
3866.11824922715
 31
0.0
  0
LINE
  5
8333
  8
1
 10
649.71085150795705
 20
3586.11824922715
 30
0.0
 11
1349.7108515079569
 21
3586.11824922715
 31
0.0
  0
ARC
  5
8334
  8
1
 10
999.71085150795716
 20
3866.11824922715
 30
0.0
 40
310.0
 50
300.10230799999988
 51
239.89769200000001
  0
CIRCLE
  5
8335
  8
1
 10
999.71085150795716
 20
3866.11824922715
 30
0.0
 40
150.0
  0
ARC
  5
8336
  8
1
 10
999.71085150795716
 20
3866.11824922715
 30
0.0
 40
280.0
 50
122.67418499999999
 51
292.86573199999992
  0
LINE
  5
8338
  8
1
 10
719.71085150795705
 20
3733.0769022271502
 30
0.0
 11
719.71085150795705
 21
3586.11824922715
 31
0.0
  0
LINE
  5
8339
  8
1
 10
529.71085150795705
 20
3226.054669227151
 30
0.0
 11
529.71085150795705
 21
3076.054669227151
 31
0.0
  0
LINE
  5
833A
  8
1
 10
529.71085150795705
 20
3516.11824922715
 30
0.0
 11
529.71085150795705
 21
3366.11824922715
 31
0.0
  0
LINE
  5
833B
  8
1
 10
649.71085150795705
 20
3586.11824922715
 30
0.0
 11
829.71085150795705
 21
3586.11824922715
 31
0.0
  0
LINE
  5
833C
  8
1
 10
649.71085150795705
 20
3586.11824922715
 30
0.0
 11
649.71085150795705
 21
3516.11824922715
 31
0.0
  0
LINE
  5
833D
  8
1
 10
1279.7108515079569
 20
3733.0769022271502
 30
0.0
 11
1279.7108515079569
 21
3586.11824922715
 31
0.0
  0
LINE
  5
833E
  8
2
 10
999.71085150795716
 20
3443.3203192271499
 30
0.0
 11
999.71085150795716
 21
4348.1171012271507
 31
0.0
  0
LINE
  5
833F
  8
1
 10
1349.7108515079569
 20
3586.11824922715
 30
0.0
 11
1349.7108515079569
 21
3516.11824922715
 31
0.0
  0
DIMENSION
  5
8340
  8
3
  2
*D10
 10
4429.7108515079562
 20
2673.418766258329
 30
0.0
 11
3899.7108515079558
 21
2785.9187662583299
 31
0.0
 70
     0
 13
3369.7108515079558
 23
2968.468998015067
 33
0.0
 14
4429.7108515079562
 24
3076.054669227151
 34
0.0
 50
180.0
1001
ACAD
1000
DSTYLE
1002
{
1070
   287
1070
     4
1070
   287
1070
     4
1070
   287
1070
     4
1070
    40
1040
45.0
1070
    75
1070
     1
1070
   143
1040
0.039
1070
   172
1070
     1
1070
   271
1070
     0
1070
   279
1070
     1
1070
   288
1070
     1
1002
}
  0
ARC
  5
8344
  8
1
 10
3259.2108515079558
 20
4585.61824922715
 30
0.0
 40
1181.4999999999991
 50
295.14905934509642
 51
0.000000000000007
  0
ARC
  5
8345
  8
1
 10
3238.7108515079558
 20
4827.1182492271491
 30
0.0
 40
1423.0
 50
180.0
 51
247.11585403247039
  0
LINE
  5
8346
  8
2
 10
3369.7108515079558
 20
2968.468998015067
 30
0.0
 11
3369.7108515079558
 21
6605.1196802527547
 31
0.0
  0
LINE
  5
8347
  8
1
 10
4423.4064835079553
 20
4767.1182492271491
 30
0.0
 11
4534.7108515079562
 21
4767.1182492271491
 31
0.0
  0
ARC
  5
8348
  8
1
 10
3369.709851507956
 20
4696.11824922715
 30
0.0
 40
480.0
 50
292.86573199999992
 51
122.67418499999999
  0
CIRCLE
  5
8349
  8
1
 10
3369.7108515079558
 20
4696.11824922715
 30
0.0
 40
400.0
  0
ARC
  5
834A
  8
1
 10
3369.7108515079558
 20
4696.11824922715
 30
0.0
 40
965.0
 50
180.0
 51
180.5343729999999
  0
ARC
  5
834B
  8
1
 10
3480.2108515079558
 20
4585.61824922715
 30
0.0
 40
960.5
 50
0.000000000000007
 51
10.89233500000001
  0
LINE
  5
834C
  8
1
 10
4429.7108515079562
 20
3226.054669227151
 30
0.0
 11
4429.7108515079562
 21
3076.054669227151
 31
0.0
  0
LINE
  5
834D
  8
1
 10
4429.7108515079562
 20
3516.11824922715
 30
0.0
 11
4429.7108515079562
 21
3366.11824922715
 31
0.0
  0
DIMENSION
  5
8428
  8
3
  2
*D12
 10
4534.7108515079562
 20
7057.873409934924
 30
0.0
 11
2532.2108515079558
 21
7170.373409934924
 31
0.0
 70
     0
 13
529.71085150795705
 23
3516.11824922715
 33
0.0
 14
4534.7108515079562
 24
6679.1182492271491
 34
0.0
 50
180.0
1001
ACAD
1000
DSTYLE
1002
{
1070
   287
1070
     3
1070
   287
1070
     3
1070
   287
1070
     3
1070
    40
1040
45.0
1070
   143
1040
0.039
1070
   271
1070
     0
1070
   279
1070
     0
1002
}
  0
DIMENSION
  5
8435
  8
3
  2
*D13
 10
3369.7108515079558
 20
6803.9506352395547
 30
0.0
 11
3952.2108515079558
 21
6916.4506352395547
 31
0.0
 70
     0
 13
4534.7108515079562
 23
6701.6182492271491
 33
0.0
 14
3369.7108515079558
 24
6605.1196802527547
 34
0.0
 50
180.0
1001
ACAD
1000
DSTYLE
1002
{
1070
   287
1070
     3
1070
   287
1070
     3
1070
   287
1070
     3
1070
    40
1040
45.0
1070
   143
1040
0.039
1070
   271
1070
     0
1070
   279
1070
     0
1002
}
  0
DIMENSION
  5
8441
  8
3
  2
*D14
 10
1815.710851507956
 20
6803.9506352395547
 30
0.0
 11
2592.7108515079558
 21
6916.4506352395547
 31
0.0
 70
     0
 13
3369.7108515079558
 23
6605.1196802527547
 33
0.0
 14
1815.710851507956
 24
4827.1182492271491
 34
0.0
 50
180.0
1001
ACAD
1000
DSTYLE
1002
{
1070
   287
1070
     4
1070
   287
1070
     4
1070
   287
1070
     4
1070
    40
1040
45.0
1070
    75
1070
     1
1070
   143
1040
0.039
1070
   271
1070
     0
1070
   279
1070
     1
1002
}
  0
DIMENSION
  5
844E
  8
3
  2
*D15
 10
5153.2462889739691
 20
4767.1182492271491
 30
0.0
 11
5040.7462889739681
 21
5692.2631682271503
 31
0.0
 70
     0
 13
4534.4948845079562
 23
6617.4080872271506
 33
0.0
 14
4534.7108515079562
 24
4767.1182492271491
 34
0.0
 50
270.0
1001
ACAD
1000
DSTYLE
1002
{
1070
   287
1070
     3
1070
   287
1070
     3
1070
   287
1070
     3
1070
    40
1040
45.0
1070
   143
1040
0.039
1070
   271
1070
     0
1070
   279
1070
     0
1002
}
  0
DIMENSION
  5
845B
  8
3
  2
*D16
 10
5510.733384936786
 20
4696.11824922715
 30
0.0
 11
5398.2333849367851
 21
5656.7631682271513
 31
0.0
 70
     0
 13
5153.2462889739691
 23
6617.4080872271506
 33
0.0
 14
4625.994763461712
 24
4696.11824922715
 34
0.0
 50
270.0
1001
ACAD
1000
DSTYLE
1002
{
1070
   287
1070
     3
1070
   287
1070
     3
1070
   287
1070
     3
1070
    40
1040
45.0
1070
   143
1040
0.039
1070
   271
1070
     0
1070
   279
1070
     0
1002
}
  0
DIMENSION
  5
8467
  8
3
  2
*D17
 10
5510.733384936786
 20
3366.1182492271491
 30
0.0
 11
5398.2333849367851
 21
4031.118249227151
 31
0.0
 70
     0
 13
4625.994763461712
 23
4696.11824922715
 33
0.0
 14
4429.7108515079562
 24
3366.11824922715
 34
0.0
 50
270.0
1001
ACAD
1000
DSTYLE
1002
{
1070
   287
1070
     4
1070
   287
1070
     4
1070
   287
1070
     4
1070
    40
1040
45.0
1070
    75
1070
     1
1070
   143
1040
0.039
1070
   271
1070
     0
1070
   279
1070
     1
1002
}
  0
DIMENSION
  5
8477
  8
3
  2
*D18
 10
5510.733384936786
 20
3226.05466922715
 30
0.0
 11
5713.2333849367851
 21
3435.586459227151
 31
0.0
 70
     0
 13
4429.7108515079562
 23
3366.11824922715
 33
0.0
 14
4429.7108515079562
 24
3226.054669227151
 34
0.0
 50
270.0
1001
ACAD
1000
DSTYLE
1002
{
1070
   287
1070
     4
1070
   287
1070
     4
1070
   287
1070
     4
1070
    40
1040
45.0
1070
    75
1070
     1
1070
   143
1040
0.039
1070
   271
1070
     0
1070
   279
1070
     1
1002
}
  0
DIMENSION
  5
8487
  8
3
  2
*D19
 10
5510.733384936786
 20
3076.054669227151
 30
0.0
 11
5398.2333849367851
 21
2690.3403835128652
 31
0.0
 70
     0
 13
4429.7108515079562
 23
3226.054669227151
 33
0.0
 14
4429.7108515079562
 24
3076.054669227151
 34
0.0
 50
270.0
1001
ACAD
1000
DSTYLE
1002
{
1070
   287
1070
     1
1070
   287
1070
     1
1070
   287
1070
     1
1070
    40
1040
45.0
1070
    75
1070
     1
1070
   143
1040
0.039
1070
   271
1070
     0
1070
   279
1070
     0
1070
   289
1070
     1
1002
}
  0
DIMENSION
  5
8526
  8
3
  2
*D20
 10
5952.2204099356613
 20
6617.4080872271506
 30
0.0
 11
5839.7204099356577
 21
4846.7313782271513
 31
0.0
 70
     0
 13
5510.733384936786
 23
3076.054669227151
 33
0.0
 14
5510.733384936786
 24
6617.4080872271506
 34
0.0
 50
270.0
1001
ACAD
1000
DSTYLE
1002
{
1070
   287
1070
     4
1070
   287
1070
     4
1070
   287
1070
     4
1070
    40
1040
45.0
1070
   143
1040
0.039
1070
   271
1070
     0
1070
   279
1070
     1
1002
}
  0
LINE
  5
85A7
  8
1
 10
6937.6376499999988
 20
6619.2122550463982
 30
0.0
 11
8257.6376500000006
 21
6619.2122550463982
 31
0.0
  0
DIMENSION
  5
8650
  8
3
  2
*D21
 10
8257.6376500000006
 20
6853.7585537930527
 30
0.0
 11
7597.6376499999997
 21
6966.2585537930527
 31
0.0
 70
     0
 13
6937.6376499999988
 23
6679.11824922715
 33
0.0
 14
8257.6376500000006
 24
6679.118249227151
 34
0.0
1001
ACAD
1000
DSTYLE
1002
{
1070
   287
1070
     4
1070
   287
1070
     4
1070
   287
1070
     4
1070
    40
1040
45.0
1070
   143
1040
0.039
1070
   271
1070
     0
1070
   279
1070
     1
1002
}
  0
DIMENSION
  5
87D3
  8
3
  2
*D22
 10
5291.1939176059368
 20
9689.0635380000003
 30
0.0
 11
5178.6939176059368
 21
8764.0635380000022
 31
0.0
 70
     0
 13
4429.7108515079544
 23
7839.0635380000012
 33
0.0
 14
4429.7108515079544
 24
9689.0635380000003
 34
0.0
 50
90.0
1001
ACAD
1000
DSTYLE
1002
{
1070
   287
1070
     4
1070
   287
1070
     4
1070
   287
1070
     4
1070
   287
1070
     4
1070
    40
1040
45.0
1070
   143
1040
0.039
1070
   271
1070
     0
1070
   279
1070
     1
1002
}
  0
LINE
  5
87D4
  8
2
 10
4899.8547885079552
 20
8950.0635380000003
 30
0.0
 11
1941.3054989823561
 21
8950.0635380000003
 31
0.0
  0
LINE
  5
87D5
  8
1
 10
1815.710851507954
 20
8964.0635380000003
 30
0.0
 11
529.71085150795443
 21
8964.0635380000003
 31
0.0
  0
DIMENSION
  5
87D6
  8
3
  2
*D23
 10
4429.7108515079544
 20
7357.77823410162
 30
0.0
 11
2569.7295075079542
 21
7357.77823410162
 31
0.0
 70
   128
 13
529.71085150795443
 23
7839.0635380000012
 33
0.0
 14
4429.7108515079544
 24
7839.0635380000012
 34
0.0
 50
0.000000000000007
1001
ACAD
1000
DSTYLE
1002
{
1070
   287
1070
     3
1070
   287
1070
     3
1070
   287
1070
     3
1070
   287
1070
     3
1070
    40
1040
45.0
1070
   143
1040
0.039
1070
   172
1070
     1
1070
   271
1070
     0
1070
   279
1070
     0
1070
   288
1070
     1
1002
}
  0
DIMENSION
  5
87D7
  8
3
  2
*D24
 10
529.71085150795454
 20
9996.3157743553602
 30
0.0
 11
1419.710851507954
 21
10108.815774355349
 31
0.0
 70
     0
 13
2309.710851507954
 23
9689.0635380000003
 33
0.0
 14
529.71085150795443
 24
9039.0635380000003
 34
0.0
 50
0.000000000000007
1001
ACAD
1000
DSTYLE
1002
{
1070
   287
1070
     4
1070
   287
1070
     4
1070
   287
1070
     4
1070
   287
1070
     4
1070
    40
1040
45.0
1070
    75
1070
     1
1070
   143
1040
0.039
1070
   172
1070
     1
1070
   271
1070
     0
1070
   279
1070
     1
1070
   288
1070
     1
1002
}
  0
LINE
  5
87D8
  8
1
 10
3849.710851507954
 20
8050.0635379999994
 30
0.0
 11
714.71085150795443
 21
8050.0635379999994
 31
0.0
  0
LINE
  5
87D9
  8
2
 10
3815.5588515079539
 20
7950.0635379999994
 30
0.0
 11
793.25980750795316
 21
7950.0635379999994
 31
0.0
  0
LINE
  5
87DA
  8
1
 10
714.71085150795443
 20
7850.0635380000003
 30
0.0
 11
3849.710851507954
 21
7850.0635379999994
 31
0.0
  0
LINE
  5
87DB
  8
1
 10
4429.7108515079544
 20
7839.0635380000012
 30
0.0
 11
529.71085150795443
 21
7839.0635380000012
 31
0.0
  0
LINE
  5
87DC
  8
1
 10
1815.710851507954
 20
9039.0635380000003
 30
0.0
 11
529.71085150795443
 21
9039.0635380000003
 31
0.0
  0
DIMENSION
  5
87DD
  8
3
  2
*D25
 10
287.5788035079562
 20
7839.0635380000012
 30
0.0
 11
287.57880350795489
 21
8432.7754170000007
 31
0.0
 70
   128
 13
529.71085150795443
 23
9039.0635380000003
 33
0.0
 14
529.71085150795443
 24
7839.0635380000012
 34
0.0
 50
90.0
1001
ACAD
1000
DSTYLE
1002
{
1070
   287
1070
     3
1070
   287
1070
     3
1070
   287
1070
     3
1070
   287
1070
     3
1070
    40
1040
45.0
1070
   143
1040
0.039
1070
   172
1070
     1
1070
   271
1070
     0
1070
   279
1070
     0
1070
   288
1070
     1
1002
}
  0
LINE
  5
87DE
  8
2
 10
999.71085150795443
 20
7930.5669569999991
 30
0.0
 11
999.71085150795443
 21
9008.3548540000029
 31
0.0
  0
LINE
  5
87DF
  8
1
 10
1287.210851507954
 20
8136.5635379999976
 30
0.0
 11
1287.210851507954
 21
8989.0635380000003
 31
0.0
  0
LINE
  5
87E0
  8
1
 10
729.71085150795443
 20
8989.0635380000003
 30
0.0
 11
729.71085150795443
 21
8136.5635379999976
 31
0.0
  0
LINE
  5
87E1
  8
1
 10
529.71085150795443
 20
7839.0635380000012
 30
0.0
 11
529.71085150795443
 21
9039.0635380000003
 31
0.0
  0
LINE
  5
87E2
  8
1
 10
914.21085150795432
 20
8130.0635379999994
 30
0.0
 11
1085.210851507954
 21
8130.0635379999994
 31
0.0
  0
LINE
  5
87E3
  8
1
 10
1287.210851507954
 20
8136.5635379999976
 30
0.0
 11
729.71085150795443
 21
8136.5635379999976
 31
0.0
  0
LINE
  5
87E4
  8
1
 10
849.71085150795443
 20
8010.0635379999976
 30
0.0
 11
1149.710851507954
 21
8010.0635379999976
 31
0.0
  0
LINE
  5
87E5
  8
1
 10
849.71085150795443
 20
7890.0635379999976
 30
0.0
 11
1149.710851507954
 21
7890.0635379999976
 31
0.0
  0
LINE
  5
87E6
  8
1
 10
714.71085150795443
 20
7914.0635380000003
 30
0.0
 11
529.71085150795443
 21
7914.0635380000003
 31
0.0
  0
LINE
  5
87E7
  8
1
 10
714.71085150795443
 20
8050.0635379999994
 30
0.0
 11
714.71085150795443
 21
7850.0635379999994
 31
0.0
  0
LINE
  5
87E8
  8
1
 10
849.71085150795443
 20
7890.0635379999976
 30
0.0
 11
849.71085150795443
 21
8010.0635379999976
 31
0.0
  0
LINE
  5
87E9
  8
1
 10
912.21085150795443
 20
8136.9119129999999
 30
0.0
 11
912.21085150795443
 21
8132.0635379999976
 31
0.0
  0
ARC
  5
87EA
  8
1
 10
914.21085150795432
 20
8132.0635379999976
 30
0.0
 40
2.0
 50
180.0
 51
270.0
  0
LINE
  5
87EB
  8
1
 10
999.71085150795443
 20
7815.7625379999999
 30
0.0
 11
999.71085150795443
 21
8163.5635379999976
 31
0.0
  0
LINE
  5
87EC
  8
1
 10
1049.710851507954
 20
8120.0635379999976
 30
0.0
 11
1049.710851507954
 21
8130.0635379999994
 31
0.0
  0
LINE
  5
87ED
  8
1
 10
949.71085150795443
 20
8120.0635379999976
 30
0.0
 11
949.71085150795443
 21
8130.0635379999994
 31
0.0
  0
LINE
  5
87EE
  8
1
 10
949.71085150795443
 20
8120.0635379999976
 30
0.0
 11
1049.710851507954
 21
8120.0635379999976
 31
0.0
  0
LINE
  5
87EF
  8
1
 10
957.21085150795454
 20
7950.0635379999994
 30
0.0
 11
1047.210851507954
 21
7950.0635379999994
 31
0.0
  0
LINE
  5
87F0
  8
1
 10
957.21085150795454
 20
7950.0635379999994
 30
0.0
 11
957.21085150795454
 21
8120.0635379999976
 31
0.0
  0
LINE
  5
87F1
  8
1
 10
1042.210851507954
 20
8090.0635379999976
 30
0.0
 11
1047.210851507954
 21
8090.0635379999976
 31
0.0
  0
LINE
  5
87F2
  8
1
 10
1042.210851507954
 20
7950.0635379999994
 30
0.0
 11
1042.210851507954
 21
8114.5635379999976
 31
0.0
  0
LINE
  5
87F3
  8
1
 10
1047.210851507954
 20
7950.0635379999994
 30
0.0
 11
1047.210851507954
 21
8090.0635379999976
 31
0.0
  0
LINE
  5
87F4
  8
1
 10
1087.210851507954
 20
8136.5635379999976
 30
0.0
 11
1087.210851507954
 21
8132.0635379999976
 31
0.0
  0
ARC
  5
87F5
  8
1
 10
1085.210851507954
 20
8132.0635379999976
 30
0.0
 40
2.0
 50
270.0
 51
0.000000000000007
  0
LINE
  5
87F6
  8
1
 10
1149.710851507954
 20
7890.0635379999976
 30
0.0
 11
1149.710851507954
 21
8010.0635379999976
 31
0.0
  0
LINE
  5
87F7
  8
1
 10
729.71085150795443
 20
8989.0635380000003
 30
0.0
 11
1287.210851507954
 21
8989.0635380000003
 31
0.0
  0
LINE
  5
87F8
  8
1
 10
4429.7108515079544
 20
9614.0635380000003
 30
0.0
 11
2309.710851507954
 21
9614.0635380000003
 31
0.0
  0
LINE
  5
87F9
  8
1
 10
4334.7108515079553
 20
9745.0635380000003
 30
0.0
 11
2404.710851507954
 21
9745.0635380000003
 31
0.0
  0
DIMENSION
  5
87FA
  8
3
  2
*D26
 10
2309.710851507954
 20
9996.3157743553602
 30
0.0
 11
3362.6395655079541
 21
9996.3157743553602
 31
0.0
 70
   128
 13
4429.7108515079544
 23
9689.0635380000003
 33
0.0
 14
2309.710851507954
 24
9689.0635380000003
 34
0.0
 50
0.000000000000007
1001
ACAD
1000
DSTYLE
1002
{
1070
   287
1070
     3
1070
   287
1070
     3
1070
   287
1070
     3
1070
   287
1070
     3
1070
    40
1040
45.0
1070
   143
1040
0.039
1070
   172
1070
     1
1070
   271
1070
     0
1070
   279
1070
     0
1070
   288
1070
     1
1002
}
  0
LINE
  5
87FB
  8
1
 10
2969.710851507954
 20
8010.0635379999976
 30
0.0
 11
3769.710851507954
 21
8010.0635379999976
 31
0.0
  0
LINE
  5
87FC
  8
1
 10
2969.710851507954
 20
7890.0635379999976
 30
0.0
 11
3769.710851507954
 21
7890.0635379999976
 31
0.0
  0
LINE
  5
87FD
  8
1
 10
4534.7108515079553
 20
8290.0635380000003
 30
0.0
 11
1815.710851507954
 21
8290.0635380000003
 31
0.0
  0
LINE
  5
87FE
  8
1
 10
4534.7108515079553
 20
9610.0635380000003
 30
0.0
 11
1815.710851507954
 21
9610.0635380000022
 31
0.0
  0
LINE
  5
87FF
  8
1
 10
1815.710851507954
 20
8290.0635380000003
 30
0.0
 11
1815.710851507954
 21
9610.0635380000022
 31
0.0
  0
LINE
  5
8800
  8
1
 10
2384.710851507954
 20
8050.0635379999994
 30
0.0
 11
2384.710851507954
 21
8290.0635379999985
 31
0.0
  0
LINE
  5
8801
  8
1
 10
2309.710851507954
 20
8050.0635380000012
 30
0.0
 11
2309.710851507954
 21
8290.0635380000003
 31
0.0
  0
LINE
  5
8802
  8
1
 10
2969.710851507954
 20
8010.0635379999976
 30
0.0
 11
2969.710851507954
 21
7890.0635379999976
 31
0.0
  0
LINE
  5
8803
  8
1
 10
2469.710851507954
 20
9689.0635380000003
 30
0.0
 11
2309.710851507954
 21
9689.0635380000003
 31
0.0
  0
LINE
  5
8804
  8
1
 10
2309.710851507954
 20
9610.0635380000022
 30
0.0
 11
2309.710851507954
 21
9689.0635380000003
 31
0.0
  0
LINE
  5
8805
  8
1
 10
2384.710851507954
 20
9610.0635380000003
 30
0.0
 11
2384.710851507954
 21
9614.0635380000022
 31
0.0
  0
LINE
  5
8806
  8
1
 10
2469.710851507954
 20
9610.0635380000022
 30
0.0
 11
2469.710851507954
 21
9745.0635380000003
 31
0.0
  0
LINE
  5
8807
  8
1
 10
4534.7108515079553
 20
8221.0635380000022
 30
0.0
 11
4534.7108515079553
 21
9679.0635380000003
 31
0.0
  0
LINE
  5
8808
  8
2
 10
3369.710851507954
 20
7784.9977922113176
 30
0.0
 11
3369.710851507954
 21
9859.5168784776179
 31
0.0
  0
LINE
  5
8809
  8
1
 10
4429.7108515079544
 20
7914.0635380000003
 30
0.0
 11
3849.710851507954
 21
7914.0635380000003
 31
0.0
  0
LINE
  5
880A
  8
1
 10
3849.710851507954
 20
8050.0635379999994
 30
0.0
 11
3849.710851507954
 21
7850.0635379999994
 31
0.0
  0
LINE
  5
880B
  8
1
 10
3769.710851507954
 20
7890.0635379999976
 30
0.0
 11
3769.710851507954
 21
8010.0635379999976
 31
0.0
  0
LINE
  5
880C
  8
1
 10
4429.7108515079544
 20
7839.0635380000012
 30
0.0
 11
4429.7108515079544
 21
8290.0635380000003
 31
0.0
  0
LINE
  5
880D
  8
1
 10
4354.7108515079544
 20
7914.0635380000003
 30
0.0
 11
4354.7108515079544
 21
8290.0635380000003
 31
0.0
  0
LINE
  5
880E
  8
1
 10
4429.7108515079544
 20
9610.0635380000003
 30
0.0
 11
4429.7108515079544
 21
9689.0635380000003
 31
0.0
  0
LINE
  5
880F
  8
1
 10
4269.7108515079517
 20
9610.0635380000003
 30
0.0
 11
4269.7108515079544
 21
9745.0635380000003
 31
0.0
  0
LINE
  5
8810
  8
1
 10
4354.7108515079544
 20
9610.0635380000003
 30
0.0
 11
4354.7108515079544
 21
9614.0635380000022
 31
0.0
  0
LINE
  5
8811
  8
1
 10
4429.7108515079544
 20
9689.0635380000003
 30
0.0
 11
4269.7108515079517
 21
9689.0635380000003
 31
0.0
  0
LINE
  5
8B26
  8
1
 10
6868.6376499999997
 20
6679.1182492271491
 30
0.0
 11
8326.6376500000006
 21
6679.1182492271491
 31
0.0
  0
LINE
  5
8B27
  8
1
 10
6868.6376499999997
 20
4741.11824922715
 30
0.0
 11
6868.6376499999997
 21
6679.1182492271491
 31
0.0
  0
LINE
  5
8B28
  8
1
 10
8326.6376500000006
 20
5596.1182492271491
 30
0.0
 11
8326.6376500000006
 21
6679.1182492271491
 31
0.0
  0
LINE
  5
8B29
  8
1
 10
7636.6376499999988
 20
3587.36824922715
 30
0.0
 11
7636.6376499999988
 21
4144.86824922715
 31
0.0
  0
LINE
  5
8B2B
  8
1
 10
6937.6376499999988
 20
4144.86824922715
 30
0.0
 11
6937.6376499999988
 21
6619.2122550463982
 31
0.0
  0
ENDSEC
  0
EOF
