  0
SECTION
  2
HEADER
  9
$ACADVER
  1
AC1009
  9
$INSBASE
 10
0.0
 20
0.0
 30
0.0
  9
$EXTMIN
 10
0.0
 20
0.0
 30
0.0
  9
$EXTMAX
 10
9450.0
 20
13275.0
 30
0.0
  9
$LIMMIN
 10
0.0
 20
0.0
  9
$LIMMAX
 10
297.0
 20
210.0
  9
$ORTHOMODE
 70
     0
  9
$REGENMODE
 70
     1
  9
$FILLMODE
 70
     0
  9
$QTEXTMODE
 70
     0
  9
$MIRRTEXT
 70
     1
  9
$DRAGMODE
 70
     2
  9
$LTSCALE
 40
100.0
  9
$OSMODE
 70
    37
  9
$ATTMODE
 70
     1
  9
$TEXTSIZE
 40
180.0
  9
$TRACEWID
 40
0.05
  9
$TEXTSTYLE
  7
STANDARD
  9
$CLAYER
  8
3
  9
$CELTYPE
  6
BYLAYER
  9
$CECOLOR
 62
   256
  9
$DIMSCALE
 40
45.0
  9
$DIMASZ
 40
2.0
  9
$DIMEXO
 40
0.5
  9
$DIMDLI
 40
10.0
  9
$DIMRND
 40
0.0
  9
$DIMDLE
 40
0.0
  9
$DIMEXE
 40
1.0
  9
$DIMTP
 40
1.0
  9
$DIMTM
 40
1.0
  9
$DIMTXT
 40
3.0
  9
$DIMCEN
 40
0.0
  9
$DIMTSZ
 40
0.0
  9
$DIMTOL
 70
     0
  9
$DIMLIM
 70
     0
  9
$DIMTIH
 70
     0
  9
$DIMTOH
 70
     0
  9
$DIMSE1
 70
     0
  9
$DIMSE2
 70
     0
  9
$DIMTAD
 70
     1
  9
$DIMZIN
 70
     8
  9
$DIMBLK
  1

  9
$DIMASO
 70
     1
  9
$DIMSHO
 70
     1
  9
$DIMPOST
  1

  9
$DIMAPOST
  1

  9
$DIMALT
 70
     0
  9
$DIMALTD
 70
     2
  9
$DIMALTF
 40
0.039
  9
$DIMLFAC
 40
1.0
  9
$DIMTOFL
 70
     0
  9
$DIMTVP
 40
0.0
  9
$DIMTIX
 70
     0
  9
$DIMSOXD
 70
     0
  9
$DIMSAH
 70
     1
  9
$DIMBLK1
  1
OPEN
  9
$DIMBLK2
  1
OPEN
  9
$DIMSTYLE
  2
IGA
  9
$DIMCLRD
 70
     0
  9
$DIMCLRE
 70
     0
  9
$DIMCLRT
 70
     0
  9
$DIMTFAC
 40
10.0
  9
$DIMGAP
 40
1.0
  9
$LUNITS
 70
     2
  9
$LUPREC
 70
     3
  9
$SKETCHINC
 40
0.1
  9
$FILLETRAD
 40
50.0
  9
$AUNITS
 70
     0
  9
$AUPREC
 70
     0
  9
$MENU
  1
acad
  9
$ELEVATION
 40
0.0
  9
$PELEVATION
 40
0.0
  9
$THICKNESS
 40
0.0
  9
$LIMCHECK
 70
     0
  9
$BLIPMODE
 70
     0
  9
$CHAMFERA
 40
0.5
  9
$CHAMFERB
 40
0.5
  9
$SKPOLY
 70
     0
  9
$TDCREATE
 40
2451845.4205035879
  9
$TDUPDATE
 40
2454953.6646258221
  9
$TDINDWG
 40
0.0892588542
  9
$TDUSRTIMER
 40
0.0892584954
  9
$USRTIMER
 70
     1
  9
$ANGBASE
 50
0.0
  9
$ANGDIR
 70
     0
  9
$PDMODE
 70
     0
  9
$PDSIZE
 40
0.0
  9
$PLINEWID
 40
0.0
  9
$COORDS
 70
     1
  9
$SPLFRAME
 70
     0
  9
$SPLINETYPE
 70
     6
  9
$SPLINESEGS
 70
     8
  9
$ATTDIA
 70
     0
  9
$ATTREQ
 70
     1
  9
$HANDLING
 70
 10241
  9
$HANDSEED
  5
A9F4
  9
$SURFTAB1
 70
     6
  9
$SURFTAB2
 70
     6
  9
$SURFTYPE
 70
     6
  9
$SURFU
 70
     6
  9
$SURFV
 70
     6
  9
$UCSNAME
  2

  9
$UCSORG
 10
0.0
 20
0.0
 30
0.0
  9
$UCSXDIR
 10
1.0
 20
0.0
 30
0.0
  9
$UCSYDIR
 10
0.0
 20
1.0
 30
0.0
  9
$PUCSNAME
  2

  9
$PUCSORG
 10
0.0
 20
0.0
 30
0.0
  9
$PUCSXDIR
 10
1.0
 20
0.0
 30
0.0
  9
$PUCSYDIR
 10
0.0
 20
1.0
 30
0.0
  9
$USERI1
 70
     0
  9
$USERI2
 70
     0
  9
$USERI3
 70
     0
  9
$USERI4
 70
     0
  9
$USERI5
 70
     0
  9
$USERR1
 40
0.0
  9
$USERR2
 40
0.0
  9
$USERR3
 40
0.0
  9
$USERR4
 40
0.0
  9
$USERR5
 40
0.0
  9
$WORLDVIEW
 70
     1
  9
$SHADEDGE
 70
     3
  9
$SHADEDIF
 70
    70
  9
$TILEMODE
 70
     1
  9
$MAXACTVP
 70
    16
  9
$PLIMCHECK
 70
     0
  9
$PEXTMIN
 10
1.0000000000000000E+020
 20
1.0000000000000000E+020
 30
1.0000000000000000E+020
  9
$PEXTMAX
 10
-1.0000000000000000E+020
 20
-1.0000000000000000E+020
 30
-1.0000000000000000E+020
  9
$PLIMMIN
 10
0.0
 20
0.0
  9
$PLIMMAX
 10
12.0
 20
9.0
  9
$UNITMODE
 70
     0
  9
$VISRETAIN
 70
     0
  9
$PLINEGEN
 70
     0
  9
$PSLTSCALE
 70
     1
  0
ENDSEC
  0
SECTION
  2
TABLES
  0
TABLE
  2
VPORT
 70
     2
  0
VPORT
  2
*ACTIVE
 70
     0
 10
0.0
 20
0.0
 11
1.0
 21
1.0
 12
21832.12451901046
 22
6136.0006975327469
 13
0.0
 23
0.0
 14
10.0
 24
10.0
 15
10.0
 25
10.0
 16
0.0
 26
0.0
 36
1.0
 17
0.0
 27
0.0
 37
0.0
 40
16906.12806100932
 41
3.1666666666666661
 42
50.0
 43
0.0
 44
0.0
 50
0.0
 51
0.0
 71
     0
 72
   100
 73
     1
 74
     0
 75
     0
 76
     0
 77
     0
 78
     0
  0
ENDTAB
  0
TABLE
  2
LTYPE
 70
     2
  0
LTYPE
  2
CONTINUOUS
 70
     0
  3
Solid line
 72
    65
 73
     0
 40
0.0
  0
LTYPE
  2
CENTER
 70
     0
  3
____ _ ____ _ ____ _ ____ _ ____ _ ____ _ ____ 
 72
    65
 73
     4
 40
2.0
 49
1.25
 49
-0.25
 49
0.25
 49
-0.25
  0
ENDTAB
  0
TABLE
  2
LAYER
 70
     6
  0
LAYER
  2
0
 70
     0
 62
     7
  6
CONTINUOUS
  0
LAYER
  2
3
 70
     0
 62
     2
  6
CONTINUOUS
  0
LAYER
  2
2
 70
     0
 62
     3
  6
CENTER
  0
LAYER
  2
1
 70
     0
 62
     4
  6
CONTINUOUS
  0
LAYER
  2
4
 70
     0
 62
     7
  6
CONTINUOUS
  0
LAYER
  2
DEFPOINTS
 70
     0
 62
     7
  6
CONTINUOUS
  0
ENDTAB
  0
TABLE
  2
STYLE
 70
     1
  0
STYLE
  2
STANDARD
 70
     0
 40
0.0
 41
1.0
 50
0.0
 71
     0
 42
180.0
  3
simplex.shx
  4
extfont.shx
  0
ENDTAB
  0
TABLE
  2
VIEW
 70
     0
  0
ENDTAB
  0
TABLE
  2
UCS
 70
     0
  0
ENDTAB
  0
TABLE
  2
APPID
 70
     1
  0
APPID
  2
ACAD
 70
     0
  0
ENDTAB
  0
TABLE
  2
DIMSTYLE
 70
     1
  0
DIMSTYLE
  2
IGA
 70
     0
  3

  4

  5

  6

  7

 40
2.0
 41
2.0
 42
0.5
 43
10.0
 44
1.0
 45
0.0
 46
0.0
 47
1.0
 48
1.0
140
3.0
141
0.0
142
0.0
143
0.03937
144
1.0
145
0.0
146
10.0
147
1.0
 71
     0
 72
     0
 73
     0
 74
     0
 75
     0
 76
     0
 77
     1
 78
     8
170
     0
171
     2
172
     0
173
     1
174
     0
175
     0
176
     0
177
     0
178
     0
  0
ENDTAB
  0
ENDSEC
  0
SECTION
  2
BLOCKS
  0
BLOCK
  8
0
  2
$MODEL_SPACE
 70
     0
 10
0.0
 20
0.0
 30
0.0
  3
$MODEL_SPACE
  1

  0
ENDBLK
  5
8CFA
  8
0
  0
BLOCK
 67
     1
  8
0
  2
$PAPER_SPACE
 70
     0
 10
0.0
 20
0.0
 30
0.0
  3
$PAPER_SPACE
  1

  0
ENDBLK
  5
8CF6
 67
     1
  8
0
  0
BLOCK
  8
0
  2
YA_N
 70
     0
 10
0.0
 20
0.0
 30
0.0
  3
YA_N
  1

  0
ENDBLK
  5
8D0E
  8
0
  0
BLOCK
  8
0
  2
_OPEN
 70
     0
 10
0.0
 20
0.0
 30
0.0
  3
_OPEN
  1

  0
LINE
  5
8D11
  8
0
  6
BYBLOCK
 62
     0
 10
-1.0
 20
0.166667
 30
0.0
 11
0.0
 21
0.0
 31
0.0
  0
LINE
  5
8D12
  8
0
  6
BYBLOCK
 62
     0
 10
0.0
 20
0.0
 30
0.0
 11
-1.0
 21
-0.166667
 31
0.0
  0
LINE
  5
8D13
  8
0
  6
BYBLOCK
 62
     0
 10
0.0
 20
0.0
 30
0.0
 11
-1.0
 21
0.0
 31
0.0
  0
ENDBLK
  5
8D14
  8
0
  0
BLOCK
  8
0
  2
_DOT
 70
     0
 10
0.0
 20
0.0
 30
0.0
  3
_DOT
  1

  0
LINE
  5
8D17
  8
0
  6
BYBLOCK
 62
     0
 10
0.0
 20
0.0
 30
0.0
 11
-1.0
 21
0.0
 31
0.0
  0
POLYLINE
  5
8D18
  8
0
  6
BYBLOCK
 62
     0
 66
     1
 10
0.0
 20
0.0
 30
0.0
 70
     1
 40
0.166667
 41
0.166667
  0
VERTEX
  5
A91D
  8
0
  6
BYBLOCK
 62
     0
 10
-0.083333
 20
0.0
 30
0.0
 42
1.0
  0
VERTEX
  5
A91E
  8
0
  6
BYBLOCK
 62
     0
 10
0.083333
 20
0.0
 30
0.0
 42
1.0
  0
SEQEND
  5
A91F
  8
0
  6
BYBLOCK
 62
     0
  0
ENDBLK
  5
8D1C
  8
0
  0
BLOCK
  8
0
  2
*D5
 70
     1
 10
0.0
 20
0.0
 30
0.0
  3
*D5
  1

  0
LINE
  5
A995
  8
3
 62
     0
 10
4829.8297044631781
 20
8163.5698250355763
 30
0.0
 11
5713.8127705611623
 21
8163.5698250355763
 31
0.0
  0
LINE
  5
A996
  8
3
 62
     0
 10
4829.8297044631781
 20
10013.569825035571
 30
0.0
 11
5713.8127705611623
 21
10013.569825035571
 31
0.0
  0
LINE
  5
A997
  8
3
 62
     0
 10
5668.8127705611632
 20
8253.5698250355763
 30
0.0
 11
5668.8127705611632
 21
9923.5698250355726
 31
0.0
  0
INSERT
  5
A998
  8
3
 62
     0
  2
_OPEN
 10
5668.8127705611632
 20
8163.5698250355763
 30
0.0
 41
90.0
 42
90.0
 43
90.0
 50
270.0
  0
INSERT
  5
A999
  8
3
 62
     0
  2
_OPEN
 10
5668.8127705611632
 20
10013.569825035571
 30
0.0
 41
90.0
 42
90.0
 43
90.0
 50
90.0
  0
TEXT
  8
3
  40
135
  5
A9DF
  62
0
  72
0
  71
0
 10
5286.31
 20
8849.62
 30
0.000000
  1
1850
  0
POINT
  5
A99B
  8
DEFPOINTS
 62
     0
 10
4807.3297044631781
 20
8163.5698250355763
 30
0.0
  0
POINT
  5
A99C
  8
DEFPOINTS
 62
     0
 10
4807.3297044631781
 20
10013.569825035571
 30
0.0
  0
POINT
  5
A99D
  8
DEFPOINTS
 62
     0
 10
5668.8127705611632
 20
10013.569825035571
 30
0.0
  0
ENDBLK
  5
908C
  8
0
  0
BLOCK
  8
0
  2
*D6
 70
     1
 10
0.0
 20
0.0
 30
0.0
  3
*D6
  1

  0
LINE
  5
A920
  8
3
 62
     0
 10
4807.3297044631781
 20
10036.069825035571
 30
0.0
 11
4807.3297044631781
 21
10365.822061390931
 31
0.0
  0
LINE
  5
A921
  8
3
 62
     0
 10
2687.329704463179
 20
10036.069825035571
 30
0.0
 11
2687.329704463179
 21
10365.822061390931
 31
0.0
  0
LINE
  5
A922
  8
3
 62
     0
 10
4717.3297044631772
 20
10320.822061390931
 30
0.0
 11
2777.329704463179
 21
10320.822061390931
 31
0.0
  0
INSERT
  5
A923
  8
3
 62
     0
  2
_OPEN
 10
4807.3297044631781
 20
10320.822061390931
 30
0.0
 41
90.0
 42
90.0
 43
90.0
  0
INSERT
  5
A924
  8
3
 62
     0
  2
_OPEN
 10
2687.329704463179
 20
10320.822061390931
 30
0.0
 41
90.0
 42
90.0
 43
90.0
 50
180.0
  0
TEXT
  8
3
  40
135
  5
A9E0
  62
0
  72
0
  71
0
 10
3470.26
 20
10194.4
 30
0.000000
  1
2120
  0
POINT
  5
A926
  8
DEFPOINTS
 62
     0
 10
4807.3297044631781
 20
10013.569825035571
 30
0.0
  0
POINT
  5
A927
  8
DEFPOINTS
 62
     0
 10
2687.329704463179
 20
10013.569825035571
 30
0.0
  0
POINT
  5
A928
  8
DEFPOINTS
 62
     0
 10
2687.329704463179
 20
10320.822061390931
 30
0.0
  0
ENDBLK
  5
9098
  8
0
  0
BLOCK
  8
0
  2
*D7
 70
     1
 10
0.0
 20
0.0
 30
0.0
  3
*D7
  1

  0
LINE
  5
A929
  8
3
 62
     0
 10
2687.329704463179
 20
10036.069825035571
 30
0.0
 11
2687.329704463179
 21
10365.822061390931
 31
0.0
  0
LINE
  5
A92A
  8
3
 62
     0
 10
1207.32970446318
 20
9386.0698250355745
 30
0.0
 11
1207.32970446318
 21
10365.822061390931
 31
0.0
  0
LINE
  5
A92B
  8
3
 62
     0
 10
2597.329704463179
 20
10320.822061390931
 30
0.0
 11
1297.329704463179
 21
10320.822061390931
 31
0.0
  0
INSERT
  5
A92C
  8
3
 62
     0
  2
_OPEN
 10
2687.329704463179
 20
10320.822061390931
 30
0.0
 41
90.0
 42
90.0
 43
90.0
  0
INSERT
  5
A92D
  8
3
 62
     0
  2
_OPEN
 10
1207.32970446318
 20
10320.822061390931
 30
0.0
 41
90.0
 42
90.0
 43
90.0
 50
180.0
  0
TEXT
  8
3
  40
135
  5
A9E1
  62
0
  72
0
  71
0
 10
1677.33
 20
10194.4
 30
0.000000
  1
1480
  0
POINT
  5
A92F
  8
DEFPOINTS
 62
     0
 10
2687.329704463179
 20
10013.569825035571
 30
0.0
  0
POINT
  5
A930
  8
DEFPOINTS
 62
     0
 10
1207.32970446318
 20
9363.5698250355745
 30
0.0
  0
POINT
  5
A931
  8
DEFPOINTS
 62
     0
 10
1207.32970446318
 20
10320.822061390931
 30
0.0
  0
ENDBLK
  5
90A4
  8
0
  0
BLOCK
  8
0
  2
*D8
 70
     1
 10
0.0
 20
0.0
 30
0.0
  3
*D8
  1

  0
LINE
  5
A93B
  8
3
 62
     0
 10
1207.32970446318
 20
8141.0698250355772
 30
0.0
 11
1207.32970446318
 21
7637.284521137195
 31
0.0
  0
LINE
  5
A93C
  8
3
 62
     0
 10
4807.3297044631781
 20
8141.0698250355772
 30
0.0
 11
4807.3297044631781
 21
7637.284521137195
 31
0.0
  0
LINE
  5
A93D
  8
3
 62
     0
 10
1297.329704463179
 20
7682.284521137195
 30
0.0
 11
4717.3297044631772
 21
7682.284521137195
 31
0.0
  0
INSERT
  5
A93E
  8
3
 62
     0
  2
_OPEN
 10
1207.32970446318
 20
7682.284521137195
 30
0.0
 41
90.0
 42
90.0
 43
90.0
 50
180.0
  0
INSERT
  5
A93F
  8
3
 62
     0
  2
_OPEN
 10
4807.3297044631781
 20
7682.284521137195
 30
0.0
 41
90.0
 42
90.0
 43
90.0
  0
TEXT
  8
3
  40
135
  5
A9E2
  62
0
  72
0
  71
0
 10
2977.35
 20
7555.83
 30
0.000000
  1
3600
  0
POINT
  5
A941
  8
DEFPOINTS
 62
     0
 10
1207.32970446318
 20
8163.5698250355763
 30
0.0
  0
POINT
  5
A942
  8
DEFPOINTS
 62
     0
 10
4807.3297044631781
 20
8163.5698250355763
 30
0.0
  0
POINT
  5
A943
  8
DEFPOINTS
 62
     0
 10
4807.3297044631781
 20
7682.284521137195
 30
0.0
  0
ENDBLK
  5
90B0
  8
0
  0
BLOCK
  8
0
  2
*D9
 70
     1
 10
0.0
 20
0.0
 30
0.0
  3
*D9
  1

  0
LINE
  5
A932
  8
3
 62
     0
 10
1184.829704463179
 20
9363.5698250355745
 30
0.0
 11
920.19765646318092
 21
9363.5698250355745
 31
0.0
  0
LINE
  5
A933
  8
3
 62
     0
 10
1184.829704463179
 20
8163.5698250355763
 30
0.0
 11
920.19765646318081
 21
8163.5698250355763
 31
0.0
  0
LINE
  5
A934
  8
3
 62
     0
 10
965.19765646318103
 20
9273.5698250355763
 30
0.0
 11
965.19765646318069
 21
8253.5698250355763
 31
0.0
  0
INSERT
  5
A935
  8
3
 62
     0
  2
_OPEN
 10
965.19765646318103
 20
9363.5698250355745
 30
0.0
 41
90.0
 42
90.0
 43
90.0
 50
90.0
  0
INSERT
  5
A936
  8
3
 62
     0
  2
_OPEN
 10
965.19765646318069
 20
8163.5698250355763
 30
0.0
 41
90.0
 42
90.0
 43
90.0
 50
270.0
  0
TEXT
  8
3
  40
135
  5
A9E3
  62
0
  72
0
  71
0
 10
582.698
 20
8518.33
 30
0.000000
  1
1200
  0
POINT
  5
A938
  8
DEFPOINTS
 62
     0
 10
1207.32970446318
 20
9363.5698250355745
 30
0.0
  0
POINT
  5
A939
  8
DEFPOINTS
 62
     0
 10
1207.32970446318
 20
8163.5698250355763
 30
0.0
  0
POINT
  5
A93A
  8
DEFPOINTS
 62
     0
 10
965.19765646318069
 20
8163.5698250355763
 30
0.0
  0
ENDBLK
  5
90BC
  8
0
  0
BLOCK
  8
0
  2
*D10
 70
     1
 10
0.0
 20
0.0
 30
0.0
  3
*D10
  1

  0
LINE
  5
A971
  8
3
 62
     0
 10
1207.32970446318
 20
3059.8188314740569
 30
0.0
 11
1207.32970446318
 21
2577.0088410111139
 31
0.0
  0
LINE
  5
A972
  8
3
 62
     0
 10
3747.329704463179
 20
2929.6695802619738
 30
0.0
 11
3747.329704463179
 21
2577.0088410111139
 31
0.0
  0
LINE
  5
A973
  8
3
 62
     0
 10
1297.32970446318
 20
2622.0088410111139
 30
0.0
 11
3657.32970446318
 21
2622.0088410111139
 31
0.0
  0
INSERT
  5
A974
  8
3
 62
     0
  2
_OPEN
 10
1207.32970446318
 20
2622.0088410111139
 30
0.0
 41
90.0
 42
90.0
 43
90.0
 50
180.0
  0
INSERT
  5
A975
  8
3
 62
     0
  2
_OPEN
 10
3747.329704463179
 20
2622.0088410111139
 30
0.0
 41
90.0
 42
90.0
 43
90.0
  0
TEXT
  8
3
  40
135
  5
A9E4
  62
0
  72
0
  71
0
 10
2439.40
 20
2495.56
 30
0.000000
  1
2540
  0
POINT
  5
A977
  8
DEFPOINTS
 62
     0
 10
1207.32970446318
 20
3082.3188314740569
 30
0.0
  0
POINT
  5
A978
  8
DEFPOINTS
 62
     0
 10
3747.329704463179
 20
2952.1695802619738
 30
0.0
  0
POINT
  5
A979
  8
DEFPOINTS
 62
     0
 10
3747.329704463179
 20
2622.0088410111139
 30
0.0
  0
ENDBLK
  5
90EC
  8
0
  0
BLOCK
  8
0
  2
*D11
 70
     1
 10
0.0
 20
0.0
 30
0.0
  3
*D11
  1

  0
LINE
  5
A97A
  8
3
 62
     0
 10
3747.329704463179
 20
2929.6695802619738
 30
0.0
 11
3747.329704463179
 21
2577.0088410111139
 31
0.0
  0
LINE
  5
A97B
  8
3
 62
     0
 10
4807.329704463179
 20
3059.8188314740569
 30
0.0
 11
4807.329704463179
 21
2577.0088410111139
 31
0.0
  0
LINE
  5
A97C
  8
3
 62
     0
 10
3837.329704463179
 20
2622.0088410111139
 30
0.0
 11
4717.3297044631781
 21
2622.0088410111139
 31
0.0
  0
INSERT
  5
A97D
  8
3
 62
     0
  2
_OPEN
 10
3747.329704463179
 20
2622.0088410111139
 30
0.0
 41
90.0
 42
90.0
 43
90.0
 50
180.0
  0
INSERT
  5
A97E
  8
3
 62
     0
  2
_OPEN
 10
4807.329704463179
 20
2622.0088410111139
 30
0.0
 41
90.0
 42
90.0
 43
90.0
  0
TEXT
  8
3
  40
135
  5
A9E5
  62
0
  72
0
  71
0
 10
4007.33
 20
2495.56
 30
0.000000
  1
1060
  0
POINT
  5
A980
  8
DEFPOINTS
 62
     0
 10
3747.329704463179
 20
2952.1695802619738
 30
0.0
  0
POINT
  5
A981
  8
DEFPOINTS
 62
     0
 10
4807.329704463179
 20
3082.3188314740569
 30
0.0
  0
POINT
  5
A982
  8
DEFPOINTS
 62
     0
 10
4807.329704463179
 20
2622.0088410111139
 30
0.0
  0
ENDBLK
  5
90F8
  8
0
  0
BLOCK
  8
0
  2
*D12
 70
     1
 10
0.0
 20
0.0
 30
0.0
  3
*D12
  1

  0
LINE
  5
A968
  8
3
 62
     0
 10
1207.32970446318
 20
3059.8188314740569
 30
0.0
 11
1207.32970446318
 21
2251.5567290111139
 31
0.0
  0
LINE
  5
A969
  8
3
 62
     0
 10
4807.329704463179
 20
3059.8188314740569
 30
0.0
 11
4807.329704463179
 21
2251.5567290111139
 31
0.0
  0
LINE
  5
A96A
  8
3
 62
     0
 10
1297.32970446318
 20
2296.556729011113
 30
0.0
 11
4717.3297044631781
 21
2296.556729011113
 31
0.0
  0
INSERT
  5
A96B
  8
3
 62
     0
  2
_OPEN
 10
1207.32970446318
 20
2296.556729011113
 30
0.0
 41
90.0
 42
90.0
 43
90.0
 50
180.0
  0
INSERT
  5
A96C
  8
3
 62
     0
  2
_OPEN
 10
4807.329704463179
 20
2296.556729011113
 30
0.0
 41
90.0
 42
90.0
 43
90.0
  0
TEXT
  8
3
  40
135
  5
A9E6
  62
0
  72
0
  71
0
 10
3042.54
 20
2170.11
 30
0.000000
  1
3600
  0
POINT
  5
A96E
  8
DEFPOINTS
 62
     0
 10
1207.32970446318
 20
3082.3188314740569
 30
0.0
  0
POINT
  5
A96F
  8
DEFPOINTS
 62
     0
 10
4807.329704463179
 20
3082.3188314740569
 30
0.0
  0
POINT
  5
A970
  8
DEFPOINTS
 62
     0
 10
4807.329704463179
 20
2296.556729011113
 30
0.0
  0
ENDBLK
  5
9104
  8
0
  0
BLOCK
  8
0
  2
*D13
 70
     1
 10
0.0
 20
0.0
 30
0.0
  3
*D13
  1

  0
LINE
  5
A944
  8
3
 62
     0
 10
6486.6376499999997
 20
3059.8188314740569
 30
0.0
 11
6486.6376499999997
 21
2514.7826417580009
 31
0.0
  0
LINE
  5
A945
  8
3
 62
     0
 10
7597.6376499999988
 20
2982.6129884740581
 30
0.0
 11
7597.6376499999988
 21
2514.7826417580009
 31
0.0
  0
LINE
  5
A946
  8
3
 62
     0
 10
6576.6376499999988
 20
2559.7826417580009
 30
0.0
 11
7507.6376499999978
 21
2559.7826417580009
 31
0.0
  0
INSERT
  5
A947
  8
3
 62
     0
  2
_OPEN
 10
6486.6376499999997
 20
2559.7826417580009
 30
0.0
 41
90.0
 42
90.0
 43
90.0
 50
180.0
  0
INSERT
  5
A948
  8
3
 62
     0
  2
_OPEN
 10
7597.6376499999988
 20
2559.7826417580009
 30
0.0
 41
90.0
 42
90.0
 43
90.0
  0
TEXT
  8
3
  40
135
  5
A9E7
  62
0
  72
0
  71
0
 10
6794.64
 20
2433.33
 30
0.000000
  1
1111
  0
POINT
  5
A94A
  8
DEFPOINTS
 62
     0
 10
6486.6376499999997
 20
3082.3188314740569
 30
0.0
  0
POINT
  5
A94B
  8
DEFPOINTS
 62
     0
 10
7597.6376499999988
 20
3005.1129884740581
 30
0.0
  0
POINT
  5
A94C
  8
DEFPOINTS
 62
     0
 10
7597.6376499999988
 20
2559.7826417580009
 30
0.0
  0
ENDBLK
  5
9146
  8
0
  0
BLOCK
  8
0
  2
*D14
 70
     1
 10
0.0
 20
0.0
 30
0.0
  3
*D14
  1

  0
LINE
  5
A94D
  8
3
 62
     0
 10
7597.6376499999988
 20
2982.6129884740581
 30
0.0
 11
7597.6376499999988
 21
2514.7826417580009
 31
0.0
  0
LINE
  5
A94E
  8
3
 62
     0
 10
8336.6376500000006
 20
3059.8188314740569
 30
0.0
 11
8336.6376500000006
 21
2514.7826417580009
 31
0.0
  0
LINE
  5
A94F
  8
3
 62
     0
 10
7687.6376499999978
 20
2559.7826417580009
 30
0.0
 11
8246.6376500000024
 21
2559.7826417580009
 31
0.0
  0
INSERT
  5
A950
  8
3
 62
     0
  2
_OPEN
 10
7597.6376499999988
 20
2559.7826417580009
 30
0.0
 41
90.0
 42
90.0
 43
90.0
 50
180.0
  0
INSERT
  5
A951
  8
3
 62
     0
  2
_OPEN
 10
8336.6376500000006
 20
2559.7826417580009
 30
0.0
 41
90.0
 42
90.0
 43
90.0
  0
TEXT
  8
3
  40
135
  5
A9E8
  62
0
  72
0
  71
0
 10
7697.14
 20
2433.33
 30
0.000000
  1
739
  0
POINT
  5
A953
  8
DEFPOINTS
 62
     0
 10
7597.6376499999988
 20
3005.1129884740581
 30
0.0
  0
POINT
  5
A954
  8
DEFPOINTS
 62
     0
 10
8336.6376500000006
 20
3082.3188314740569
 30
0.0
  0
POINT
  5
A955
  8
DEFPOINTS
 62
     0
 10
8336.6376500000006
 20
2559.7826417580009
 30
0.0
  0
ENDBLK
  5
9152
  8
0
  0
BLOCK
  8
0
  2
*D15
 70
     1
 10
0.0
 20
0.0
 30
0.0
  3
*D15
  1

  0
LINE
  5
A956
  8
3
 62
     0
 10
6486.6376499999997
 20
3059.8188314740569
 30
0.0
 11
6486.6376499999997
 21
2164.4325951942578
 31
0.0
  0
LINE
  5
A957
  8
3
 62
     0
 10
8336.6376500000006
 20
3059.8188314740569
 30
0.0
 11
8336.6376500000006
 21
2164.4325951942578
 31
0.0
  0
LINE
  5
A958
  8
3
 62
     0
 10
6576.6376499999988
 20
2209.4325951942578
 30
0.0
 11
8246.6376500000024
 21
2209.4325951942578
 31
0.0
  0
INSERT
  5
A959
  8
3
 62
     0
  2
_OPEN
 10
6486.6376499999997
 20
2209.4325951942578
 30
0.0
 41
90.0
 42
90.0
 43
90.0
 50
180.0
  0
INSERT
  5
A95A
  8
3
 62
     0
  2
_OPEN
 10
8336.6376500000006
 20
2209.4325951942578
 30
0.0
 41
90.0
 42
90.0
 43
90.0
  0
TEXT
  8
3
  40
135
  5
A9E9
  62
0
  72
0
  71
0
 10
7216.83
 20
2082.98
 30
0.000000
  1
1850
  0
POINT
  5
A95C
  8
DEFPOINTS
 62
     0
 10
6486.6376499999997
 20
3082.3188314740569
 30
0.0
  0
POINT
  5
A95D
  8
DEFPOINTS
 62
     0
 10
8336.6376500000006
 20
3082.3188314740569
 30
0.0
  0
POINT
  5
A95E
  8
DEFPOINTS
 62
     0
 10
8336.6376500000006
 20
2209.4325951942578
 30
0.0
  0
ENDBLK
  5
915E
  8
0
  0
BLOCK
  8
0
  2
*D16
 70
     1
 10
0.0
 20
0.0
 30
0.0
  3
*D16
  1

  0
LINE
  5
A983
  8
3
 62
     0
 10
4934.6137374631808
 20
3601.0289934740572
 30
0.0
 11
5352.8068642437511
 21
3601.0289934740558
 31
0.0
  0
LINE
  5
A984
  8
3
 62
     0
 10
4934.829704463179
 20
5451.3188314740582
 30
0.0
 11
5352.8068642437511
 21
5451.3188314740582
 31
0.0
  0
LINE
  5
A985
  8
3
 62
     0
 10
5307.8068642437511
 20
3691.0289934740558
 30
0.0
 11
5307.8068642437511
 21
5361.3188314740582
 31
0.0
  0
INSERT
  5
A986
  8
3
 62
     0
  2
_OPEN
 10
5307.8068642437511
 20
3601.0289934740558
 30
0.0
 41
90.0
 42
90.0
 43
90.0
 50
270.0
  0
INSERT
  5
A987
  8
3
 62
     0
  2
_OPEN
 10
5307.8068642437511
 20
5451.3188314740582
 30
0.0
 41
90.0
 42
90.0
 43
90.0
 50
90.0
  0
TEXT
  8
3
  40
135
  5
A9EA
  62
0
  72
0
  71
0
 10
4925.31
 20
4287.22
 30
0.000000
  1
1850
  0
POINT
  5
A989
  8
DEFPOINTS
 62
     0
 10
4912.1137374631808
 20
3601.0289934740572
 30
0.0
  0
POINT
  5
A98A
  8
DEFPOINTS
 62
     0
 10
4912.329704463179
 20
5451.3188314740582
 30
0.0
  0
POINT
  5
A98B
  8
DEFPOINTS
 62
     0
 10
5307.8068642437511
 20
5451.3188314740582
 30
0.0
  0
ENDBLK
  5
91D3
  8
0
  0
BLOCK
  8
0
  2
*D17
 70
     1
 10
0.0
 20
0.0
 30
0.0
  3
*D17
  1

  0
LINE
  5
A98C
  8
3
 62
     0
 10
5330.3068642437511
 20
3601.0289934740572
 30
0.0
 11
5710.293960206569
 21
3601.0289934740572
 31
0.0
  0
LINE
  5
A98D
  8
3
 62
     0
 10
5026.1136164169357
 20
5522.3188314740573
 30
0.0
 11
5710.293960206569
 21
5522.3188314740573
 31
0.0
  0
LINE
  5
A98E
  8
3
 62
     0
 10
5665.293960206569
 20
3691.0289934740558
 30
0.0
 11
5665.293960206569
 21
5432.3188314740582
 31
0.0
  0
INSERT
  5
A98F
  8
3
 62
     0
  2
_OPEN
 10
5665.293960206569
 20
3601.0289934740572
 30
0.0
 41
90.0
 42
90.0
 43
90.0
 50
270.0
  0
INSERT
  5
A990
  8
3
 62
     0
  2
_OPEN
 10
5665.293960206569
 20
5522.3188314740573
 30
0.0
 41
90.0
 42
90.0
 43
90.0
 50
90.0
  0
TEXT
  8
3
  40
135
  5
A9EB
  62
0
  72
0
  71
0
 10
5282.79
 20
4322.72
 30
0.000000
  1
1921
  0
POINT
  5
A992
  8
DEFPOINTS
 62
     0
 10
5307.8068642437511
 20
3601.0289934740572
 30
0.0
  0
POINT
  5
A993
  8
DEFPOINTS
 62
     0
 10
5003.6136164169357
 20
5522.3188314740573
 30
0.0
  0
POINT
  5
A994
  8
DEFPOINTS
 62
     0
 10
5665.293960206569
 20
5522.3188314740573
 30
0.0
  0
ENDBLK
  5
91DF
  8
0
  0
BLOCK
  8
0
  2
*D18
 70
     1
 10
0.0
 20
0.0
 30
0.0
  3
*D18
  1

  0
LINE
  5
A95F
  8
3
 62
     0
 10
8415.1376500000006
 20
6422.3188314740573
 30
0.0
 11
8822.5519079999995
 21
6422.3188314740573
 31
0.0
  0
LINE
  5
A960
  8
3
 62
     0
 10
8415.1376500000006
 20
4622.3188314740573
 30
0.0
 11
8822.5519079999995
 21
4622.3188314740573
 31
0.0
  0
LINE
  5
A961
  8
3
 62
     0
 10
8777.5519079999995
 20
6332.3188314740582
 30
0.0
 11
8777.5519079999995
 21
4712.3188314740573
 31
0.0
  0
SOLID
  5
A962
  8
3
 62
     0
 10
8762.5519079999976
 20
6332.3188314740582
 30
0.0
 11
8792.5519079999995
 21
6332.3188314740582
 31
0.0
 12
8777.5519079999995
 22
6422.3188314740573
 32
0.0
 13
8777.5519079999995
 23
6422.3188314740573
 33
0.0
  0
SOLID
  5
A963
  8
3
 62
     0
 10
8762.5519079999976
 20
4712.3188314740573
 30
0.0
 11
8792.5519079999995
 21
4712.3188314740573
 31
0.0
 12
8777.5519079999995
 22
4622.3188314740573
 32
0.0
 13
8777.5519079999995
 23
4622.3188314740573
 33
0.0
  0
TEXT
  8
3
  40
135
  5
A9EC
  62
0
  72
0
  71
0
 10
8395.05
 20
5229.08
 30
0.000000
  1
φ1800
  0
POINT
  5
A965
  8
DEFPOINTS
 62
     0
 10
8392.6376500000006
 20
6422.3188314740573
 30
0.0
  0
POINT
  5
A966
  8
DEFPOINTS
 62
     0
 10
8392.6376500000006
 20
4622.3188314740573
 30
0.0
  0
POINT
  5
A967
  8
DEFPOINTS
 62
     0
 10
8777.5519079999995
 20
4622.3188314740573
 30
0.0
  0
ENDBLK
  5
93A4
  8
0
  0
BLOCK
  8
0
  2
*D19
 70
     1
 10
0.0
 20
0.0
 30
0.0
  3
*D19
  1

  0
LINE
  5
A99E
  8
3
 62
     0
 10
5026.1136164169357
 20
5522.3188314740573
 30
0.0
 11
5710.293960206568
 21
5522.3188314740573
 31
0.0
  0
LINE
  5
A99F
  8
3
 62
     0
 10
3659.329704463285
 20
6814.3188314740573
 30
0.0
 11
5710.293960206569
 21
6814.3188314740573
 31
0.0
  0
LINE
  5
A9A0
  8
3
 62
     0
 10
5665.293960206568
 20
5612.3188314740573
 30
0.0
 11
5665.293960206569
 21
6724.3188314740564
 31
0.0
  0
INSERT
  5
A9A1
  8
3
 62
     0
  2
_OPEN
 10
5665.293960206568
 20
5522.3188314740573
 30
0.0
 41
90.0
 42
90.0
 43
90.0
 50
270.0
  0
INSERT
  5
A9A2
  8
3
 62
     0
  2
_OPEN
 10
5665.293960206569
 20
6814.3188314740573
 30
0.0
 41
90.0
 42
90.0
 43
90.0
 50
90.0
  0
TEXT
  8
3
  40
135
  5
A9ED
  62
0
  72
0
  71
0
 10
5282.79
 20
5929.37
 30
0.000000
  1
1292
  0
POINT
  5
A9A4
  8
DEFPOINTS
 62
     0
 10
5003.6136164169357
 20
5522.3188314740573
 30
0.0
  0
POINT
  5
A9A5
  8
DEFPOINTS
 62
     0
 10
3636.829704463285
 20
6814.3188314740573
 30
0.0
  0
POINT
  5
A9A6
  8
DEFPOINTS
 62
     0
 10
5665.293960206569
 20
6814.3188314740573
 30
0.0
  0
ENDBLK
  5
99C3
  8
0
  0
BLOCK
  8
0
  2
*D20
 70
     1
 10
0.0
 20
0.0
 30
0.0
  3
*D20
  1

  0
LINE
  5
A9A7
  8
3
 62
     0
 10
2088.351061144821
 20
5522.3188314740573
 30
0.0
 11
840.76783943931548
 21
5522.3188314740582
 31
0.0
  0
LINE
  5
A9A8
  8
3
 62
     0
 10
1184.82970446318
 20
3372.3188314740569
 30
0.0
 11
840.76783943931514
 21
3372.3188314740569
 31
0.0
  0
LINE
  5
A9A9
  8
3
 62
     0
 10
885.76783943931559
 20
5432.3188314740582
 30
0.0
 11
885.76783943931503
 21
3462.3188314740578
 31
0.0
  0
INSERT
  5
A9AA
  8
3
 62
     0
  2
_OPEN
 10
885.76783943931559
 20
5522.3188314740582
 30
0.0
 41
90.0
 42
90.0
 43
90.0
 50
90.0
  0
INSERT
  5
A9AB
  8
3
 62
     0
  2
_OPEN
 10
885.76783943931503
 20
3372.3188314740569
 30
0.0
 41
90.0
 42
90.0
 43
90.0
 50
270.0
  0
TEXT
  8
3
  40
135
  5
A9EE
  62
0
  72
0
  71
0
 10
503.268
 20
4208.37
 30
0.000000
  1
2150
  0
POINT
  5
A9AD
  8
DEFPOINTS
 62
     0
 10
2110.8510611448219
 20
5522.3188314740573
 30
0.0
  0
POINT
  5
A9AE
  8
DEFPOINTS
 62
     0
 10
1207.32970446318
 20
3372.3188314740569
 30
0.0
  0
POINT
  5
A9AF
  8
DEFPOINTS
 62
     0
 10
885.76783943931503
 20
3372.3188314740569
 30
0.0
  0
ENDBLK
  5
99D9
  8
0
  0
BLOCK
  8
0
  2
*D21
 70
     1
 10
0.0
 20
0.0
 30
0.0
  3
*D21
  1

  0
LINE
  5
A9B0
  8
3
 62
     0
 10
6937.6376499999988
 20
6836.8188314740592
 30
0.0
 11
6937.6376499999988
 21
7251.6995506771682
 31
0.0
  0
LINE
  5
A9B1
  8
3
 62
     0
 10
8257.6376500000006
 20
6836.8188314740582
 30
0.0
 11
8257.6376500000006
 21
7251.6995506771682
 31
0.0
  0
LINE
  5
A9B2
  8
3
 62
     0
 10
7027.6376499999988
 20
7206.6995506771682
 30
0.0
 11
8167.6376500000006
 21
7206.6995506771682
 31
0.0
  0
INSERT
  5
A9B3
  8
3
 62
     0
  2
_OPEN
 10
6937.6376499999988
 20
7206.6995506771682
 30
0.0
 41
90.0
 42
90.0
 43
90.0
 50
180.0
  0
INSERT
  5
A9B4
  8
3
 62
     0
  2
_OPEN
 10
8257.6376500000006
 20
7206.6995506771682
 30
0.0
 41
90.0
 42
90.0
 43
90.0
  0
TEXT
  8
3
  40
135
  5
A9EF
  62
0
  72
0
  71
0
 10
7327.64
 20
7080.25
 30
0.000000
  1
1320
  0
POINT
  5
A9B6
  8
DEFPOINTS
 62
     0
 10
6937.6376499999988
 20
6814.3188314740601
 30
0.0
  0
POINT
  5
A9B7
  8
DEFPOINTS
 62
     0
 10
8257.6376500000006
 20
6814.3188314740582
 30
0.0
  0
POINT
  5
A9B8
  8
DEFPOINTS
 62
     0
 10
8257.6376500000006
 20
7206.6995506771682
 30
0.0
  0
ENDBLK
  5
99E6
  8
0
  0
BLOCK
  8
0
  2
*D22
 70
     1
 10
0.0
 20
0.0
 30
0.0
  3
*D22
  1

  0
LINE
  5
A9B9
  8
3
 62
     0
 10
6497.6376499999997
 20
6024.8188314740573
 30
0.0
 11
6497.6376499999997
 21
7594.3060298918817
 31
0.0
  0
LINE
  5
A9BA
  8
3
 62
     0
 10
7597.6376499999988
 20
7620.0263770134279
 30
0.0
 11
7597.6376499999988
 21
7504.3060298918826
 31
0.0
  0
LINE
  5
A9BB
  8
3
 62
     0
 10
6587.6376499999988
 20
7549.3060298918836
 30
0.0
 11
7507.6376499999978
 21
7549.3060298918836
 31
0.0
  0
INSERT
  5
A9BC
  8
3
 62
     0
  2
_OPEN
 10
6497.6376499999997
 20
7549.3060298918836
 30
0.0
 41
90.0
 42
90.0
 43
90.0
 50
180.0
  0
INSERT
  5
A9BD
  8
3
 62
     0
  2
_OPEN
 10
7597.6376499999988
 20
7549.3060298918836
 30
0.0
 41
90.0
 42
90.0
 43
90.0
  0
TEXT
  8
3
  40
135
  5
A9F0
  62
0
  72
0
  71
0
 10
6777.64
 20
7458.21
 30
0.000000
  1
(1150)
  0
POINT
  5
A9BF
  8
DEFPOINTS
 62
     0
 10
6497.6376499999997
 20
6002.3188314740573
 30
0.0
  0
POINT
  5
A9C0
  8
DEFPOINTS
 62
     0
 10
7597.6376499999988
 20
7642.5263770134288
 30
0.0
  0
POINT
  5
A9C1
  8
DEFPOINTS
 62
     0
 10
7597.6376499999988
 20
7549.3060298918836
 30
0.0
  0
ENDBLK
  5
99F3
  8
0
  0
BLOCK
  8
0
  2
*D23
 70
     1
 10
0.0
 20
0.0
 30
0.0
  3
*D23
  1

  0
LINE
  5
A9C2
  8
3
 62
     0
 10
7597.6376499999988
 20
7620.0263770134279
 30
0.0
 11
7597.6376499999988
 21
7504.3060298918826
 31
0.0
  0
LINE
  5
A9C3
  8
3
 62
     0
 10
8392.6376500000006
 20
6509.8188314740582
 30
0.0
 11
8392.6376500000006
 21
7594.3060298918817
 31
0.0
  0
LINE
  5
A9C4
  8
3
 62
     0
 10
7687.6376499999978
 20
7549.3060298918836
 30
0.0
 11
8302.6376500000006
 21
7549.3060298918836
 31
0.0
  0
INSERT
  5
A9C5
  8
3
 62
     0
  2
_OPEN
 10
7597.6376499999988
 20
7549.3060298918836
 30
0.0
 41
90.0
 42
90.0
 43
90.0
 50
180.0
  0
INSERT
  5
A9C6
  8
3
 62
     0
  2
_OPEN
 10
8392.6376500000006
 20
7549.3060298918836
 30
0.0
 41
90.0
 42
90.0
 43
90.0
  0
TEXT
  8
3
  40
135
  5
A9F1
  62
0
  72
0
  71
0
 10
7725.14
 20
7422.86
 30
0.000000
  1
795
  0
POINT
  5
A9C8
  8
DEFPOINTS
 62
     0
 10
7597.6376499999988
 20
7642.5263770134288
 30
0.0
  0
POINT
  5
A9C9
  8
DEFPOINTS
 62
     0
 10
8392.6376500000006
 20
6487.3188314740592
 30
0.0
  0
POINT
  5
A9CA
  8
DEFPOINTS
 62
     0
 10
8392.6376500000006
 20
7549.3060298918836
 30
0.0
  0
ENDBLK
  5
9A09
  8
0
  0
BLOCK
  8
0
  2
*D24
 70
     1
 10
0.0
 20
0.0
 30
0.0
  3
*D24
  1

  0
LINE
  5
A9CB
  8
3
 62
     0
 10
1184.82970446318
 20
3372.3188314740569
 30
0.0
 11
840.76783943931514
 21
3372.3188314740569
 31
0.0
  0
LINE
  5
A9CC
  8
3
 62
     0
 10
1184.829704463179
 20
3232.3188314740569
 30
0.0
 11
840.76783943931491
 21
3232.3188314740569
 31
0.0
  0
LINE
  5
A9CD
  8
3
 62
     0
 10
885.76783943931503
 20
3372.3188314740569
 30
0.0
 11
885.76783943931503
 21
3232.3188314740569
 31
0.0
  0
TEXT
  8
3
  40
135
  5
A9F2
  62
0
  72
0
  71
0
 10
422.911
 20
3133.37
 30
0.000000
  1
(140)
  0
POINT
  5
A9CF
  8
DEFPOINTS
 62
     0
 10
1207.32970446318
 20
3372.3188314740569
 30
0.0
  0
POINT
  5
A9D0
  8
DEFPOINTS
 62
     0
 10
1207.32970446318
 20
3232.3188314740569
 30
0.0
  0
POINT
  5
A9D1
  8
DEFPOINTS
 62
     0
 10
885.76783943931503
 20
3232.3188314740569
 30
0.0
  0
ENDBLK
  5
A4B0
  8
0
  0
BLOCK
  8
0
  2
*D25
 70
     1
 10
0.0
 20
0.0
 30
0.0
  3
*D25
  1

  0
LINE
  5
A9D2
  8
3
 62
     0
 10
1184.829704463179
 20
3232.3188314740569
 30
0.0
 11
840.76783943931491
 21
3232.3188314740569
 31
0.0
  0
LINE
  5
A9D3
  8
3
 62
     0
 10
1184.829704463179
 20
3082.3188314740569
 30
0.0
 11
840.76783943931491
 21
3082.3188314740578
 31
0.0
  0
LINE
  5
A9D4
  8
3
 62
     0
 10
885.76783943931503
 20
3232.3188314740569
 30
0.0
 11
885.76783943931503
 21
3322.3188314740569
 31
0.0
  0
LINE
  5
A9D5
  8
3
 62
     0
 10
885.76783943931503
 20
2992.3188314740578
 30
0.0
 11
885.76783943931503
 21
2902.3188314740578
 31
0.0
  0
TEXT
  8
3
  40
135
  5
A9F3
  62
0
  72
0
  71
0
 10
493.085
 20
2598.40
 30
0.000000
  1
150
  0
INSERT
  5
A9D7
  8
3
 62
     0
  2
_DOTSMALL
 10
885.76783943931503
 20
3232.3188314740569
 30
0.0
 41
90.0
 42
90.0
 43
90.0
 50
270.0
  0
INSERT
  5
A9D8
  8
3
 62
     0
  2
_OPEN
 10
885.76783943931503
 20
3082.3188314740578
 30
0.0
 41
90.0
 42
90.0
 43
90.0
 50
90.0
  0
POINT
  5
A9D9
  8
DEFPOINTS
 62
     0
 10
1207.32970446318
 20
3232.3188314740569
 30
0.0
  0
POINT
  5
A9DA
  8
DEFPOINTS
 62
     0
 10
1207.32970446318
 20
3082.3188314740569
 30
0.0
  0
POINT
  5
A9DB
  8
DEFPOINTS
 62
     0
 10
885.76783943931503
 20
3082.3188314740578
 30
0.0
  0
ENDBLK
  5
A4C1
  8
0
  0
BLOCK
  8
0
  2
_DOTSMALL
 70
     0
 10
0.0
 20
0.0
 30
0.0
  3
_DOTSMALL
  1

  0
POLYLINE
  5
A4E1
  8
0
  6
BYBLOCK
 62
     0
 66
     1
 10
0.0
 20
0.0
 30
0.0
 70
     1
 40
0.5
 41
0.5
  0
VERTEX
  5
A9DC
  8
0
  6
BYBLOCK
 62
     0
 10
-0.0625
 20
0.0
 30
0.0
 42
1.0
  0
VERTEX
  5
A9DD
  8
0
  6
BYBLOCK
 62
     0
 10
0.0625
 20
0.0
 30
0.0
 42
1.0
  0
SEQEND
  5
A9DE
  8
0
  6
BYBLOCK
 62
     0
  0
ENDBLK
  5
A4E3
  8
0
  0
BLOCK
  8
0
  2
_NONE
 70
     0
 10
0.0
 20
0.0
 30
0.0
  3
_NONE
  1

  0
ENDBLK
  5
A4F0
  8
0
  0
ENDSEC
  0
SECTION
  2
ENTITIES
  0
INSERT
  5
8E52
  8
0
  2
YA_N
 10
12518.736613999999
 20
-6524.6833909999987
 30
0.0
  0
INSERT
  5
8E53
  8
0
  2
YA_N
 10
18386.038918999999
 20
2975.8020809999989
 30
0.0
  0
INSERT
  5
8E54
  8
0
  2
YA_N
 10
12518.736613999999
 20
-6524.6833909999987
 30
0.0
  0
INSERT
  5
8E55
  8
0
  2
YA_N
 10
18386.038918999999
 20
2975.8020809999989
 30
0.0
  0
LINE
  5
8E56
  8
1
 10
6486.6376499999997
 20
3522.3188314740569
 30
0.0
 11
8336.6376500000006
 21
3522.3188314740569
 31
0.0
  0
LINE
  5
8E57
  8
1
 10
6486.6376499999997
 20
3372.3188314740569
 30
0.0
 11
8336.6376500000006
 21
3372.3188314740569
 31
0.0
  0
LINE
  5
8E58
  8
1
 10
6561.6376499999997
 20
3522.3188314740569
 30
0.0
 11
6486.6376499999997
 21
3522.3188314740569
 31
0.0
  0
LINE
  5
8E59
  8
1
 10
6561.6376499999997
 20
3372.3188314740569
 30
0.0
 11
6486.6376499999997
 21
3372.3188314740569
 31
0.0
  0
LINE
  5
8E5A
  8
2
 10
7597.6376499999988
 20
3005.1129884740581
 30
0.0
 11
7597.6376499999988
 21
7184.5058943252179
 31
0.0
  0
LINE
  5
8E5B
  8
1
 10
8257.6376500000006
 20
5513.3188314740573
 30
0.0
 11
8257.6376500000006
 21
3599.224825654811
 31
0.0
  0
LINE
  5
8E5C
  8
1
 10
8392.6376500000006
 20
4557.3188314740564
 30
0.0
 11
8392.6376500000006
 21
6487.3188314740592
 31
0.0
  0
LINE
  5
8E5D
  8
1
 10
8257.6376500000006
 20
6814.3188314740601
 30
0.0
 11
8257.6376500000006
 21
5531.3188314740592
 31
0.0
  0
LINE
  5
8E5E
  8
1
 10
8261.6376500000006
 20
3372.3188314740569
 30
0.0
 11
8336.6376500000006
 21
3372.3188314740569
 31
0.0
  0
LINE
  5
8E5F
  8
1
 10
8261.6376500000006
 20
3522.3188314740569
 30
0.0
 11
8336.6376500000006
 21
3522.3188314740569
 31
0.0
  0
LINE
  5
8E60
  8
1
 10
8257.6376500000006
 20
4622.3188314740573
 30
0.0
 11
8392.6376500000006
 21
4622.3188314740573
 31
0.0
  0
LINE
  5
8E61
  8
1
 10
8257.6376500000006
 20
6422.3188314740573
 30
0.0
 11
8392.6376500000006
 21
6422.3188314740573
 31
0.0
  0
LINE
  5
8E62
  8
1
 10
2193.329704463179
 20
9363.5698250355745
 30
0.0
 11
1207.32970446318
 21
9363.5698250355745
 31
0.0
  0
LINE
  5
8E63
  8
1
 10
4807.3297044631781
 20
8163.5698250355763
 30
0.0
 11
1207.32970446318
 21
8163.5698250355763
 31
0.0
  0
LINE
  5
8E64
  8
1
 10
4807.3297044631781
 20
10013.569825035571
 30
0.0
 11
4647.3297044631763
 21
10013.569825035571
 31
0.0
  0
LINE
  5
8E65
  8
2
 10
3747.3297044631781
 20
8109.5040792468944
 30
0.0
 11
3747.3297044631781
 21
10184.023165513179
 31
0.0
  0
LINE
  5
8E66
  8
1
 10
1207.32970446318
 20
8163.5698250355763
 30
0.0
 11
1207.32970446318
 21
8238.5698250355745
 31
0.0
  0
INSERT
  5
8E67
  8
0
  2
YA_N
 10
12518.736613999999
 20
-6524.6833909999987
 30
0.0
  0
LINE
  5
8E68
  8
2
 10
6397.6376499999997
 20
5522.3188314740573
 30
0.0
 11
8498.3907209999998
 21
5522.3188314740573
 31
0.0
  0
LINE
  5
8E69
  8
1
 10
6497.6376499999978
 20
3587.3188314740569
 30
0.0
 11
6497.6376499999997
 21
6002.3188314740573
 31
0.0
  0
LINE
  5
8E6A
  8
1
 10
6697.6376499999997
 20
6002.3188314740573
 30
0.0
 11
6697.6376499999969
 21
3587.3188314740569
 31
0.0
  0
LINE
  5
8E6B
  8
1
 10
6697.6376499999978
 20
3587.3188314740569
 30
0.0
 11
6497.6376499999978
 21
3587.3188314740569
 31
0.0
  0
LINE
  5
8E6C
  8
1
 10
6657.6376499999988
 20
3722.3188314740569
 30
0.0
 11
6657.6376499999988
 21
4022.3188314740569
 31
0.0
  0
LINE
  5
8E6D
  8
1
 10
6537.6376499999988
 20
3722.3188314740569
 30
0.0
 11
6537.6376499999988
 21
4022.3188314740569
 31
0.0
  0
LINE
  5
8E6E
  8
1
 10
6537.6376499999988
 20
5922.3188314740582
 30
0.0
 11
6657.6376499999988
 21
5922.3188314740582
 31
0.0
  0
LINE
  5
8E6F
  8
1
 10
6657.6376499999988
 20
5122.3188314740573
 30
0.0
 11
6537.6376499999988
 21
5122.3188314740573
 31
0.0
  0
LINE
  5
8E70
  8
1
 10
6537.6376499999988
 20
4022.3188314740569
 30
0.0
 11
6537.6376499999988
 21
5922.3188314740582
 31
0.0
  0
LINE
  5
8E71
  8
1
 10
6657.6376499999988
 20
4022.3188314740569
 30
0.0
 11
6657.6376499999988
 21
5922.3188314740582
 31
0.0
  0
LINE
  5
8E72
  8
2
 10
6597.6376499999997
 20
5968.1668314740573
 30
0.0
 11
6597.6376499999988
 21
3700.281975831203
 31
0.0
  0
LINE
  5
8E73
  8
1
 10
6697.6376499999997
 20
6002.3188314740573
 30
0.0
 11
6497.6376499999997
 21
6002.3188314740573
 31
0.0
  0
LINE
  5
8E74
  8
2
 10
6463.3366499999984
 20
3872.3188314740569
 30
0.0
 11
6868.637649999996
 21
3872.3188314740569
 31
0.0
  0
LINE
  5
8E75
  8
1
 10
6537.6376499999988
 20
4022.3188314740569
 30
0.0
 11
6657.6376499999988
 21
4022.3188314740569
 31
0.0
  0
LINE
  5
8E76
  8
1
 10
6537.6376499999988
 20
3722.3188314740569
 30
0.0
 11
6657.6376499999988
 21
3722.3188314740569
 31
0.0
  0
INSERT
  5
8E77
  8
0
  2
YA_N
 10
18386.038918999999
 20
2975.8020809999989
 30
0.0
  0
LINE
  5
8E78
  8
1
 10
6486.6376499999997
 20
3522.3188314740569
 30
0.0
 11
6486.6376499999997
 21
3372.3188314740569
 31
0.0
  0
LINE
  5
8E79
  8
1
 10
8336.6376500000006
 20
3522.3188314740569
 30
0.0
 11
8336.6376500000006
 21
3372.3188314740569
 31
0.0
  0
LINE
  5
8E80
  8
2
 10
5277.4736414631807
 20
9274.5698250355745
 30
0.0
 11
2318.9243519375809
 21
9274.5698250355745
 31
0.0
  0
LINE
  5
8E81
  8
1
 10
4912.329704463179
 20
9934.5698250355763
 30
0.0
 11
2193.329704463179
 21
9934.5698250355781
 31
0.0
  0
LINE
  5
8E82
  8
1
 10
4912.329704463179
 20
8614.5698250355763
 30
0.0
 11
2193.329704463179
 21
8614.5698250355763
 31
0.0
  0
LINE
  5
8E83
  8
1
 10
4807.329704463179
 20
8163.5698250355763
 30
0.0
 11
4807.329704463179
 21
8614.5698250355763
 31
0.0
  0
LINE
  5
8E85
  8
1
 10
1527.32970446318
 20
8214.5698250355745
 30
0.0
 11
1527.32970446318
 21
8334.5698250355745
 31
0.0
  0
LINE
  5
8E86
  8
1
 10
1827.329704463179
 20
8214.5698250355745
 30
0.0
 11
1827.329704463179
 21
8334.5698250355745
 31
0.0
  0
LINE
  5
8E87
  8
1
 10
1677.3297044631779
 20
8140.2688250355741
 30
0.0
 11
1677.3297044631779
 21
8488.0698250355745
 31
0.0
  0
LINE
  5
8E88
  8
1
 10
4227.329704463179
 20
8374.5698250355745
 30
0.0
 11
4227.329704463179
 21
8174.5698250355736
 31
0.0
  0
LINE
  5
8E89
  8
1
 10
3347.329704463179
 20
8334.5698250355745
 30
0.0
 11
3347.329704463179
 21
8214.5698250355745
 31
0.0
  0
LINE
  5
8E8A
  8
1
 10
4147.3297044631781
 20
8214.5698250355745
 30
0.0
 11
4147.3297044631781
 21
8334.5698250355745
 31
0.0
  0
LINE
  5
8E8B
  8
1
 10
1392.32970446318
 20
8374.5698250355745
 30
0.0
 11
1392.32970446318
 21
8174.5698250355736
 31
0.0
  0
LINE
  5
8E8C
  8
1
 10
1527.32970446318
 20
8214.5698250355745
 30
0.0
 11
1827.329704463179
 21
8214.5698250355745
 31
0.0
  0
LINE
  5
8E8D
  8
1
 10
1392.32970446318
 20
8174.5698250355736
 30
0.0
 11
4227.329704463179
 21
8174.5698250355736
 31
0.0
  0
LINE
  5
8E8E
  8
2
 10
4193.177704463179
 20
8274.5698250355745
 30
0.0
 11
1470.8786604631789
 21
8274.5698250355745
 31
0.0
  0
LINE
  5
8E8F
  8
1
 10
3347.329704463179
 20
8214.5698250355745
 30
0.0
 11
4147.3297044631781
 21
8214.5698250355745
 31
0.0
  0
LINE
  5
8E90
  8
1
 10
1527.32970446318
 20
8334.5698250355745
 30
0.0
 11
1827.329704463179
 21
8334.5698250355745
 31
0.0
  0
LINE
  5
8E91
  8
1
 10
4227.329704463179
 20
8374.5698250355745
 30
0.0
 11
1392.32970446318
 21
8374.5698250355745
 31
0.0
  0
LINE
  5
8E92
  8
1
 10
3347.329704463179
 20
8334.5698250355745
 30
0.0
 11
4147.3297044631781
 21
8334.5698250355745
 31
0.0
  0
LINE
  5
8E93
  8
1
 10
6657.6376499999988
 20
5567.3188314740573
 30
0.0
 11
6937.6376499999988
 21
5567.3188314740573
 31
0.0
  0
LINE
  5
8E94
  8
1
 10
6657.6376499999988
 20
5477.3188314740573
 30
0.0
 11
6937.6376499999988
 21
5477.3188314740573
 31
0.0
  0
LINE
  5
8E95
  8
1
 10
1407.32970446318
 20
9313.5698250355763
 30
0.0
 11
1407.32970446318
 21
8461.0698250355763
 31
0.0
  0
LINE
  5
8E96
  8
1
 10
1964.829704463179
 20
8461.0698250355763
 30
0.0
 11
1964.829704463179
 21
9313.5698250355763
 31
0.0
  0
LINE
  5
8E97
  8
2
 10
1677.3297044631779
 20
8255.0732440355769
 30
0.0
 11
1677.3297044631779
 21
9332.861141035577
 31
0.0
  0
LINE
  5
8E98
  8
1
 10
1407.32970446318
 20
9313.5698250355763
 30
0.0
 11
1964.829704463179
 21
9313.5698250355763
 31
0.0
  0
LINE
  5
8E99
  8
1
 10
1964.829704463179
 20
8461.0698250355763
 30
0.0
 11
1407.32970446318
 21
8461.0698250355763
 31
0.0
  0
LINE
  5
8E9A
  8
1
 10
1591.829704463179
 20
8454.5698250355745
 30
0.0
 11
1762.829704463179
 21
8454.5698250355745
 31
0.0
  0
LINE
  5
8E9B
  8
1
 10
1634.829704463179
 20
8274.5698250355745
 30
0.0
 11
1724.829704463179
 21
8274.5698250355745
 31
0.0
  0
LINE
  5
8E9C
  8
1
 10
1627.3297044631779
 20
8444.5698250355745
 30
0.0
 11
1727.329704463179
 21
8444.5698250355745
 31
0.0
  0
LINE
  5
8E9D
  8
1
 10
1634.829704463179
 20
8274.5698250355745
 30
0.0
 11
1634.829704463179
 21
8444.5698250355745
 31
0.0
  0
LINE
  5
8E9E
  8
1
 10
1627.3297044631779
 20
8444.5698250355745
 30
0.0
 11
1627.3297044631779
 21
8454.5698250355745
 31
0.0
  0
ARC
  5
8E9F
  8
1
 10
1591.829704463179
 20
8456.5698250355745
 30
0.0
 40
2.0
 50
180.0
 51
270.0
  0
LINE
  5
8EA0
  8
1
 10
1589.829704463179
 20
8461.4182000355759
 30
0.0
 11
1589.829704463179
 21
8456.5698250355745
 31
0.0
  0
LINE
  5
8EA1
  8
1
 10
1724.829704463179
 20
8274.5698250355745
 30
0.0
 11
1724.829704463179
 21
8414.5698250355763
 31
0.0
  0
LINE
  5
8EA2
  8
1
 10
1719.829704463179
 20
8274.5698250355745
 30
0.0
 11
1719.829704463179
 21
8439.0698250355745
 31
0.0
  0
LINE
  5
8EA3
  8
1
 10
1727.329704463179
 20
8444.5698250355745
 30
0.0
 11
1727.329704463179
 21
8454.5698250355745
 31
0.0
  0
ARC
  5
8EA4
  8
1
 10
1762.829704463179
 20
8456.5698250355745
 30
0.0
 40
2.0
 50
270.0
 51
0.000000000000007
  0
LINE
  5
8EA5
  8
1
 10
1764.829704463179
 20
8461.0698250355763
 30
0.0
 11
1764.829704463179
 21
8456.5698250355745
 31
0.0
  0
LINE
  5
8EA6
  8
1
 10
1719.829704463179
 20
8414.5698250355763
 30
0.0
 11
1724.829704463179
 21
8414.5698250355763
 31
0.0
  0
LINE
  5
8EA7
  8
1
 10
6868.6376499999978
 20
4142.3188314740582
 30
0.0
 11
6784.1376499999988
 21
4142.3188314740573
 31
0.0
  0
LINE
  5
8EA8
  8
1
 10
6784.1376499999988
 20
3584.8188314740569
 30
0.0
 11
6868.6376499999978
 21
3584.8188314740578
 31
0.0
  0
LINE
  5
8EA9
  8
1
 10
6784.1376499999988
 20
3584.8188314740569
 30
0.0
 11
6784.1376499999988
 21
4142.3188314740573
 31
0.0
  0
LINE
  5
8EAA
  8
1
 10
6777.6376499999988
 20
3957.8188314740569
 30
0.0
 11
6777.6376499999988
 21
3786.8188314740569
 31
0.0
  0
LINE
  5
8EAB
  8
1
 10
6784.4860249999983
 20
3959.8188314740569
 30
0.0
 11
6779.6376499999988
 21
3959.8188314740569
 31
0.0
  0
ARC
  5
8EAC
  8
1
 10
6779.6376499999988
 20
3957.8188314740569
 30
0.0
 40
2.0
 50
90.0
 51
180.0
  0
LINE
  5
8EAD
  8
1
 10
6597.6376499999988
 20
3829.8188314740569
 30
0.0
 11
6762.1376499999978
 21
3829.8188314740569
 31
0.0
  0
LINE
  5
8EAE
  8
1
 10
6597.6376499999988
 20
3824.818831474056
 30
0.0
 11
6737.6376499999988
 21
3824.818831474056
 31
0.0
  0
LINE
  5
8EAF
  8
1
 10
6597.6376499999988
 20
3914.8188314740569
 30
0.0
 11
6767.6376499999988
 21
3914.8188314740569
 31
0.0
  0
LINE
  5
8EB0
  8
1
 10
6737.6376499999988
 20
3829.8188314740569
 30
0.0
 11
6737.6376499999988
 21
3824.818831474056
 31
0.0
  0
LINE
  5
8EB1
  8
1
 10
6784.1376499999988
 20
3784.8188314740569
 30
0.0
 11
6779.6376499999988
 21
3784.8188314740569
 31
0.0
  0
ARC
  5
8EB2
  8
1
 10
6779.6376499999988
 20
3786.8188314740569
 30
0.0
 40
2.0
 50
180.0
 51
270.0
  0
LINE
  5
8EB3
  8
1
 10
6767.6376499999988
 20
3822.3188314740569
 30
0.0
 11
6777.6376499999988
 21
3822.3188314740569
 31
0.0
  0
LINE
  5
8EB4
  8
1
 10
6767.6376499999988
 20
3922.3188314740569
 30
0.0
 11
6777.6376499999988
 21
3922.3188314740569
 31
0.0
  0
LINE
  5
8EB5
  8
1
 10
6767.6376499999988
 20
3922.3188314740569
 30
0.0
 11
6767.6376499999988
 21
3822.3188314740569
 31
0.0
  0
LINE
  5
8EB6
  8
1
 10
6597.6376499999988
 20
3914.8188314740569
 30
0.0
 11
6597.6376499999988
 21
3824.818831474056
 31
0.0
  0
DIMENSION
  5
8EB7
  8
3
  2
*D6
 10
2687.329704463179
 20
10320.822061390931
 30
0.0
 11
3740.2584184631792
 21
10320.822061390931
 31
0.0
 70
   128
 13
4807.3297044631781
 23
10013.569825035571
 33
0.0
 14
2687.329704463179
 24
10013.569825035571
 34
0.0
 50
0.000000000000007
1001
ACAD
1000
DSTYLE
1002
{
1070
   287
1070
     3
1070
   287
1070
     3
1070
   287
1070
     3
1070
   287
1070
     3
1070
   287
1070
     3
1070
   287
1070
     3
1070
   287
1070
     3
1070
   287
1070
     3
1070
    40
1040
45.0
1070
   143
1040
0.039
1070
   271
1070
     4
1070
   272
1070
     4
1070
   279
1070
     0
1070
   284
1070
     0
1070
   285
1070
     0
1070
   286
1070
     0
1070
   341
1005
8D0F
1070
     6
1000
OPEN
1070
     7
1000
OPEN
1002
}
  0
DIMENSION
  5
8EB8
  8
3
  2
*D7
 10
1207.32970446318
 20
10320.822061390931
 30
0.0
 11
1947.32970446318
 21
10433.322061390931
 31
0.0
 70
     0
 13
2687.329704463179
 23
10013.569825035571
 33
0.0
 14
1207.32970446318
 24
9363.5698250355745
 34
0.0
 50
0.000000000000007
1001
ACAD
1000
DSTYLE
1002
{
1070
   287
1070
     3
1070
   287
1070
     3
1070
   287
1070
     3
1070
   287
1070
     3
1070
   287
1070
     3
1070
   287
1070
     3
1070
   287
1070
     3
1070
   287
1070
     3
1070
    40
1040
45.0
1070
   143
1040
0.039
1070
   271
1070
     4
1070
   272
1070
     4
1070
   279
1070
     0
1070
   284
1070
     0
1070
   285
1070
     0
1070
   286
1070
     0
1070
   341
1005
8D0F
1070
     6
1000
OPEN
1070
     7
1000
OPEN
1002
}
  0
DIMENSION
  5
8EB9
  8
3
  2
*D9
 10
965.19765646318069
 20
8163.5698250355763
 30
0.0
 11
965.19765646317944
 21
8757.2817040355767
 31
0.0
 70
   128
 13
1207.32970446318
 23
9363.5698250355745
 33
0.0
 14
1207.32970446318
 24
8163.5698250355763
 34
0.0
 50
90.0
1001
ACAD
1000
DSTYLE
1002
{
1070
   287
1070
     3
1070
   287
1070
     3
1070
   287
1070
     3
1070
   287
1070
     3
1070
   287
1070
     3
1070
   287
1070
     3
1070
   287
1070
     3
1070
   287
1070
     3
1070
    40
1040
45.0
1070
   143
1040
0.039
1070
   271
1070
     4
1070
   272
1070
     4
1070
   279
1070
     0
1070
   284
1070
     0
1070
   285
1070
     0
1070
   286
1070
     0
1070
   341
1005
8D0F
1070
     6
1000
OPEN
1070
     7
1000
OPEN
1002
}
  0
DIMENSION
  5
8EBA
  8
3
  2
*D8
 10
4807.3297044631781
 20
7682.284521137195
 30
0.0
 11
3247.3483604631788
 21
7682.284521137195
 31
0.0
 70
   128
 13
1207.32970446318
 23
8163.5698250355763
 33
0.0
 14
4807.3297044631781
 24
8163.5698250355763
 34
0.0
 50
0.000000000000007
1001
ACAD
1000
DSTYLE
1002
{
1070
   287
1070
     3
1070
   287
1070
     3
1070
   287
1070
     3
1070
   287
1070
     3
1070
   287
1070
     3
1070
   287
1070
     3
1070
   287
1070
     3
1070
   287
1070
     3
1070
    40
1040
45.0
1070
   143
1040
0.039
1070
   271
1070
     4
1070
   272
1070
     4
1070
   279
1070
     0
1070
   284
1070
     0
1070
   285
1070
     0
1070
   286
1070
     0
1070
   341
1005
8D0F
1070
     6
1000
OPEN
1070
     7
1000
OPEN
1002
}
  0
DIMENSION
  5
8EBB
  8
3
  2
*D13
 10
7597.6376499999988
 20
2559.7826417580009
 30
0.0
 11
7064.637444
 21
2559.7826417580009
 31
0.0
 70
   128
 13
6486.6376499999997
 23
3082.3188314740569
 33
0.0
 14
7597.6376499999988
 24
3005.1129884740581
 34
0.0
1001
ACAD
1000
DSTYLE
1002
{
1070
   287
1070
     3
1070
   287
1070
     3
1070
   287
1070
     3
1070
   287
1070
     3
1070
   287
1070
     3
1070
   287
1070
     3
1070
   287
1070
     3
1070
   287
1070
     3
1070
    40
1040
45.0
1070
   143
1040
0.039
1070
   271
1070
     4
1070
   272
1070
     4
1070
   279
1070
     0
1070
   284
1070
     0
1070
   285
1070
     0
1070
   286
1070
     0
1070
   341
1005
8D0F
1070
     6
1000
OPEN
1070
     7
1000
OPEN
1002
}
  0
DIMENSION
  5
8EBC
  8
3
  2
*D14
 10
8336.6376500000006
 20
2559.7826417580009
 30
0.0
 11
7967.1376499999988
 21
2672.2826417580009
 31
0.0
 70
     0
 13
7597.6376499999988
 23
3005.1129884740581
 33
0.0
 14
8336.6376500000006
 24
3082.3188314740569
 34
0.0
1001
ACAD
1000
DSTYLE
1002
{
1070
   287
1070
     3
1070
   287
1070
     3
1070
   287
1070
     3
1070
   287
1070
     3
1070
   287
1070
     3
1070
   287
1070
     3
1070
   287
1070
     3
1070
   287
1070
     3
1070
    40
1040
45.0
1070
   143
1040
0.039
1070
   271
1070
     4
1070
   272
1070
     4
1070
   279
1070
     0
1070
   284
1070
     0
1070
   285
1070
     0
1070
   286
1070
     0
1070
   341
1005
8D0F
1070
     6
1000
OPEN
1070
     7
1000
OPEN
1002
}
  0
DIMENSION
  5
8EBD
  8
3
  2
*D15
 10
8336.6376500000006
 20
2209.4325951942578
 30
0.0
 11
7486.8346590000001
 21
2209.4325951942578
 31
0.0
 70
   128
 13
6486.6376499999997
 23
3082.3188314740569
 33
0.0
 14
8336.6376500000006
 24
3082.3188314740569
 34
0.0
1001
ACAD
1000
DSTYLE
1002
{
1070
   287
1070
     3
1070
   287
1070
     3
1070
   287
1070
     3
1070
   287
1070
     3
1070
   287
1070
     3
1070
   287
1070
     3
1070
   287
1070
     3
1070
   287
1070
     3
1070
    40
1040
45.0
1070
   143
1040
0.039
1070
   271
1070
     4
1070
   272
1070
     4
1070
   279
1070
     0
1070
   284
1070
     0
1070
   285
1070
     0
1070
   286
1070
     0
1070
   341
1005
8D0F
1070
     6
1000
OPEN
1070
     7
1000
OPEN
1002
}
  0
DIMENSION
  5
8EBE
  8
3
  2
*D18
 10
8777.5519079999995
 20
4622.3188314740573
 30
0.0
 11
8777.5519079999976
 21
5468.0285824740577
 31
0.0
 70
   128
 13
8392.6376500000006
 23
6422.3188314740573
 33
0.0
 14
8392.6376500000006
 24
4622.3188314740573
 34
0.0
 50
90.0
1001
ACAD
1000
DSTYLE
1002
{
1070
   287
1070
     3
1070
   287
1070
     3
1070
   287
1070
     3
1070
   287
1070
     3
1070
   287
1070
     3
1070
   287
1070
     3
1070
   287
1070
     3
1070
   287
1070
     3
1070
   287
1070
     3
1070
     3
1000
φ<>
1070
    40
1040
45.0
1070
   143
1040
0.039
1070
   172
1070
     1
1070
   271
1070
     0
1070
   279
1070
     0
1070
   288
1070
     1
1002
}
  0
LINE
  5
8EC1
  8
4
 10
8325.0
 20
1775.845221491152
 30
0.0
 11
8325.0
 21
875.84522149115207
 31
0.0
  0
LINE
  5
8EC2
  8
4
 10
5175.0
 20
1775.845221491152
 30
0.0
 11
5175.0
 21
875.84522149115207
 31
0.0
  0
LINE
  5
8EC3
  8
4
 10
2925.0
 20
1775.845221491152
 30
0.0
 11
2925.0
 21
875.84522149115207
 31
0.0
  0
LINE
  5
8EC6
  8
4
 10
2925.0
 20
875.84522149115207
 30
0.0
 11
8325.0
 21
875.84522149115207
 31
0.0
  0
LINE
  5
8EC7
  8
4
 10
2925.0
 20
1325.845221491152
 30
0.0
 11
8325.0
 21
1325.845221491152
 31
0.0
  0
TEXT
  5
8EC8
  8
4
 10
3098.259364
 20
1467.788837491152
 30
0.0
 40
225.0
  1
機器名称
  0
TEXT
  5
8EC9
  8
4
 10
3088.1614769999978
 20
973.24842649115214
 30
0.0
 40
225.0
  1
機器型番
  0
TEXT
  5
8ECA
  8
4
 10
5197.1468830000013
 20
1429.233946491152
 30
0.0
 40
202.49999999999989
  1
ミツヤリミットロードファン
  0
TEXT
  5
8ECB
  8
4
 10
5339.9452300000012
 20
953.06335049115205
 30
0.0
 40
225.0
  1
LL＃11-4
  0
TEXT
  5
8ECD
  8
4
 10
3693.629000655952
 20
11055.9079831539
 30
0.0
 40
243.0
  1
床置防振ベット
  0
TEXT
  5
8ECE
  8
4
 10
1258.0479374325371
 20
11732.9425901539
 30
0.0
 40
324.0
  1
ベルト駆動式片吸込両持リミットロードファン
 41
0.8670367995036059
 72
     5
 11
8224.8620288039092
 21
11732.9425901539
 31
0.0
  0
LINE
  5
8ECF
  8
4
 10
1125.0
 20
11442.8175911539
 30
0.0
 11
8325.0
 21
11442.8175911539
 31
0.0
  0
LINE
  5
8ED0
  8
4
 10
1125.0
 20
12342.8175911539
 30
0.0
 11
8325.0
 21
12342.8175911539
 31
0.0
  0
LINE
  5
8ED1
  8
4
 10
2925.0
 20
1775.845221491152
 30
0.0
 11
8325.0
 21
1775.845221491152
 31
0.0
  0
LINE
  5
8ED2
  8
4
 10
1125.0
 20
12342.8175911539
 30
0.0
 11
1125.0
 21
11442.8175911539
 31
0.0
  0
TEXT
  5
8ED3
  8
4
 10
1658.1327569999989
 20
11050.915846153899
 30
0.0
 40
243.0
  1
左回転右横向
  0
TEXT
  5
8ED4
  8
4
 10
6610.3630169999997
 20
12507.7530641539
 30
0.0
 40
252.0
  1
No.
  0
TEXT
  5
8ED5
  8
4
 10
5900.8322820000003
 20
11055.9079831539
 30
0.0
 40
243.0
  1
縮尺：1/45
  0
LINE
  5
8ED6
  8
4
 10
8325.0
 20
12342.8175911539
 30
0.0
 11
8325.0
 21
11442.8175911539
 31
0.0
  0
LINE
  5
8ED7
  8
4
 10
9450.0
 20
13275.0
 30
0.0
 11
9450.0
 21
13275.0
 31
0.0
  0
LINE
  5
8ED8
  8
4
 10
6482.7784009999996
 20
12396.164321153899
 30
0.0
 11
6482.7784009999996
 21
12870.41337415389
 31
0.0
  0
LINE
  5
8ED9
  8
4
 10
6482.7784009999996
 20
12870.41337415389
 30
0.0
 11
8325.0
 21
12870.41337415389
 31
0.0
  0
LINE
  5
8EDA
  8
4
 10
8325.0
 20
12870.41337415389
 30
0.0
 11
8325.0
 21
12396.164321153899
 31
0.0
  0
LINE
  5
8EDB
  8
4
 10
8325.0
 20
12396.164321153899
 30
0.0
 11
6482.7784009999996
 21
12396.164321153899
 31
0.0
  0
LINE
  5
8EDC
  8
4
 10
0.0
 20
0.0
 30
0.0
 11
0.0
 21
13275.0
 31
0.0
  0
LINE
  5
8EDD
  8
4
 10
0.0
 20
13275.0
 30
0.0
 11
9450.0
 21
13275.0
 31
0.0
  0
LINE
  5
8EDE
  8
4
 10
9450.0
 20
13275.0
 30
0.0
 11
9450.0
 21
0.0
 31
0.0
  0
LINE
  5
8EDF
  8
4
 10
9450.0
 20
0.0
 30
0.0
 11
0.0
 21
0.0
 31
0.0
  0
LINE
  5
8EE0
  8
1
 10
6937.6376499999988
 20
6814.3188314740601
 30
0.0
 11
6937.6376499999988
 21
3599.22482565481
 31
0.0
  0
DIMENSION
  5
8EE1
  8
3
  2
*D12
 10
4807.329704463179
 20
2296.556729011113
 30
0.0
 11
3312.5433424631801
 21
2296.556729011113
 31
0.0
 70
   128
 13
1207.32970446318
 23
3082.3188314740569
 33
0.0
 14
4807.329704463179
 24
3082.3188314740569
 34
0.0
1001
ACAD
1000
DSTYLE
1002
{
1070
   287
1070
     3
1070
   287
1070
     3
1070
   287
1070
     3
1070
   287
1070
     3
1070
   287
1070
     3
1070
   287
1070
     3
1070
   287
1070
     3
1070
   287
1070
     3
1070
    40
1040
45.0
1070
   143
1040
0.039
1070
   271
1070
     4
1070
   272
1070
     4
1070
   279
1070
     0
1070
   284
1070
     0
1070
   285
1070
     0
1070
   286
1070
     0
1070
   341
1005
8D0F
1070
     6
1000
OPEN
1070
     7
1000
OPEN
1002
}
  0
DIMENSION
  5
8EE2
  8
3
  2
*D10
 10
3747.329704463179
 20
2622.0088410111139
 30
0.0
 11
2709.4044294631799
 21
2622.0088410111139
 31
0.0
 70
   128
 13
1207.32970446318
 23
3082.3188314740569
 33
0.0
 14
3747.329704463179
 24
2952.1695802619738
 34
0.0
1001
ACAD
1000
DSTYLE
1002
{
1070
   287
1070
     3
1070
   287
1070
     3
1070
   287
1070
     3
1070
   287
1070
     3
1070
   287
1070
     3
1070
   287
1070
     3
1070
   287
1070
     3
1070
   287
1070
     3
1070
    40
1040
45.0
1070
   143
1040
0.039
1070
   271
1070
     4
1070
   272
1070
     4
1070
   279
1070
     0
1070
   284
1070
     0
1070
   285
1070
     0
1070
   286
1070
     0
1070
   341
1005
8D0F
1070
     6
1000
OPEN
1070
     7
1000
OPEN
1002
}
  0
LINE
  5
8EE7
  8
1
 10
4807.32970446318
 20
3522.3188314740569
 30
0.0
 11
1207.32970446318
 21
3522.3188314740569
 31
0.0
  0
LINE
  5
8EE8
  8
1
 10
4807.32970446318
 20
3372.3188314740569
 30
0.0
 11
1207.32970446318
 21
3372.3188314740569
 31
0.0
  0
LINE
  5
8EEB
  8
2
 10
2110.8510611448219
 20
5522.3188314740573
 30
0.0
 11
5003.6136164169357
 21
5522.3188314740573
 31
0.0
  0
ARC
  5
8EEC
  8
1
 10
3878.32970446318
 20
5391.3188314740582
 30
0.0
 40
1685.0
 50
180.0
 51
264.61205899999987
  0
LINE
  5
8EED
  8
1
 10
4847.32970446318
 20
5451.3188314740582
 30
0.0
 11
4847.32970446318
 21
3607.1391304740569
 31
0.0
  0
LINE
  5
8EEE
  8
1
 10
4912.329704463179
 20
5515.3188314740582
 30
0.0
 11
4912.329704463179
 21
3539.3188314740592
 31
0.0
  0
LINE
  5
8EEF
  8
1
 10
4912.1137374631808
 20
3601.0289934740572
 30
0.0
 11
3719.8943034631811
 21
3711.4737454740589
 31
0.0
  0
LINE
  5
8EF0
  8
1
 10
1521.8505724631791
 20
3604.1281544740568
 30
0.0
 11
1832.8088364631799
 21
3604.1281544740568
 31
0.0
  0
LINE
  5
8EF1
  8
2
 10
1339.87074046318
 20
3872.3188314740569
 30
0.0
 11
2020.6069264631799
 21
3872.3188314740569
 31
0.0
  0
LINE
  5
8EF2
  8
1
 10
1327.329704463179
 20
3592.3188314740569
 30
0.0
 11
2027.32970446318
 21
3592.3188314740569
 31
0.0
  0
ARC
  5
8EF3
  8
1
 10
1677.32970446318
 20
3872.3188314740569
 30
0.0
 40
310.0
 50
300.10230799999982
 51
239.89769200000001
  0
CIRCLE
  5
8EF4
  8
1
 10
1677.32970446318
 20
3872.3188314740569
 30
0.0
 40
150.0
  0
ARC
  5
8EF5
  8
1
 10
1677.32970446318
 20
3872.3188314740569
 30
0.0
 40
280.0
 50
132.89140997659129
 51
304.2254168070898
  0
LINE
  5
8EF6
  8
1
 10
1397.32970446318
 20
3739.2774844740579
 30
0.0
 11
1397.32970446318
 21
3592.3188314740569
 31
0.0
  0
LINE
  5
8EF8
  8
1
 10
1207.32970446318
 20
3522.3188314740569
 30
0.0
 11
1207.32970446318
 21
3372.3188314740569
 31
0.0
  0
LINE
  5
8EF9
  8
1
 10
1327.329704463179
 20
3592.3188314740569
 30
0.0
 11
1507.32970446318
 21
3592.3188314740569
 31
0.0
  0
LINE
  5
8EFA
  8
1
 10
1327.329704463179
 20
3592.3188314740569
 30
0.0
 11
1327.329704463179
 21
3522.3188314740569
 31
0.0
  0
LINE
  5
8EFB
  8
1
 10
1957.32970446318
 20
3739.2774844740579
 30
0.0
 11
1957.32970446318
 21
3592.3188314740569
 31
0.0
  0
LINE
  5
8EFC
  8
2
 10
1677.32970446318
 20
3449.5209014740572
 30
0.0
 11
1677.32970446318
 21
4354.317683474057
 31
0.0
  0
LINE
  5
8EFD
  8
1
 10
2027.32970446318
 20
3592.3188314740569
 30
0.0
 11
2027.32970446318
 21
3522.3188314740569
 31
0.0
  0
DIMENSION
  5
8EFE
  8
3
  2
*D11
 10
4807.329704463179
 20
2622.0088410111139
 30
0.0
 11
4277.32970446318
 21
2734.5088410111139
 31
0.0
 70
     0
 13
3747.329704463179
 23
2952.1695802619738
 33
0.0
 14
4807.329704463179
 24
3082.3188314740569
 34
0.0
1001
ACAD
1000
DSTYLE
1002
{
1070
   287
1070
     3
1070
   287
1070
     3
1070
   287
1070
     3
1070
   287
1070
     3
1070
   287
1070
     3
1070
   287
1070
     3
1070
   287
1070
     3
1070
   287
1070
     3
1070
    40
1040
45.0
1070
   143
1040
0.039
1070
   271
1070
     4
1070
   272
1070
     4
1070
   279
1070
     0
1070
   284
1070
     0
1070
   285
1070
     0
1070
   286
1070
     0
1070
   341
1005
8D0F
1070
     6
1000
OPEN
1070
     7
1000
OPEN
1002
}
  0
ARC
  5
8EFF
  8
1
 10
3636.82970446318
 20
5632.8188314740573
 30
0.0
 40
1181.4999999999991
 50
0.000000000000007
 51
90.0
  0
ARC
  5
8F00
  8
1
 10
3616.329704463179
 20
5391.3188314740582
 30
0.0
 40
1423.0
 50
90.0
 51
180.0
  0
LINE
  5
8F01
  8
2
 10
3747.329704463179
 20
2952.1695802619738
 30
0.0
 11
3747.329704463179
 21
7431.3202624996602
 31
0.0
  0
LINE
  5
8F02
  8
1
 10
4801.0253364631799
 20
5451.3188314740582
 30
0.0
 11
4912.329704463179
 21
5451.3188314740582
 31
0.0
  0
ARC
  5
8F03
  8
1
 10
3747.3287044631788
 20
5522.3188314740573
 30
0.0
 40
480.0
 50
304.22541680708969
 51
132.89140997659129
  0
CIRCLE
  5
8F04
  8
1
 10
3747.329704463179
 20
5522.3188314740573
 30
0.0
 40
400.0
  0
ARC
  5
8F06
  8
1
 10
3857.82970446318
 20
5632.8188314740573
 30
0.0
 40
960.5
 50
349.107665
 51
0.000000000000007
  0
LINE
  5
8F08
  8
1
 10
4807.32970446318
 20
3522.3188314740569
 30
0.0
 11
4807.32970446318
 21
3372.3188314740569
 31
0.0
  0
DIMENSION
  5
8F0C
  8
3
  2
*D16
 10
5307.8068642437511
 20
5451.3188314740582
 30
0.0
 11
5195.3068642437502
 21
4526.1739124740579
 31
0.0
 70
     0
  1
1850
 13
4912.1137374631808
 23
3601.0289934740572
 33
0.0
 14
4912.329704463179
 24
5451.3188314740582
 34
0.0
 50
270.0
1001
ACAD
1000
DSTYLE
1002
{
1070
   287
1070
     3
1070
   287
1070
     3
1070
   287
1070
     3
1070
   287
1070
     3
1070
   287
1070
     3
1070
   287
1070
     3
1070
   287
1070
     3
1070
   287
1070
     3
1070
    40
1040
45.0
1070
   143
1040
0.039
1070
   271
1070
     4
1070
   272
1070
     4
1070
   279
1070
     0
1070
   284
1070
     0
1070
   285
1070
     0
1070
   286
1070
     0
1070
   341
1005
8D0F
1070
     6
1000
OPEN
1070
     7
1000
OPEN
1002
}
  0
DIMENSION
  5
8F0D
  8
3
  2
*D17
 10
5665.293960206569
 20
5522.3188314740573
 30
0.0
 11
5552.7939602065671
 21
4561.6739124740579
 31
0.0
 70
     0
  1
1921
 13
5307.8068642437511
 23
3601.0289934740572
 33
0.0
 14
5003.6136164169357
 24
5522.3188314740573
 34
0.0
 50
270.0
1001
ACAD
1000
DSTYLE
1002
{
1070
   287
1070
     3
1070
   287
1070
     3
1070
   287
1070
     3
1070
   287
1070
     3
1070
   287
1070
     3
1070
   287
1070
     3
1070
   287
1070
     3
1070
   287
1070
     3
1070
    40
1040
45.0
1070
   143
1040
0.039
1070
   271
1070
     4
1070
   272
1070
     4
1070
   279
1070
     0
1070
   284
1070
     0
1070
   285
1070
     0
1070
   286
1070
     0
1070
   341
1005
8D0F
1070
     6
1000
OPEN
1070
     7
1000
OPEN
1002
}
  0
LINE
  5
8F12
  8
1
 10
4912.329704463179
 20
8545.5698250355781
 30
0.0
 11
4912.329704463179
 21
10003.569825035571
 31
0.0
  0
LINE
  5
8F13
  8
1
 10
2193.329704463179
 20
8614.5698250355763
 30
0.0
 11
2193.329704463179
 21
9934.5698250355781
 31
0.0
  0
LINE
  5
8F14
  8
1
 10
2847.329704463179
 20
9934.5698250355781
 30
0.0
 11
2847.329704463179
 21
10069.569825035571
 31
0.0
  0
LINE
  5
8F15
  8
1
 10
4647.3297044631763
 20
9934.5698250355763
 30
0.0
 11
4647.3297044631781
 21
10069.569825035571
 31
0.0
  0
LINE
  5
8F16
  8
1
 10
4712.3297044631781
 20
10069.569825035571
 30
0.0
 11
2782.3297044631781
 21
10069.569825035571
 31
0.0
  0
LINE
  5
8F17
  8
1
 10
6937.6376499999988
 20
3599.22482565481
 30
0.0
 11
8257.6376500000006
 21
3599.22482565481
 31
0.0
  0
DIMENSION
  5
8F1C
  8
3
  2
*D5
 10
5668.8127705611632
 20
10013.569825035571
 30
0.0
 11
5556.3127705611614
 21
9088.5698250355745
 31
0.0
 70
     0
 13
4807.3297044631781
 23
8163.5698250355763
 33
0.0
 14
4807.3297044631781
 24
10013.569825035571
 34
0.0
 50
90.0
1001
ACAD
1000
DSTYLE
1002
{
1070
   287
1070
     3
1070
   287
1070
     3
1070
   287
1070
     3
1070
   287
1070
     3
1070
   287
1070
     3
1070
   287
1070
     3
1070
   287
1070
     3
1070
   287
1070
     3
1070
    40
1040
45.0
1070
   143
1040
0.039
1070
   271
1070
     4
1070
   272
1070
     4
1070
   279
1070
     0
1070
   284
1070
     0
1070
   285
1070
     0
1070
   286
1070
     0
1070
   341
1005
8D0F
1070
     6
1000
OPEN
1070
     7
1000
OPEN
1002
}
  0
LINE
  5
8F1D
  8
1
 10
2193.329704463179
 20
9288.5698250355763
 30
0.0
 11
1207.32970446318
 21
9288.5698250355763
 31
0.0
  0
LINE
  5
8F1E
  8
1
 10
4807.3297044631781
 20
8238.5698250355745
 30
0.0
 11
4227.329704463179
 21
8238.5698250355745
 31
0.0
  0
LINE
  5
8F21
  8
1
 10
4807.3297044631781
 20
9938.5698250355763
 30
0.0
 11
2687.32970446318
 21
9938.5698250355763
 31
0.0
  0
LINE
  5
8F22
  8
1
 10
2847.329704463179
 20
10013.569825035571
 30
0.0
 11
2687.32970446318
 21
10013.569825035571
 31
0.0
  0
LINE
  5
8F23
  8
1
 10
1392.32970446318
 20
8238.5698250355745
 30
0.0
 11
1207.32970446318
 21
8238.5698250355745
 31
0.0
  0
LINE
  5
8F24
  8
1
 10
2687.32970446318
 20
9934.5698250355781
 30
0.0
 11
2687.32970446318
 21
10013.569825035571
 31
0.0
  0
LINE
  5
8F25
  8
1
 10
2762.32970446318
 20
9934.5698250355763
 30
0.0
 11
2762.32970446318
 21
9938.5698250355781
 31
0.0
  0
LINE
  5
8F26
  8
1
 10
4732.3297044631809
 20
9934.5698250355763
 30
0.0
 11
4732.329704463179
 21
9938.5698250355781
 31
0.0
  0
LINE
  5
8F27
  8
1
 10
4807.3297044631781
 20
9934.5698250355763
 30
0.0
 11
4807.3297044631781
 21
10013.569825035571
 31
0.0
  0
LINE
  5
9319
  8
1
 10
6937.6376499999988
 20
5449.22482565481
 30
0.0
 11
8257.6376500000006
 21
5449.22482565481
 31
0.0
  0
LINE
  5
931B
  8
1
 10
6937.6376499999988
 20
5449.22482565481
 30
0.0
 11
8257.6376500000006
 21
3599.224825654811
 31
0.0
  0
LINE
  5
931C
  8
1
 10
8257.6376500000006
 20
5449.22482565481
 30
0.0
 11
6937.6376499999988
 21
3599.22482565481
 31
0.0
  0
LINE
  5
931D
  8
1
 10
6868.6376499999978
 20
5518.22482565481
 30
0.0
 11
6868.6376499999978
 21
3530.2248256548078
 31
0.0
  0
LINE
  5
931E
  8
1
 10
8326.6376499999951
 20
5518.22482565481
 30
0.0
 11
8326.6376499999951
 21
3530.22482565481
 31
0.0
  0
LINE
  5
931F
  8
1
 10
6868.6376499999978
 20
3530.2248256548078
 30
0.0
 11
8326.6376499999951
 21
3530.22482565481
 31
0.0
  0
LINE
  5
9320
  8
1
 10
6868.6376499999978
 20
5518.22482565481
 30
0.0
 11
8326.6376499999951
 21
5518.22482565481
 31
0.0
  0
LINE
  5
9514
  8
1
 10
1207.32970446318
 20
9288.5698250355781
 30
0.0
 11
1207.32970446318
 21
9363.5698250355745
 31
0.0
  0
LINE
  5
9891
  8
1
 10
3636.82970446318
 20
6814.3188314740573
 30
0.0
 11
3616.329704463179
 21
6814.3188314740582
 31
0.0
  0
LINE
  5
9892
  8
1
 10
3420.6354074676929
 20
5873.9884060724562
 30
0.0
 11
1486.7586145491471
 21
4077.4594166564571
 31
0.0
  0
LINE
  5
9893
  8
1
 10
4017.3048106590668
 20
5125.4398800501913
 30
0.0
 11
1834.815766410781
 21
3640.8061098101348
 31
0.0
  0
LINE
  5
9894
  8
1
 10
3469.5790751789859
 20
5810.1635603336199
 30
0.0
 11
1573.173218481608
 21
3980.2606047963932
 31
0.0
  0
LINE
  5
9895
  8
1
 10
3965.9999330281312
 20
5187.3810295774201
 30
0.0
 11
1759.331040175038
 21
3746.717155762818
 31
0.0
  0
LINE
  5
99A3
  8
1
 10
6937.6376499999988
 20
6814.3188314740601
 30
0.0
 11
8257.6376500000006
 21
6814.3188314740582
 31
0.0
  0
DIMENSION
  5
99B7
  8
3
  2
*D19
 10
5665.293960206569
 20
6814.3188314740573
 30
0.0
 11
5552.7939602065671
 21
6168.3188314740582
 31
0.0
 70
     0
 13
5003.6136164169357
 23
5522.3188314740573
 33
0.0
 14
3636.829704463285
 24
6814.3188314740573
 34
0.0
 50
270.0
1001
ACAD
1000
DSTYLE
1002
{
1070
   287
1070
     3
1070
   287
1070
     3
1070
   287
1070
     3
1070
   287
1070
     3
1070
   287
1070
     3
1070
    40
1040
45.0
1070
   143
1040
0.039
1070
   271
1070
     4
1070
   272
1070
     4
1070
   279
1070
     0
1070
   284
1070
     0
1070
   285
1070
     0
1070
   286
1070
     0
1070
   341
1005
8D0F
1070
     6
1000
OPEN
1070
     7
1000
OPEN
1002
}
  0
DIMENSION
  5
99CD
  8
3
  2
*D20
 10
885.76783943931503
 20
3372.3188314740569
 30
0.0
 11
773.26783943931446
 21
4447.3188314740582
 31
0.0
 70
     0
 13
2110.8510611448219
 23
5522.3188314740573
 33
0.0
 14
1207.32970446318
 24
3372.3188314740569
 34
0.0
 50
90.0
1001
ACAD
1000
DSTYLE
1002
{
1070
   287
1070
     3
1070
   287
1070
     3
1070
   287
1070
     3
1070
   287
1070
     3
1070
   287
1070
     3
1070
    40
1040
45.0
1070
   143
1040
0.039
1070
   271
1070
     4
1070
   272
1070
     4
1070
   279
1070
     0
1070
   284
1070
     0
1070
   285
1070
     0
1070
   286
1070
     0
1070
   341
1005
8D0F
1070
     6
1000
OPEN
1070
     7
1000
OPEN
1002
}
  0
DIMENSION
  5
99DA
  8
3
  2
*D21
 10
8257.6376500000006
 20
7206.6995506771682
 30
0.0
 11
7597.6376499999997
 21
7319.1995506771682
 31
0.0
 70
     0
 13
6937.6376499999988
 23
6814.3188314740601
 33
0.0
 14
8257.6376500000006
 24
6814.3188314740582
 34
0.0
1001
ACAD
1000
DSTYLE
1002
{
1070
   287
1070
     3
1070
   287
1070
     3
1070
   287
1070
     3
1070
   287
1070
     3
1070
   287
1070
     3
1070
    40
1040
45.0
1070
   143
1040
0.039
1070
   271
1070
     4
1070
   272
1070
     4
1070
   279
1070
     0
1070
   284
1070
     0
1070
   285
1070
     0
1070
   286
1070
     0
1070
   341
1005
8D0F
1070
     6
1000
OPEN
1070
     7
1000
OPEN
1002
}
  0
DIMENSION
  5
99E7
  8
3
  2
*D22
 10
7597.6376499999988
 20
7549.3060298918836
 30
0.0
 11
7047.6376499999978
 21
7697.1631727490258
 31
0.0
 70
     0
  1
(1150)
 13
6497.6376499999997
 23
6002.3188314740573
 33
0.0
 14
7597.6376499999988
 24
7642.5263770134288
 34
0.0
1001
ACAD
1000
DSTYLE
1002
{
1070
   287
1070
     3
1070
   287
1070
     3
1070
   287
1070
     3
1070
   287
1070
     3
1070
   287
1070
     3
1070
    40
1040
45.0
1070
   143
1040
0.039
1070
   271
1070
     4
1070
   272
1070
     4
1070
   279
1070
     0
1070
   284
1070
     0
1070
   285
1070
     0
1070
   286
1070
     0
1070
   341
1005
8D0F
1070
     6
1000
OPEN
1070
     7
1000
OPEN
1002
}
  0
DIMENSION
  5
99FD
  8
3
  2
*D23
 10
8392.6376500000006
 20
7549.3060298918836
 30
0.0
 11
7995.1376499999997
 21
7661.8060298918826
 31
0.0
 70
     0
 13
7597.6376499999988
 23
7642.5263770134288
 33
0.0
 14
8392.6376500000006
 24
6487.3188314740592
 34
0.0
1001
ACAD
1000
DSTYLE
1002
{
1070
   287
1070
     4
1070
   287
1070
     4
1070
   287
1070
     4
1070
   287
1070
     4
1070
   287
1070
     4
1070
    40
1040
45.0
1070
   143
1040
0.039
1070
   271
1070
     4
1070
   272
1070
     4
1070
   279
1070
     1
1070
   284
1070
     0
1070
   285
1070
     0
1070
   286
1070
     0
1070
   341
1005
8D0F
1070
     6
1000
OPEN
1070
     7
1000
OPEN
1002
}
  0
LINE
  5
9A0B
  8
2
 10
7597.6376499999988
 20
7429.6189692814551
 30
0.0
 11
7597.6376499999988
 21
7699.4943599674489
 31
0.0
  0
LINE
  5
A194
  8
1
 10
4807.32970446318
 20
3232.3188314740569
 30
0.0
 11
1207.32970446318
 21
3232.3188314740569
 31
0.0
  0
LINE
  5
A195
  8
1
 10
4807.32970446318
 20
3082.3188314740569
 30
0.0
 11
1207.32970446318
 21
3082.3188314740569
 31
0.0
  0
LINE
  5
A196
  8
1
 10
4807.32970446318
 20
3232.3188314740569
 30
0.0
 11
4807.32970446318
 21
3082.3188314740569
 31
0.0
  0
LINE
  5
A197
  8
1
 10
1207.32970446318
 20
3232.3188314740569
 30
0.0
 11
1207.32970446318
 21
3082.3188314740569
 31
0.0
  0
LINE
  5
A198
  8
1
 10
6486.6376499999997
 20
3082.3188314740569
 30
0.0
 11
8336.6376500000006
 21
3082.3188314740569
 31
0.0
  0
LINE
  5
A199
  8
1
 10
6486.6376499999997
 20
3232.3188314740569
 30
0.0
 11
8336.6376500000006
 21
3232.3188314740569
 31
0.0
  0
LINE
  5
A19A
  8
1
 10
6486.6376499999997
 20
3232.3188314740569
 30
0.0
 11
6486.6376499999997
 21
3082.3188314740569
 31
0.0
  0
LINE
  5
A19B
  8
1
 10
8336.6376500000006
 20
3232.3188314740569
 30
0.0
 11
8336.6376500000006
 21
3082.3188314740569
 31
0.0
  0
DIMENSION
  5
A4A0
  8
3
  2
*D24
 10
885.76783943931503
 20
3232.3188314740569
 30
0.0
 11
840.76783943931514
 21
3372.3188314740569
 31
0.0
 70
   128
  1
(<>)
 13
1207.32970446318
 23
3372.3188314740569
 33
0.0
 14
1207.32970446318
 24
3232.3188314740569
 34
0.0
 50
90.0
1001
ACAD
1000
DSTYLE
1002
{
1070
   287
1070
     4
1070
   287
1070
     4
1070
    40
1040
45.0
1070
   143
1040
0.039
1070
   271
1070
     4
1070
   272
1070
     4
1070
   279
1070
     1
1070
   284
1070
     0
1070
   285
1070
     0
1070
   286
1070
     0
1070
   341
1005
8D0F
1070
     6
1000
NONE
1070
     7
1000
NONE
1002
}
  0
DIMENSION
  5
A4B1
  8
3
  2
*D25
 10
885.76783943931503
 20
3082.3188314740578
 30
0.0
 11
875.58535206129443
 21
2837.3495253963738
 31
0.0
 70
   128
 13
1207.32970446318
 23
3232.3188314740569
 33
0.0
 14
1207.32970446318
 24
3082.3188314740569
 34
0.0
 50
90.0
1001
ACAD
1000
DSTYLE
1002
{
1070
   287
1070
     4
1070
   287
1070
     4
1070
    40
1040
45.0
1070
   143
1040
0.039
1070
   271
1070
     4
1070
   272
1070
     4
1070
   279
1070
     1
1070
   284
1070
     0
1070
   285
1070
     0
1070
   286
1070
     0
1070
   341
1005
8D0F
1070
     6
1000
DOTSMALL
1070
     7
1000
OPEN
1002
}
  0
ENDSEC
  0
EOF
