  0
SECTION
  2
HEADER
  9
$ACADVER
  1
AC1009
  9
$INSBASE
 10
0.0
 20
0.0
 30
0.0
  9
$EXTMIN
 10
0.0
 20
0.0
 30
0.0
  9
$EXTMAX
 10
9450.0
 20
13275.0
 30
0.0
  9
$LIMMIN
 10
0.0
 20
0.0
  9
$LIMMAX
 10
297.0
 20
210.0
  9
$ORTHOMODE
 70
     0
  9
$REGENMODE
 70
     1
  9
$FILLMODE
 70
     0
  9
$QTEXTMODE
 70
     0
  9
$MIRRTEXT
 70
     1
  9
$DRAGMODE
 70
     2
  9
$LTSCALE
 40
100.0
  9
$OSMODE
 70
    37
  9
$ATTMODE
 70
     1
  9
$TEXTSIZE
 40
180.0
  9
$TRACEWID
 40
0.05
  9
$TEXTSTYLE
  7
STANDARD
  9
$CLAYER
  8
3
  9
$CELTYPE
  6
BYLAYER
  9
$CECOLOR
 62
   256
  9
$DIMSCALE
 40
45.0
  9
$DIMASZ
 40
2.0
  9
$DIMEXO
 40
0.5
  9
$DIMDLI
 40
10.0
  9
$DIMRND
 40
0.0
  9
$DIMDLE
 40
0.0
  9
$DIMEXE
 40
1.0
  9
$DIMTP
 40
1.0
  9
$DIMTM
 40
1.0
  9
$DIMTXT
 40
3.0
  9
$DIMCEN
 40
0.0
  9
$DIMTSZ
 40
0.0
  9
$DIMTOL
 70
     0
  9
$DIMLIM
 70
     0
  9
$DIMTIH
 70
     0
  9
$DIMTOH
 70
     0
  9
$DIMSE1
 70
     0
  9
$DIMSE2
 70
     0
  9
$DIMTAD
 70
     1
  9
$DIMZIN
 70
     8
  9
$DIMBLK
  1

  9
$DIMASO
 70
     1
  9
$DIMSHO
 70
     1
  9
$DIMPOST
  1

  9
$DIMAPOST
  1

  9
$DIMALT
 70
     0
  9
$DIMALTD
 70
     2
  9
$DIMALTF
 40
0.039
  9
$DIMLFAC
 40
1.0
  9
$DIMTOFL
 70
     0
  9
$DIMTVP
 40
0.0
  9
$DIMTIX
 70
     0
  9
$DIMSOXD
 70
     0
  9
$DIMSAH
 70
     1
  9
$DIMBLK1
  1
OPEN
  9
$DIMBLK2
  1
OPEN
  9
$DIMSTYLE
  2
IGA
  9
$DIMCLRD
 70
     0
  9
$DIMCLRE
 70
     0
  9
$DIMCLRT
 70
     0
  9
$DIMTFAC
 40
10.0
  9
$DIMGAP
 40
1.0
  9
$LUNITS
 70
     2
  9
$LUPREC
 70
     3
  9
$SKETCHINC
 40
0.1
  9
$FILLETRAD
 40
50.0
  9
$AUNITS
 70
     0
  9
$AUPREC
 70
     0
  9
$MENU
  1
acad
  9
$ELEVATION
 40
0.0
  9
$PELEVATION
 40
0.0
  9
$THICKNESS
 40
0.0
  9
$LIMCHECK
 70
     0
  9
$BLIPMODE
 70
     0
  9
$CHAMFERA
 40
0.5
  9
$CHAMFERB
 40
0.5
  9
$SKPOLY
 70
     0
  9
$TDCREATE
 40
2451845.4205035879
  9
$TDUPDATE
 40
2454953.664466863
  9
$TDINDWG
 40
0.0932497222
  9
$TDUSRTIMER
 40
0.0932493634
  9
$USRTIMER
 70
     1
  9
$ANGBASE
 50
0.0
  9
$ANGDIR
 70
     0
  9
$PDMODE
 70
     0
  9
$PDSIZE
 40
0.0
  9
$PLINEWID
 40
0.0
  9
$COORDS
 70
     1
  9
$SPLFRAME
 70
     0
  9
$SPLINETYPE
 70
     6
  9
$SPLINESEGS
 70
     8
  9
$ATTDIA
 70
     0
  9
$ATTREQ
 70
     1
  9
$HANDLING
 70
 10241
  9
$HANDSEED
  5
A3EB
  9
$SURFTAB1
 70
     6
  9
$SURFTAB2
 70
     6
  9
$SURFTYPE
 70
     6
  9
$SURFU
 70
     6
  9
$SURFV
 70
     6
  9
$UCSNAME
  2

  9
$UCSORG
 10
0.0
 20
0.0
 30
0.0
  9
$UCSXDIR
 10
1.0
 20
0.0
 30
0.0
  9
$UCSYDIR
 10
0.0
 20
1.0
 30
0.0
  9
$PUCSNAME
  2

  9
$PUCSORG
 10
0.0
 20
0.0
 30
0.0
  9
$PUCSXDIR
 10
1.0
 20
0.0
 30
0.0
  9
$PUCSYDIR
 10
0.0
 20
1.0
 30
0.0
  9
$USERI1
 70
     0
  9
$USERI2
 70
     0
  9
$USERI3
 70
     0
  9
$USERI4
 70
     0
  9
$USERI5
 70
     0
  9
$USERR1
 40
0.0
  9
$USERR2
 40
0.0
  9
$USERR3
 40
0.0
  9
$USERR4
 40
0.0
  9
$USERR5
 40
0.0
  9
$WORLDVIEW
 70
     1
  9
$SHADEDGE
 70
     3
  9
$SHADEDIF
 70
    70
  9
$TILEMODE
 70
     1
  9
$MAXACTVP
 70
    16
  9
$PLIMCHECK
 70
     0
  9
$PEXTMIN
 10
1.0000000000000000E+020
 20
1.0000000000000000E+020
 30
1.0000000000000000E+020
  9
$PEXTMAX
 10
-1.0000000000000000E+020
 20
-1.0000000000000000E+020
 30
-1.0000000000000000E+020
  9
$PLIMMIN
 10
0.0
 20
0.0
  9
$PLIMMAX
 10
12.0
 20
9.0
  9
$UNITMODE
 70
     0
  9
$VISRETAIN
 70
     0
  9
$PLINEGEN
 70
     0
  9
$PSLTSCALE
 70
     1
  0
ENDSEC
  0
SECTION
  2
TABLES
  0
TABLE
  2
VPORT
 70
     2
  0
VPORT
  2
*ACTIVE
 70
     0
 10
0.0
 20
0.0
 11
1.0
 21
1.0
 12
17229.88891034247
 22
6584.7411379628784
 13
0.0
 23
0.0
 14
10.0
 24
10.0
 15
10.0
 25
10.0
 16
0.0
 26
0.0
 36
1.0
 17
0.0
 27
0.0
 37
0.0
 40
13428.26597060564
 41
3.1666666666666661
 42
50.0
 43
0.0
 44
0.0
 50
0.0
 51
0.0
 71
     0
 72
   100
 73
     1
 74
     0
 75
     0
 76
     0
 77
     0
 78
     0
  0
ENDTAB
  0
TABLE
  2
LTYPE
 70
     2
  0
LTYPE
  2
CONTINUOUS
 70
     0
  3
Solid line
 72
    65
 73
     0
 40
0.0
  0
LTYPE
  2
CENTER
 70
     0
  3
____ _ ____ _ ____ _ ____ _ ____ _ ____ _ ____ 
 72
    65
 73
     4
 40
2.0
 49
1.25
 49
-0.25
 49
0.25
 49
-0.25
  0
ENDTAB
  0
TABLE
  2
LAYER
 70
     6
  0
LAYER
  2
0
 70
     0
 62
     7
  6
CONTINUOUS
  0
LAYER
  2
3
 70
     0
 62
     2
  6
CONTINUOUS
  0
LAYER
  2
2
 70
     0
 62
     3
  6
CENTER
  0
LAYER
  2
1
 70
     0
 62
     4
  6
CONTINUOUS
  0
LAYER
  2
4
 70
     0
 62
     7
  6
CONTINUOUS
  0
LAYER
  2
DEFPOINTS
 70
     0
 62
     7
  6
CONTINUOUS
  0
ENDTAB
  0
TABLE
  2
STYLE
 70
     1
  0
STYLE
  2
STANDARD
 70
     0
 40
0.0
 41
1.0
 50
0.0
 71
     0
 42
180.0
  3
simplex.shx
  4
extfont.shx
  0
ENDTAB
  0
TABLE
  2
VIEW
 70
     0
  0
ENDTAB
  0
TABLE
  2
UCS
 70
     0
  0
ENDTAB
  0
TABLE
  2
APPID
 70
     1
  0
APPID
  2
ACAD
 70
     0
  0
ENDTAB
  0
TABLE
  2
DIMSTYLE
 70
     1
  0
DIMSTYLE
  2
IGA
 70
     0
  3

  4

  5

  6

  7

 40
2.0
 41
2.0
 42
0.5
 43
10.0
 44
1.0
 45
0.0
 46
0.0
 47
1.0
 48
1.0
140
3.0
141
0.0
142
0.0
143
0.03937
144
1.0
145
0.0
146
10.0
147
1.0
 71
     0
 72
     0
 73
     0
 74
     0
 75
     0
 76
     0
 77
     1
 78
     8
170
     0
171
     2
172
     0
173
     1
174
     0
175
     0
176
     0
177
     0
178
     0
  0
ENDTAB
  0
ENDSEC
  0
SECTION
  2
BLOCKS
  0
BLOCK
  8
0
  2
$MODEL_SPACE
 70
     0
 10
0.0
 20
0.0
 30
0.0
  3
$MODEL_SPACE
  1

  0
ENDBLK
  5
8CFA
  8
0
  0
BLOCK
 67
     1
  8
0
  2
$PAPER_SPACE
 70
     0
 10
0.0
 20
0.0
 30
0.0
  3
$PAPER_SPACE
  1

  0
ENDBLK
  5
8CF6
 67
     1
  8
0
  0
BLOCK
  8
0
  2
YA_N
 70
     0
 10
0.0
 20
0.0
 30
0.0
  3
YA_N
  1

  0
ENDBLK
  5
8D0E
  8
0
  0
BLOCK
  8
0
  2
_OPEN
 70
     0
 10
0.0
 20
0.0
 30
0.0
  3
_OPEN
  1

  0
LINE
  5
8D11
  8
0
  6
BYBLOCK
 62
     0
 10
-1.0
 20
0.166667
 30
0.0
 11
0.0
 21
0.0
 31
0.0
  0
LINE
  5
8D12
  8
0
  6
BYBLOCK
 62
     0
 10
0.0
 20
0.0
 30
0.0
 11
-1.0
 21
-0.166667
 31
0.0
  0
LINE
  5
8D13
  8
0
  6
BYBLOCK
 62
     0
 10
0.0
 20
0.0
 30
0.0
 11
-1.0
 21
0.0
 31
0.0
  0
ENDBLK
  5
8D14
  8
0
  0
BLOCK
  8
0
  2
*D2
 70
     1
 10
0.0
 20
0.0
 30
0.0
  3
*D2
  1

  0
LINE
  5
A394
  8
3
 62
     0
 10
1608.213786010439
 20
8163.5698250355763
 30
0.0
 11
724.23071991245479
 21
8163.5698250355763
 31
0.0
  0
LINE
  5
A395
  8
3
 62
     0
 10
1608.213786010439
 20
10013.569825035571
 30
0.0
 11
724.23071991245524
 21
10013.569825035571
 31
0.0
  0
LINE
  5
A396
  8
3
 62
     0
 10
769.23071991245479
 20
8253.5698250355763
 30
0.0
 11
769.23071991245513
 21
9923.5698250355726
 31
0.0
  0
INSERT
  5
A397
  8
3
 62
     0
  2
_OPEN
 10
769.23071991245479
 20
8163.5698250355763
 30
0.0
 41
90.0
 42
90.0
 43
90.0
 50
270.0
  0
INSERT
  5
A398
  8
3
 62
     0
  2
_OPEN
 10
769.23071991245524
 20
10013.569825035571
 30
0.0
 41
90.0
 42
90.0
 43
90.0
 50
90.0
  0
TEXT
  8
3
  40
135
  5
A3D7
  62
0
  72
0
  71
0
 10
386.731
 20
8849.62
 30
0.000000
  1
1850
  0
POINT
  5
A39A
  8
DEFPOINTS
 62
     0
 10
1630.713786010439
 20
8163.5698250355763
 30
0.0
  0
POINT
  5
A39B
  8
DEFPOINTS
 62
     0
 10
1630.713786010439
 20
10013.569825035571
 30
0.0
  0
POINT
  5
A39C
  8
DEFPOINTS
 62
     0
 10
769.23071991245524
 20
10013.569825035571
 30
0.0
  0
ENDBLK
  5
908C
  8
0
  0
BLOCK
  8
0
  2
*D3
 70
     1
 10
0.0
 20
0.0
 30
0.0
  3
*D3
  1

  0
LINE
  5
A31F
  8
3
 62
     0
 10
1630.713786010439
 20
10036.069825035571
 30
0.0
 11
1630.713786010439
 21
10483.162184826881
 31
0.0
  0
LINE
  5
A320
  8
3
 62
     0
 10
3750.7137860104381
 20
10036.069825035571
 30
0.0
 11
3750.7137860104381
 21
10483.162184826881
 31
0.0
  0
LINE
  5
A321
  8
3
 62
     0
 10
1720.713786010439
 20
10438.162184826881
 30
0.0
 11
3660.7137860104381
 21
10438.162184826881
 31
0.0
  0
INSERT
  5
A322
  8
3
 62
     0
  2
_OPEN
 10
1630.713786010439
 20
10438.162184826881
 30
0.0
 41
90.0
 42
90.0
 43
90.0
 50
180.0
  0
INSERT
  5
A323
  8
3
 62
     0
  2
_OPEN
 10
3750.7137860104381
 20
10438.162184826881
 30
0.0
 41
90.0
 42
90.0
 43
90.0
  0
TEXT
  8
3
  40
135
  5
A3D8
  62
0
  72
0
  71
0
 10
2427.79
 20
10311.7
 30
0.000000
  1
2120
  0
POINT
  5
A325
  8
DEFPOINTS
 62
     0
 10
1630.713786010439
 20
10013.569825035571
 30
0.0
  0
POINT
  5
A326
  8
DEFPOINTS
 62
     0
 10
3750.7137860104381
 20
10013.569825035571
 30
0.0
  0
POINT
  5
A327
  8
DEFPOINTS
 62
     0
 10
3750.7137860104381
 20
10438.162184826881
 30
0.0
  0
ENDBLK
  5
9098
  8
0
  0
BLOCK
  8
0
  2
*D4
 70
     1
 10
0.0
 20
0.0
 30
0.0
  3
*D4
  1

  0
LINE
  5
A328
  8
3
 62
     0
 10
3750.7137860104381
 20
10036.069825035571
 30
0.0
 11
3750.7137860104381
 21
10483.162184826881
 31
0.0
  0
LINE
  5
A329
  8
3
 62
     0
 10
5230.7137860104367
 20
9386.0698250355745
 30
0.0
 11
5230.7137860104367
 21
10483.162184826881
 31
0.0
  0
LINE
  5
A32A
  8
3
 62
     0
 10
3840.7137860104381
 20
10438.162184826881
 30
0.0
 11
5140.7137860104367
 21
10438.162184826881
 31
0.0
  0
INSERT
  5
A32B
  8
3
 62
     0
  2
_OPEN
 10
3750.7137860104381
 20
10438.162184826881
 30
0.0
 41
90.0
 42
90.0
 43
90.0
 50
180.0
  0
INSERT
  5
A32C
  8
3
 62
     0
  2
_OPEN
 10
5230.7137860104367
 20
10438.162184826881
 30
0.0
 41
90.0
 42
90.0
 43
90.0
  0
TEXT
  8
3
  40
135
  5
A3D9
  62
0
  72
0
  71
0
 10
4220.71
 20
10311.7
 30
0.000000
  1
1480
  0
POINT
  5
A32E
  8
DEFPOINTS
 62
     0
 10
3750.7137860104381
 20
10013.569825035571
 30
0.0
  0
POINT
  5
A32F
  8
DEFPOINTS
 62
     0
 10
5230.7137860104367
 20
9363.5698250355745
 30
0.0
  0
POINT
  5
A330
  8
DEFPOINTS
 62
     0
 10
5230.7137860104367
 20
10438.162184826881
 30
0.0
  0
ENDBLK
  5
90A4
  8
0
  0
BLOCK
  8
0
  2
*D5
 70
     1
 10
0.0
 20
0.0
 30
0.0
  3
*D5
  1

  0
LINE
  5
A33A
  8
3
 62
     0
 10
5230.7137860104367
 20
8141.0698250355772
 30
0.0
 11
5230.7137860104367
 21
7637.284521137195
 31
0.0
  0
LINE
  5
A33B
  8
3
 62
     0
 10
1630.713786010439
 20
8141.0698250355772
 30
0.0
 11
1630.713786010439
 21
7637.284521137195
 31
0.0
  0
LINE
  5
A33C
  8
3
 62
     0
 10
5140.7137860104367
 20
7682.284521137195
 30
0.0
 11
1720.713786010439
 21
7682.284521137195
 31
0.0
  0
INSERT
  5
A33D
  8
3
 62
     0
  2
_OPEN
 10
5230.7137860104367
 20
7682.284521137195
 30
0.0
 41
90.0
 42
90.0
 43
90.0
  0
INSERT
  5
A33E
  8
3
 62
     0
  2
_OPEN
 10
1630.713786010439
 20
7682.284521137195
 30
0.0
 41
90.0
 42
90.0
 43
90.0
 50
180.0
  0
TEXT
  8
3
  40
135
  5
A3DA
  62
0
  72
0
  71
0
 10
2920.70
 20
7555.83
 30
0.000000
  1
3600
  0
POINT
  5
A340
  8
DEFPOINTS
 62
     0
 10
5230.7137860104367
 20
8163.5698250355763
 30
0.0
  0
POINT
  5
A341
  8
DEFPOINTS
 62
     0
 10
1630.713786010439
 20
8163.5698250355763
 30
0.0
  0
POINT
  5
A342
  8
DEFPOINTS
 62
     0
 10
1630.713786010439
 20
7682.284521137195
 30
0.0
  0
ENDBLK
  5
90B0
  8
0
  0
BLOCK
  8
0
  2
*D6
 70
     1
 10
0.0
 20
0.0
 30
0.0
  3
*D6
  1

  0
LINE
  5
A331
  8
3
 62
     0
 10
5253.2137860104367
 20
9363.5698250355745
 30
0.0
 11
5517.8458340104389
 21
9363.5698250355745
 31
0.0
  0
LINE
  5
A332
  8
3
 62
     0
 10
5253.2137860104367
 20
8163.5698250355763
 30
0.0
 11
5517.8458340104389
 21
8163.5698250355763
 31
0.0
  0
LINE
  5
A333
  8
3
 62
     0
 10
5472.845834010438
 20
9273.5698250355763
 30
0.0
 11
5472.845834010438
 21
8253.5698250355763
 31
0.0
  0
INSERT
  5
A334
  8
3
 62
     0
  2
_OPEN
 10
5472.845834010438
 20
9363.5698250355745
 30
0.0
 41
90.0
 42
90.0
 43
90.0
 50
90.0
  0
INSERT
  5
A335
  8
3
 62
     0
  2
_OPEN
 10
5472.845834010438
 20
8163.5698250355763
 30
0.0
 41
90.0
 42
90.0
 43
90.0
 50
270.0
  0
TEXT
  8
3
  40
135
  5
A3DB
  62
0
  72
0
  71
0
 10
5090.35
 20
8518.33
 30
0.000000
  1
1200
  0
POINT
  5
A337
  8
DEFPOINTS
 62
     0
 10
5230.7137860104367
 20
9363.5698250355745
 30
0.0
  0
POINT
  5
A338
  8
DEFPOINTS
 62
     0
 10
5230.7137860104367
 20
8163.5698250355763
 30
0.0
  0
POINT
  5
A339
  8
DEFPOINTS
 62
     0
 10
5472.845834010438
 20
8163.5698250355763
 30
0.0
  0
ENDBLK
  5
90BC
  8
0
  0
BLOCK
  8
0
  2
*D7
 70
     1
 10
0.0
 20
0.0
 30
0.0
  3
*D7
  1

  0
LINE
  5
A370
  8
3
 62
     0
 10
5230.7137860104358
 20
3014.574674824205
 30
0.0
 11
5230.7137860104358
 21
2457.4110823259148
 31
0.0
  0
LINE
  5
A371
  8
3
 62
     0
 10
2690.7137860104372
 20
2884.425423612121
 30
0.0
 11
2690.7137860104372
 21
2457.4110823259148
 31
0.0
  0
LINE
  5
A372
  8
3
 62
     0
 10
5140.7137860104367
 20
2502.4110823259148
 30
0.0
 11
2780.7137860104372
 21
2502.4110823259148
 31
0.0
  0
INSERT
  5
A373
  8
3
 62
     0
  2
_OPEN
 10
5230.7137860104358
 20
2502.4110823259148
 30
0.0
 41
90.0
 42
90.0
 43
90.0
  0
INSERT
  5
A374
  8
3
 62
     0
  2
_OPEN
 10
2690.7137860104372
 20
2502.4110823259148
 30
0.0
 41
90.0
 42
90.0
 43
90.0
 50
180.0
  0
TEXT
  8
3
  40
135
  5
A3DC
  62
0
  72
0
  71
0
 10
3458.64
 20
2375.96
 30
0.000000
  1
2540
  0
POINT
  5
A376
  8
DEFPOINTS
 62
     0
 10
5230.7137860104358
 20
3037.0746748242041
 30
0.0
  0
POINT
  5
A377
  8
DEFPOINTS
 62
     0
 10
2690.7137860104372
 20
2906.925423612121
 30
0.0
  0
POINT
  5
A378
  8
DEFPOINTS
 62
     0
 10
2690.7137860104372
 20
2502.4110823259148
 30
0.0
  0
ENDBLK
  5
90EC
  8
0
  0
BLOCK
  8
0
  2
*D8
 70
     1
 10
0.0
 20
0.0
 30
0.0
  3
*D8
  1

  0
LINE
  5
A379
  8
3
 62
     0
 10
2690.7137860104372
 20
2884.425423612121
 30
0.0
 11
2690.7137860104372
 21
2457.4110823259148
 31
0.0
  0
LINE
  5
A37A
  8
3
 62
     0
 10
1630.7137860104381
 20
3014.574674824205
 30
0.0
 11
1630.7137860104381
 21
2457.4110823259148
 31
0.0
  0
LINE
  5
A37B
  8
3
 62
     0
 10
2600.7137860104372
 20
2502.4110823259148
 30
0.0
 11
1720.7137860104381
 21
2502.4110823259148
 31
0.0
  0
INSERT
  5
A37C
  8
3
 62
     0
  2
_OPEN
 10
2690.7137860104372
 20
2502.4110823259148
 30
0.0
 41
90.0
 42
90.0
 43
90.0
  0
INSERT
  5
A37D
  8
3
 62
     0
  2
_OPEN
 10
1630.7137860104381
 20
2502.4110823259148
 30
0.0
 41
90.0
 42
90.0
 43
90.0
 50
180.0
  0
TEXT
  8
3
  40
135
  5
A3DD
  62
0
  72
0
  71
0
 10
1890.71
 20
2375.96
 30
0.000000
  1
1060
  0
POINT
  5
A37F
  8
DEFPOINTS
 62
     0
 10
2690.7137860104372
 20
2906.925423612121
 30
0.0
  0
POINT
  5
A380
  8
DEFPOINTS
 62
     0
 10
1630.7137860104381
 20
3037.0746748242041
 30
0.0
  0
POINT
  5
A381
  8
DEFPOINTS
 62
     0
 10
1630.7137860104381
 20
2502.4110823259148
 30
0.0
  0
ENDBLK
  5
90F8
  8
0
  0
BLOCK
  8
0
  2
*D9
 70
     1
 10
0.0
 20
0.0
 30
0.0
  3
*D9
  1

  0
LINE
  5
A367
  8
3
 62
     0
 10
5230.7137860104358
 20
3014.574674824205
 30
0.0
 11
5230.7137860104358
 21
2086.3125723612611
 31
0.0
  0
LINE
  5
A368
  8
3
 62
     0
 10
1630.7137860104381
 20
3014.574674824205
 30
0.0
 11
1630.7137860104381
 21
2086.3125723612611
 31
0.0
  0
LINE
  5
A369
  8
3
 62
     0
 10
5140.7137860104367
 20
2131.3125723612611
 30
0.0
 11
1720.7137860104381
 21
2131.3125723612611
 31
0.0
  0
INSERT
  5
A36A
  8
3
 62
     0
  2
_OPEN
 10
5230.7137860104358
 20
2131.3125723612611
 30
0.0
 41
90.0
 42
90.0
 43
90.0
  0
INSERT
  5
A36B
  8
3
 62
     0
  2
_OPEN
 10
1630.7137860104381
 20
2131.3125723612611
 30
0.0
 41
90.0
 42
90.0
 43
90.0
 50
180.0
  0
TEXT
  8
3
  40
135
  5
A3DE
  62
0
  72
0
  71
0
 10
2855.50
 20
2004.86
 30
0.000000
  1
3600
  0
POINT
  5
A36D
  8
DEFPOINTS
 62
     0
 10
5230.7137860104358
 20
3037.0746748242041
 30
0.0
  0
POINT
  5
A36E
  8
DEFPOINTS
 62
     0
 10
1630.7137860104381
 20
3037.0746748242041
 30
0.0
  0
POINT
  5
A36F
  8
DEFPOINTS
 62
     0
 10
1630.7137860104381
 20
2131.3125723612611
 30
0.0
  0
ENDBLK
  5
9104
  8
0
  0
BLOCK
  8
0
  2
*D10
 70
     1
 10
0.0
 20
0.0
 30
0.0
  3
*D10
  1

  0
LINE
  5
A343
  8
3
 62
     0
 10
6486.6376499999997
 20
3014.574674824205
 30
0.0
 11
6486.6376499999997
 21
2395.1848830728022
 31
0.0
  0
LINE
  5
A344
  8
3
 62
     0
 10
7597.6376499999988
 20
2937.3688318242048
 30
0.0
 11
7597.6376499999988
 21
2395.1848830728022
 31
0.0
  0
LINE
  5
A345
  8
3
 62
     0
 10
6576.6376499999988
 20
2440.1848830728022
 30
0.0
 11
7507.6376499999978
 21
2440.1848830728022
 31
0.0
  0
INSERT
  5
A346
  8
3
 62
     0
  2
_OPEN
 10
6486.6376499999997
 20
2440.1848830728022
 30
0.0
 41
90.0
 42
90.0
 43
90.0
 50
180.0
  0
INSERT
  5
A347
  8
3
 62
     0
  2
_OPEN
 10
7597.6376499999988
 20
2440.1848830728022
 30
0.0
 41
90.0
 42
90.0
 43
90.0
  0
TEXT
  8
3
  40
135
  5
A3DF
  62
0
  72
0
  71
0
 10
6794.64
 20
2313.73
 30
0.000000
  1
1111
  0
POINT
  5
A349
  8
DEFPOINTS
 62
     0
 10
6486.6376499999997
 20
3037.0746748242041
 30
0.0
  0
POINT
  5
A34A
  8
DEFPOINTS
 62
     0
 10
7597.6376499999988
 20
2959.8688318242062
 30
0.0
  0
POINT
  5
A34B
  8
DEFPOINTS
 62
     0
 10
7597.6376499999988
 20
2440.1848830728022
 30
0.0
  0
ENDBLK
  5
9146
  8
0
  0
BLOCK
  8
0
  2
*D11
 70
     1
 10
0.0
 20
0.0
 30
0.0
  3
*D11
  1

  0
LINE
  5
A34C
  8
3
 62
     0
 10
7597.6376499999988
 20
2937.3688318242048
 30
0.0
 11
7597.6376499999988
 21
2395.1848830728022
 31
0.0
  0
LINE
  5
A34D
  8
3
 62
     0
 10
8336.6376500000006
 20
3014.574674824205
 30
0.0
 11
8336.6376500000006
 21
2395.1848830728022
 31
0.0
  0
LINE
  5
A34E
  8
3
 62
     0
 10
7687.6376499999978
 20
2440.1848830728022
 30
0.0
 11
8246.6376500000024
 21
2440.1848830728022
 31
0.0
  0
INSERT
  5
A34F
  8
3
 62
     0
  2
_OPEN
 10
7597.6376499999988
 20
2440.1848830728022
 30
0.0
 41
90.0
 42
90.0
 43
90.0
 50
180.0
  0
INSERT
  5
A350
  8
3
 62
     0
  2
_OPEN
 10
8336.6376500000006
 20
2440.1848830728022
 30
0.0
 41
90.0
 42
90.0
 43
90.0
  0
TEXT
  8
3
  40
135
  5
A3E0
  62
0
  72
0
  71
0
 10
7697.14
 20
2313.73
 30
0.000000
  1
739
  0
POINT
  5
A352
  8
DEFPOINTS
 62
     0
 10
7597.6376499999988
 20
2959.8688318242062
 30
0.0
  0
POINT
  5
A353
  8
DEFPOINTS
 62
     0
 10
8336.6376500000006
 20
3037.0746748242041
 30
0.0
  0
POINT
  5
A354
  8
DEFPOINTS
 62
     0
 10
8336.6376500000006
 20
2440.1848830728022
 30
0.0
  0
ENDBLK
  5
9152
  8
0
  0
BLOCK
  8
0
  2
*D12
 70
     1
 10
0.0
 20
0.0
 30
0.0
  3
*D12
  1

  0
LINE
  5
A355
  8
3
 62
     0
 10
6486.6376499999997
 20
3014.574674824205
 30
0.0
 11
6486.6376499999997
 21
2029.619339230168
 31
0.0
  0
LINE
  5
A356
  8
3
 62
     0
 10
8336.6376500000006
 20
3014.574674824205
 30
0.0
 11
8336.6376500000006
 21
2029.619339230168
 31
0.0
  0
LINE
  5
A357
  8
3
 62
     0
 10
6576.6376499999988
 20
2074.619339230168
 30
0.0
 11
8246.6376500000024
 21
2074.619339230168
 31
0.0
  0
INSERT
  5
A358
  8
3
 62
     0
  2
_OPEN
 10
6486.6376499999997
 20
2074.619339230168
 30
0.0
 41
90.0
 42
90.0
 43
90.0
 50
180.0
  0
INSERT
  5
A359
  8
3
 62
     0
  2
_OPEN
 10
8336.6376500000006
 20
2074.619339230168
 30
0.0
 41
90.0
 42
90.0
 43
90.0
  0
TEXT
  8
3
  40
135
  5
A3E1
  62
0
  72
0
  71
0
 10
7216.83
 20
1948.17
 30
0.000000
  1
1850
  0
POINT
  5
A35B
  8
DEFPOINTS
 62
     0
 10
6486.6376499999997
 20
3037.0746748242041
 30
0.0
  0
POINT
  5
A35C
  8
DEFPOINTS
 62
     0
 10
8336.6376500000006
 20
3037.0746748242041
 30
0.0
  0
POINT
  5
A35D
  8
DEFPOINTS
 62
     0
 10
8336.6376500000006
 20
2074.619339230168
 30
0.0
  0
ENDBLK
  5
915E
  8
0
  0
BLOCK
  8
0
  2
*D13
 70
     1
 10
0.0
 20
0.0
 30
0.0
  3
*D13
  1

  0
LINE
  5
A382
  8
3
 62
     0
 10
1503.429753010435
 20
3435.7848368242039
 30
0.0
 11
1085.236626229866
 21
3435.7848368242039
 31
0.0
  0
LINE
  5
A383
  8
3
 62
     0
 10
1503.2137860104369
 20
5286.0746748242063
 30
0.0
 11
1085.236626229866
 21
5286.0746748242063
 31
0.0
  0
LINE
  5
A384
  8
3
 62
     0
 10
1130.2366262298649
 20
3525.784836824203
 30
0.0
 11
1130.236626229866
 21
5196.0746748242063
 31
0.0
  0
INSERT
  5
A385
  8
3
 62
     0
  2
_OPEN
 10
1130.2366262298649
 20
3435.7848368242039
 30
0.0
 41
90.0
 42
90.0
 43
90.0
 50
270.0
  0
INSERT
  5
A386
  8
3
 62
     0
  2
_OPEN
 10
1130.236626229866
 20
5286.0746748242063
 30
0.0
 41
90.0
 42
90.0
 43
90.0
 50
90.0
  0
TEXT
  8
3
  40
135
  5
A3E2
  62
0
  72
0
  71
0
 10
747.737
 20
4121.98
 30
0.000000
  1
1850
  0
POINT
  5
A388
  8
DEFPOINTS
 62
     0
 10
1525.929753010435
 20
3435.7848368242039
 30
0.0
  0
POINT
  5
A389
  8
DEFPOINTS
 62
     0
 10
1525.7137860104369
 20
5286.0746748242063
 30
0.0
  0
POINT
  5
A38A
  8
DEFPOINTS
 62
     0
 10
1130.236626229866
 20
5286.0746748242063
 30
0.0
  0
ENDBLK
  5
91D3
  8
0
  0
BLOCK
  8
0
  2
*D14
 70
     1
 10
0.0
 20
0.0
 30
0.0
  3
*D14
  1

  0
LINE
  5
A38B
  8
3
 62
     0
 10
1107.736626229866
 20
3435.7848368242039
 30
0.0
 11
727.74953026704816
 21
3435.7848368242039
 31
0.0
  0
LINE
  5
A38C
  8
3
 62
     0
 10
1411.929874056681
 20
5357.0746748242036
 30
0.0
 11
727.74953026704861
 21
5357.0746748242036
 31
0.0
  0
LINE
  5
A38D
  8
3
 62
     0
 10
772.74953026704816
 20
3525.7848368242039
 30
0.0
 11
772.74953026704861
 21
5267.0746748242036
 31
0.0
  0
INSERT
  5
A38E
  8
3
 62
     0
  2
_OPEN
 10
772.74953026704816
 20
3435.7848368242039
 30
0.0
 41
90.0
 42
90.0
 43
90.0
 50
270.0
  0
INSERT
  5
A38F
  8
3
 62
     0
  2
_OPEN
 10
772.74953026704861
 20
5357.0746748242036
 30
0.0
 41
90.0
 42
90.0
 43
90.0
 50
90.0
  0
TEXT
  8
3
  40
135
  5
A3E3
  62
0
  72
0
  71
0
 10
390.250
 20
4157.48
 30
0.000000
  1
1921
  0
POINT
  5
A391
  8
DEFPOINTS
 62
     0
 10
1130.236626229866
 20
3435.7848368242039
 30
0.0
  0
POINT
  5
A392
  8
DEFPOINTS
 62
     0
 10
1434.4298740566801
 20
5357.0746748242036
 30
0.0
  0
POINT
  5
A393
  8
DEFPOINTS
 62
     0
 10
772.74953026704861
 20
5357.0746748242036
 30
0.0
  0
ENDBLK
  5
91DF
  8
0
  0
BLOCK
  8
0
  2
*D15
 70
     1
 10
0.0
 20
0.0
 30
0.0
  3
*D15
  1

  0
LINE
  5
A35E
  8
3
 62
     0
 10
8415.1376500000006
 20
6257.0746748242036
 30
0.0
 11
8822.5519079999995
 21
6257.0746748242036
 31
0.0
  0
LINE
  5
A35F
  8
3
 62
     0
 10
8415.1376500000006
 20
4457.0746748242036
 30
0.0
 11
8822.5519079999995
 21
4457.0746748242036
 31
0.0
  0
LINE
  5
A360
  8
3
 62
     0
 10
8777.5519079999995
 20
6167.0746748242036
 30
0.0
 11
8777.5519079999995
 21
4547.0746748242036
 31
0.0
  0
SOLID
  5
A361
  8
3
 62
     0
 10
8762.5519079999976
 20
6167.0746748242036
 30
0.0
 11
8792.5519079999995
 21
6167.0746748242036
 31
0.0
 12
8777.5519079999995
 22
6257.0746748242036
 32
0.0
 13
8777.5519079999995
 23
6257.0746748242036
 33
0.0
  0
SOLID
  5
A362
  8
3
 62
     0
 10
8762.5519079999976
 20
4547.0746748242036
 30
0.0
 11
8792.5519079999995
 21
4547.0746748242036
 31
0.0
 12
8777.5519079999995
 22
4457.0746748242036
 32
0.0
 13
8777.5519079999995
 23
4457.0746748242036
 33
0.0
  0
TEXT
  8
3
  40
135
  5
A3E4
  62
0
  72
0
  71
0
 10
8395.05
 20
5063.83
 30
0.000000
  1
φ1800
  0
POINT
  5
A364
  8
DEFPOINTS
 62
     0
 10
8392.6376500000006
 20
6257.0746748242036
 30
0.0
  0
POINT
  5
A365
  8
DEFPOINTS
 62
     0
 10
8392.6376500000006
 20
4457.0746748242036
 30
0.0
  0
POINT
  5
A366
  8
DEFPOINTS
 62
     0
 10
8777.5519079999995
 20
4457.0746748242036
 30
0.0
  0
ENDBLK
  5
93A4
  8
0
  0
BLOCK
  8
0
  2
*D16
 70
     1
 10
0.0
 20
0.0
 30
0.0
  3
*D16
  1

  0
LINE
  5
A39D
  8
3
 62
     0
 10
1411.929874056681
 20
5357.0746748242036
 30
0.0
 11
727.74953026704861
 21
5357.0746748242036
 31
0.0
  0
LINE
  5
A39E
  8
3
 62
     0
 10
2778.7137860103321
 20
6649.0746748242027
 30
0.0
 11
727.74953026704918
 21
6649.0746748242054
 31
0.0
  0
LINE
  5
A39F
  8
3
 62
     0
 10
772.74953026704873
 20
5447.0746748242054
 30
0.0
 11
772.74953026704895
 21
6559.0746748242036
 31
0.0
  0
INSERT
  5
A3A0
  8
3
 62
     0
  2
_OPEN
 10
772.74953026704861
 20
5357.0746748242036
 30
0.0
 41
90.0
 42
90.0
 43
90.0
 50
270.0
  0
INSERT
  5
A3A1
  8
3
 62
     0
  2
_OPEN
 10
772.74953026704895
 20
6649.0746748242054
 30
0.0
 41
90.0
 42
90.0
 43
90.0
 50
90.0
  0
TEXT
  8
3
  40
135
  5
A3E5
  62
0
  72
0
  71
0
 10
390.250
 20
5764.12
 30
0.000000
  1
1292
  0
POINT
  5
A3A3
  8
DEFPOINTS
 62
     0
 10
1434.4298740566801
 20
5357.0746748242036
 30
0.0
  0
POINT
  5
A3A4
  8
DEFPOINTS
 62
     0
 10
2801.2137860103321
 20
6649.0746748242027
 30
0.0
  0
POINT
  5
A3A5
  8
DEFPOINTS
 62
     0
 10
772.74953026704895
 20
6649.0746748242054
 30
0.0
  0
ENDBLK
  5
99C3
  8
0
  0
BLOCK
  8
0
  2
*D17
 70
     1
 10
0.0
 20
0.0
 30
0.0
  3
*D17
  1

  0
LINE
  5
A3A6
  8
3
 62
     0
 10
4349.6924293287957
 20
5357.0746748242036
 30
0.0
 11
5597.2756510343024
 21
5357.0746748242036
 31
0.0
  0
LINE
  5
A3A7
  8
3
 62
     0
 10
5253.2137860104367
 20
3207.0746748242041
 30
0.0
 11
5597.2756510343024
 21
3207.0746748242041
 31
0.0
  0
LINE
  5
A3A8
  8
3
 62
     0
 10
5552.2756510343024
 20
5267.0746748242036
 30
0.0
 11
5552.2756510343024
 21
3297.0746748242041
 31
0.0
  0
INSERT
  5
A3A9
  8
3
 62
     0
  2
_OPEN
 10
5552.2756510343024
 20
5357.0746748242036
 30
0.0
 41
90.0
 42
90.0
 43
90.0
 50
90.0
  0
INSERT
  5
A3AA
  8
3
 62
     0
  2
_OPEN
 10
5552.2756510343024
 20
3207.0746748242041
 30
0.0
 41
90.0
 42
90.0
 43
90.0
 50
270.0
  0
TEXT
  8
3
  40
135
  5
A3E6
  62
0
  72
0
  71
0
 10
5169.78
 20
4043.12
 30
0.000000
  1
2150
  0
POINT
  5
A3AC
  8
DEFPOINTS
 62
     0
 10
4327.1924293287948
 20
5357.0746748242036
 30
0.0
  0
POINT
  5
A3AD
  8
DEFPOINTS
 62
     0
 10
5230.7137860104358
 20
3207.0746748242041
 30
0.0
  0
POINT
  5
A3AE
  8
DEFPOINTS
 62
     0
 10
5552.2756510343024
 20
3207.0746748242041
 30
0.0
  0
ENDBLK
  5
99D9
  8
0
  0
BLOCK
  8
0
  2
*D18
 70
     1
 10
0.0
 20
0.0
 30
0.0
  3
*D18
  1

  0
LINE
  5
A3AF
  8
3
 62
     0
 10
6937.6376499999988
 20
6671.5746748242063
 30
0.0
 11
6937.6376499999988
 21
7086.4553940273136
 31
0.0
  0
LINE
  5
A3B0
  8
3
 62
     0
 10
8257.6376500000006
 20
6671.5746748242054
 30
0.0
 11
8257.6376500000006
 21
7086.4553940273136
 31
0.0
  0
LINE
  5
A3B1
  8
3
 62
     0
 10
7027.6376499999988
 20
7041.4553940273154
 30
0.0
 11
8167.6376500000006
 21
7041.4553940273154
 31
0.0
  0
INSERT
  5
A3B2
  8
3
 62
     0
  2
_OPEN
 10
6937.6376499999988
 20
7041.4553940273154
 30
0.0
 41
90.0
 42
90.0
 43
90.0
 50
180.0
  0
INSERT
  5
A3B3
  8
3
 62
     0
  2
_OPEN
 10
8257.6376500000006
 20
7041.4553940273154
 30
0.0
 41
90.0
 42
90.0
 43
90.0
  0
TEXT
  8
3
  40
135
  5
A3E7
  62
0
  72
0
  71
0
 10
7327.64
 20
6915.01
 30
0.000000
  1
1320
  0
POINT
  5
A3B5
  8
DEFPOINTS
 62
     0
 10
6937.6376499999988
 20
6649.0746748242054
 30
0.0
  0
POINT
  5
A3B6
  8
DEFPOINTS
 62
     0
 10
8257.6376500000006
 20
6649.0746748242054
 30
0.0
  0
POINT
  5
A3B7
  8
DEFPOINTS
 62
     0
 10
8257.6376500000006
 20
7041.4553940273154
 30
0.0
  0
ENDBLK
  5
99E6
  8
0
  0
BLOCK
  8
0
  2
*D19
 70
     1
 10
0.0
 20
0.0
 30
0.0
  3
*D19
  1

  0
LINE
  5
A3B8
  8
3
 62
     0
 10
6497.6376499999997
 20
5859.5746748242054
 30
0.0
 11
6497.6376499999997
 21
7429.0618732420298
 31
0.0
  0
LINE
  5
A3B9
  8
3
 62
     0
 10
7597.6376499999988
 20
7454.782220363576
 30
0.0
 11
7597.6376499999988
 21
7339.0618732420289
 31
0.0
  0
LINE
  5
A3BA
  8
3
 62
     0
 10
6587.6376499999988
 20
7384.0618732420289
 30
0.0
 11
7507.6376499999978
 21
7384.0618732420289
 31
0.0
  0
INSERT
  5
A3BB
  8
3
 62
     0
  2
_OPEN
 10
6497.6376499999997
 20
7384.0618732420289
 30
0.0
 41
90.0
 42
90.0
 43
90.0
 50
180.0
  0
INSERT
  5
A3BC
  8
3
 62
     0
  2
_OPEN
 10
7597.6376499999988
 20
7384.0618732420289
 30
0.0
 41
90.0
 42
90.0
 43
90.0
  0
TEXT
  8
3
  40
135
  5
A3E8
  62
0
  72
0
  71
0
 10
6777.64
 20
7292.97
 30
0.000000
  1
(1150)
  0
POINT
  5
A3BE
  8
DEFPOINTS
 62
     0
 10
6497.6376499999997
 20
5837.0746748242036
 30
0.0
  0
POINT
  5
A3BF
  8
DEFPOINTS
 62
     0
 10
7597.6376499999988
 20
7477.282220363576
 30
0.0
  0
POINT
  5
A3C0
  8
DEFPOINTS
 62
     0
 10
7597.6376499999988
 20
7384.0618732420289
 30
0.0
  0
ENDBLK
  5
99F3
  8
0
  0
BLOCK
  8
0
  2
*D20
 70
     1
 10
0.0
 20
0.0
 30
0.0
  3
*D20
  1

  0
LINE
  5
A3C1
  8
3
 62
     0
 10
7597.6376499999988
 20
7454.782220363576
 30
0.0
 11
7597.6376499999988
 21
7339.0618732420289
 31
0.0
  0
LINE
  5
A3C2
  8
3
 62
     0
 10
8392.6376500000006
 20
6344.5746748242063
 30
0.0
 11
8392.6376500000006
 21
7429.0618732420298
 31
0.0
  0
LINE
  5
A3C3
  8
3
 62
     0
 10
7687.6376499999978
 20
7384.0618732420289
 30
0.0
 11
8302.6376500000006
 21
7384.0618732420289
 31
0.0
  0
INSERT
  5
A3C4
  8
3
 62
     0
  2
_OPEN
 10
7597.6376499999988
 20
7384.0618732420289
 30
0.0
 41
90.0
 42
90.0
 43
90.0
 50
180.0
  0
INSERT
  5
A3C5
  8
3
 62
     0
  2
_OPEN
 10
8392.6376500000006
 20
7384.0618732420289
 30
0.0
 41
90.0
 42
90.0
 43
90.0
  0
TEXT
  8
3
  40
135
  5
A3E9
  62
0
  72
0
  71
0
 10
7725.14
 20
7257.61
 30
0.000000
  1
795
  0
POINT
  5
A3C7
  8
DEFPOINTS
 62
     0
 10
7597.6376499999988
 20
7477.282220363576
 30
0.0
  0
POINT
  5
A3C8
  8
DEFPOINTS
 62
     0
 10
8392.6376500000006
 20
6322.0746748242063
 30
0.0
  0
POINT
  5
A3C9
  8
DEFPOINTS
 62
     0
 10
8392.6376500000006
 20
7384.0618732420289
 30
0.0
  0
ENDBLK
  5
9A09
  8
0
  0
BLOCK
  8
0
  2
*D21
 70
     1
 10
0.0
 20
0.0
 30
0.0
  3
*D21
  1

  0
LINE
  5
A3CA
  8
3
 62
     0
 10
5253.2137860104367
 20
3207.0746748242041
 30
0.0
 11
5597.2756510343024
 21
3207.0746748242041
 31
0.0
  0
LINE
  5
A3CB
  8
3
 62
     0
 10
5253.2137860104367
 20
3037.0746748242041
 30
0.0
 11
5597.2756510343024
 21
3037.0746748242041
 31
0.0
  0
LINE
  5
A3CC
  8
3
 62
     0
 10
5552.2756510343024
 20
3297.0746748242041
 30
0.0
 11
5552.2756510343024
 21
3387.074674824205
 31
0.0
  0
LINE
  5
A3CD
  8
3
 62
     0
 10
5552.2756510343024
 20
2947.0746748242041
 30
0.0
 11
5552.2756510343024
 21
2857.0746748242041
 31
0.0
  0
LINE
  5
A3CE
  8
3
 62
     0
 10
5552.2756510343024
 20
3122.0746748242041
 30
0.0
 11
5867.2756510343033
 21
3216.5746748242041
 31
0.0
  0
LINE
  5
A3CF
  8
3
 62
     0
 10
5867.2756510343033
 20
3216.5746748242041
 30
0.0
 11
5867.2756510343033
 21
3628.0032462527761
 31
0.0
  0
TEXT
  8
3
  40
135
  5
A3EA
  62
0
  72
0
  71
0
 10
5484.78
 20
3183.34
 30
0.000000
  1
170
  0
LINE
  5
A3D1
  8
3
 62
     0
 10
5552.2756510343024
 20
3207.0746748242041
 30
0.0
 11
5552.2756510343024
 21
3037.0746748242041
 31
0.0
  0
INSERT
  5
A3D2
  8
3
 62
     0
  2
_OPEN
 10
5552.2756510343024
 20
3207.0746748242041
 30
0.0
 41
90.0
 42
90.0
 43
90.0
 50
270.0
  0
INSERT
  5
A3D3
  8
3
 62
     0
  2
_OPEN
 10
5552.2756510343024
 20
3037.0746748242041
 30
0.0
 41
90.0
 42
90.0
 43
90.0
 50
90.0
  0
POINT
  5
A3D4
  8
DEFPOINTS
 62
     0
 10
5230.7137860104358
 20
3207.0746748242041
 30
0.0
  0
POINT
  5
A3D5
  8
DEFPOINTS
 62
     0
 10
5230.7137860104358
 20
3037.0746748242041
 30
0.0
  0
POINT
  5
A3D6
  8
DEFPOINTS
 62
     0
 10
5552.2756510343024
 20
3037.0746748242041
 30
0.0
  0
ENDBLK
  5
9F27
  8
0
  0
ENDSEC
  0
SECTION
  2
ENTITIES
  0
INSERT
  5
8E52
  8
0
  2
YA_N
 10
12518.736613999999
 20
-6524.6833909999987
 30
0.0
  0
INSERT
  5
8E53
  8
0
  2
YA_N
 10
18386.038918999999
 20
2975.8020809999989
 30
0.0
  0
INSERT
  5
8E54
  8
0
  2
YA_N
 10
12518.736613999999
 20
-6524.6833909999987
 30
0.0
  0
INSERT
  5
8E55
  8
0
  2
YA_N
 10
18386.038918999999
 20
2975.8020809999989
 30
0.0
  0
LINE
  5
8E56
  8
1
 10
6486.6376499999997
 20
3357.0746748242041
 30
0.0
 11
8336.6376500000006
 21
3357.0746748242041
 31
0.0
  0
LINE
  5
8E57
  8
1
 10
6486.6376499999997
 20
3207.0746748242041
 30
0.0
 11
8336.6376500000006
 21
3207.0746748242041
 31
0.0
  0
LINE
  5
8E58
  8
1
 10
6561.6376499999997
 20
3357.0746748242041
 30
0.0
 11
6486.6376499999997
 21
3357.0746748242041
 31
0.0
  0
LINE
  5
8E59
  8
1
 10
6561.6376499999997
 20
3207.0746748242041
 30
0.0
 11
6486.6376499999997
 21
3207.0746748242041
 31
0.0
  0
LINE
  5
8E5A
  8
2
 10
7597.6376499999988
 20
2959.8688318242062
 30
0.0
 11
7597.6376499999988
 21
7019.261737675366
 31
0.0
  0
LINE
  5
8E5C
  8
1
 10
8392.6376500000006
 20
4392.0746748242027
 30
0.0
 11
8392.6376500000006
 21
6322.0746748242063
 31
0.0
  0
LINE
  5
8E5D
  8
1
 10
8257.6376500000006
 20
6649.0746748242054
 30
0.0
 11
8257.6376500000006
 21
3433.9806690049568
 31
0.0
  0
LINE
  5
8E5E
  8
1
 10
8261.6376500000006
 20
3207.0746748242041
 30
0.0
 11
8336.6376500000006
 21
3207.0746748242041
 31
0.0
  0
LINE
  5
8E5F
  8
1
 10
8261.6376500000006
 20
3357.0746748242041
 30
0.0
 11
8336.6376500000006
 21
3357.0746748242041
 31
0.0
  0
LINE
  5
8E60
  8
1
 10
8257.6376500000006
 20
4457.0746748242036
 30
0.0
 11
8392.6376500000006
 21
4457.0746748242036
 31
0.0
  0
LINE
  5
8E61
  8
1
 10
8257.6376500000006
 20
6257.0746748242036
 30
0.0
 11
8392.6376500000006
 21
6257.0746748242036
 31
0.0
  0
LINE
  5
8E62
  8
1
 10
4244.7137860104376
 20
9363.5698250355745
 30
0.0
 11
5230.7137860104367
 21
9363.5698250355745
 31
0.0
  0
LINE
  5
8E63
  8
1
 10
1630.713786010439
 20
8163.5698250355763
 30
0.0
 11
5230.7137860104367
 21
8163.5698250355763
 31
0.0
  0
LINE
  5
8E64
  8
1
 10
1630.713786010439
 20
10013.569825035571
 30
0.0
 11
1790.713786010441
 21
10013.569825035571
 31
0.0
  0
LINE
  5
8E65
  8
2
 10
2690.713786010439
 20
8109.5040792468944
 30
0.0
 11
2690.713786010439
 21
10184.023165513179
 31
0.0
  0
LINE
  5
8E66
  8
1
 10
5230.7137860104367
 20
8163.5698250355763
 30
0.0
 11
5230.7137860104367
 21
8238.5698250355745
 31
0.0
  0
INSERT
  5
8E67
  8
0
  2
YA_N
 10
12518.736613999999
 20
-6524.6833909999987
 30
0.0
  0
LINE
  5
8E68
  8
2
 10
6397.6376499999997
 20
5357.0746748242036
 30
0.0
 11
8498.3907209999998
 21
5357.0746748242036
 31
0.0
  0
LINE
  5
8E69
  8
1
 10
6497.6376499999978
 20
3422.0746748242041
 30
0.0
 11
6497.6376499999997
 21
5837.0746748242036
 31
0.0
  0
LINE
  5
8E6A
  8
1
 10
6697.6376499999997
 20
5837.0746748242036
 30
0.0
 11
6697.6376499999969
 21
3422.0746748242041
 31
0.0
  0
LINE
  5
8E6B
  8
1
 10
6697.6376499999978
 20
3422.0746748242041
 30
0.0
 11
6497.6376499999978
 21
3422.0746748242041
 31
0.0
  0
LINE
  5
8E6C
  8
1
 10
6657.6376499999988
 20
3557.0746748242041
 30
0.0
 11
6657.6376499999988
 21
3857.0746748242041
 31
0.0
  0
LINE
  5
8E6D
  8
1
 10
6537.6376499999988
 20
3557.0746748242041
 30
0.0
 11
6537.6376499999988
 21
3857.0746748242041
 31
0.0
  0
LINE
  5
8E6E
  8
1
 10
6537.6376499999988
 20
5757.0746748242036
 30
0.0
 11
6657.6376499999988
 21
5757.0746748242036
 31
0.0
  0
LINE
  5
8E6F
  8
1
 10
6657.6376499999988
 20
4957.0746748242036
 30
0.0
 11
6537.6376499999988
 21
4957.0746748242036
 31
0.0
  0
LINE
  5
8E70
  8
1
 10
6537.6376499999988
 20
3857.0746748242041
 30
0.0
 11
6537.6376499999988
 21
5757.0746748242036
 31
0.0
  0
LINE
  5
8E71
  8
1
 10
6657.6376499999988
 20
3857.0746748242041
 30
0.0
 11
6657.6376499999988
 21
5757.0746748242036
 31
0.0
  0
LINE
  5
8E72
  8
2
 10
6597.6376499999997
 20
5802.9226748242054
 30
0.0
 11
6597.6376499999988
 21
3535.0378191813502
 31
0.0
  0
LINE
  5
8E73
  8
1
 10
6697.6376499999997
 20
5837.0746748242036
 30
0.0
 11
6497.6376499999997
 21
5837.0746748242036
 31
0.0
  0
LINE
  5
8E74
  8
2
 10
6463.3366499999984
 20
3707.0746748242041
 30
0.0
 11
7674.6930044925402
 21
3707.074674824205
 31
0.0
  0
LINE
  5
8E75
  8
1
 10
6537.6376499999988
 20
3857.0746748242041
 30
0.0
 11
6657.6376499999988
 21
3857.0746748242041
 31
0.0
  0
LINE
  5
8E76
  8
1
 10
6537.6376499999988
 20
3557.0746748242041
 30
0.0
 11
6657.6376499999988
 21
3557.0746748242041
 31
0.0
  0
INSERT
  5
8E77
  8
0
  2
YA_N
 10
18386.038918999999
 20
2975.8020809999989
 30
0.0
  0
LINE
  5
8E78
  8
1
 10
6486.6376499999997
 20
3357.0746748242041
 30
0.0
 11
6486.6376499999997
 21
3207.0746748242041
 31
0.0
  0
LINE
  5
8E79
  8
1
 10
8336.6376500000006
 20
3357.0746748242041
 30
0.0
 11
8336.6376500000006
 21
3207.0746748242041
 31
0.0
  0
LINE
  5
8E80
  8
2
 10
1160.5698490104351
 20
9274.5698250355745
 30
0.0
 11
4119.1191385360362
 21
9274.5698250355745
 31
0.0
  0
LINE
  5
8E81
  8
1
 10
1525.7137860104369
 20
9934.5698250355763
 30
0.0
 11
4244.7137860104376
 21
9934.5698250355781
 31
0.0
  0
LINE
  5
8E82
  8
1
 10
1525.7137860104369
 20
8614.5698250355763
 30
0.0
 11
4244.7137860104376
 21
8614.5698250355763
 31
0.0
  0
LINE
  5
8E83
  8
1
 10
1630.7137860104381
 20
8163.5698250355763
 30
0.0
 11
1630.7137860104381
 21
8614.5698250355763
 31
0.0
  0
LINE
  5
8E85
  8
1
 10
4910.7137860104376
 20
8214.5698250355745
 30
0.0
 11
4910.7137860104376
 21
8334.5698250355745
 31
0.0
  0
LINE
  5
8E86
  8
1
 10
4610.7137860104376
 20
8214.5698250355745
 30
0.0
 11
4610.7137860104376
 21
8334.5698250355745
 31
0.0
  0
LINE
  5
8E87
  8
1
 10
4760.7137860104376
 20
8140.2688250355741
 30
0.0
 11
4760.7137860104376
 21
8488.0698250355745
 31
0.0
  0
LINE
  5
8E88
  8
1
 10
2210.7137860104381
 20
8374.5698250355745
 30
0.0
 11
2210.7137860104381
 21
8174.5698250355736
 31
0.0
  0
LINE
  5
8E89
  8
1
 10
3090.7137860104381
 20
8334.5698250355745
 30
0.0
 11
3090.7137860104381
 21
8214.5698250355745
 31
0.0
  0
LINE
  5
8E8A
  8
1
 10
2290.713786010439
 20
8214.5698250355745
 30
0.0
 11
2290.713786010439
 21
8334.5698250355745
 31
0.0
  0
LINE
  5
8E8B
  8
1
 10
5045.7137860104376
 20
8374.5698250355745
 30
0.0
 11
5045.7137860104376
 21
8174.5698250355736
 31
0.0
  0
LINE
  5
8E8C
  8
1
 10
4910.7137860104376
 20
8214.5698250355745
 30
0.0
 11
4610.7137860104376
 21
8214.5698250355745
 31
0.0
  0
LINE
  5
8E8D
  8
1
 10
5045.7137860104376
 20
8174.5698250355736
 30
0.0
 11
2210.7137860104381
 21
8174.5698250355736
 31
0.0
  0
LINE
  5
8E8E
  8
2
 10
2244.8657860104381
 20
8274.5698250355745
 30
0.0
 11
4967.164830010438
 21
8274.5698250355745
 31
0.0
  0
LINE
  5
8E8F
  8
1
 10
3090.7137860104381
 20
8214.5698250355745
 30
0.0
 11
2290.713786010439
 21
8214.5698250355745
 31
0.0
  0
LINE
  5
8E90
  8
1
 10
4910.7137860104376
 20
8334.5698250355745
 30
0.0
 11
4610.7137860104376
 21
8334.5698250355745
 31
0.0
  0
LINE
  5
8E91
  8
1
 10
2210.7137860104381
 20
8374.5698250355745
 30
0.0
 11
5045.7137860104376
 21
8374.5698250355745
 31
0.0
  0
LINE
  5
8E92
  8
1
 10
3090.7137860104381
 20
8334.5698250355745
 30
0.0
 11
2290.713786010439
 21
8334.5698250355745
 31
0.0
  0
LINE
  5
8E93
  8
1
 10
6657.6376499999988
 20
5402.0746748242054
 30
0.0
 11
6937.6376499999988
 21
5402.0746748242054
 31
0.0
  0
LINE
  5
8E94
  8
1
 10
6657.6376499999988
 20
5312.0746748242054
 30
0.0
 11
6937.6376499999988
 21
5312.0746748242054
 31
0.0
  0
LINE
  5
8E95
  8
1
 10
5030.7137860104367
 20
9313.5698250355763
 30
0.0
 11
5030.7137860104367
 21
8461.0698250355763
 31
0.0
  0
LINE
  5
8E96
  8
1
 10
4473.2137860104394
 20
8461.0698250355763
 30
0.0
 11
4473.2137860104394
 21
9313.5698250355763
 31
0.0
  0
LINE
  5
8E97
  8
2
 10
4760.7137860104376
 20
8255.0732440355769
 30
0.0
 11
4760.7137860104376
 21
9332.861141035577
 31
0.0
  0
LINE
  5
8E98
  8
1
 10
5030.7137860104367
 20
9313.5698250355763
 30
0.0
 11
4473.2137860104394
 21
9313.5698250355763
 31
0.0
  0
LINE
  5
8E99
  8
1
 10
4473.2137860104394
 20
8461.0698250355763
 30
0.0
 11
5030.7137860104367
 21
8461.0698250355763
 31
0.0
  0
LINE
  5
8E9A
  8
1
 10
4846.2137860104376
 20
8454.5698250355745
 30
0.0
 11
4675.2137860104376
 21
8454.5698250355745
 31
0.0
  0
LINE
  5
8E9B
  8
1
 10
4803.2137860104376
 20
8274.5698250355745
 30
0.0
 11
4713.2137860104376
 21
8274.5698250355745
 31
0.0
  0
LINE
  5
8E9C
  8
1
 10
4810.7137860104376
 20
8444.5698250355745
 30
0.0
 11
4710.7137860104394
 21
8444.5698250355745
 31
0.0
  0
LINE
  5
8E9D
  8
1
 10
4803.2137860104376
 20
8274.5698250355745
 30
0.0
 11
4803.2137860104376
 21
8444.5698250355745
 31
0.0
  0
LINE
  5
8E9E
  8
1
 10
4810.7137860104376
 20
8444.5698250355745
 30
0.0
 11
4810.7137860104376
 21
8454.5698250355745
 31
0.0
  0
ARC
  5
8E9F
  8
1
 10
4846.2137860104376
 20
8456.5698250355745
 30
0.0
 40
2.0
 50
270.0
 51
0.000000000000007
  0
LINE
  5
8EA0
  8
1
 10
4848.2137860104394
 20
8461.4182000355759
 30
0.0
 11
4848.2137860104394
 21
8456.5698250355745
 31
0.0
  0
LINE
  5
8EA1
  8
1
 10
4713.2137860104376
 20
8274.5698250355745
 30
0.0
 11
4713.2137860104376
 21
8414.5698250355763
 31
0.0
  0
LINE
  5
8EA2
  8
1
 10
4718.2137860104376
 20
8274.5698250355745
 30
0.0
 11
4718.2137860104376
 21
8439.0698250355745
 31
0.0
  0
LINE
  5
8EA3
  8
1
 10
4710.7137860104394
 20
8444.5698250355745
 30
0.0
 11
4710.7137860104394
 21
8454.5698250355745
 31
0.0
  0
ARC
  5
8EA4
  8
1
 10
4675.2137860104376
 20
8456.5698250355745
 30
0.0
 40
2.0
 50
180.0
 51
270.0
  0
LINE
  5
8EA5
  8
1
 10
4673.2137860104376
 20
8461.0698250355763
 30
0.0
 11
4673.2137860104376
 21
8456.5698250355745
 31
0.0
  0
LINE
  5
8EA6
  8
1
 10
4718.2137860104376
 20
8414.5698250355763
 30
0.0
 11
4713.2137860104376
 21
8414.5698250355763
 31
0.0
  0
LINE
  5
8EA7
  8
1
 10
7636.6376499999988
 20
3985.8246748242041
 30
0.0
 11
6784.1376499999988
 21
3985.8246748242041
 31
0.0
  0
LINE
  5
8EA8
  8
1
 10
6784.1376499999988
 20
3428.3246748242041
 30
0.0
 11
7636.6376499999988
 21
3428.3246748242041
 31
0.0
  0
LINE
  5
8EA9
  8
1
 10
6784.1376499999988
 20
3428.3246748242041
 30
0.0
 11
6784.1376499999988
 21
3985.8246748242041
 31
0.0
  0
LINE
  5
8EAA
  8
1
 10
6777.6376499999988
 20
3792.574674824205
 30
0.0
 11
6777.6376499999988
 21
3621.5746748242041
 31
0.0
  0
LINE
  5
8EAB
  8
1
 10
6784.4860249999983
 20
3794.5746748242041
 30
0.0
 11
6779.6376499999988
 21
3794.5746748242041
 31
0.0
  0
ARC
  5
8EAC
  8
1
 10
6779.6376499999988
 20
3792.574674824205
 30
0.0
 40
2.0
 50
90.0
 51
180.0
  0
LINE
  5
8EAD
  8
1
 10
6597.6376499999988
 20
3664.5746748242041
 30
0.0
 11
6762.1376499999978
 21
3664.5746748242041
 31
0.0
  0
LINE
  5
8EAF
  8
1
 10
6597.6376499999988
 20
3749.5746748242041
 30
0.0
 11
6767.6376499999988
 21
3749.5746748242041
 31
0.0
  0
LINE
  5
8EB1
  8
1
 10
6784.1376499999988
 20
3619.5746748242041
 30
0.0
 11
6779.6376499999988
 21
3619.5746748242041
 31
0.0
  0
ARC
  5
8EB2
  8
1
 10
6779.6376499999988
 20
3621.5746748242041
 30
0.0
 40
2.0
 50
180.0
 51
270.0
  0
LINE
  5
8EB3
  8
1
 10
6767.6376499999988
 20
3657.0746748242041
 30
0.0
 11
6777.6376499999988
 21
3657.0746748242041
 31
0.0
  0
LINE
  5
8EB4
  8
1
 10
6767.6376499999988
 20
3757.0746748242041
 30
0.0
 11
6777.6376499999988
 21
3757.0746748242041
 31
0.0
  0
LINE
  5
8EB5
  8
1
 10
6767.6376499999988
 20
3757.0746748242041
 30
0.0
 11
6767.6376499999988
 21
3657.0746748242041
 31
0.0
  0
DIMENSION
  5
8EB7
  8
3
  2
*D3
 10
3750.7137860104381
 20
10438.162184826881
 30
0.0
 11
2697.7850720104379
 21
10438.162184826881
 31
0.0
 70
   128
 13
1630.713786010439
 23
10013.569825035571
 33
0.0
 14
3750.7137860104381
 24
10013.569825035571
 34
0.0
 50
180.0
1001
ACAD
1000
DSTYLE
1002
{
1070
   287
1070
     3
1070
   287
1070
     3
1070
   287
1070
     3
1070
   287
1070
     3
1070
   287
1070
     3
1070
   287
1070
     3
1070
   287
1070
     3
1070
   287
1070
     3
1070
    40
1040
45.0
1070
   143
1040
0.039
1070
   271
1070
     4
1070
   272
1070
     4
1070
   279
1070
     0
1070
   284
1070
     0
1070
   285
1070
     0
1070
   286
1070
     0
1070
   341
1005
8D0F
1070
     6
1000
OPEN
1070
     7
1000
OPEN
1002
}
  0
DIMENSION
  5
8EB8
  8
3
  2
*D4
 10
5230.7137860104367
 20
10438.162184826881
 30
0.0
 11
4490.7137860104367
 21
10550.662184826881
 31
0.0
 70
     0
 13
3750.7137860104381
 23
10013.569825035571
 33
0.0
 14
5230.7137860104367
 24
9363.5698250355745
 34
0.0
 50
180.0
1001
ACAD
1000
DSTYLE
1002
{
1070
   287
1070
     3
1070
   287
1070
     3
1070
   287
1070
     3
1070
   287
1070
     3
1070
   287
1070
     3
1070
   287
1070
     3
1070
   287
1070
     3
1070
   287
1070
     3
1070
    40
1040
45.0
1070
   143
1040
0.039
1070
   271
1070
     4
1070
   272
1070
     4
1070
   279
1070
     0
1070
   284
1070
     0
1070
   285
1070
     0
1070
   286
1070
     0
1070
   341
1005
8D0F
1070
     6
1000
OPEN
1070
     7
1000
OPEN
1002
}
  0
DIMENSION
  5
8EB9
  8
3
  2
*D6
 10
5472.845834010438
 20
8163.5698250355763
 30
0.0
 11
5472.845834010438
 21
8757.2817040355767
 31
0.0
 70
   128
 13
5230.7137860104367
 23
9363.5698250355745
 33
0.0
 14
5230.7137860104367
 24
8163.5698250355763
 34
0.0
 50
90.0
1001
ACAD
1000
DSTYLE
1002
{
1070
   287
1070
     3
1070
   287
1070
     3
1070
   287
1070
     3
1070
   287
1070
     3
1070
   287
1070
     3
1070
   287
1070
     3
1070
   287
1070
     3
1070
   287
1070
     3
1070
    40
1040
45.0
1070
   143
1040
0.039
1070
   271
1070
     4
1070
   272
1070
     4
1070
   279
1070
     0
1070
   284
1070
     0
1070
   285
1070
     0
1070
   286
1070
     0
1070
   341
1005
8D0F
1070
     6
1000
OPEN
1070
     7
1000
OPEN
1002
}
  0
DIMENSION
  5
8EBA
  8
3
  2
*D5
 10
1630.713786010439
 20
7682.284521137195
 30
0.0
 11
3190.6951300104379
 21
7682.284521137195
 31
0.0
 70
   128
 13
5230.7137860104367
 23
8163.5698250355763
 33
0.0
 14
1630.713786010439
 24
8163.5698250355763
 34
0.0
 50
180.0
1001
ACAD
1000
DSTYLE
1002
{
1070
   287
1070
     3
1070
   287
1070
     3
1070
   287
1070
     3
1070
   287
1070
     3
1070
   287
1070
     3
1070
   287
1070
     3
1070
   287
1070
     3
1070
   287
1070
     3
1070
    40
1040
45.0
1070
   143
1040
0.039
1070
   271
1070
     4
1070
   272
1070
     4
1070
   279
1070
     0
1070
   284
1070
     0
1070
   285
1070
     0
1070
   286
1070
     0
1070
   341
1005
8D0F
1070
     6
1000
OPEN
1070
     7
1000
OPEN
1002
}
  0
DIMENSION
  5
8EBB
  8
3
  2
*D10
 10
7597.6376499999988
 20
2440.1848830728022
 30
0.0
 11
7064.637444
 21
2440.1848830728022
 31
0.0
 70
   128
 13
6486.6376499999997
 23
3037.0746748242041
 33
0.0
 14
7597.6376499999988
 24
2959.8688318242062
 34
0.0
1001
ACAD
1000
DSTYLE
1002
{
1070
   287
1070
     3
1070
   287
1070
     3
1070
   287
1070
     3
1070
   287
1070
     3
1070
   287
1070
     3
1070
   287
1070
     3
1070
   287
1070
     3
1070
   287
1070
     3
1070
    40
1040
45.0
1070
   143
1040
0.039
1070
   271
1070
     4
1070
   272
1070
     4
1070
   279
1070
     0
1070
   284
1070
     0
1070
   285
1070
     0
1070
   286
1070
     0
1070
   341
1005
8D0F
1070
     6
1000
OPEN
1070
     7
1000
OPEN
1002
}
  0
DIMENSION
  5
8EBC
  8
3
  2
*D11
 10
8336.6376500000006
 20
2440.1848830728022
 30
0.0
 11
7967.1376499999988
 21
2552.6848830728031
 31
0.0
 70
     0
 13
7597.6376499999988
 23
2959.8688318242062
 33
0.0
 14
8336.6376500000006
 24
3037.0746748242041
 34
0.0
1001
ACAD
1000
DSTYLE
1002
{
1070
   287
1070
     3
1070
   287
1070
     3
1070
   287
1070
     3
1070
   287
1070
     3
1070
   287
1070
     3
1070
   287
1070
     3
1070
   287
1070
     3
1070
   287
1070
     3
1070
    40
1040
45.0
1070
   143
1040
0.039
1070
   271
1070
     4
1070
   272
1070
     4
1070
   279
1070
     0
1070
   284
1070
     0
1070
   285
1070
     0
1070
   286
1070
     0
1070
   341
1005
8D0F
1070
     6
1000
OPEN
1070
     7
1000
OPEN
1002
}
  0
DIMENSION
  5
8EBD
  8
3
  2
*D12
 10
8336.6376500000006
 20
2074.619339230168
 30
0.0
 11
7486.8346590000001
 21
2074.619339230168
 31
0.0
 70
   128
 13
6486.6376499999997
 23
3037.0746748242041
 33
0.0
 14
8336.6376500000006
 24
3037.0746748242041
 34
0.0
1001
ACAD
1000
DSTYLE
1002
{
1070
   287
1070
     3
1070
   287
1070
     3
1070
   287
1070
     3
1070
   287
1070
     3
1070
   287
1070
     3
1070
   287
1070
     3
1070
   287
1070
     3
1070
   287
1070
     3
1070
    40
1040
45.0
1070
   143
1040
0.039
1070
   271
1070
     4
1070
   272
1070
     4
1070
   279
1070
     0
1070
   284
1070
     0
1070
   285
1070
     0
1070
   286
1070
     0
1070
   341
1005
8D0F
1070
     6
1000
OPEN
1070
     7
1000
OPEN
1002
}
  0
DIMENSION
  5
8EBE
  8
3
  2
*D15
 10
8777.5519079999995
 20
4457.0746748242036
 30
0.0
 11
8777.5519079999976
 21
5302.7844258242048
 31
0.0
 70
   128
 13
8392.6376500000006
 23
6257.0746748242036
 33
0.0
 14
8392.6376500000006
 24
4457.0746748242036
 34
0.0
 50
90.0
1001
ACAD
1000
DSTYLE
1002
{
1070
   287
1070
     3
1070
   287
1070
     3
1070
   287
1070
     3
1070
   287
1070
     3
1070
   287
1070
     3
1070
   287
1070
     3
1070
   287
1070
     3
1070
   287
1070
     3
1070
   287
1070
     3
1070
     3
1000
φ<>
1070
    40
1040
45.0
1070
   143
1040
0.039
1070
   172
1070
     1
1070
   271
1070
     0
1070
   279
1070
     0
1070
   288
1070
     1
1002
}
  0
LINE
  5
8EC1
  8
4
 10
8325.0
 20
1775.845221491152
 30
0.0
 11
8325.0
 21
875.84522149115207
 31
0.0
  0
LINE
  5
8EC2
  8
4
 10
5175.0
 20
1775.845221491152
 30
0.0
 11
5175.0
 21
875.84522149115207
 31
0.0
  0
LINE
  5
8EC3
  8
4
 10
2925.0
 20
1775.845221491152
 30
0.0
 11
2925.0
 21
875.84522149115207
 31
0.0
  0
LINE
  5
8EC6
  8
4
 10
2925.0
 20
875.84522149115207
 30
0.0
 11
8325.0
 21
875.84522149115207
 31
0.0
  0
LINE
  5
8EC7
  8
4
 10
2925.0
 20
1325.845221491152
 30
0.0
 11
8325.0
 21
1325.845221491152
 31
0.0
  0
TEXT
  5
8EC8
  8
4
 10
3098.259364
 20
1467.788837491152
 30
0.0
 40
225.0
  1
機器名称
  0
TEXT
  5
8EC9
  8
4
 10
3088.1614769999978
 20
973.24842649115214
 30
0.0
 40
225.0
  1
機器型番
  0
TEXT
  5
8ECA
  8
4
 10
5197.1468830000013
 20
1429.233946491152
 30
0.0
 40
202.49999999999989
  1
ミツヤリミットロードファン
  0
TEXT
  5
8ECB
  8
4
 10
5339.9452300000012
 20
953.06335049115205
 30
0.0
 40
225.0
  1
LL＃11-4
  0
TEXT
  5
8ECD
  8
4
 10
3693.629000655952
 20
11055.9079831539
 30
0.0
 40
243.0
  1
床置防振ベット
  0
TEXT
  5
8ECE
  8
4
 10
1258.0479374325371
 20
11732.9425901539
 30
0.0
 40
324.0
  1
ベルト駆動式片吸込両持リミットロードファン
 41
0.8670367995036059
 72
     5
 11
8224.8620288039092
 21
11732.9425901539
 31
0.0
  0
LINE
  5
8ECF
  8
4
 10
1125.0
 20
11442.8175911539
 30
0.0
 11
8325.0
 21
11442.8175911539
 31
0.0
  0
LINE
  5
8ED0
  8
4
 10
1125.0
 20
12342.8175911539
 30
0.0
 11
8325.0
 21
12342.8175911539
 31
0.0
  0
LINE
  5
8ED1
  8
4
 10
2925.0
 20
1775.845221491152
 30
0.0
 11
8325.0
 21
1775.845221491152
 31
0.0
  0
LINE
  5
8ED2
  8
4
 10
1125.0
 20
12342.8175911539
 30
0.0
 11
1125.0
 21
11442.8175911539
 31
0.0
  0
TEXT
  5
8ED3
  8
4
 10
1658.1327569999989
 20
11050.915846153899
 30
0.0
 40
243.0
  1
右回転左横向
  0
TEXT
  5
8ED4
  8
4
 10
6610.3630169999997
 20
12507.7530641539
 30
0.0
 40
252.0
  1
No.
  0
TEXT
  5
8ED5
  8
4
 10
5900.8322820000003
 20
11055.9079831539
 30
0.0
 40
243.0
  1
縮尺：1/45
  0
LINE
  5
8ED6
  8
4
 10
8325.0
 20
12342.8175911539
 30
0.0
 11
8325.0
 21
11442.8175911539
 31
0.0
  0
LINE
  5
8ED7
  8
4
 10
9450.0
 20
13275.0
 30
0.0
 11
9450.0
 21
13275.0
 31
0.0
  0
LINE
  5
8ED8
  8
4
 10
6482.7784009999996
 20
12396.164321153899
 30
0.0
 11
6482.7784009999996
 21
12870.41337415389
 31
0.0
  0
LINE
  5
8ED9
  8
4
 10
6482.7784009999996
 20
12870.41337415389
 30
0.0
 11
8325.0
 21
12870.41337415389
 31
0.0
  0
LINE
  5
8EDA
  8
4
 10
8325.0
 20
12870.41337415389
 30
0.0
 11
8325.0
 21
12396.164321153899
 31
0.0
  0
LINE
  5
8EDB
  8
4
 10
8325.0
 20
12396.164321153899
 30
0.0
 11
6482.7784009999996
 21
12396.164321153899
 31
0.0
  0
LINE
  5
8EDC
  8
4
 10
0.0
 20
0.0
 30
0.0
 11
0.0
 21
13275.0
 31
0.0
  0
LINE
  5
8EDD
  8
4
 10
0.0
 20
13275.0
 30
0.0
 11
9450.0
 21
13275.0
 31
0.0
  0
LINE
  5
8EDE
  8
4
 10
9450.0
 20
13275.0
 30
0.0
 11
9450.0
 21
0.0
 31
0.0
  0
LINE
  5
8EDF
  8
4
 10
9450.0
 20
0.0
 30
0.0
 11
0.0
 21
0.0
 31
0.0
  0
LINE
  5
8EE0
  8
1
 10
6937.6376499999988
 20
6649.0746748242054
 30
0.0
 11
6937.6376499999978
 21
3985.8246748242041
 31
0.0
  0
DIMENSION
  5
8EE1
  8
3
  2
*D9
 10
1630.7137860104381
 20
2131.3125723612611
 30
0.0
 11
3125.500148010437
 21
2131.3125723612611
 31
0.0
 70
   128
 13
5230.7137860104358
 23
3037.0746748242041
 33
0.0
 14
1630.7137860104381
 24
3037.0746748242041
 34
0.0
 50
180.0
1001
ACAD
1000
DSTYLE
1002
{
1070
   287
1070
     3
1070
   287
1070
     3
1070
   287
1070
     3
1070
   287
1070
     3
1070
   287
1070
     3
1070
   287
1070
     3
1070
   287
1070
     3
1070
   287
1070
     3
1070
    40
1040
45.0
1070
   143
1040
0.039
1070
   271
1070
     4
1070
   272
1070
     4
1070
   279
1070
     0
1070
   284
1070
     0
1070
   285
1070
     0
1070
   286
1070
     0
1070
   341
1005
8D0F
1070
     6
1000
OPEN
1070
     7
1000
OPEN
1002
}
  0
DIMENSION
  5
8EE2
  8
3
  2
*D7
 10
2690.7137860104372
 20
2502.4110823259148
 30
0.0
 11
3728.6390610104372
 21
2502.4110823259148
 31
0.0
 70
   128
 13
5230.7137860104358
 23
3037.0746748242041
 33
0.0
 14
2690.7137860104372
 24
2906.925423612121
 34
0.0
 50
180.0
1001
ACAD
1000
DSTYLE
1002
{
1070
   287
1070
     3
1070
   287
1070
     3
1070
   287
1070
     3
1070
   287
1070
     3
1070
   287
1070
     3
1070
   287
1070
     3
1070
   287
1070
     3
1070
   287
1070
     3
1070
    40
1040
45.0
1070
   143
1040
0.039
1070
   271
1070
     4
1070
   272
1070
     4
1070
   279
1070
     0
1070
   284
1070
     0
1070
   285
1070
     0
1070
   286
1070
     0
1070
   341
1005
8D0F
1070
     6
1000
OPEN
1070
     7
1000
OPEN
1002
}
  0
LINE
  5
8EE7
  8
1
 10
1630.7137860104369
 20
3357.0746748242041
 30
0.0
 11
5230.7137860104358
 21
3357.0746748242041
 31
0.0
  0
LINE
  5
8EE8
  8
1
 10
1630.7137860104369
 20
3207.0746748242041
 30
0.0
 11
5230.7137860104358
 21
3207.0746748242041
 31
0.0
  0
LINE
  5
8EEB
  8
2
 10
4327.1924293287948
 20
5357.0746748242036
 30
0.0
 11
1434.4298740566801
 21
5357.0746748242036
 31
0.0
  0
ARC
  5
8EEC
  8
1
 10
2559.7137860104372
 20
5226.0746748242054
 30
0.0
 40
1685.0
 50
275.38794100000001
 51
0.0
  0
LINE
  5
8EED
  8
1
 10
1590.7137860104369
 20
5286.0746748242063
 30
0.0
 11
1590.7137860104369
 21
3441.894973824204
 31
0.0
  0
LINE
  5
8EEE
  8
1
 10
1525.7137860104369
 20
5350.0746748242036
 30
0.0
 11
1525.7137860104369
 21
3374.0746748242059
 31
0.0
  0
LINE
  5
8EEF
  8
1
 10
1525.929753010435
 20
3435.7848368242039
 30
0.0
 11
2718.149187010436
 21
3546.2295888242061
 31
0.0
  0
LINE
  5
8EF0
  8
1
 10
4916.192918010438
 20
3438.8839978242049
 30
0.0
 11
4605.2346540104372
 21
3438.8839978242049
 31
0.0
  0
LINE
  5
8EF1
  8
2
 10
5098.1727500104371
 20
3707.0746748242041
 30
0.0
 11
4417.4365640104361
 21
3707.0746748242041
 31
0.0
  0
LINE
  5
8EF2
  8
1
 10
5110.7137860104358
 20
3427.0746748242041
 30
0.0
 11
4410.7137860104358
 21
3427.0746748242041
 31
0.0
  0
ARC
  5
8EF3
  8
1
 10
4760.7137860104367
 20
3707.0746748242041
 30
0.0
 40
310.0
 50
300.10230799999988
 51
239.89769200000009
  0
CIRCLE
  5
8EF4
  8
1
 10
4760.7137860104367
 20
3707.0746748242041
 30
0.0
 40
150.0
  0
ARC
  5
8EF5
  8
1
 10
4760.7137860104367
 20
3707.0746748242041
 30
0.0
 40
280.0
 50
235.77458319291009
 51
47.108590023408659
  0
LINE
  5
8EF6
  8
1
 10
5040.7137860104367
 20
3574.0333278242051
 30
0.0
 11
5040.7137860104367
 21
3427.0746748242041
 31
0.0
  0
LINE
  5
8EF8
  8
1
 10
5230.7137860104358
 20
3357.0746748242041
 30
0.0
 11
5230.7137860104358
 21
3207.0746748242041
 31
0.0
  0
LINE
  5
8EF9
  8
1
 10
5110.7137860104358
 20
3427.0746748242041
 30
0.0
 11
4930.7137860104367
 21
3427.0746748242041
 31
0.0
  0
LINE
  5
8EFA
  8
1
 10
5110.7137860104358
 20
3427.0746748242041
 30
0.0
 11
5110.7137860104358
 21
3357.0746748242041
 31
0.0
  0
LINE
  5
8EFB
  8
1
 10
4480.7137860104358
 20
3574.0333278242051
 30
0.0
 11
4480.7137860104358
 21
3427.0746748242041
 31
0.0
  0
LINE
  5
8EFC
  8
2
 10
4760.7137860104367
 20
3284.2767448242048
 30
0.0
 11
4760.7137860104367
 21
4189.0735268242051
 31
0.0
  0
LINE
  5
8EFD
  8
1
 10
4410.7137860104358
 20
3427.0746748242041
 30
0.0
 11
4410.7137860104358
 21
3357.0746748242041
 31
0.0
  0
DIMENSION
  5
8EFE
  8
3
  2
*D8
 10
1630.7137860104381
 20
2502.4110823259148
 30
0.0
 11
2160.7137860104372
 21
2614.9110823259161
 31
0.0
 70
     0
 13
2690.7137860104372
 23
2906.925423612121
 33
0.0
 14
1630.7137860104381
 24
3037.0746748242041
 34
0.0
 50
180.0
1001
ACAD
1000
DSTYLE
1002
{
1070
   287
1070
     3
1070
   287
1070
     3
1070
   287
1070
     3
1070
   287
1070
     3
1070
   287
1070
     3
1070
   287
1070
     3
1070
   287
1070
     3
1070
   287
1070
     3
1070
    40
1040
45.0
1070
   143
1040
0.039
1070
   271
1070
     4
1070
   272
1070
     4
1070
   279
1070
     0
1070
   284
1070
     0
1070
   285
1070
     0
1070
   286
1070
     0
1070
   341
1005
8D0F
1070
     6
1000
OPEN
1070
     7
1000
OPEN
1002
}
  0
ARC
  5
8EFF
  8
1
 10
2801.2137860104372
 20
5467.5746748242054
 30
0.0
 40
1181.4999999999991
 50
90.0
 51
180.0
  0
ARC
  5
8F00
  8
1
 10
2821.7137860104372
 20
5226.0746748242054
 30
0.0
 40
1423.0
 50
0.0
 51
90.0
  0
LINE
  5
8F01
  8
2
 10
2690.7137860104372
 20
2906.925423612121
 30
0.0
 11
2690.7137860104372
 21
7266.0761058498083
 31
0.0
  0
LINE
  5
8F02
  8
1
 10
1637.0181540104379
 20
5286.0746748242063
 30
0.0
 11
1525.7137860104369
 21
5286.0746748242063
 31
0.0
  0
ARC
  5
8F03
  8
1
 10
2690.7147860104369
 20
5357.0746748242036
 30
0.0
 40
480.0
 50
47.108590023408631
 51
235.7745831929102
  0
CIRCLE
  5
8F04
  8
1
 10
2690.7137860104372
 20
5357.0746748242036
 30
0.0
 40
400.0
  0
ARC
  5
8F06
  8
1
 10
2580.2137860104372
 20
5467.5746748242054
 30
0.0
 40
960.5
 50
180.0
 51
190.89233499999989
  0
LINE
  5
8F08
  8
1
 10
1630.7137860104369
 20
3357.0746748242041
 30
0.0
 11
1630.7137860104369
 21
3207.0746748242041
 31
0.0
  0
DIMENSION
  5
8F0C
  8
3
  2
*D13
 10
1130.236626229866
 20
5286.0746748242063
 30
0.0
 11
1017.736626229865
 21
4360.9297558242051
 31
0.0
 70
     0
  1
1850
 13
1525.929753010435
 23
3435.7848368242039
 33
0.0
 14
1525.7137860104369
 24
5286.0746748242063
 34
0.0
 50
270.0
1001
ACAD
1000
DSTYLE
1002
{
1070
   287
1070
     3
1070
   287
1070
     3
1070
   287
1070
     3
1070
   287
1070
     3
1070
   287
1070
     3
1070
   287
1070
     3
1070
   287
1070
     3
1070
   287
1070
     3
1070
    40
1040
45.0
1070
   143
1040
0.039
1070
   271
1070
     4
1070
   272
1070
     4
1070
   279
1070
     0
1070
   284
1070
     0
1070
   285
1070
     0
1070
   286
1070
     0
1070
   341
1005
8D0F
1070
     6
1000
OPEN
1070
     7
1000
OPEN
1002
}
  0
DIMENSION
  5
8F0D
  8
3
  2
*D14
 10
772.74953026704861
 20
5357.0746748242036
 30
0.0
 11
660.2495302670477
 21
4396.4297558242042
 31
0.0
 70
     0
  1
1921
 13
1130.236626229866
 23
3435.7848368242039
 33
0.0
 14
1434.4298740566801
 24
5357.0746748242036
 34
0.0
 50
270.0
1001
ACAD
1000
DSTYLE
1002
{
1070
   287
1070
     3
1070
   287
1070
     3
1070
   287
1070
     3
1070
   287
1070
     3
1070
   287
1070
     3
1070
   287
1070
     3
1070
   287
1070
     3
1070
   287
1070
     3
1070
    40
1040
45.0
1070
   143
1040
0.039
1070
   271
1070
     4
1070
   272
1070
     4
1070
   279
1070
     0
1070
   284
1070
     0
1070
   285
1070
     0
1070
   286
1070
     0
1070
   341
1005
8D0F
1070
     6
1000
OPEN
1070
     7
1000
OPEN
1002
}
  0
LINE
  5
8F12
  8
1
 10
1525.7137860104369
 20
8545.5698250355781
 30
0.0
 11
1525.7137860104369
 21
10003.569825035571
 31
0.0
  0
LINE
  5
8F13
  8
1
 10
4244.7137860104376
 20
8614.5698250355763
 30
0.0
 11
4244.7137860104376
 21
9934.5698250355781
 31
0.0
  0
LINE
  5
8F14
  8
1
 10
3590.7137860104381
 20
9934.5698250355781
 30
0.0
 11
3590.7137860104381
 21
10069.569825035571
 31
0.0
  0
LINE
  5
8F15
  8
1
 10
1790.713786010441
 20
9934.5698250355763
 30
0.0
 11
1790.713786010439
 21
10069.569825035571
 31
0.0
  0
LINE
  5
8F16
  8
1
 10
1725.713786010439
 20
10069.569825035571
 30
0.0
 11
3655.713786010439
 21
10069.569825035571
 31
0.0
  0
LINE
  5
8F17
  8
1
 10
7636.6376499999988
 20
3433.9806690049568
 30
0.0
 11
8257.6376500000006
 21
3433.9806690049568
 31
0.0
  0
DIMENSION
  5
8F1C
  8
3
  2
*D2
 10
769.23071991245524
 20
10013.569825035571
 30
0.0
 11
656.73071991245354
 21
9088.5698250355745
 31
0.0
 70
     0
 13
1630.713786010439
 23
8163.5698250355763
 33
0.0
 14
1630.713786010439
 24
10013.569825035571
 34
0.0
 50
90.0
1001
ACAD
1000
DSTYLE
1002
{
1070
   287
1070
     3
1070
   287
1070
     3
1070
   287
1070
     3
1070
   287
1070
     3
1070
   287
1070
     3
1070
   287
1070
     3
1070
   287
1070
     3
1070
   287
1070
     3
1070
    40
1040
45.0
1070
   143
1040
0.039
1070
   271
1070
     4
1070
   272
1070
     4
1070
   279
1070
     0
1070
   284
1070
     0
1070
   285
1070
     0
1070
   286
1070
     0
1070
   341
1005
8D0F
1070
     6
1000
OPEN
1070
     7
1000
OPEN
1002
}
  0
LINE
  5
8F1D
  8
1
 10
4244.7137860104376
 20
9288.5698250355763
 30
0.0
 11
5230.7137860104367
 21
9288.5698250355763
 31
0.0
  0
LINE
  5
8F1E
  8
1
 10
1630.713786010439
 20
8238.5698250355745
 30
0.0
 11
2210.7137860104381
 21
8238.5698250355745
 31
0.0
  0
LINE
  5
8F21
  8
1
 10
1630.713786010439
 20
9938.5698250355763
 30
0.0
 11
3750.7137860104381
 21
9938.5698250355763
 31
0.0
  0
LINE
  5
8F22
  8
1
 10
3590.7137860104381
 20
10013.569825035571
 30
0.0
 11
3750.7137860104381
 21
10013.569825035571
 31
0.0
  0
LINE
  5
8F23
  8
1
 10
5045.7137860104376
 20
8238.5698250355745
 30
0.0
 11
5230.7137860104367
 21
8238.5698250355745
 31
0.0
  0
LINE
  5
8F24
  8
1
 10
3750.7137860104381
 20
9934.5698250355781
 30
0.0
 11
3750.7137860104381
 21
10013.569825035571
 31
0.0
  0
LINE
  5
8F25
  8
1
 10
3675.7137860104381
 20
9934.5698250355763
 30
0.0
 11
3675.7137860104381
 21
9938.5698250355781
 31
0.0
  0
LINE
  5
8F26
  8
1
 10
1705.713786010436
 20
9934.5698250355763
 30
0.0
 11
1705.7137860104381
 21
9938.5698250355781
 31
0.0
  0
LINE
  5
8F27
  8
1
 10
1630.713786010439
 20
9934.5698250355763
 30
0.0
 11
1630.713786010439
 21
10013.569825035571
 31
0.0
  0
LINE
  5
931D
  8
1
 10
6868.6376499999978
 20
5312.0746748242054
 30
0.0
 11
6868.637649999996
 21
3985.8246748242041
 31
0.0
  0
LINE
  5
931E
  8
1
 10
8326.6376499999951
 20
4457.0746748242036
 30
0.0
 11
8326.6376499999951
 21
3364.9806690049568
 31
0.0
  0
LINE
  5
931F
  8
1
 10
6868.6376499999978
 20
3364.9806690049559
 30
0.0
 11
8326.6376499999951
 21
3364.9806690049568
 31
0.0
  0
LINE
  5
9514
  8
1
 10
5230.7137860104367
 20
9288.5698250355781
 30
0.0
 11
5230.7137860104367
 21
9363.5698250355745
 31
0.0
  0
LINE
  5
9891
  8
1
 10
2801.2137860104372
 20
6649.0746748242027
 30
0.0
 11
2821.7137860104372
 21
6649.0746748242054
 31
0.0
  0
LINE
  5
9892
  8
1
 10
3017.4080830059238
 20
5708.7442494226034
 30
0.0
 11
4951.2848759244707
 21
3912.2152600066038
 31
0.0
  0
LINE
  5
9893
  8
1
 10
2420.7386798145499
 20
4960.1957234003394
 30
0.0
 11
4603.2277240628364
 21
3475.5619531602829
 31
0.0
  0
LINE
  5
9894
  8
1
 10
2968.4644152946312
 20
5644.9194036837671
 30
0.0
 11
4864.8702719920102
 21
3815.0164481465399
 31
0.0
  0
LINE
  5
9895
  8
1
 10
2472.0435574454859
 20
5022.1368729275682
 30
0.0
 11
4678.7124502985789
 21
3581.4729991129652
 31
0.0
  0
LINE
  5
99A3
  8
1
 10
6937.6376499999988
 20
6649.0746748242054
 30
0.0
 11
8257.6376500000006
 21
6649.0746748242054
 31
0.0
  0
DIMENSION
  5
99B7
  8
3
  2
*D16
 10
772.74953026704895
 20
6649.0746748242054
 30
0.0
 11
660.24953026704782
 21
6003.0746748242054
 31
0.0
 70
     0
 13
1434.4298740566801
 23
5357.0746748242036
 33
0.0
 14
2801.2137860103321
 24
6649.0746748242027
 34
0.0
 50
270.0
1001
ACAD
1000
DSTYLE
1002
{
1070
   287
1070
     3
1070
   287
1070
     3
1070
   287
1070
     3
1070
   287
1070
     3
1070
   287
1070
     3
1070
    40
1040
45.0
1070
   143
1040
0.039
1070
   271
1070
     4
1070
   272
1070
     4
1070
   279
1070
     0
1070
   284
1070
     0
1070
   285
1070
     0
1070
   286
1070
     0
1070
   341
1005
8D0F
1070
     6
1000
OPEN
1070
     7
1000
OPEN
1002
}
  0
DIMENSION
  5
99CD
  8
3
  2
*D17
 10
5552.2756510343024
 20
3207.0746748242041
 30
0.0
 11
5439.7756510343024
 21
4282.0746748242063
 31
0.0
 70
     0
 13
4327.1924293287948
 23
5357.0746748242036
 33
0.0
 14
5230.7137860104358
 24
3207.0746748242041
 34
0.0
 50
90.0
1001
ACAD
1000
DSTYLE
1002
{
1070
   287
1070
     3
1070
   287
1070
     3
1070
   287
1070
     3
1070
   287
1070
     3
1070
   287
1070
     3
1070
    40
1040
45.0
1070
   143
1040
0.039
1070
   271
1070
     4
1070
   272
1070
     4
1070
   279
1070
     0
1070
   284
1070
     0
1070
   285
1070
     0
1070
   286
1070
     0
1070
   341
1005
8D0F
1070
     6
1000
OPEN
1070
     7
1000
OPEN
1002
}
  0
DIMENSION
  5
99DA
  8
3
  2
*D18
 10
8257.6376500000006
 20
7041.4553940273154
 30
0.0
 11
7597.6376499999997
 21
7153.9553940273154
 31
0.0
 70
     0
 13
6937.6376499999988
 23
6649.0746748242054
 33
0.0
 14
8257.6376500000006
 24
6649.0746748242054
 34
0.0
1001
ACAD
1000
DSTYLE
1002
{
1070
   287
1070
     3
1070
   287
1070
     3
1070
   287
1070
     3
1070
   287
1070
     3
1070
   287
1070
     3
1070
    40
1040
45.0
1070
   143
1040
0.039
1070
   271
1070
     4
1070
   272
1070
     4
1070
   279
1070
     0
1070
   284
1070
     0
1070
   285
1070
     0
1070
   286
1070
     0
1070
   341
1005
8D0F
1070
     6
1000
OPEN
1070
     7
1000
OPEN
1002
}
  0
DIMENSION
  5
99E7
  8
3
  2
*D19
 10
7597.6376499999988
 20
7384.0618732420289
 30
0.0
 11
7047.6376499999978
 21
7531.9190160991729
 31
0.0
 70
     0
  1
(1150)
 13
6497.6376499999997
 23
5837.0746748242036
 33
0.0
 14
7597.6376499999988
 24
7477.282220363576
 34
0.0
1001
ACAD
1000
DSTYLE
1002
{
1070
   287
1070
     3
1070
   287
1070
     3
1070
   287
1070
     3
1070
   287
1070
     3
1070
   287
1070
     3
1070
    40
1040
45.0
1070
   143
1040
0.039
1070
   271
1070
     4
1070
   272
1070
     4
1070
   279
1070
     0
1070
   284
1070
     0
1070
   285
1070
     0
1070
   286
1070
     0
1070
   341
1005
8D0F
1070
     6
1000
OPEN
1070
     7
1000
OPEN
1002
}
  0
DIMENSION
  5
99FD
  8
3
  2
*D20
 10
8392.6376500000006
 20
7384.0618732420289
 30
0.0
 11
7995.1376499999997
 21
7496.5618732420289
 31
0.0
 70
     0
 13
7597.6376499999988
 23
7477.282220363576
 33
0.0
 14
8392.6376500000006
 24
6322.0746748242063
 34
0.0
1001
ACAD
1000
DSTYLE
1002
{
1070
   287
1070
     4
1070
   287
1070
     4
1070
   287
1070
     4
1070
   287
1070
     4
1070
   287
1070
     4
1070
    40
1040
45.0
1070
   143
1040
0.039
1070
   271
1070
     4
1070
   272
1070
     4
1070
   279
1070
     1
1070
   284
1070
     0
1070
   285
1070
     0
1070
   286
1070
     0
1070
   341
1005
8D0F
1070
     6
1000
OPEN
1070
     7
1000
OPEN
1002
}
  0
LINE
  5
9A0B
  8
2
 10
7597.6376499999988
 20
7264.3748126316032
 30
0.0
 11
7597.6376499999988
 21
7534.2502033175942
 31
0.0
  0
LINE
  5
9DBF
  8
1
 10
1630.7137860104369
 20
3037.0746748242041
 30
0.0
 11
5230.7137860104358
 21
3037.0746748242041
 31
0.0
  0
LINE
  5
9DC0
  8
1
 10
1630.7137860104369
 20
3187.0746748242041
 30
0.0
 11
5230.7137860104358
 21
3187.0746748242041
 31
0.0
  0
LINE
  5
9DC1
  8
1
 10
1630.7137860104369
 20
3187.0746748242041
 30
0.0
 11
1630.7137860104369
 21
3037.0746748242041
 31
0.0
  0
LINE
  5
9DC2
  8
1
 10
5230.7137860104358
 20
3187.0746748242041
 30
0.0
 11
5230.7137860104358
 21
3037.0746748242041
 31
0.0
  0
LINE
  5
9E2F
  8
1
 10
6486.6376499999997
 20
3187.0746748242041
 30
0.0
 11
6486.6376499999997
 21
3037.0746748242041
 31
0.0
  0
LINE
  5
9E30
  8
1
 10
6486.6376499999997
 20
3187.0746748242041
 30
0.0
 11
8336.6376500000006
 21
3187.0746748242041
 31
0.0
  0
LINE
  5
9E31
  8
1
 10
6486.6376499999997
 20
3037.0746748242041
 30
0.0
 11
8336.6376500000006
 21
3037.0746748242041
 31
0.0
  0
LINE
  5
9E32
  8
1
 10
8336.6376500000006
 20
3187.0746748242041
 30
0.0
 11
8336.6376500000006
 21
3037.0746748242041
 31
0.0
  0
DIMENSION
  5
9F17
  8
3
  2
*D21
 10
5552.2756510343024
 20
3037.0746748242041
 30
0.0
 11
5754.7756510343006
 21
3261.574674824205
 31
0.0
 70
     0
 13
5230.7137860104358
 23
3207.0746748242041
 33
0.0
 14
5230.7137860104358
 24
3037.0746748242041
 34
0.0
 50
90.0
1001
ACAD
1000
DSTYLE
1002
{
1070
   287
1070
     4
1070
   287
1070
     4
1070
   287
1070
     4
1070
    40
1040
45.0
1070
   143
1040
0.039
1070
   271
1070
     4
1070
   272
1070
     4
1070
   279
1070
     1
1070
   284
1070
     0
1070
   285
1070
     0
1070
   286
1070
     0
1070
   341
1005
8D0F
1070
     6
1000
OPEN
1070
     7
1000
OPEN
1002
}
  0
LINE
  5
A305
  8
1
 10
7636.6376499999988
 20
3428.3246748242041
 30
0.0
 11
7636.6376499999988
 21
3985.8246748242041
 31
0.0
  0
LINE
  5
A30C
  8
1
 10
6868.637649999996
 20
3428.3246748242041
 30
0.0
 11
6868.6376499999978
 21
3364.9806690049559
 31
0.0
  0
ENDSEC
  0
EOF
