  0
SECTION
  2
HEADER
  9
$ACADVER
  1
AC1009
  9
$INSBASE
 10
0.0
 20
0.0
 30
0.0
  9
$EXTMIN
 10
0.0
 20
0.0
 30
0.0
  9
$EXTMAX
 10
9450.0
 20
13275.0
 30
0.0
  9
$LIMMIN
 10
0.0
 20
0.0
  9
$LIMMAX
 10
297.0
 20
210.0
  9
$ORTHOMODE
 70
     0
  9
$REGENMODE
 70
     1
  9
$FILLMODE
 70
     0
  9
$QTEXTMODE
 70
     0
  9
$MIRRTEXT
 70
     1
  9
$DRAGMODE
 70
     2
  9
$LTSCALE
 40
100.0
  9
$OSMODE
 70
    37
  9
$ATTMODE
 70
     1
  9
$TEXTSIZE
 40
180.0
  9
$TRACEWID
 40
0.05
  9
$TEXTSTYLE
  7
STANDARD
  9
$CLAYER
  8
1
  9
$CELTYPE
  6
BYLAYER
  9
$CECOLOR
 62
   256
  9
$DIMSCALE
 40
45.0
  9
$DIMASZ
 40
2.0
  9
$DIMEXO
 40
0.5
  9
$DIMDLI
 40
10.0
  9
$DIMRND
 40
0.0
  9
$DIMDLE
 40
0.0
  9
$DIMEXE
 40
1.0
  9
$DIMTP
 40
1.0
  9
$DIMTM
 40
1.0
  9
$DIMTXT
 40
3.0
  9
$DIMCEN
 40
0.0
  9
$DIMTSZ
 40
0.0
  9
$DIMTOL
 70
     0
  9
$DIMLIM
 70
     0
  9
$DIMTIH
 70
     0
  9
$DIMTOH
 70
     0
  9
$DIMSE1
 70
     0
  9
$DIMSE2
 70
     0
  9
$DIMTAD
 70
     1
  9
$DIMZIN
 70
     8
  9
$DIMBLK
  1

  9
$DIMASO
 70
     1
  9
$DIMSHO
 70
     1
  9
$DIMPOST
  1

  9
$DIMAPOST
  1

  9
$DIMALT
 70
     0
  9
$DIMALTD
 70
     2
  9
$DIMALTF
 40
0.039
  9
$DIMLFAC
 40
1.0
  9
$DIMTOFL
 70
     1
  9
$DIMTVP
 40
0.0
  9
$DIMTIX
 70
     0
  9
$DIMSOXD
 70
     0
  9
$DIMSAH
 70
     1
  9
$DIMBLK1
  1
OPEN
  9
$DIMBLK2
  1
OPEN
  9
$DIMSTYLE
  2
IGA
  9
$DIMCLRD
 70
     0
  9
$DIMCLRE
 70
     0
  9
$DIMCLRT
 70
     0
  9
$DIMTFAC
 40
10.0
  9
$DIMGAP
 40
1.0
  9
$LUNITS
 70
     2
  9
$LUPREC
 70
     3
  9
$SKETCHINC
 40
0.1
  9
$FILLETRAD
 40
50.0
  9
$AUNITS
 70
     0
  9
$AUPREC
 70
     0
  9
$MENU
  1
acad
  9
$ELEVATION
 40
0.0
  9
$PELEVATION
 40
0.0
  9
$THICKNESS
 40
0.0
  9
$LIMCHECK
 70
     0
  9
$BLIPMODE
 70
     0
  9
$CHAMFERA
 40
0.5
  9
$CHAMFERB
 40
0.5
  9
$SKPOLY
 70
     0
  9
$TDCREATE
 40
2451845.4205035879
  9
$TDUPDATE
 40
2454953.6640990269
  9
$TDINDWG
 40
0.0547775
  9
$TDUSRTIMER
 40
0.0547773148
  9
$USRTIMER
 70
     1
  9
$ANGBASE
 50
0.0
  9
$ANGDIR
 70
     0
  9
$PDMODE
 70
     0
  9
$PDSIZE
 40
0.0
  9
$PLINEWID
 40
0.0
  9
$COORDS
 70
     1
  9
$SPLFRAME
 70
     0
  9
$SPLINETYPE
 70
     6
  9
$SPLINESEGS
 70
     8
  9
$ATTDIA
 70
     0
  9
$ATTREQ
 70
     1
  9
$HANDLING
 70
 10241
  9
$HANDSEED
  5
8827
  9
$SURFTAB1
 70
     6
  9
$SURFTAB2
 70
     6
  9
$SURFTYPE
 70
     6
  9
$SURFU
 70
     6
  9
$SURFV
 70
     6
  9
$UCSNAME
  2

  9
$UCSORG
 10
0.0
 20
0.0
 30
0.0
  9
$UCSXDIR
 10
1.0
 20
0.0
 30
0.0
  9
$UCSYDIR
 10
0.0
 20
1.0
 30
0.0
  9
$PUCSNAME
  2

  9
$PUCSORG
 10
0.0
 20
0.0
 30
0.0
  9
$PUCSXDIR
 10
1.0
 20
0.0
 30
0.0
  9
$PUCSYDIR
 10
0.0
 20
1.0
 30
0.0
  9
$USERI1
 70
     0
  9
$USERI2
 70
     0
  9
$USERI3
 70
     0
  9
$USERI4
 70
     0
  9
$USERI5
 70
     0
  9
$USERR1
 40
0.0
  9
$USERR2
 40
0.0
  9
$USERR3
 40
0.0
  9
$USERR4
 40
0.0
  9
$USERR5
 40
0.0
  9
$WORLDVIEW
 70
     1
  9
$SHADEDGE
 70
     3
  9
$SHADEDIF
 70
    70
  9
$TILEMODE
 70
     1
  9
$MAXACTVP
 70
    16
  9
$PLIMCHECK
 70
     0
  9
$PEXTMIN
 10
1.0000000000000000E+020
 20
1.0000000000000000E+020
 30
1.0000000000000000E+020
  9
$PEXTMAX
 10
-1.0000000000000000E+020
 20
-1.0000000000000000E+020
 30
-1.0000000000000000E+020
  9
$PLIMMIN
 10
0.0
 20
0.0
  9
$PLIMMAX
 10
12.0
 20
9.0
  9
$UNITMODE
 70
     0
  9
$VISRETAIN
 70
     0
  9
$PLINEGEN
 70
     0
  9
$PSLTSCALE
 70
     1
  0
ENDSEC
  0
SECTION
  2
TABLES
  0
TABLE
  2
VPORT
 70
     2
  0
VPORT
  2
*ACTIVE
 70
     0
 10
0.0
 20
0.0
 11
1.0
 21
1.0
 12
18013.21442532097
 22
6738.6220267468934
 13
0.0
 23
0.0
 14
10.0
 24
10.0
 15
10.0
 25
10.0
 16
0.0
 26
0.0
 36
1.0
 17
0.0
 27
0.0
 37
0.0
 40
14658.865147342811
 41
3.1666666666666661
 42
50.0
 43
0.0
 44
0.0
 50
0.0
 51
0.0
 71
     0
 72
   100
 73
     1
 74
     0
 75
     0
 76
     0
 77
     0
 78
     0
  0
ENDTAB
  0
TABLE
  2
LTYPE
 70
     2
  0
LTYPE
  2
CONTINUOUS
 70
     0
  3
Solid line
 72
    65
 73
     0
 40
0.0
  0
LTYPE
  2
CENTER
 70
     0
  3
____ _ ____ _ ____ _ ____ _ ____ _ ____ _ ____ 
 72
    65
 73
     4
 40
2.0
 49
1.25
 49
-0.25
 49
0.25
 49
-0.25
  0
ENDTAB
  0
TABLE
  2
LAYER
 70
     6
  0
LAYER
  2
0
 70
     0
 62
     7
  6
CONTINUOUS
  0
LAYER
  2
3
 70
     0
 62
     2
  6
CONTINUOUS
  0
LAYER
  2
2
 70
     0
 62
     3
  6
CENTER
  0
LAYER
  2
1
 70
     0
 62
     4
  6
CONTINUOUS
  0
LAYER
  2
4
 70
     0
 62
     7
  6
CONTINUOUS
  0
LAYER
  2
DEFPOINTS
 70
     0
 62
     7
  6
CONTINUOUS
  0
ENDTAB
  0
TABLE
  2
STYLE
 70
     1
  0
STYLE
  2
STANDARD
 70
     0
 40
0.0
 41
1.0
 50
0.0
 71
     0
 42
180.0
  3
simplex.shx
  4
extfont.shx
  0
ENDTAB
  0
TABLE
  2
VIEW
 70
     0
  0
ENDTAB
  0
TABLE
  2
UCS
 70
     0
  0
ENDTAB
  0
TABLE
  2
APPID
 70
     1
  0
APPID
  2
ACAD
 70
     0
  0
ENDTAB
  0
TABLE
  2
DIMSTYLE
 70
     1
  0
DIMSTYLE
  2
IGA
 70
     0
  3

  4

  5

  6
OPEN
  7
OPEN
 40
2.0
 41
2.0
 42
0.5
 43
10.0
 44
1.0
 45
0.0
 46
0.0
 47
1.0
 48
1.0
140
3.0
141
0.0
142
0.0
143
0.03937
144
1.0
145
0.0
146
10.0
147
1.0
 71
     0
 72
     0
 73
     0
 74
     0
 75
     0
 76
     0
 77
     1
 78
     8
170
     0
171
     2
172
     0
173
     1
174
     0
175
     0
176
     0
177
     0
178
     0
  0
ENDTAB
  0
ENDSEC
  0
SECTION
  2
BLOCKS
  0
BLOCK
  8
0
  2
$MODEL_SPACE
 70
     0
 10
0.0
 20
0.0
 30
0.0
  3
$MODEL_SPACE
  1

  0
ENDBLK
  5
1B
  8
0
  0
BLOCK
 67
     1
  8
0
  2
$PAPER_SPACE
 70
     0
 10
0.0
 20
0.0
 30
0.0
  3
$PAPER_SPACE
  1

  0
ENDBLK
  5
18
 67
     1
  8
0
  0
BLOCK
  8
0
  2
YA_N
 70
     0
 10
0.0
 20
0.0
 30
0.0
  3
YA_N
  1

  0
ENDBLK
  5
79FE
  8
0
  0
BLOCK
  8
0
  2
_OPEN
 70
     0
 10
0.0
 20
0.0
 30
0.0
  3
_OPEN
  1

  0
LINE
  5
7B50
  8
0
  6
BYBLOCK
 62
     0
 10
-1.0
 20
0.166667
 30
0.0
 11
0.0
 21
0.0
 31
0.0
  0
LINE
  5
7B51
  8
0
  6
BYBLOCK
 62
     0
 10
0.0
 20
0.0
 30
0.0
 11
-1.0
 21
-0.166667
 31
0.0
  0
LINE
  5
7B52
  8
0
  6
BYBLOCK
 62
     0
 10
0.0
 20
0.0
 30
0.0
 11
-1.0
 21
0.0
 31
0.0
  0
ENDBLK
  5
7B53
  8
0
  0
BLOCK
  8
0
  2
_DOT
 70
     0
 10
0.0
 20
0.0
 30
0.0
  3
_DOT
  1

  0
LINE
  5
7D69
  8
0
  6
BYBLOCK
 62
     0
 10
0.0
 20
0.0
 30
0.0
 11
-1.0
 21
0.0
 31
0.0
  0
POLYLINE
  5
7D6A
  8
0
  6
BYBLOCK
 62
     0
 66
     1
 10
0.0
 20
0.0
 30
0.0
 70
     1
 40
0.166667
 41
0.166667
  0
VERTEX
  5
87EE
  8
0
  6
BYBLOCK
 62
     0
 10
-0.083333
 20
0.0
 30
0.0
 42
1.0
  0
VERTEX
  5
87EF
  8
0
  6
BYBLOCK
 62
     0
 10
0.083333
 20
0.0
 30
0.0
 42
1.0
  0
SEQEND
  5
87F0
  8
0
  6
BYBLOCK
 62
     0
  0
ENDBLK
  5
7D3B
  8
0
  0
BLOCK
  8
0
  2
*D3
 70
     1
 10
0.0
 20
0.0
 30
0.0
  3
*D3
  1

  0
LINE
  5
83EE
  8
3
 62
     0
 10
5176.7944579999994
 20
9711.5635380000003
 30
0.0
 11
5176.7944579999994
 21
10209.14557977394
 31
0.0
  0
LINE
  5
83EF
  8
3
 62
     0
 10
3056.7944579999998
 20
9711.5635380000003
 30
0.0
 11
3056.7944579999998
 21
10209.14557977394
 31
0.0
  0
LINE
  5
83F0
  8
3
 62
     0
 10
5086.7944579999994
 20
10164.14557977394
 30
0.0
 11
3146.7944579999998
 21
10164.14557977394
 31
0.0
  0
INSERT
  5
83F1
  8
3
 62
     0
  2
_OPEN
 10
5176.7944579999994
 20
10164.14557977394
 30
0.0
 41
90.0
 42
90.0
 43
90.0
  0
INSERT
  5
83F2
  8
3
 62
     0
  2
_OPEN
 10
3056.7944579999998
 20
10164.14557977394
 30
0.0
 41
90.0
 42
90.0
 43
90.0
 50
180.0
  0
TEXT
  5
83F3
  8
1
 62
     0
 10
3884.723172
 20
10209.14557977394
 30
0.0
 40
135.0
  1
2120
  0
POINT
  5
83F4
  8
DEFPOINTS
 62
     0
 10
5176.7944579999994
 20
9689.0635380000003
 30
0.0
  0
POINT
  5
83F5
  8
DEFPOINTS
 62
     0
 10
3056.7944579999998
 20
9689.0635380000003
 30
0.0
  0
POINT
  5
83F6
  8
DEFPOINTS
 62
     0
 10
3056.7944579999998
 20
10164.14557977394
 30
0.0
  0
ENDBLK
  5
8175
  8
0
  0
BLOCK
  8
0
  2
*D4
 70
     1
 10
0.0
 20
0.0
 30
0.0
  3
*D4
  1

  0
LINE
  5
87F1
  8
3
 62
     0
 10
1576.7944580000001
 20
9061.5635379999985
 30
0.0
 11
1576.7944580000001
 21
10209.14557977394
 31
0.0
  0
LINE
  5
87F2
  8
3
 62
     0
 10
2966.7944579999998
 20
10164.14557977394
 30
0.0
 11
1666.7944580000001
 21
10164.14557977394
 31
0.0
  0
INSERT
  5
87F3
  8
3
 62
     0
  2
_OPEN
 10
3056.7944579999998
 20
10164.14557977394
 30
0.0
 41
90.0
 42
90.0
 43
90.0
  0
INSERT
  5
87F4
  8
3
 62
     0
  2
_OPEN
 10
1576.7944580000001
 20
10164.14557977394
 30
0.0
 41
90.0
 42
90.0
 43
90.0
 50
180.0
  0
TEXT
  8
3
  40
135
  5
8821
  62
0
  72
0
  71
0
 10
2046.79
 20
10037.7
 30
0.000000
  1
1480
  0
POINT
  5
87F6
  8
DEFPOINTS
 62
     0
 10
3056.7944579999998
 20
9689.0635380000003
 30
0.0
  0
POINT
  5
87F7
  8
DEFPOINTS
 62
     0
 10
1576.7944580000001
 20
9039.0635380000003
 30
0.0
  0
POINT
  5
87F8
  8
DEFPOINTS
 62
     0
 10
1576.7944580000001
 20
10164.14557977394
 30
0.0
  0
ENDBLK
  5
8309
  8
0
  0
BLOCK
  8
0
  2
*D5
 70
     1
 10
0.0
 20
0.0
 30
0.0
  3
*D5
  1

  0
LINE
  5
83BF
  8
3
 62
     0
 10
5199.2944579999994
 20
9689.0635380000003
 30
0.0
 11
5995.851294000001
 21
9689.0635380000003
 31
0.0
  0
LINE
  5
83C0
  8
3
 62
     0
 10
5199.2944579999994
 20
7839.0635380000012
 30
0.0
 11
5995.851294000001
 21
7839.0635380000012
 31
0.0
  0
LINE
  5
83C1
  8
3
 62
     0
 10
5950.851294000001
 20
9599.0635380000003
 30
0.0
 11
5950.851294000001
 21
7929.0635380000012
 31
0.0
  0
INSERT
  5
83C2
  8
3
 62
     0
  2
_OPEN
 10
5950.851294000001
 20
9689.0635380000003
 30
0.0
 41
90.0
 42
90.0
 43
90.0
 50
90.0
  0
INSERT
  5
83C3
  8
3
 62
     0
  2
_OPEN
 10
5950.851294000001
 20
7839.0635380000012
 30
0.0
 41
90.0
 42
90.0
 43
90.0
 50
270.0
  0
TEXT
  5
83C4
  8
1
 62
     0
 10
5905.8512940000001
 20
8126.9301969999997
 30
0.0
 40
135.0
  1
1850
 50
90.0
  0
POINT
  5
83C5
  8
DEFPOINTS
 62
     0
 10
5176.7944579999994
 20
9689.0635380000003
 30
0.0
  0
POINT
  5
83C6
  8
DEFPOINTS
 62
     0
 10
5176.7944579999994
 20
7839.0635380000012
 30
0.0
  0
POINT
  5
83C7
  8
DEFPOINTS
 62
     0
 10
5950.851294000001
 20
7839.0635380000012
 30
0.0
  0
ENDBLK
  5
818E
  8
0
  0
BLOCK
  8
0
  2
*D6
 70
     1
 10
0.0
 20
0.0
 30
0.0
  3
*D6
  1

  0
LINE
  5
85AF
  8
3
 62
     0
 10
1554.2944580000001
 20
9039.0635380000003
 30
0.0
 11
1248.4377970909791
 21
9039.0635380000003
 31
0.0
  0
LINE
  5
85B0
  8
3
 62
     0
 10
1554.2944580000001
 20
7839.0635380000012
 30
0.0
 11
1248.4377970909779
 21
7839.0635380000012
 31
0.0
  0
LINE
  5
85B1
  8
3
 62
     0
 10
1293.4377970909779
 20
8949.0635380000003
 30
0.0
 11
1293.4377970909779
 21
7929.0635380000012
 31
0.0
  0
INSERT
  5
85B2
  8
3
 62
     0
  2
_OPEN
 10
1293.4377970909779
 20
9039.0635380000003
 30
0.0
 41
90.0
 42
90.0
 43
90.0
 50
90.0
  0
INSERT
  5
85B3
  8
3
 62
     0
  2
_OPEN
 10
1293.4377970909779
 20
7839.0635380000012
 30
0.0
 41
90.0
 42
90.0
 43
90.0
 50
270.0
  0
TEXT
  5
85B4
  8
1
 62
     0
 10
1248.437797090977
 20
8245.8323682794216
 30
0.0
 40
135.0
  1
1200
 50
90.0
  0
POINT
  5
85B5
  8
DEFPOINTS
 62
     0
 10
1576.7944580000001
 20
9039.0635380000003
 30
0.0
  0
POINT
  5
85B6
  8
DEFPOINTS
 62
     0
 10
1576.7944580000001
 20
7839.0635380000012
 30
0.0
  0
POINT
  5
85B7
  8
DEFPOINTS
 62
     0
 10
1293.4377970909779
 20
7839.0635380000012
 30
0.0
  0
ENDBLK
  5
819B
  8
0
  0
BLOCK
  8
0
  2
*D7
 70
     1
 10
0.0
 20
0.0
 30
0.0
  3
*D7
  1

  0
LINE
  5
859E
  8
3
 62
     0
 10
1576.7944580000001
 20
7816.5635380000012
 30
0.0
 11
1576.7944580000001
 21
7419.320243000001
 31
0.0
  0
LINE
  5
859F
  8
3
 62
     0
 10
5176.7944579999994
 20
7816.5635380000012
 30
0.0
 11
5176.7944579999994
 21
7419.320243000001
 31
0.0
  0
LINE
  5
85A0
  8
3
 62
     0
 10
1666.7944580000001
 20
7464.3202430000019
 30
0.0
 11
5086.7944579999994
 21
7464.3202430000019
 31
0.0
  0
INSERT
  5
85A1
  8
3
 62
     0
  2
_OPEN
 10
1576.7944580000001
 20
7464.3202430000019
 30
0.0
 41
90.0
 42
90.0
 43
90.0
 50
180.0
  0
INSERT
  5
85A2
  8
3
 62
     0
  2
_OPEN
 10
5176.7944579999994
 20
7464.3202430000019
 30
0.0
 41
90.0
 42
90.0
 43
90.0
  0
TEXT
  5
85A3
  8
1
 62
     0
 10
3378.9559711428569
 20
7509.320243000001
 30
0.0
 40
135.0
  1
3600
  0
POINT
  5
85A4
  8
DEFPOINTS
 62
     0
 10
1576.7944580000001
 20
7839.0635380000012
 30
0.0
  0
POINT
  5
85A5
  8
DEFPOINTS
 62
     0
 10
5176.7944579999994
 20
7839.0635380000012
 30
0.0
  0
POINT
  5
85A6
  8
DEFPOINTS
 62
     0
 10
5176.7944579999994
 20
7464.3202430000019
 30
0.0
  0
ENDBLK
  5
82FF
  8
0
  0
BLOCK
  8
0
  2
*D8
 70
     1
 10
0.0
 20
0.0
 30
0.0
  3
*D8
  1

  0
LINE
  5
81AC
  8
0
  6
BYBLOCK
 62
     0
 10
5408.7944580000003
 20
5051.9495479999987
 30
0.0
 11
5408.7944580000003
 21
6826.6350540000003
 31
0.0
  0
LINE
  5
81AD
  8
0
  6
BYBLOCK
 62
     0
 10
4116.7944580000003
 20
6641.7444249999999
 30
0.0
 11
4116.7944580000003
 21
6826.6350540000003
 31
0.0
  0
LINE
  5
81AE
  8
0
  6
BYBLOCK
 62
     0
 10
5318.7944579999994
 20
6781.6350540000003
 30
0.0
 11
4206.7944580000003
 21
6781.6350540000003
 31
0.0
  0
INSERT
  5
81AF
  8
0
  6
BYBLOCK
 62
     0
  2
_OPEN
 10
5408.7944580000003
 20
6781.6350540000003
 30
0.0
 41
90.0
 42
90.0
 43
90.0
  0
INSERT
  5
81B0
  8
0
  6
BYBLOCK
 62
     0
  2
_OPEN
 10
4116.7944580000003
 20
6781.6350540000003
 30
0.0
 41
90.0
 42
90.0
 43
90.0
 50
180.0
  0
TEXT
  5
81B1
  8
1
 62
     0
 10
4520.1020170000002
 20
6826.6350540000003
 30
0.0
 40
135.0
  1
1292
  0
POINT
  5
81B2
  8
DEFPOINTS
  6
BYBLOCK
 62
     0
 10
5408.7944580000003
 20
5029.4495479999987
 30
0.0
  0
POINT
  5
81B3
  8
DEFPOINTS
  6
BYBLOCK
 62
     0
 10
4116.7944580000003
 20
6619.244424999999
 30
0.0
  0
POINT
  5
81B4
  8
DEFPOINTS
  6
BYBLOCK
 62
     0
 10
4116.7944580000003
 20
6781.6350540000003
 30
0.0
  0
ENDBLK
  5
81B5
  8
0
  0
BLOCK
  8
0
  2
*D9
 70
     1
 10
0.0
 20
0.0
 30
0.0
  3
*D9
  1

  0
LINE
  5
87F9
  8
3
 62
     0
 10
2195.5046199999988
 20
6347.7335810000004
 30
0.0
 11
2195.5046199999988
 21
6826.6350540000003
 31
0.0
  0
LINE
  5
87FA
  8
3
 62
     0
 10
4026.7944579999998
 20
6781.6350540000003
 30
0.0
 11
2285.5046199999988
 21
6781.6350540000003
 31
0.0
  0
INSERT
  5
87FB
  8
3
 62
     0
  2
_OPEN
 10
4116.7944580000003
 20
6781.6350540000003
 30
0.0
 41
90.0
 42
90.0
 43
90.0
  0
INSERT
  5
87FC
  8
3
 62
     0
  2
_OPEN
 10
2195.5046199999988
 20
6781.6350540000003
 30
0.0
 41
90.0
 42
90.0
 43
90.0
 50
180.0
  0
TEXT
  8
3
  40
135
  5
8822
  62
0
  72
0
  71
0
 10
2886.15
 20
6655.19
 30
0.000000
  1
1921
  0
POINT
  5
87FE
  8
DEFPOINTS
 62
     0
 10
4116.7944580000003
 20
6619.244424999999
 30
0.0
  0
POINT
  5
87FF
  8
DEFPOINTS
 62
     0
 10
2195.5046199999988
 20
6325.2335810000004
 30
0.0
  0
POINT
  5
8800
  8
DEFPOINTS
 62
     0
 10
2195.5046199999988
 20
6781.6350540000003
 30
0.0
  0
ENDBLK
  5
81C1
  8
0
  0
BLOCK
  8
0
  2
*D10
 70
     1
 10
0.0
 20
0.0
 30
0.0
  3
*D10
  1

  0
LINE
  5
81C5
  8
0
  6
BYBLOCK
 62
     0
 10
2195.5046199999988
 20
6347.7335810000004
 30
0.0
 11
2195.5046199999988
 21
6525.2904899999994
 31
0.0
  0
LINE
  5
81C6
  8
0
  6
BYBLOCK
 62
     0
 10
4045.7944579999989
 20
6347.9495479999987
 30
0.0
 11
4045.7944579999989
 21
6525.2904899999994
 31
0.0
  0
LINE
  5
81C7
  8
0
  6
BYBLOCK
 62
     0
 10
2285.5046199999988
 20
6480.2904900000003
 30
0.0
 11
3955.7944579999989
 21
6480.2904900000003
 31
0.0
  0
INSERT
  5
81C8
  8
0
  6
BYBLOCK
 62
     0
  2
_OPEN
 10
2195.5046199999988
 20
6480.2904900000003
 30
0.0
 41
90.0
 42
90.0
 43
90.0
 50
180.0
  0
INSERT
  5
81C9
  8
0
  6
BYBLOCK
 62
     0
  2
_OPEN
 10
4045.7944579999989
 20
6480.2904900000003
 30
0.0
 41
90.0
 42
90.0
 43
90.0
  0
TEXT
  5
81CA
  8
1
 62
     0
 10
2988.129183
 20
6525.2904899999994
 30
0.0
 40
135.0
  1
1850
  0
POINT
  5
81CB
  8
DEFPOINTS
  6
BYBLOCK
 62
     0
 10
2195.5046199999988
 20
6325.2335810000004
 30
0.0
  0
POINT
  5
81CC
  8
DEFPOINTS
  6
BYBLOCK
 62
     0
 10
4045.7944579999989
 20
6325.4495479999987
 30
0.0
  0
POINT
  5
81CD
  8
DEFPOINTS
  6
BYBLOCK
 62
     0
 10
4045.7944579999989
 20
6480.2904900000003
 30
0.0
  0
ENDBLK
  5
81CE
  8
0
  0
BLOCK
  8
0
  2
*D11
 70
     1
 10
0.0
 20
0.0
 30
0.0
  3
*D11
  1

  0
LINE
  5
830D
  8
0
  6
BYBLOCK
 62
     0
 10
2111.2944579999998
 20
6325.4495479999987
 30
0.0
 11
926.02191799999991
 21
6325.4495479999987
 31
0.0
  0
LINE
  5
830E
  8
0
  6
BYBLOCK
 62
     0
 10
1891.3483900000001
 20
5160.4495479999987
 30
0.0
 11
926.02191799999991
 21
5160.4495479999987
 31
0.0
  0
LINE
  5
830F
  8
0
  6
BYBLOCK
 62
     0
 10
971.02191799999991
 20
6235.4495479999996
 30
0.0
 11
971.02191799999991
 21
5250.4495479999987
 31
0.0
  0
INSERT
  5
8310
  8
0
  6
BYBLOCK
 62
     0
  2
_OPEN
 10
971.02191799999991
 20
6325.4495479999987
 30
0.0
 41
90.0
 42
90.0
 43
90.0
 50
90.0
  0
INSERT
  5
8311
  8
0
  6
BYBLOCK
 62
     0
  2
_OPEN
 10
971.02191799999991
 20
5160.4495479999987
 30
0.0
 41
90.0
 42
90.0
 43
90.0
 50
270.0
  0
TEXT
  5
8312
  8
1
 62
     0
 10
926.02191799999991
 20
5544.9206848571421
 30
0.0
 40
135.0
  1
1165
 50
90.0
  0
POINT
  5
8313
  8
DEFPOINTS
  6
BYBLOCK
 62
     0
 10
2133.7944579999998
 20
6325.4495479999987
 30
0.0
  0
POINT
  5
8314
  8
DEFPOINTS
  6
BYBLOCK
 62
     0
 10
1913.8483900000001
 20
5160.4495479999987
 30
0.0
  0
POINT
  5
8315
  8
DEFPOINTS
  6
BYBLOCK
 62
     0
 10
971.02191799999991
 20
5160.4495479999987
 30
0.0
  0
ENDBLK
  5
8316
  8
0
  0
BLOCK
  8
0
  2
*D12
 70
     1
 10
0.0
 20
0.0
 30
0.0
  3
*D12
  1

  0
LINE
  5
8801
  8
3
 62
     0
 10
1554.2944580000001
 20
3570.449548
 30
0.0
 11
926.02191799999991
 21
3570.449548
 31
0.0
  0
LINE
  5
8802
  8
3
 62
     0
 10
971.02191800000026
 20
5070.4495479999996
 30
0.0
 11
971.02191799999991
 21
3660.449548
 31
0.0
  0
INSERT
  5
8803
  8
3
 62
     0
  2
_OPEN
 10
971.02191800000026
 20
5160.4495479999987
 30
0.0
 41
90.0
 42
90.0
 43
90.0
 50
90.0
  0
INSERT
  5
8804
  8
3
 62
     0
  2
_OPEN
 10
971.02191799999991
 20
3570.449548
 30
0.0
 41
90.0
 42
90.0
 43
90.0
 50
270.0
  0
TEXT
  8
3
  40
135
  5
8823
  62
0
  72
0
  71
0
 10
588.522
 20
4126.50
 30
0.000000
  1
1590
  0
POINT
  5
8806
  8
DEFPOINTS
 62
     0
 10
1913.8483900000001
 20
5160.4495479999987
 30
0.0
  0
POINT
  5
8807
  8
DEFPOINTS
 62
     0
 10
1576.7944580000001
 20
3570.449548
 30
0.0
  0
POINT
  5
8808
  8
DEFPOINTS
 62
     0
 10
971.02191799999991
 20
3570.449548
 30
0.0
  0
ENDBLK
  5
82F3
  8
0
  0
BLOCK
  8
0
  2
*D13
 70
     1
 10
0.0
 20
0.0
 30
0.0
  3
*D13
  1

  0
LINE
  5
8732
  8
3
 62
     0
 10
1576.7944580000001
 20
3547.949548
 30
0.0
 11
1576.7944580000001
 21
3024.07006
 31
0.0
  0
LINE
  5
8733
  8
3
 62
     0
 10
4116.7944580000003
 20
3288.1840739999998
 30
0.0
 11
4116.7944580000003
 21
3024.07006
 31
0.0
  0
LINE
  5
8734
  8
3
 62
     0
 10
1666.7944580000001
 20
3069.07006
 30
0.0
 11
4026.7944579999998
 21
3069.07006
 31
0.0
  0
INSERT
  5
8735
  8
3
 62
     0
  2
_OPEN
 10
1576.7944580000001
 20
3069.07006
 30
0.0
 41
90.0
 42
90.0
 43
90.0
 50
180.0
  0
INSERT
  5
8736
  8
3
 62
     0
  2
_OPEN
 10
4116.7944580000003
 20
3069.07006
 30
0.0
 41
90.0
 42
90.0
 43
90.0
  0
TEXT
  5
8737
  8
1
 62
     0
 10
2841.0120401428571
 20
3114.07006
 30
0.0
 40
135.0
  1
2540
  0
POINT
  5
8738
  8
DEFPOINTS
 62
     0
 10
1576.7944580000001
 20
3570.449548
 30
0.0
  0
POINT
  5
8739
  8
DEFPOINTS
 62
     0
 10
4116.7944580000003
 20
3310.6840739999989
 30
0.0
  0
POINT
  5
873A
  8
DEFPOINTS
 62
     0
 10
4116.7944580000003
 20
3069.07006
 30
0.0
  0
ENDBLK
  5
82DE
  8
0
  0
BLOCK
  8
0
  2
*D14
 70
     1
 10
0.0
 20
0.0
 30
0.0
  3
*D14
  1

  0
LINE
  5
8809
  8
3
 62
     0
 10
5176.7944579999994
 20
3547.949548
 30
0.0
 11
5176.7944579999994
 21
3024.07006
 31
0.0
  0
LINE
  5
880A
  8
3
 62
     0
 10
4206.7944580000003
 20
3069.07006
 30
0.0
 11
5086.7944579999994
 21
3069.07006
 31
0.0
  0
INSERT
  5
880B
  8
3
 62
     0
  2
_OPEN
 10
4116.7944580000003
 20
3069.07006
 30
0.0
 41
90.0
 42
90.0
 43
90.0
 50
180.0
  0
INSERT
  5
880C
  8
3
 62
     0
  2
_OPEN
 10
5176.7944579999994
 20
3069.07006
 30
0.0
 41
90.0
 42
90.0
 43
90.0
  0
TEXT
  8
3
  40
135
  5
8824
  62
0
  72
0
  71
0
 10
4376.79
 20
2942.62
 30
0.000000
  1
1060
  0
POINT
  5
880E
  8
DEFPOINTS
 62
     0
 10
4116.7944580000003
 20
3310.6840739999989
 30
0.0
  0
POINT
  5
880F
  8
DEFPOINTS
 62
     0
 10
5176.7944579999994
 20
3570.449548
 30
0.0
  0
POINT
  5
8810
  8
DEFPOINTS
 62
     0
 10
5176.7944579999994
 20
3069.07006
 30
0.0
  0
ENDBLK
  5
821D
  8
0
  0
BLOCK
  8
0
  2
*D15
 70
     1
 10
0.0
 20
0.0
 30
0.0
  3
*D15
  1

  0
LINE
  5
8743
  8
3
 62
     0
 10
1576.7944580000001
 20
3547.949548
 30
0.0
 11
1576.7944580000001
 21
2698.6179480000001
 31
0.0
  0
LINE
  5
8744
  8
3
 62
     0
 10
5176.7944579999994
 20
3547.949548
 30
0.0
 11
5176.7944579999994
 21
2698.6179480000001
 31
0.0
  0
LINE
  5
8745
  8
3
 62
     0
 10
1666.7944580000001
 20
2743.6179480000001
 30
0.0
 11
5086.7944579999994
 21
2743.6179480000001
 31
0.0
  0
INSERT
  5
8746
  8
3
 62
     0
  2
_OPEN
 10
1576.7944580000001
 20
2743.6179480000001
 30
0.0
 41
90.0
 42
90.0
 43
90.0
 50
180.0
  0
INSERT
  5
8747
  8
3
 62
     0
  2
_OPEN
 10
5176.7944579999994
 20
2743.6179480000001
 30
0.0
 41
90.0
 42
90.0
 43
90.0
  0
TEXT
  5
8748
  8
1
 62
     0
 10
3244.1509531428569
 20
2788.6179480000001
 30
0.0
 40
135.0
  1
3600
  0
POINT
  5
8749
  8
DEFPOINTS
 62
     0
 10
1576.7944580000001
 20
3570.449548
 30
0.0
  0
POINT
  5
874A
  8
DEFPOINTS
 62
     0
 10
5176.7944579999994
 20
3570.449548
 30
0.0
  0
POINT
  5
874B
  8
DEFPOINTS
 62
     0
 10
5176.7944579999994
 20
2743.6179480000001
 30
0.0
  0
ENDBLK
  5
82D3
  8
0
  0
BLOCK
  8
0
  2
*D16
 70
     1
 10
0.0
 20
0.0
 30
0.0
  3
*D16
  1

  0
LINE
  5
8755
  8
3
 62
     0
 10
6486.6376499999997
 20
3547.949548
 30
0.0
 11
6486.6376499999997
 21
3024.07006
 31
0.0
  0
LINE
  5
8756
  8
3
 62
     0
 10
7597.6376499999997
 20
3323.2437049999999
 30
0.0
 11
7597.6376499999997
 21
3024.07006
 31
0.0
  0
LINE
  5
8757
  8
3
 62
     0
 10
6576.6376499999988
 20
3069.07006
 30
0.0
 11
7507.6376499999988
 21
3069.07006
 31
0.0
  0
INSERT
  5
8758
  8
3
 62
     0
  2
_OPEN
 10
6486.6376499999997
 20
3069.07006
 30
0.0
 41
90.0
 42
90.0
 43
90.0
 50
180.0
  0
INSERT
  5
8759
  8
3
 62
     0
  2
_OPEN
 10
7597.6376499999997
 20
3069.07006
 30
0.0
 41
90.0
 42
90.0
 43
90.0
  0
TEXT
  5
875A
  8
1
 62
     0
 10
6894.2803011428559
 20
3114.07006
 30
0.0
 40
135.0
  1
1111
  0
POINT
  5
875B
  8
DEFPOINTS
 62
     0
 10
6486.6376499999997
 20
3570.449548
 30
0.0
  0
POINT
  5
875C
  8
DEFPOINTS
 62
     0
 10
7597.6376499999997
 20
3345.743704999999
 30
0.0
  0
POINT
  5
875D
  8
DEFPOINTS
 62
     0
 10
7597.6376499999997
 20
3069.07006
 30
0.0
  0
ENDBLK
  5
8237
  8
0
  0
BLOCK
  8
0
  2
*D17
 70
     1
 10
0.0
 20
0.0
 30
0.0
  3
*D17
  1

  0
LINE
  5
8811
  8
3
 62
     0
 10
8336.6376500000006
 20
3547.949548
 30
0.0
 11
8336.6376500000006
 21
3024.07006
 31
0.0
  0
LINE
  5
8812
  8
3
 62
     0
 10
7687.6376499999988
 20
3069.07006
 30
0.0
 11
8246.6376500000024
 21
3069.07006
 31
0.0
  0
INSERT
  5
8813
  8
3
 62
     0
  2
_OPEN
 10
7597.6376499999997
 20
3069.07006
 30
0.0
 41
90.0
 42
90.0
 43
90.0
 50
180.0
  0
INSERT
  5
8814
  8
3
 62
     0
  2
_OPEN
 10
8336.6376500000006
 20
3069.07006
 30
0.0
 41
90.0
 42
90.0
 43
90.0
  0
TEXT
  8
3
  40
135
  5
8825
  62
0
  72
0
  71
0
 10
7697.14
 20
2942.62
 30
0.000000
  1
739
  0
POINT
  5
8816
  8
DEFPOINTS
 62
     0
 10
7597.6376499999997
 20
3345.743704999999
 30
0.0
  0
POINT
  5
8817
  8
DEFPOINTS
 62
     0
 10
8336.6376500000006
 20
3570.449548
 30
0.0
  0
POINT
  5
8818
  8
DEFPOINTS
 62
     0
 10
8336.6376500000006
 20
3069.07006
 30
0.0
  0
ENDBLK
  5
8243
  8
0
  0
BLOCK
  8
0
  2
*D18
 70
     1
 10
0.0
 20
0.0
 30
0.0
  3
*D18
  1

  0
LINE
  5
8766
  8
3
 62
     0
 10
6486.6376499999997
 20
3547.949548
 30
0.0
 11
6486.6376499999997
 21
2698.6179480000001
 31
0.0
  0
LINE
  5
8767
  8
3
 62
     0
 10
8336.6376500000006
 20
3547.949548
 30
0.0
 11
8336.6376500000006
 21
2698.6179480000001
 31
0.0
  0
LINE
  5
8768
  8
3
 62
     0
 10
6576.6376499999988
 20
2743.6179480000001
 30
0.0
 11
8246.6376500000024
 21
2743.6179480000001
 31
0.0
  0
INSERT
  5
8769
  8
3
 62
     0
  2
_OPEN
 10
6486.6376499999997
 20
2743.6179480000001
 30
0.0
 41
90.0
 42
90.0
 43
90.0
 50
180.0
  0
INSERT
  5
876A
  8
3
 62
     0
  2
_OPEN
 10
8336.6376500000006
 20
2743.6179480000001
 30
0.0
 41
90.0
 42
90.0
 43
90.0
  0
TEXT
  5
876B
  8
1
 62
     0
 10
7261.8346590000001
 20
2788.6179480000001
 30
0.0
 40
135.0
  1
1850
  0
POINT
  5
876C
  8
DEFPOINTS
 62
     0
 10
6486.6376499999997
 20
3570.449548
 30
0.0
  0
POINT
  5
876D
  8
DEFPOINTS
 62
     0
 10
8336.6376500000006
 20
3570.449548
 30
0.0
  0
POINT
  5
876E
  8
DEFPOINTS
 62
     0
 10
8336.6376500000006
 20
2743.6179480000001
 30
0.0
  0
ENDBLK
  5
8250
  8
0
  0
BLOCK
  8
0
  2
*D19
 70
     1
 10
0.0
 20
0.0
 30
0.0
  3
*D19
  1

  0
LINE
  5
8254
  8
0
  6
BYBLOCK
 62
     0
 10
8415.1376500000006
 20
6060.4495479999996
 30
0.0
 11
8822.5519079999995
 21
6060.4495479999996
 31
0.0
  0
LINE
  5
8255
  8
0
  6
BYBLOCK
 62
     0
 10
8415.1376500000006
 20
4260.4495479999987
 30
0.0
 11
8822.5519079999995
 21
4260.4495479999987
 31
0.0
  0
LINE
  5
8256
  8
0
  6
BYBLOCK
 62
     0
 10
8777.5519079999995
 20
5970.4495479999996
 30
0.0
 11
8777.5519079999995
 21
4350.4495479999987
 31
0.0
  0
INSERT
  5
8257
  8
0
  6
BYBLOCK
 62
     0
  2
_OPEN
 10
8777.5519079999995
 20
6060.4495479999996
 30
0.0
 41
90.0
 42
90.0
 43
90.0
 50
90.0
  0
INSERT
  5
8258
  8
0
  6
BYBLOCK
 62
     0
  2
_OPEN
 10
8777.5519079999995
 20
4260.4495479999987
 30
0.0
 41
90.0
 42
90.0
 43
90.0
 50
270.0
  0
TEXT
  5
8259
  8
1
 62
     0
 10
8732.5519079999995
 20
4813.6592989999999
 30
0.0
 40
135.0
  1
φ1800
 50
90.0
  0
POINT
  5
825A
  8
DEFPOINTS
  6
BYBLOCK
 62
     0
 10
8392.6376500000006
 20
6060.4495479999996
 30
0.0
  0
POINT
  5
825B
  8
DEFPOINTS
  6
BYBLOCK
 62
     0
 10
8392.6376500000006
 20
4260.4495479999987
 30
0.0
  0
POINT
  5
825C
  8
DEFPOINTS
  6
BYBLOCK
 62
     0
 10
8777.5519079999995
 20
4260.4495479999987
 30
0.0
  0
ENDBLK
  5
825D
  8
0
  0
BLOCK
  8
0
  2
*D20
 70
     1
 10
0.0
 20
0.0
 30
0.0
  3
*D20
  1

  0
LINE
  5
8261
  8
0
  6
BYBLOCK
 62
     0
 10
6937.6376499999988
 20
6347.9495479999987
 30
0.0
 11
6937.6376499999988
 21
6561.4518230000003
 31
0.0
  0
LINE
  5
8262
  8
0
  6
BYBLOCK
 62
     0
 10
8257.6376500000006
 20
6347.9495479999987
 30
0.0
 11
8257.6376500000006
 21
6561.4518230000003
 31
0.0
  0
LINE
  5
8263
  8
0
  6
BYBLOCK
 62
     0
 10
7027.6376499999988
 20
6516.4518230000003
 30
0.0
 11
8167.6376500000006
 21
6516.4518230000003
 31
0.0
  0
INSERT
  5
8264
  8
0
  6
BYBLOCK
 62
     0
  2
_OPEN
 10
6937.6376499999988
 20
6516.4518230000003
 30
0.0
 41
90.0
 42
90.0
 43
90.0
 50
180.0
  0
INSERT
  5
8265
  8
0
  6
BYBLOCK
 62
     0
  2
_OPEN
 10
8257.6376500000006
 20
6516.4518230000003
 30
0.0
 41
90.0
 42
90.0
 43
90.0
  0
TEXT
  5
8266
  8
1
 62
     0
 10
7334.2113310000004
 20
6561.4518230000003
 30
0.0
 40
135.0
  1
1320
  0
POINT
  5
8267
  8
DEFPOINTS
  6
BYBLOCK
 62
     0
 10
6937.6376499999988
 20
6325.4495479999987
 30
0.0
  0
POINT
  5
8268
  8
DEFPOINTS
  6
BYBLOCK
 62
     0
 10
8257.6376500000006
 20
6325.4495479999987
 30
0.0
  0
POINT
  5
8269
  8
DEFPOINTS
  6
BYBLOCK
 62
     0
 10
8257.6376500000006
 20
6516.4518230000003
 30
0.0
  0
ENDBLK
  5
826A
  8
0
  0
BLOCK
  8
0
  2
*D21
 70
     1
 10
0.0
 20
0.0
 30
0.0
  3
*D21
  1

  0
LINE
  5
826E
  8
0
  6
BYBLOCK
 62
     0
 10
8392.6376500000006
 20
6147.9495479999987
 30
0.0
 11
8392.6376500000006
 21
6971.2804430000006
 31
0.0
  0
LINE
  5
826F
  8
0
  6
BYBLOCK
 62
     0
 10
7597.6376499999997
 20
6738.8326290000005
 30
0.0
 11
7597.6376499999997
 21
6971.2804430000006
 31
0.0
  0
LINE
  5
8270
  8
0
  6
BYBLOCK
 62
     0
 10
8302.6376500000006
 20
6926.2804429999997
 30
0.0
 11
7687.6376499999988
 21
6926.2804429999997
 31
0.0
  0
INSERT
  5
8271
  8
0
  6
BYBLOCK
 62
     0
  2
_OPEN
 10
8392.6376500000006
 20
6926.2804429999997
 30
0.0
 41
90.0
 42
90.0
 43
90.0
  0
INSERT
  5
8272
  8
0
  6
BYBLOCK
 62
     0
  2
_OPEN
 10
7597.6376499999997
 20
6926.2804429999997
 30
0.0
 41
90.0
 42
90.0
 43
90.0
 50
180.0
  0
TEXT
  5
8273
  8
1
 62
     0
 10
7831.9626874285714
 20
6971.2804430000006
 30
0.0
 40
135.0
  1
795
  0
POINT
  5
8274
  8
DEFPOINTS
  6
BYBLOCK
 62
     0
 10
8392.6376500000006
 20
6125.4495479999987
 30
0.0
  0
POINT
  5
8275
  8
DEFPOINTS
  6
BYBLOCK
 62
     0
 10
7597.6376499999997
 20
6716.3326290000005
 30
0.0
  0
POINT
  5
8276
  8
DEFPOINTS
  6
BYBLOCK
 62
     0
 10
7597.6376499999997
 20
6926.2804429999997
 30
0.0
  0
ENDBLK
  5
8277
  8
0
  0
BLOCK
  8
0
  2
*D22
 70
     1
 10
0.0
 20
0.0
 30
0.0
  3
*D22
  1

  0
LINE
  5
8819
  8
3
 62
     0
 10
6497.6376499999997
 20
5662.9495479999996
 30
0.0
 11
6497.6376499999997
 21
6971.2804430000006
 31
0.0
  0
LINE
  5
881A
  8
3
 62
     0
 10
7507.6376499999988
 20
6926.2804429999997
 30
0.0
 11
6587.6376499999988
 21
6926.2804429999997
 31
0.0
  0
INSERT
  5
881B
  8
3
 62
     0
  2
_OPEN
 10
7597.6376499999997
 20
6926.2804429999997
 30
0.0
 41
90.0
 42
90.0
 43
90.0
  0
INSERT
  5
881C
  8
3
 62
     0
  2
_OPEN
 10
6497.6376499999997
 20
6926.2804429999997
 30
0.0
 41
90.0
 42
90.0
 43
90.0
 50
180.0
  0
TEXT
  8
3
  40
135
  5
8826
  62
0
  72
0
  71
0
 10
6777.64
 20
6835.19
 30
0.000000
  1
(1150)
  0
POINT
  5
881E
  8
DEFPOINTS
 62
     0
 10
7597.6376499999997
 20
6716.3326290000005
 30
0.0
  0
POINT
  5
881F
  8
DEFPOINTS
 62
     0
 10
6497.6376499999997
 20
5640.4495479999987
 30
0.0
  0
POINT
  5
8820
  8
DEFPOINTS
 62
     0
 10
6497.6376499999997
 20
6926.2804429999997
 30
0.0
  0
ENDBLK
  5
8283
  8
0
  0
ENDSEC
  0
SECTION
  2
ENTITIES
  0
INSERT
  5
7ADD
  8
0
  2
YA_N
 10
12518.736613999999
 20
-6524.6833909999987
 30
0.0
  0
INSERT
  5
7AF5
  8
0
  2
YA_N
 10
18386.038918999999
 20
2975.8020809999989
 30
0.0
  0
INSERT
  5
7DA2
  8
0
  2
YA_N
 10
12518.736613999999
 20
-6524.6833909999987
 30
0.0
  0
INSERT
  5
7DB4
  8
0
  2
YA_N
 10
18386.038918999999
 20
2975.8020809999989
 30
0.0
  0
LINE
  5
80D7
  8
1
 10
6869.6376499999997
 20
6325.4495479999987
 30
0.0
 11
8325.6376500000006
 21
6325.4495479999987
 31
0.0
  0
LINE
  5
80D8
  8
1
 10
6869.6376499999997
 20
6260.4495479999996
 30
0.0
 11
8325.6376500000006
 21
6260.4495479999987
 31
0.0
  0
LINE
  5
80D9
  8
1
 10
6486.6376499999997
 20
3720.4495479999991
 30
0.0
 11
8336.6376500000006
 21
3720.4495479999991
 31
0.0
  0
LINE
  5
80DA
  8
1
 10
6486.6376499999997
 20
3570.449548
 30
0.0
 11
8336.6376500000006
 21
3570.449548
 31
0.0
  0
LINE
  5
80DB
  8
1
 10
4109.7944579999994
 20
6325.4495479999987
 30
0.0
 11
2133.7944579999998
 21
6325.4495479999987
 31
0.0
  0
LINE
  5
80DC
  8
1
 10
4045.7944579999989
 20
6260.4495479999996
 30
0.0
 11
2201.6147569999989
 21
6260.4495479999996
 31
0.0
  0
ARC
  5
80DD
  8
1
 10
3985.7944579999998
 20
5291.4495479999996
 30
0.0
 40
1685.0
 50
185.3879409999999
 51
270.0
  0
LINE
  5
80DE
  8
1
 10
2195.5046199999988
 20
6325.2335810000004
 30
0.0
 11
2305.949372
 21
5133.0141469999999
 31
0.0
  0
ARC
  5
80DF
  8
1
 10
1946.7944579999989
 20
4070.449548
 30
0.0
 40
280.0
 50
122.67418499999999
 51
292.86573199999992
  0
ARC
  5
80E0
  8
1
 10
3985.7944579999998
 20
5029.4495479999987
 30
0.0
 40
1423.0
 50
270.0
 51
0.0
  0
LINE
  5
80E1
  8
2
 10
1913.8483900000001
 20
5160.4495479999987
 30
0.0
 11
5701.5520390000001
 21
5160.4495479999987
 31
0.0
  0
ARC
  5
80E2
  8
1
 10
4227.2944579999994
 20
5049.9495479999996
 30
0.0
 40
1181.4999999999991
 50
359.00582100000003
 51
90.0
  0
ARC
  5
80E3
  8
1
 10
4116.7944580000003
 20
5160.4495479999987
 30
0.0
 40
965.0
 50
180.0
 51
180.5343729999999
  0
LINE
  5
80E4
  8
1
 10
4045.7944579999989
 20
6214.1451800000004
 30
0.0
 11
4045.7944579999989
 21
6325.4495479999987
 31
0.0
  0
LINE
  5
80E5
  8
2
 10
4116.7944580000003
 20
3310.6840739999989
 30
0.0
 11
4116.7944580000003
 21
6619.244424999999
 31
0.0
  0
ARC
  5
80E6
  8
1
 10
4227.2944579999994
 20
5270.9495479999987
 30
0.0
 40
960.5
 50
90.0
 51
100.892335
  0
LINE
  5
80E7
  8
1
 10
6561.6376499999997
 20
3720.4495479999991
 30
0.0
 11
6486.6376499999997
 21
3720.4495479999991
 31
0.0
  0
LINE
  5
80EA
  8
2
 10
7597.6376499999997
 20
3345.743704999999
 30
0.0
 11
7597.6376499999997
 21
6528.0706770000006
 31
0.0
  0
LINE
  5
80EB
  8
1
 10
8257.6376500000006
 20
5169.4495479999996
 30
0.0
 11
8257.6376500000006
 21
6325.4495479999987
 31
0.0
  0
LINE
  5
80EC
  8
1
 10
8392.6376500000006
 20
4195.4495479999996
 30
0.0
 11
8392.6376500000006
 21
6125.4495479999987
 31
0.0
  0
LINE
  5
80ED
  8
1
 10
8257.6376500000006
 20
3720.4495479999991
 30
0.0
 11
8257.6376500000006
 21
5151.4495479999987
 31
0.0
  0
LINE
  5
80EE
  8
1
 10
8261.6376500000006
 20
3570.449548
 30
0.0
 11
8336.6376500000006
 21
3570.449548
 31
0.0
  0
LINE
  5
80EF
  8
1
 10
8261.6376500000006
 20
3720.4495479999991
 30
0.0
 11
8336.6376500000006
 21
3720.4495479999991
 31
0.0
  0
LINE
  5
80F0
  8
1
 10
8257.6376500000006
 20
4260.4495479999987
 30
0.0
 11
8392.6376500000006
 21
4260.4495479999987
 31
0.0
  0
LINE
  5
80F1
  8
1
 10
8257.6376500000006
 20
6060.4495479999996
 30
0.0
 11
8392.6376500000006
 21
6060.4495479999996
 31
0.0
  0
LINE
  5
80F5
  8
1
 10
5176.7944579999994
 20
3570.449548
 30
0.0
 11
1576.7944580000001
 21
3570.449548
 31
0.0
  0
LINE
  5
80F6
  8
1
 10
5176.7944579999994
 20
3720.4495479999991
 30
0.0
 11
1576.7944580000001
 21
3720.4495479999991
 31
0.0
  0
LINE
  5
80F7
  8
1
 10
2126.7944579999989
 20
9039.0635380000003
 30
0.0
 11
1576.7944580000001
 21
9039.0635380000003
 31
0.0
  0
LINE
  5
80F8
  8
1
 10
5176.7944579999994
 20
7839.0635380000012
 30
0.0
 11
1576.7944579999989
 21
7839.0635380000012
 31
0.0
  0
LINE
  5
80FA
  8
1
 10
5176.7944579999994
 20
3720.4495479999991
 30
0.0
 11
5176.7944579999994
 21
3570.449548
 31
0.0
  0
LINE
  5
80FB
  8
1
 10
5176.7944579999994
 20
9689.0635380000003
 30
0.0
 11
5016.7944580000003
 21
9689.0635380000003
 31
0.0
  0
LINE
  5
80FC
  8
1
 10
5176.7944579999994
 20
7839.0635380000012
 30
0.0
 11
5176.7944579999994
 21
8290.0635380000003
 31
0.0
  0
LINE
  5
80FD
  8
2
 10
4116.7944580000003
 20
7794.7701880000004
 30
0.0
 11
4116.7944580000003
 21
9767.8716100000001
 31
0.0
  0
LINE
  5
80FF
  8
2
 10
1946.7944579999989
 20
3647.651617999999
 30
0.0
 11
1946.7944579999989
 21
4552.4484000000002
 31
0.0
  0
LINE
  5
8101
  8
1
 10
1576.7944580000001
 20
3720.4495479999991
 30
0.0
 11
1576.7944580000001
 21
3570.449548
 31
0.0
  0
LINE
  5
8102
  8
1
 10
1576.7944580000001
 20
7839.0635380000012
 30
0.0
 11
1576.7944580000001
 21
9039.0635380000003
 31
0.0
  0
INSERT
  5
8103
  8
0
  2
YA_N
 10
12518.736613999999
 20
-6524.6833909999987
 30
0.0
  0
CIRCLE
  5
8104
  8
1
 10
4116.7944580000003
 20
5160.4495479999987
 30
0.0
 40
400.0
  0
LINE
  5
8105
  8
2
 10
6397.6376499999997
 20
5160.4495479999987
 30
0.0
 11
8498.3907209999998
 21
5160.4495479999987
 31
0.0
  0
LINE
  5
8106
  8
1
 10
6497.6376499999997
 20
4015.4495479999991
 30
0.0
 11
6497.6376499999997
 21
5640.4495479999987
 31
0.0
  0
LINE
  5
8107
  8
1
 10
6697.6376499999997
 20
5640.4495479999987
 30
0.0
 11
6697.6376499999997
 21
4015.4495479999991
 31
0.0
  0
LINE
  5
8108
  8
1
 10
6697.6376499999997
 20
4015.4495479999991
 30
0.0
 11
6497.6376499999997
 21
4015.4495479999991
 31
0.0
  0
LINE
  5
8109
  8
1
 10
6657.6376499999988
 20
4150.4495479999996
 30
0.0
 11
6657.6376499999988
 21
4480.4495479999996
 31
0.0
  0
LINE
  5
810A
  8
1
 10
6537.6376499999988
 20
4150.4495479999996
 30
0.0
 11
6537.6376499999988
 21
4480.4495479999996
 31
0.0
  0
LINE
  5
810B
  8
1
 10
6537.6376499999988
 20
5560.4495479999996
 30
0.0
 11
6657.6376499999988
 21
5560.4495479999996
 31
0.0
  0
LINE
  5
810C
  8
1
 10
6657.6376499999988
 20
4760.4495479999987
 30
0.0
 11
6537.6376499999988
 21
4760.4495479999987
 31
0.0
  0
LINE
  5
810D
  8
1
 10
6537.6376499999988
 20
4480.4495479999996
 30
0.0
 11
6537.6376499999988
 21
5560.4495479999996
 31
0.0
  0
LINE
  5
810E
  8
1
 10
6657.6376499999988
 20
4480.4495479999996
 30
0.0
 11
6657.6376499999988
 21
5560.4495479999996
 31
0.0
  0
LINE
  5
810F
  8
2
 10
6597.6376499999997
 20
5606.2975479999996
 30
0.0
 11
6597.6376499999997
 21
3915.1454729999991
 31
0.0
  0
LINE
  5
8110
  8
1
 10
6697.6376499999997
 20
5640.4495479999987
 30
0.0
 11
6497.6376499999997
 21
5640.4495479999987
 31
0.0
  0
ARC
  5
8111
  8
1
 10
4116.7934580000001
 20
5160.4495479999987
 30
0.0
 40
480.0
 50
292.86573199999992
 51
122.67418499999999
  0
LINE
  5
8112
  8
2
 10
6463.3366500000011
 20
4300.4495479999987
 30
0.0
 11
7258.8748049999986
 21
4300.4495479999987
 31
0.0
  0
LINE
  5
8113
  8
1
 10
6537.6376499999988
 20
4450.4495479999987
 30
0.0
 11
6657.6376499999988
 21
4450.4495479999987
 31
0.0
  0
LINE
  5
8114
  8
1
 10
6537.6376499999988
 20
4150.4495479999996
 30
0.0
 11
6657.6376499999988
 21
4150.4495479999996
 31
0.0
  0
INSERT
  5
8115
  8
0
  2
YA_N
 10
18386.038918999999
 20
2975.8020809999989
 30
0.0
  0
CIRCLE
  5
8116
  8
1
 10
1946.7944579999989
 20
4070.449548
 30
0.0
 40
150.0
  0
ARC
  5
8117
  8
1
 10
1946.7944579999989
 20
4070.449548
 30
0.0
 40
310.0
 50
300.10230799999988
 51
239.89769200000001
  0
LINE
  5
8118
  8
1
 10
1596.7944580000001
 20
3790.4495479999991
 30
0.0
 11
2296.7944579999989
 21
3790.4495479999991
 31
0.0
  0
LINE
  5
8119
  8
2
 10
1609.3354939999999
 20
4070.449548
 30
0.0
 11
2290.07168
 21
4070.449548
 31
0.0
  0
LINE
  5
811A
  8
1
 10
1791.315325999999
 20
3802.258871
 30
0.0
 11
2102.2735899999989
 21
3802.258871
 31
0.0
  0
LINE
  5
811B
  8
1
 10
1596.7944580000001
 20
3790.4495479999991
 30
0.0
 11
1776.7944580000001
 21
3790.4495479999991
 31
0.0
  0
LINE
  5
811C
  8
1
 10
1666.7944580000001
 20
3937.4082009999988
 30
0.0
 11
1666.7944580000001
 21
3790.4495479999991
 31
0.0
  0
LINE
  5
811D
  8
1
 10
1596.7944580000001
 20
3790.4495479999991
 30
0.0
 11
1596.7944580000001
 21
3720.4495479999991
 31
0.0
  0
LINE
  5
811E
  8
1
 10
2226.7944579999998
 20
3937.4082009999988
 30
0.0
 11
2226.7944579999998
 21
3790.4495479999991
 31
0.0
  0
LINE
  5
811F
  8
1
 10
2296.7944579999989
 20
3790.4495479999991
 30
0.0
 11
2296.7944579999989
 21
3720.4495479999991
 31
0.0
  0
LINE
  5
8120
  8
1
 10
3857.6601209999999
 20
5564.4915190000002
 30
0.0
 11
1795.6333449999991
 21
4306.1406979999992
 31
0.0
  0
LINE
  5
8121
  8
1
 10
4303.3084669999989
 20
4718.1689229999993
 30
0.0
 11
2055.5948800000001
 21
3812.4525170000002
 31
0.0
  0
LINE
  5
8122
  8
1
 10
3893.6705780000002
 20
5492.4371000000001
 30
0.0
 11
1863.1230029999999
 21
4194.94488
 31
0.0
  0
LINE
  5
8123
  8
1
 10
4264.2742669999998
 20
4788.6300950000013
 30
0.0
 11
2002.0993860000001
 21
3931.017253
 31
0.0
  0
LINE
  5
8124
  8
1
 10
6486.6376499999997
 20
3720.4495479999991
 30
0.0
 11
6486.6376499999997
 21
3570.449548
 31
0.0
  0
LINE
  5
8125
  8
1
 10
8336.6376500000006
 20
3720.4495479999991
 30
0.0
 11
8336.6376500000006
 21
3570.449548
 31
0.0
  0
LINE
  5
812E
  8
2
 10
5646.9383950000001
 20
8950.0635380000003
 30
0.0
 11
1399.831682
 21
8950.0635380000003
 31
0.0
  0
LINE
  5
812F
  8
1
 10
2195.7944579999989
 20
8290.0635380000003
 30
0.0
 11
2195.7944579999989
 21
9610.0635380000003
 31
0.0
  0
LINE
  5
8130
  8
1
 10
5408.7944580000003
 20
8290.0635380000003
 30
0.0
 11
5408.7944580000003
 21
9610.0635380000003
 31
0.0
  0
LINE
  5
8131
  8
1
 10
5408.7944580000003
 20
9610.0635380000003
 30
0.0
 11
2195.7944579999989
 21
9610.0635380000003
 31
0.0
  0
LINE
  5
8132
  8
1
 10
5408.7944580000003
 20
8290.0635380000003
 30
0.0
 11
2195.7944579999989
 21
8290.0635380000003
 31
0.0
  0
LINE
  5
8133
  8
1
 10
5176.7944579999994
 20
9610.0635380000003
 30
0.0
 11
5176.7944579999994
 21
9689.0635380000003
 31
0.0
  0
LINE
  5
8134
  8
1
 10
3056.7944579999998
 20
9679.0635380000022
 30
0.0
 11
3056.7944579999998
 21
9689.0635380000003
 31
0.0
  0
LINE
  5
8135
  8
1
 10
4045.7944579999989
 20
8290.0635380000003
 30
0.0
 11
4045.7944579999989
 21
9610.0635380000003
 31
0.0
  0
LINE
  5
8136
  8
1
 10
4045.7944579999989
 20
9610.0635380000003
 30
0.0
 11
2195.7944579999989
 21
8290.0635380000003
 31
0.0
  0
LINE
  5
8137
  8
1
 10
2195.7944579999989
 20
9610.0635380000003
 30
0.0
 11
4045.7944579999989
 21
8290.0635380000003
 31
0.0
  0
LINE
  5
8138
  8
1
 10
1796.7944580000001
 20
7890.0635379999994
 30
0.0
 11
1796.7944580000001
 21
8010.0635380000003
 31
0.0
  0
LINE
  5
8139
  8
1
 10
2096.7944579999989
 20
7890.0635379999994
 30
0.0
 11
2096.7944579999989
 21
8010.0635380000003
 31
0.0
  0
LINE
  5
813A
  8
1
 10
1946.7944579999989
 20
7815.7625379999999
 30
0.0
 11
1946.7944579999989
 21
8163.5635380000003
 31
0.0
  0
LINE
  5
813B
  8
1
 10
4596.7944579999994
 20
8050.0635379999994
 30
0.0
 11
4596.7944579999994
 21
7850.0635379999994
 31
0.0
  0
LINE
  5
813C
  8
1
 10
3716.7944579999989
 20
8010.0635380000003
 30
0.0
 11
3716.7944579999989
 21
7890.0635379999994
 31
0.0
  0
LINE
  5
813D
  8
1
 10
4516.7944579999994
 20
7890.0635379999994
 30
0.0
 11
4516.7944579999994
 21
8010.0635380000003
 31
0.0
  0
LINE
  5
813E
  8
1
 10
1661.7944580000001
 20
8050.0635379999994
 30
0.0
 11
1661.7944580000001
 21
7850.0635379999994
 31
0.0
  0
LINE
  5
813F
  8
1
 10
1796.7944580000001
 20
7890.0635379999994
 30
0.0
 11
2096.7944579999989
 21
7890.0635379999994
 31
0.0
  0
LINE
  5
8140
  8
1
 10
1661.7944580000001
 20
7850.0635379999994
 30
0.0
 11
4596.7944579999994
 21
7850.0635379999994
 31
0.0
  0
LINE
  5
8141
  8
2
 10
4562.6424580000003
 20
7950.0635379999994
 30
0.0
 11
1740.3434139999999
 21
7950.0635379999994
 31
0.0
  0
LINE
  5
8142
  8
1
 10
3716.7944579999989
 20
7890.0635379999994
 30
0.0
 11
4516.7944579999994
 21
7890.0635379999994
 31
0.0
  0
LINE
  5
8143
  8
1
 10
1796.7944580000001
 20
8010.0635380000003
 30
0.0
 11
2096.7944579999989
 21
8010.0635380000003
 31
0.0
  0
LINE
  5
8144
  8
1
 10
4596.7944579999994
 20
8050.0635379999994
 30
0.0
 11
1661.7944580000001
 21
8050.0635379999994
 31
0.0
  0
LINE
  5
8145
  8
1
 10
3716.7944579999989
 20
8010.0635380000003
 30
0.0
 11
4516.7944579999994
 21
8010.0635380000003
 31
0.0
  0
LINE
  5
8146
  8
1
 10
6657.6376499999988
 20
5205.4495479999996
 30
0.0
 11
6937.6376499999988
 21
5205.4495479999996
 31
0.0
  0
LINE
  5
8147
  8
1
 10
6657.6376499999988
 20
5115.4495479999987
 30
0.0
 11
6937.6376499999988
 21
5115.4495479999987
 31
0.0
  0
LINE
  5
8148
  8
1
 10
1676.7944580000001
 20
8989.0635380000003
 30
0.0
 11
1676.7944580000001
 21
8136.5635380000003
 31
0.0
  0
LINE
  5
8149
  8
1
 10
2234.2944579999989
 20
8136.5635380000003
 30
0.0
 11
2234.2944579999998
 21
8221.0635380000022
 31
0.0
  0
LINE
  5
814A
  8
2
 10
1946.7944579999989
 20
7930.5669569999991
 30
0.0
 11
1946.7944579999989
 21
9008.3548540000029
 31
0.0
  0
LINE
  5
814B
  8
1
 10
1676.7944580000001
 20
8989.0635380000003
 30
0.0
 11
2126.7944579999989
 21
8989.0635379999985
 31
0.0
  0
LINE
  5
814C
  8
1
 10
2234.2944579999989
 20
8136.5635380000003
 30
0.0
 11
1676.7944580000001
 21
8136.5635380000003
 31
0.0
  0
LINE
  5
814D
  8
1
 10
1861.2944580000001
 20
8130.0635379999994
 30
0.0
 11
2032.2944579999989
 21
8130.0635379999994
 31
0.0
  0
LINE
  5
814E
  8
1
 10
1904.2944580000001
 20
7950.0635379999994
 30
0.0
 11
1994.2944579999989
 21
7950.0635379999994
 31
0.0
  0
LINE
  5
814F
  8
1
 10
1896.7944579999989
 20
8120.0635380000003
 30
0.0
 11
1996.7944579999989
 21
8120.0635380000003
 31
0.0
  0
LINE
  5
8150
  8
1
 10
1904.2944580000001
 20
7950.0635379999994
 30
0.0
 11
1904.2944580000001
 21
8120.0635380000003
 31
0.0
  0
LINE
  5
8151
  8
1
 10
1896.7944579999989
 20
8120.0635380000003
 30
0.0
 11
1896.7944579999989
 21
8130.0635379999994
 31
0.0
  0
ARC
  5
8152
  8
1
 10
1861.2944580000001
 20
8132.0635380000003
 30
0.0
 40
2.0
 50
180.0
 51
270.0
  0
LINE
  5
8153
  8
1
 10
1859.2944580000001
 20
8136.9119129999999
 30
0.0
 11
1859.2944580000001
 21
8132.0635380000003
 31
0.0
  0
LINE
  5
8154
  8
1
 10
1994.2944579999989
 20
7950.0635379999994
 30
0.0
 11
1994.2944579999989
 21
8090.0635380000003
 31
0.0
  0
LINE
  5
8155
  8
1
 10
1989.2944579999989
 20
7950.0635379999994
 30
0.0
 11
1989.2944579999989
 21
8114.5635380000003
 31
0.0
  0
LINE
  5
8156
  8
1
 10
1996.7944579999989
 20
8120.0635380000003
 30
0.0
 11
1996.7944579999989
 21
8130.0635379999994
 31
0.0
  0
ARC
  5
8157
  8
1
 10
2032.2944579999989
 20
8132.0635380000003
 30
0.0
 40
2.0
 50
270.0
 51
0.0
  0
LINE
  5
8158
  8
1
 10
2034.2944579999989
 20
8136.5635380000003
 30
0.0
 11
2034.2944579999989
 21
8132.0635380000003
 31
0.0
  0
LINE
  5
8159
  8
1
 10
1989.2944579999989
 20
8090.0635380000003
 30
0.0
 11
1994.2944579999989
 21
8090.0635380000003
 31
0.0
  0
LINE
  5
815A
  8
1
 10
6937.6376499999988
 20
4570.4495479999996
 30
0.0
 11
6784.1376499999988
 21
4570.4495479999996
 31
0.0
  0
LINE
  5
815B
  8
1
 10
6784.1376499999988
 20
4012.9495479999991
 30
0.0
 11
6937.6376499999988
 21
4012.9495479999991
 31
0.0
  0
LINE
  5
815C
  8
1
 10
6784.1376499999988
 20
4012.9495479999991
 30
0.0
 11
6784.1376499999988
 21
4570.4495479999996
 31
0.0
  0
LINE
  5
815D
  8
1
 10
6777.6376499999988
 20
4385.9495479999996
 30
0.0
 11
6777.6376499999988
 21
4214.9495479999987
 31
0.0
  0
LINE
  5
815E
  8
1
 10
6784.4860249999992
 20
4387.9495479999987
 30
0.0
 11
6779.6376499999988
 21
4387.9495479999987
 31
0.0
  0
ARC
  5
815F
  8
1
 10
6779.6376499999988
 20
4385.9495479999996
 30
0.0
 40
2.0
 50
90.0
 51
180.0
  0
LINE
  5
8160
  8
1
 10
6597.6376499999997
 20
4257.9495479999996
 30
0.0
 11
6762.1376499999988
 21
4257.9495479999996
 31
0.0
  0
LINE
  5
8161
  8
1
 10
6597.6376499999997
 20
4252.9495479999987
 30
0.0
 11
6737.6376499999988
 21
4252.9495479999987
 31
0.0
  0
LINE
  5
8162
  8
1
 10
6597.6376499999997
 20
4342.9495479999987
 30
0.0
 11
6767.6376500000006
 21
4342.9495479999987
 31
0.0
  0
LINE
  5
8163
  8
1
 10
6737.6376499999988
 20
4257.9495479999996
 30
0.0
 11
6737.6376499999988
 21
4252.9495479999987
 31
0.0
  0
LINE
  5
8164
  8
1
 10
6784.1376499999988
 20
4212.9495479999996
 30
0.0
 11
6779.6376499999988
 21
4212.9495479999996
 31
0.0
  0
ARC
  5
8165
  8
1
 10
6779.6376499999988
 20
4214.9495479999987
 30
0.0
 40
2.0
 50
180.0
 51
270.0
  0
LINE
  5
8166
  8
1
 10
6767.6376500000006
 20
4250.4495479999987
 30
0.0
 11
6777.6376499999988
 21
4250.4495479999987
 31
0.0
  0
LINE
  5
8167
  8
1
 10
6767.6376500000006
 20
4350.4495479999987
 30
0.0
 11
6777.6376499999988
 21
4350.4495479999987
 31
0.0
  0
LINE
  5
8168
  8
1
 10
6767.6376500000006
 20
4350.4495479999987
 30
0.0
 11
6767.6376500000006
 21
4250.4495479999987
 31
0.0
  0
LINE
  5
8169
  8
1
 10
6597.6376499999997
 20
4342.9495479999987
 30
0.0
 11
6597.6376499999997
 21
4252.9495479999987
 31
0.0
  0
DIMENSION
  5
8176
  8
3
  2
*D3
 10
3056.7944579999998
 20
10164.14557977394
 30
0.0
 11
4109.723172
 21
10164.14557977394
 31
0.0
 70
   128
 13
5176.7944579999994
 23
9689.0635380000003
 33
0.0
 14
3056.7944579999998
 24
9689.0635380000003
 34
0.0
1001
ACAD
1000
DSTYLE
1002
{
1070
   288
1070
     1
1070
   172
1070
     1
1070
    40
1040
45.0
1070
   287
1070
     3
1070
   271
1070
     0
1070
   143
1040
0.039
1002
}
  0
DIMENSION
  5
8182
  8
3
  2
*D4
 10
1576.7944580000001
 20
10164.14557977394
 30
0.0
 11
2316.7944579999989
 21
10276.64557977394
 31
0.0
 70
     0
 13
3056.7944579999998
 23
9689.0635380000003
 33
0.0
 14
1576.7944580000001
 24
9039.0635380000003
 34
0.0
1001
ACAD
1000
DSTYLE
1002
{
1070
   287
1070
     4
1070
   287
1070
     4
1070
   287
1070
     4
1070
   287
1070
     4
1070
   287
1070
     4
1070
    40
1040
45.0
1070
    75
1070
     1
1070
   143
1040
0.039
1070
   172
1070
     1
1070
   271
1070
     0
1070
   279
1070
     1
1070
   288
1070
     1
1002
}
  0
DIMENSION
  5
818F
  8
3
  2
*D5
 10
5950.851294000001
 20
7839.0635380000012
 30
0.0
 11
5950.8512940000001
 21
8351.9301969999997
 31
0.0
 70
   128
 13
5176.7944579999994
 23
9689.0635380000003
 33
0.0
 14
5176.7944579999994
 24
7839.0635380000012
 34
0.0
 50
90.0
1001
ACAD
1000
DSTYLE
1002
{
1070
   288
1070
     1
1070
   172
1070
     1
1070
    40
1040
45.0
1070
   287
1070
     3
1070
   271
1070
     0
1070
   143
1040
0.039
1002
}
  0
DIMENSION
  5
819C
  8
3
  2
*D6
 10
1293.4377970909779
 20
7839.0635380000012
 30
0.0
 11
1293.437797090977
 21
8470.8323682794216
 31
0.0
 70
   128
 13
1576.7944580000001
 23
9039.0635380000003
 33
0.0
 14
1576.7944580000001
 24
7839.0635380000012
 34
0.0
 50
90.0
1001
ACAD
1000
DSTYLE
1002
{
1070
   288
1070
     1
1070
   172
1070
     1
1070
    40
1040
45.0
1070
   287
1070
     3
1070
   271
1070
     0
1070
   143
1040
0.039
1002
}
  0
DIMENSION
  5
81A9
  8
3
  2
*D7
 10
5176.7944579999994
 20
7464.3202430000019
 30
0.0
 11
3616.813114
 21
7464.3202430000019
 31
0.0
 70
   128
 13
1576.7944580000001
 23
7839.0635380000012
 33
0.0
 14
5176.7944579999994
 24
7839.0635380000012
 34
0.0
1001
ACAD
1000
DSTYLE
1002
{
1070
   288
1070
     1
1070
   172
1070
     1
1070
    40
1040
45.0
1070
   287
1070
     3
1070
   271
1070
     0
1070
   143
1040
0.039
1002
}
  0
DIMENSION
  5
81B6
  8
3
  2
*D8
 10
4116.7944580000003
 20
6781.6350540000003
 30
0.0
 11
4745.1020169999993
 21
6781.6350540000003
 31
0.0
 70
   128
 13
5408.7944580000003
 23
5029.4495479999987
 33
0.0
 14
4116.7944580000003
 24
6619.244424999999
 34
0.0
1001
ACAD
1000
DSTYLE
1002
{
1070
   288
1070
     1
1070
   172
1070
     1
1070
    40
1040
45.0
1070
   287
1070
     3
1070
   271
1070
     0
1070
   143
1040
0.039
1002
}
  0
DIMENSION
  5
81C2
  8
3
  2
*D9
 10
2195.5046199999988
 20
6781.6350540000003
 30
0.0
 11
3156.1495389999991
 21
6894.1350540000003
 31
0.0
 70
     0
 13
4116.7944580000003
 23
6619.244424999999
 33
0.0
 14
2195.5046199999988
 24
6325.2335810000004
 34
0.0
1001
ACAD
1000
DSTYLE
1002
{
1070
   287
1070
     4
1070
   287
1070
     4
1070
   287
1070
     4
1070
   287
1070
     4
1070
   287
1070
     4
1070
    40
1040
45.0
1070
    75
1070
     1
1070
   143
1040
0.039
1070
   172
1070
     1
1070
   271
1070
     0
1070
   279
1070
     1
1070
   288
1070
     1
1002
}
  0
DIMENSION
  5
81CF
  8
3
  2
*D10
 10
4045.7944579999989
 20
6480.2904900000003
 30
0.0
 11
3213.129183
 21
6480.2904900000003
 31
0.0
 70
   128
 13
2195.5046199999988
 23
6325.2335810000004
 33
0.0
 14
4045.7944579999989
 24
6325.4495479999987
 34
0.0
1001
ACAD
1000
DSTYLE
1002
{
1070
   288
1070
     1
1070
   172
1070
     1
1070
    40
1040
45.0
1070
   287
1070
     3
1070
   271
1070
     0
1070
   143
1040
0.039
1002
}
  0
DIMENSION
  5
81DC
  8
3
  2
*D11
 10
971.02191799999991
 20
5160.4495479999987
 30
0.0
 11
971.02191799999991
 21
5757.0635419999999
 31
0.0
 70
   128
 13
2133.7944579999998
 23
6325.4495479999987
 33
0.0
 14
1913.8483900000001
 24
5160.4495479999987
 34
0.0
 50
90.0
1001
ACAD
1000
DSTYLE
1002
{
1070
   288
1070
     1
1070
   172
1070
     1
1070
    40
1040
45.0
1070
   287
1070
     3
1070
   271
1070
     0
1070
   143
1040
0.039
1002
}
  0
DIMENSION
  5
81E8
  8
3
  2
*D12
 10
971.02191799999991
 20
3570.449548
 30
0.0
 11
858.52191799999935
 21
4365.4495479999987
 31
0.0
 70
     0
 13
1913.8483900000001
 23
5160.4495479999987
 33
0.0
 14
1576.7944580000001
 24
3570.449548
 34
0.0
 50
90.0
1001
ACAD
1000
DSTYLE
1002
{
1070
   287
1070
     4
1070
   287
1070
     4
1070
   287
1070
     4
1070
   287
1070
     4
1070
   287
1070
     4
1070
    40
1040
45.0
1070
    75
1070
     1
1070
   143
1040
0.039
1070
   172
1070
     1
1070
   271
1070
     0
1070
   279
1070
     1
1070
   288
1070
     1
1002
}
  0
DIMENSION
  5
8212
  8
3
  2
*D13
 10
4116.7944580000003
 20
3069.07006
 30
0.0
 11
3078.8691829999998
 21
3069.07006
 31
0.0
 70
   128
 13
1576.7944580000001
 23
3570.449548
 33
0.0
 14
4116.7944580000003
 24
3310.6840739999989
 34
0.0
1001
ACAD
1000
DSTYLE
1002
{
1070
   288
1070
     1
1070
   172
1070
     1
1070
    40
1040
45.0
1070
   287
1070
     3
1070
   271
1070
     0
1070
   143
1040
0.039
1002
}
  0
DIMENSION
  5
821E
  8
3
  2
*D14
 10
5176.7944579999994
 20
3069.07006
 30
0.0
 11
4646.7944579999994
 21
3181.57006
 31
0.0
 70
     0
 13
4116.7944580000003
 23
3310.6840739999989
 33
0.0
 14
5176.7944579999994
 24
3570.449548
 34
0.0
1001
ACAD
1000
DSTYLE
1002
{
1070
   287
1070
     4
1070
   287
1070
     4
1070
   287
1070
     4
1070
   287
1070
     4
1070
   287
1070
     4
1070
    40
1040
45.0
1070
    75
1070
     1
1070
   143
1040
0.039
1070
   172
1070
     1
1070
   271
1070
     0
1070
   279
1070
     1
1070
   288
1070
     1
1002
}
  0
DIMENSION
  5
822B
  8
3
  2
*D15
 10
5176.7944579999994
 20
2743.6179480000001
 30
0.0
 11
3482.0080959999991
 21
2743.6179480000001
 31
0.0
 70
   128
 13
1576.7944580000001
 23
3570.449548
 33
0.0
 14
5176.7944579999994
 24
3570.449548
 34
0.0
1001
ACAD
1000
DSTYLE
1002
{
1070
   288
1070
     1
1070
   172
1070
     1
1070
    40
1040
45.0
1070
   287
1070
     3
1070
   271
1070
     0
1070
   143
1040
0.039
1002
}
  0
DIMENSION
  5
8238
  8
3
  2
*D16
 10
7597.6376499999997
 20
3069.07006
 30
0.0
 11
7064.637444
 21
3069.07006
 31
0.0
 70
   128
 13
6486.6376499999997
 23
3570.449548
 33
0.0
 14
7597.6376499999997
 24
3345.743704999999
 34
0.0
1001
ACAD
1000
DSTYLE
1002
{
1070
   288
1070
     1
1070
   172
1070
     1
1070
    40
1040
45.0
1070
   287
1070
     3
1070
   271
1070
     0
1070
   143
1040
0.039
1002
}
  0
DIMENSION
  5
8244
  8
3
  2
*D17
 10
8336.6376500000006
 20
3069.07006
 30
0.0
 11
7967.1376500000006
 21
3181.57006
 31
0.0
 70
     0
 13
7597.6376499999997
 23
3345.743704999999
 33
0.0
 14
8336.6376500000006
 24
3570.449548
 34
0.0
1001
ACAD
1000
DSTYLE
1002
{
1070
   287
1070
     4
1070
   287
1070
     4
1070
   287
1070
     4
1070
   287
1070
     4
1070
   287
1070
     4
1070
    40
1040
45.0
1070
    75
1070
     1
1070
   143
1040
0.039
1070
   172
1070
     1
1070
   271
1070
     0
1070
   279
1070
     1
1070
   288
1070
     1
1002
}
  0
DIMENSION
  5
8251
  8
3
  2
*D18
 10
8336.6376500000006
 20
2743.6179480000001
 30
0.0
 11
7486.8346590000001
 21
2743.6179480000001
 31
0.0
 70
   128
 13
6486.6376499999997
 23
3570.449548
 33
0.0
 14
8336.6376500000006
 24
3570.449548
 34
0.0
1001
ACAD
1000
DSTYLE
1002
{
1070
   288
1070
     1
1070
   172
1070
     1
1070
    40
1040
45.0
1070
   287
1070
     3
1070
   271
1070
     0
1070
   143
1040
0.039
1002
}
  0
DIMENSION
  5
825E
  8
3
  2
*D19
 10
8777.5519079999995
 20
4260.4495479999987
 30
0.0
 11
8777.5519079999995
 21
5106.1592989999999
 31
0.0
 70
   128
 13
8392.6376500000006
 23
6060.4495479999996
 33
0.0
 14
8392.6376500000006
 24
4260.4495479999987
 34
0.0
 50
90.0
1001
ACAD
1000
DSTYLE
1002
{
1070
   288
1070
     1
1070
   172
1070
     1
1070
    40
1040
45.0
1070
     3
1000
φ<>
1070
   287
1070
     3
1070
   271
1070
     0
1070
   143
1040
0.039
1002
}
  0
DIMENSION
  5
826B
  8
3
  2
*D20
 10
8257.6376500000006
 20
6516.4518230000003
 30
0.0
 11
7559.2113310000004
 21
6516.4518230000003
 31
0.0
 70
   128
 13
6937.6376499999988
 23
6325.4495479999987
 33
0.0
 14
8257.6376500000006
 24
6325.4495479999987
 34
0.0
1001
ACAD
1000
DSTYLE
1002
{
1070
   288
1070
     1
1070
   172
1070
     1
1070
    40
1040
45.0
1070
   287
1070
     3
1070
   271
1070
     0
1070
   143
1040
0.039
1002
}
  0
DIMENSION
  5
8278
  8
3
  2
*D21
 10
7597.6376499999997
 20
6926.2804429999997
 30
0.0
 11
8005.5341159999989
 21
6926.2804429999997
 31
0.0
 70
   128
 13
8392.6376500000006
 23
6125.4495479999987
 33
0.0
 14
7597.6376499999997
 24
6716.3326290000005
 34
0.0
1001
ACAD
1000
DSTYLE
1002
{
1070
   288
1070
     1
1070
   172
1070
     1
1070
    40
1040
45.0
1070
   287
1070
     3
1070
   271
1070
     0
1070
   143
1040
0.039
1002
}
  0
DIMENSION
  5
8284
  8
3
  2
*D22
 10
6497.6376499999997
 20
6926.2804429999997
 30
0.0
 11
7047.6376499999997
 21
7074.1375858571437
 31
0.0
 70
     0
  1
(1150)
 13
7597.6376499999997
 23
6716.3326290000005
 33
0.0
 14
6497.6376499999997
 24
5640.4495479999987
 34
0.0
1001
ACAD
1000
DSTYLE
1002
{
1070
   287
1070
     4
1070
   287
1070
     4
1070
   287
1070
     4
1070
   287
1070
     4
1070
   287
1070
     4
1070
    40
1040
45.0
1070
    75
1070
     1
1070
   143
1040
0.039
1070
   172
1070
     1
1070
   271
1070
     0
1070
   279
1070
     1
1070
   288
1070
     1
1002
}
  0
LINE
  5
8285
  8
4
 10
8325.0
 20
2250.0
 30
0.0
 11
8325.0
 21
1350.0
 31
0.0
  0
LINE
  5
8286
  8
4
 10
5175.0
 20
2250.0
 30
0.0
 11
5175.0
 21
1350.0
 31
0.0
  0
LINE
  5
8287
  8
4
 10
2925.0
 20
2250.0
 30
0.0
 11
2925.0
 21
1350.0
 31
0.0
  0
LINE
  5
828A
  8
4
 10
2925.0
 20
1350.0
 30
0.0
 11
8325.0
 21
1350.0
 31
0.0
  0
LINE
  5
828B
  8
4
 10
2925.0
 20
1800.0
 30
0.0
 11
8325.0
 21
1800.0
 31
0.0
  0
TEXT
  5
828C
  8
4
 10
3098.259364
 20
1941.943616
 30
0.0
 40
225.0
  1
機器名称
  0
TEXT
  5
828D
  8
4
 10
3088.1614770000001
 20
1447.4032050000001
 30
0.0
 40
225.0
  1
機器型番
  0
TEXT
  5
828E
  8
4
 10
5197.1468829999994
 20
1903.388725
 30
0.0
 40
202.49999999999989
  1
ミツヤリミットロードファン
  0
TEXT
  5
828F
  8
4
 10
5339.9452299999994
 20
1427.218128999999
 30
0.0
 40
225.0
  1
LL＃11-4
  0
TEXT
  5
8291
  8
4
 10
3619.4975020000002
 20
10725.429786000001
 30
0.0
 40
243.0
  1
床置ベット
  0
TEXT
  5
8292
  8
4
 10
1258.0479369999989
 20
11402.464393
 30
0.0
 40
324.0
  1
ベルト駆動式片吸込両持リミットロードファン
 41
0.86703679958184
 72
     5
 11
8224.8620289999999
 21
11402.464393
 31
0.0
  0
LINE
  5
8293
  8
4
 10
1125.0
 20
11112.339394000001
 30
0.0
 11
8325.0
 21
11112.339394000001
 31
0.0
  0
LINE
  5
8294
  8
4
 10
1125.0
 20
12012.339394000001
 30
0.0
 11
8325.0
 21
12012.339394000001
 31
0.0
  0
LINE
  5
8295
  8
4
 10
2925.0
 20
2250.0
 30
0.0
 11
8325.0
 21
2250.0
 31
0.0
  0
LINE
  5
8296
  8
4
 10
1125.0
 20
12012.339394000001
 30
0.0
 11
1125.0
 21
11112.339394000001
 31
0.0
  0
TEXT
  5
8297
  8
4
 10
1658.1327570000001
 20
10720.437649
 30
0.0
 40
243.0
  1
右回転上向
  0
TEXT
  5
8298
  8
4
 10
6610.3630169999997
 20
12177.274867
 30
0.0
 40
252.0
  1
No.
  0
TEXT
  5
8299
  8
4
 10
5900.8322820000003
 20
10725.429786000001
 30
0.0
 40
243.0
  1
縮尺：1/45
  0
LINE
  5
829A
  8
4
 10
8325.0
 20
12012.339394000001
 30
0.0
 11
8325.0
 21
11112.339394000001
 31
0.0
  0
LINE
  5
829B
  8
4
 10
9450.0
 20
13275.0
 30
0.0
 11
9450.0
 21
13275.0
 31
0.0
  0
LINE
  5
829C
  8
4
 10
6482.7784009999996
 20
12065.686124
 30
0.0
 11
6482.7784009999996
 21
12539.93517699999
 31
0.0
  0
LINE
  5
829D
  8
4
 10
6482.7784009999996
 20
12539.93517699999
 30
0.0
 11
8325.0
 21
12539.93517699999
 31
0.0
  0
LINE
  5
829E
  8
4
 10
8325.0
 20
12539.93517699999
 30
0.0
 11
8325.0
 21
12065.686124
 31
0.0
  0
LINE
  5
829F
  8
4
 10
8325.0
 20
12065.686124
 30
0.0
 11
6482.7784009999996
 21
12065.686124
 31
0.0
  0
LINE
  5
82A0
  8
4
 10
0.0
 20
0.0
 30
0.0
 11
0.0
 21
13275.0
 31
0.0
  0
LINE
  5
82A1
  8
4
 10
0.0
 20
13275.0
 30
0.0
 11
9450.0
 21
13275.0
 31
0.0
  0
LINE
  5
82A2
  8
4
 10
9450.0
 20
13275.0
 30
0.0
 11
9450.0
 21
0.0
 31
0.0
  0
LINE
  5
82A3
  8
4
 10
9450.0
 20
0.0
 30
0.0
 11
0.0
 21
0.0
 31
0.0
  0
LINE
  5
82B1
  8
1
 10
6937.6376499999988
 20
3720.4495479999991
 30
0.0
 11
6937.6376499999988
 21
6325.4495479999987
 31
0.0
  0
LINE
  5
83FF
  8
1
 10
5081.7944580000012
 20
9745.0635380000003
 30
0.0
 11
3151.7944579999989
 21
9745.0635380000003
 31
0.0
  0
LINE
  5
8400
  8
1
 10
5016.7944579999976
 20
9610.0635380000003
 30
0.0
 11
5016.7944580000003
 21
9745.0635380000003
 31
0.0
  0
LINE
  5
8401
  8
1
 10
3216.7944579999989
 20
9679.0635380000003
 30
0.0
 11
3216.7944579999989
 21
9745.0635380000003
 31
0.0
  0
LINE
  5
8404
  8
1
 10
3216.7944579999989
 20
9689.0635380000003
 30
0.0
 11
3056.7944579999998
 21
9689.0635380000003
 31
0.0
  0
LINE
  5
8406
  8
1
 10
2126.7944579999989
 20
8221.0635380000003
 30
0.0
 11
2126.7944579999989
 21
9679.0635380000022
 31
0.0
  0
LINE
  5
8407
  8
1
 10
4114.7944580000003
 20
8221.0635380000003
 30
0.0
 11
4114.7944580000003
 21
9679.0635380000003
 31
0.0
  0
LINE
  5
8408
  8
1
 10
4114.7944580000003
 20
9679.0635380000003
 30
0.0
 11
2126.7944579999989
 21
9679.0635380000022
 31
0.0
  0
LINE
  5
8409
  8
1
 10
4114.7944580000003
 20
8221.0635380000003
 30
0.0
 11
2126.7944579999989
 21
8221.0635380000003
 31
0.0
  0
LINE
  5
87DB
  8
1
 10
6869.6376499999997
 20
6260.4495479999996
 30
0.0
 11
6869.6376499999997
 21
6325.4495480000014
 31
0.0
  0
LINE
  5
87DC
  8
1
 10
8325.6376500000006
 20
6260.4495479999969
 30
0.0
 11
8325.6376500000006
 21
6325.4495480000014
 31
0.0
  0
ENDSEC
  0
EOF
