  0
SECTION
  2
HEADER
  9
$ACADVER
  1
AC1009
  9
$INSBASE
 10
0.0
 20
0.0
 30
0.0
  9
$EXTMIN
 10
0.0
 20
0.0
 30
0.0
  9
$EXTMAX
 10
9450.0
 20
13275.0
 30
0.0
  9
$LIMMIN
 10
0.0
 20
0.0
  9
$LIMMAX
 10
297.0
 20
210.0
  9
$ORTHOMODE
 70
     0
  9
$REGENMODE
 70
     1
  9
$FILLMODE
 70
     0
  9
$QTEXTMODE
 70
     0
  9
$MIRRTEXT
 70
     1
  9
$DRAGMODE
 70
     2
  9
$LTSCALE
 40
100.0
  9
$OSMODE
 70
    37
  9
$ATTMODE
 70
     1
  9
$TEXTSIZE
 40
180.0
  9
$TRACEWID
 40
0.05
  9
$TEXTSTYLE
  7
STANDARD
  9
$CLAYER
  8
3
  9
$CELTYPE
  6
BYLAYER
  9
$CECOLOR
 62
   256
  9
$DIMSCALE
 40
45.0
  9
$DIMASZ
 40
2.0
  9
$DIMEXO
 40
0.5
  9
$DIMDLI
 40
10.0
  9
$DIMRND
 40
0.0
  9
$DIMDLE
 40
0.0
  9
$DIMEXE
 40
1.0
  9
$DIMTP
 40
1.0
  9
$DIMTM
 40
1.0
  9
$DIMTXT
 40
3.0
  9
$DIMCEN
 40
0.0
  9
$DIMTSZ
 40
0.0
  9
$DIMTOL
 70
     0
  9
$DIMLIM
 70
     0
  9
$DIMTIH
 70
     0
  9
$DIMTOH
 70
     0
  9
$DIMSE1
 70
     0
  9
$DIMSE2
 70
     0
  9
$DIMTAD
 70
     1
  9
$DIMZIN
 70
     8
  9
$DIMBLK
  1

  9
$DIMASO
 70
     1
  9
$DIMSHO
 70
     1
  9
$DIMPOST
  1

  9
$DIMAPOST
  1

  9
$DIMALT
 70
     0
  9
$DIMALTD
 70
     2
  9
$DIMALTF
 40
0.039
  9
$DIMLFAC
 40
1.0
  9
$DIMTOFL
 70
     0
  9
$DIMTVP
 40
0.0
  9
$DIMTIX
 70
     0
  9
$DIMSOXD
 70
     0
  9
$DIMSAH
 70
     1
  9
$DIMBLK1
  1
OPEN
  9
$DIMBLK2
  1
OPEN
  9
$DIMSTYLE
  2
IGA
  9
$DIMCLRD
 70
     0
  9
$DIMCLRE
 70
     0
  9
$DIMCLRT
 70
     0
  9
$DIMTFAC
 40
10.0
  9
$DIMGAP
 40
1.0
  9
$LUNITS
 70
     2
  9
$LUPREC
 70
     3
  9
$SKETCHINC
 40
0.1
  9
$FILLETRAD
 40
50.0
  9
$AUNITS
 70
     0
  9
$AUPREC
 70
     0
  9
$MENU
  1
acad
  9
$ELEVATION
 40
0.0
  9
$PELEVATION
 40
0.0
  9
$THICKNESS
 40
0.0
  9
$LIMCHECK
 70
     0
  9
$BLIPMODE
 70
     0
  9
$CHAMFERA
 40
0.5
  9
$CHAMFERB
 40
0.5
  9
$SKPOLY
 70
     0
  9
$TDCREATE
 40
2451845.4205035879
  9
$TDUPDATE
 40
2454953.6639910638
  9
$TDINDWG
 40
0.0849353935
  9
$TDUSRTIMER
 40
0.0849350347
  9
$USRTIMER
 70
     1
  9
$ANGBASE
 50
0.0
  9
$ANGDIR
 70
     0
  9
$PDMODE
 70
     0
  9
$PDSIZE
 40
0.0
  9
$PLINEWID
 40
0.0
  9
$COORDS
 70
     1
  9
$SPLFRAME
 70
     0
  9
$SPLINETYPE
 70
     6
  9
$SPLINESEGS
 70
     8
  9
$ATTDIA
 70
     0
  9
$ATTREQ
 70
     1
  9
$HANDLING
 70
 10241
  9
$HANDSEED
  5
9FC6
  9
$SURFTAB1
 70
     6
  9
$SURFTAB2
 70
     6
  9
$SURFTYPE
 70
     6
  9
$SURFU
 70
     6
  9
$SURFV
 70
     6
  9
$UCSNAME
  2

  9
$UCSORG
 10
0.0
 20
0.0
 30
0.0
  9
$UCSXDIR
 10
1.0
 20
0.0
 30
0.0
  9
$UCSYDIR
 10
0.0
 20
1.0
 30
0.0
  9
$PUCSNAME
  2

  9
$PUCSORG
 10
0.0
 20
0.0
 30
0.0
  9
$PUCSXDIR
 10
1.0
 20
0.0
 30
0.0
  9
$PUCSYDIR
 10
0.0
 20
1.0
 30
0.0
  9
$USERI1
 70
     0
  9
$USERI2
 70
     0
  9
$USERI3
 70
     0
  9
$USERI4
 70
     0
  9
$USERI5
 70
     0
  9
$USERR1
 40
0.0
  9
$USERR2
 40
0.0
  9
$USERR3
 40
0.0
  9
$USERR4
 40
0.0
  9
$USERR5
 40
0.0
  9
$WORLDVIEW
 70
     1
  9
$SHADEDGE
 70
     3
  9
$SHADEDIF
 70
    70
  9
$TILEMODE
 70
     1
  9
$MAXACTVP
 70
    16
  9
$PLIMCHECK
 70
     0
  9
$PEXTMIN
 10
1.0000000000000000E+020
 20
1.0000000000000000E+020
 30
1.0000000000000000E+020
  9
$PEXTMAX
 10
-1.0000000000000000E+020
 20
-1.0000000000000000E+020
 30
-1.0000000000000000E+020
  9
$PLIMMIN
 10
0.0
 20
0.0
  9
$PLIMMAX
 10
12.0
 20
9.0
  9
$UNITMODE
 70
     0
  9
$VISRETAIN
 70
     0
  9
$PLINEGEN
 70
     0
  9
$PSLTSCALE
 70
     1
  0
ENDSEC
  0
SECTION
  2
TABLES
  0
TABLE
  2
VPORT
 70
     2
  0
VPORT
  2
*ACTIVE
 70
     0
 10
0.0
 20
0.0
 11
1.0
 21
1.0
 12
16547.619152732041
 22
6310.4881922698551
 13
0.0
 23
0.0
 14
10.0
 24
10.0
 15
10.0
 25
10.0
 16
0.0
 26
0.0
 36
1.0
 17
0.0
 27
0.0
 37
0.0
 40
12773.228375252291
 41
3.1666666666666661
 42
50.0
 43
0.0
 44
0.0
 50
0.0
 51
0.0
 71
     0
 72
   100
 73
     1
 74
     0
 75
     0
 76
     0
 77
     0
 78
     0
  0
ENDTAB
  0
TABLE
  2
LTYPE
 70
     2
  0
LTYPE
  2
CONTINUOUS
 70
     0
  3
Solid line
 72
    65
 73
     0
 40
0.0
  0
LTYPE
  2
CENTER
 70
     0
  3
____ _ ____ _ ____ _ ____ _ ____ _ ____ _ ____ 
 72
    65
 73
     4
 40
2.0
 49
1.25
 49
-0.25
 49
0.25
 49
-0.25
  0
ENDTAB
  0
TABLE
  2
LAYER
 70
     6
  0
LAYER
  2
0
 70
     0
 62
     7
  6
CONTINUOUS
  0
LAYER
  2
3
 70
     0
 62
     2
  6
CONTINUOUS
  0
LAYER
  2
2
 70
     0
 62
     3
  6
CENTER
  0
LAYER
  2
1
 70
     0
 62
     4
  6
CONTINUOUS
  0
LAYER
  2
4
 70
     0
 62
     7
  6
CONTINUOUS
  0
LAYER
  2
DEFPOINTS
 70
     0
 62
     7
  6
CONTINUOUS
  0
ENDTAB
  0
TABLE
  2
STYLE
 70
     1
  0
STYLE
  2
STANDARD
 70
     0
 40
0.0
 41
1.0
 50
0.0
 71
     0
 42
180.0
  3
simplex.shx
  4
extfont.shx
  0
ENDTAB
  0
TABLE
  2
VIEW
 70
     0
  0
ENDTAB
  0
TABLE
  2
UCS
 70
     0
  0
ENDTAB
  0
TABLE
  2
APPID
 70
     1
  0
APPID
  2
ACAD
 70
     0
  0
ENDTAB
  0
TABLE
  2
DIMSTYLE
 70
     1
  0
DIMSTYLE
  2
IGA
 70
     0
  3

  4

  5

  6

  7

 40
2.0
 41
2.0
 42
0.5
 43
10.0
 44
1.0
 45
0.0
 46
0.0
 47
1.0
 48
1.0
140
3.0
141
0.0
142
0.0
143
0.03937
144
1.0
145
0.0
146
10.0
147
1.0
 71
     0
 72
     0
 73
     0
 74
     0
 75
     0
 76
     0
 77
     1
 78
     8
170
     0
171
     2
172
     0
173
     1
174
     0
175
     0
176
     0
177
     0
178
     0
  0
ENDTAB
  0
ENDSEC
  0
SECTION
  2
BLOCKS
  0
BLOCK
  8
0
  2
$MODEL_SPACE
 70
     0
 10
0.0
 20
0.0
 30
0.0
  3
$MODEL_SPACE
  1

  0
ENDBLK
  5
8CFA
  8
0
  0
BLOCK
 67
     1
  8
0
  2
$PAPER_SPACE
 70
     0
 10
0.0
 20
0.0
 30
0.0
  3
$PAPER_SPACE
  1

  0
ENDBLK
  5
8CF6
 67
     1
  8
0
  0
BLOCK
  8
0
  2
YA_N
 70
     0
 10
0.0
 20
0.0
 30
0.0
  3
YA_N
  1

  0
ENDBLK
  5
8D0E
  8
0
  0
BLOCK
  8
0
  2
_OPEN
 70
     0
 10
0.0
 20
0.0
 30
0.0
  3
_OPEN
  1

  0
LINE
  5
8D11
  8
0
  6
BYBLOCK
 62
     0
 10
-1.0
 20
0.166667
 30
0.0
 11
0.0
 21
0.0
 31
0.0
  0
LINE
  5
8D12
  8
0
  6
BYBLOCK
 62
     0
 10
0.0
 20
0.0
 30
0.0
 11
-1.0
 21
-0.166667
 31
0.0
  0
LINE
  5
8D13
  8
0
  6
BYBLOCK
 62
     0
 10
0.0
 20
0.0
 30
0.0
 11
-1.0
 21
0.0
 31
0.0
  0
ENDBLK
  5
8D14
  8
0
  0
BLOCK
  8
0
  2
_DOT
 70
     0
 10
0.0
 20
0.0
 30
0.0
  3
_DOT
  1

  0
LINE
  5
8D17
  8
0
  6
BYBLOCK
 62
     0
 10
0.0
 20
0.0
 30
0.0
 11
-1.0
 21
0.0
 31
0.0
  0
POLYLINE
  5
8D18
  8
0
  6
BYBLOCK
 62
     0
 66
     1
 10
0.0
 20
0.0
 30
0.0
 70
     1
 40
0.166667
 41
0.166667
  0
VERTEX
  5
9F05
  8
0
  6
BYBLOCK
 62
     0
 10
-0.083333
 20
0.0
 30
0.0
 42
1.0
  0
VERTEX
  5
9F06
  8
0
  6
BYBLOCK
 62
     0
 10
0.083333
 20
0.0
 30
0.0
 42
1.0
  0
SEQEND
  5
9F07
  8
0
  6
BYBLOCK
 62
     0
  0
ENDBLK
  5
8D1C
  8
0
  0
BLOCK
  8
0
  2
*D5
 70
     1
 10
0.0
 20
0.0
 30
0.0
  3
*D5
  1

  0
LINE
  5
9F7D
  8
3
 62
     0
 10
4829.8297044631781
 20
8163.5698250355763
 30
0.0
 11
5713.8127705611623
 21
8163.5698250355763
 31
0.0
  0
LINE
  5
9F7E
  8
3
 62
     0
 10
4829.8297044631781
 20
10013.569825035571
 30
0.0
 11
5713.8127705611623
 21
10013.569825035571
 31
0.0
  0
LINE
  5
9F7F
  8
3
 62
     0
 10
5668.8127705611632
 20
8253.5698250355763
 30
0.0
 11
5668.8127705611632
 21
9923.5698250355726
 31
0.0
  0
INSERT
  5
9F80
  8
3
 62
     0
  2
_OPEN
 10
5668.8127705611632
 20
8163.5698250355763
 30
0.0
 41
90.0
 42
90.0
 43
90.0
 50
270.0
  0
INSERT
  5
9F81
  8
3
 62
     0
  2
_OPEN
 10
5668.8127705611632
 20
10013.569825035571
 30
0.0
 41
90.0
 42
90.0
 43
90.0
 50
90.0
  0
TEXT
  8
3
  40
135
  5
9FB3
  62
0
  72
0
  71
0
 10
5286.31
 20
8849.62
 30
0.000000
  1
1850
  0
POINT
  5
9F83
  8
DEFPOINTS
 62
     0
 10
4807.3297044631781
 20
8163.5698250355763
 30
0.0
  0
POINT
  5
9F84
  8
DEFPOINTS
 62
     0
 10
4807.3297044631781
 20
10013.569825035571
 30
0.0
  0
POINT
  5
9F85
  8
DEFPOINTS
 62
     0
 10
5668.8127705611632
 20
10013.569825035571
 30
0.0
  0
ENDBLK
  5
908C
  8
0
  0
BLOCK
  8
0
  2
*D6
 70
     1
 10
0.0
 20
0.0
 30
0.0
  3
*D6
  1

  0
LINE
  5
9F08
  8
3
 62
     0
 10
4807.3297044631781
 20
10036.069825035571
 30
0.0
 11
4807.3297044631781
 21
10365.822061390931
 31
0.0
  0
LINE
  5
9F09
  8
3
 62
     0
 10
2687.329704463179
 20
10036.069825035571
 30
0.0
 11
2687.329704463179
 21
10365.822061390931
 31
0.0
  0
LINE
  5
9F0A
  8
3
 62
     0
 10
4717.3297044631772
 20
10320.822061390931
 30
0.0
 11
2777.329704463179
 21
10320.822061390931
 31
0.0
  0
INSERT
  5
9F0B
  8
3
 62
     0
  2
_OPEN
 10
4807.3297044631781
 20
10320.822061390931
 30
0.0
 41
90.0
 42
90.0
 43
90.0
  0
INSERT
  5
9F0C
  8
3
 62
     0
  2
_OPEN
 10
2687.329704463179
 20
10320.822061390931
 30
0.0
 41
90.0
 42
90.0
 43
90.0
 50
180.0
  0
TEXT
  8
3
  40
135
  5
9FB4
  62
0
  72
0
  71
0
 10
3470.26
 20
10194.4
 30
0.000000
  1
2120
  0
POINT
  5
9F0E
  8
DEFPOINTS
 62
     0
 10
4807.3297044631781
 20
10013.569825035571
 30
0.0
  0
POINT
  5
9F0F
  8
DEFPOINTS
 62
     0
 10
2687.329704463179
 20
10013.569825035571
 30
0.0
  0
POINT
  5
9F10
  8
DEFPOINTS
 62
     0
 10
2687.329704463179
 20
10320.822061390931
 30
0.0
  0
ENDBLK
  5
9098
  8
0
  0
BLOCK
  8
0
  2
*D7
 70
     1
 10
0.0
 20
0.0
 30
0.0
  3
*D7
  1

  0
LINE
  5
9F11
  8
3
 62
     0
 10
2687.329704463179
 20
10036.069825035571
 30
0.0
 11
2687.329704463179
 21
10365.822061390931
 31
0.0
  0
LINE
  5
9F12
  8
3
 62
     0
 10
1207.32970446318
 20
9386.0698250355745
 30
0.0
 11
1207.32970446318
 21
10365.822061390931
 31
0.0
  0
LINE
  5
9F13
  8
3
 62
     0
 10
2597.329704463179
 20
10320.822061390931
 30
0.0
 11
1297.329704463179
 21
10320.822061390931
 31
0.0
  0
INSERT
  5
9F14
  8
3
 62
     0
  2
_OPEN
 10
2687.329704463179
 20
10320.822061390931
 30
0.0
 41
90.0
 42
90.0
 43
90.0
  0
INSERT
  5
9F15
  8
3
 62
     0
  2
_OPEN
 10
1207.32970446318
 20
10320.822061390931
 30
0.0
 41
90.0
 42
90.0
 43
90.0
 50
180.0
  0
TEXT
  8
3
  40
135
  5
9FB5
  62
0
  72
0
  71
0
 10
1677.33
 20
10194.4
 30
0.000000
  1
1480
  0
POINT
  5
9F17
  8
DEFPOINTS
 62
     0
 10
2687.329704463179
 20
10013.569825035571
 30
0.0
  0
POINT
  5
9F18
  8
DEFPOINTS
 62
     0
 10
1207.32970446318
 20
9363.5698250355745
 30
0.0
  0
POINT
  5
9F19
  8
DEFPOINTS
 62
     0
 10
1207.32970446318
 20
10320.822061390931
 30
0.0
  0
ENDBLK
  5
90A4
  8
0
  0
BLOCK
  8
0
  2
*D8
 70
     1
 10
0.0
 20
0.0
 30
0.0
  3
*D8
  1

  0
LINE
  5
9F23
  8
3
 62
     0
 10
1207.32970446318
 20
8141.0698250355772
 30
0.0
 11
1207.32970446318
 21
7637.284521137195
 31
0.0
  0
LINE
  5
9F24
  8
3
 62
     0
 10
4807.3297044631781
 20
8141.0698250355772
 30
0.0
 11
4807.3297044631781
 21
7637.284521137195
 31
0.0
  0
LINE
  5
9F25
  8
3
 62
     0
 10
1297.329704463179
 20
7682.284521137195
 30
0.0
 11
4717.3297044631772
 21
7682.284521137195
 31
0.0
  0
INSERT
  5
9F26
  8
3
 62
     0
  2
_OPEN
 10
1207.32970446318
 20
7682.284521137195
 30
0.0
 41
90.0
 42
90.0
 43
90.0
 50
180.0
  0
INSERT
  5
9F27
  8
3
 62
     0
  2
_OPEN
 10
4807.3297044631781
 20
7682.284521137195
 30
0.0
 41
90.0
 42
90.0
 43
90.0
  0
TEXT
  8
3
  40
135
  5
9FB6
  62
0
  72
0
  71
0
 10
2977.35
 20
7555.83
 30
0.000000
  1
3600
  0
POINT
  5
9F29
  8
DEFPOINTS
 62
     0
 10
1207.32970446318
 20
8163.5698250355763
 30
0.0
  0
POINT
  5
9F2A
  8
DEFPOINTS
 62
     0
 10
4807.3297044631781
 20
8163.5698250355763
 30
0.0
  0
POINT
  5
9F2B
  8
DEFPOINTS
 62
     0
 10
4807.3297044631781
 20
7682.284521137195
 30
0.0
  0
ENDBLK
  5
90B0
  8
0
  0
BLOCK
  8
0
  2
*D9
 70
     1
 10
0.0
 20
0.0
 30
0.0
  3
*D9
  1

  0
LINE
  5
9F1A
  8
3
 62
     0
 10
1184.829704463179
 20
9363.5698250355745
 30
0.0
 11
920.19765646318092
 21
9363.5698250355745
 31
0.0
  0
LINE
  5
9F1B
  8
3
 62
     0
 10
1184.829704463179
 20
8163.5698250355763
 30
0.0
 11
920.19765646318081
 21
8163.5698250355763
 31
0.0
  0
LINE
  5
9F1C
  8
3
 62
     0
 10
965.19765646318103
 20
9273.5698250355763
 30
0.0
 11
965.19765646318069
 21
8253.5698250355763
 31
0.0
  0
INSERT
  5
9F1D
  8
3
 62
     0
  2
_OPEN
 10
965.19765646318103
 20
9363.5698250355745
 30
0.0
 41
90.0
 42
90.0
 43
90.0
 50
90.0
  0
INSERT
  5
9F1E
  8
3
 62
     0
  2
_OPEN
 10
965.19765646318069
 20
8163.5698250355763
 30
0.0
 41
90.0
 42
90.0
 43
90.0
 50
270.0
  0
TEXT
  8
3
  40
135
  5
9FB7
  62
0
  72
0
  71
0
 10
582.698
 20
8518.33
 30
0.000000
  1
1200
  0
POINT
  5
9F20
  8
DEFPOINTS
 62
     0
 10
1207.32970446318
 20
9363.5698250355745
 30
0.0
  0
POINT
  5
9F21
  8
DEFPOINTS
 62
     0
 10
1207.32970446318
 20
8163.5698250355763
 30
0.0
  0
POINT
  5
9F22
  8
DEFPOINTS
 62
     0
 10
965.19765646318069
 20
8163.5698250355763
 30
0.0
  0
ENDBLK
  5
90BC
  8
0
  0
BLOCK
  8
0
  2
*D10
 70
     1
 10
0.0
 20
0.0
 30
0.0
  3
*D10
  1

  0
LINE
  5
9F59
  8
3
 62
     0
 10
1207.32970446318
 20
3184.5746748242041
 30
0.0
 11
1207.32970446318
 21
2581.7646843612611
 31
0.0
  0
LINE
  5
9F5A
  8
3
 62
     0
 10
3747.32970446318
 20
2906.925423612121
 30
0.0
 11
3747.32970446318
 21
2581.7646843612611
 31
0.0
  0
LINE
  5
9F5B
  8
3
 62
     0
 10
1297.32970446318
 20
2626.7646843612611
 30
0.0
 11
3657.32970446318
 21
2626.7646843612611
 31
0.0
  0
INSERT
  5
9F5C
  8
3
 62
     0
  2
_OPEN
 10
1207.32970446318
 20
2626.7646843612611
 30
0.0
 41
90.0
 42
90.0
 43
90.0
 50
180.0
  0
INSERT
  5
9F5D
  8
3
 62
     0
  2
_OPEN
 10
3747.32970446318
 20
2626.7646843612611
 30
0.0
 41
90.0
 42
90.0
 43
90.0
  0
TEXT
  8
3
  40
135
  5
9FB8
  62
0
  72
0
  71
0
 10
2439.40
 20
2500.31
 30
0.000000
  1
2540
  0
POINT
  5
9F5F
  8
DEFPOINTS
 62
     0
 10
1207.32970446318
 20
3207.0746748242041
 30
0.0
  0
POINT
  5
9F60
  8
DEFPOINTS
 62
     0
 10
3747.32970446318
 20
2929.425423612121
 30
0.0
  0
POINT
  5
9F61
  8
DEFPOINTS
 62
     0
 10
3747.32970446318
 20
2626.7646843612611
 30
0.0
  0
ENDBLK
  5
90EC
  8
0
  0
BLOCK
  8
0
  2
*D11
 70
     1
 10
0.0
 20
0.0
 30
0.0
  3
*D11
  1

  0
LINE
  5
9F62
  8
3
 62
     0
 10
3747.32970446318
 20
2906.925423612121
 30
0.0
 11
3747.32970446318
 21
2581.7646843612611
 31
0.0
  0
LINE
  5
9F63
  8
3
 62
     0
 10
4807.329704463179
 20
3184.5746748242041
 30
0.0
 11
4807.329704463179
 21
2581.7646843612611
 31
0.0
  0
LINE
  5
9F64
  8
3
 62
     0
 10
3837.32970446318
 20
2626.7646843612611
 30
0.0
 11
4717.3297044631781
 21
2626.7646843612611
 31
0.0
  0
INSERT
  5
9F65
  8
3
 62
     0
  2
_OPEN
 10
3747.32970446318
 20
2626.7646843612611
 30
0.0
 41
90.0
 42
90.0
 43
90.0
 50
180.0
  0
INSERT
  5
9F66
  8
3
 62
     0
  2
_OPEN
 10
4807.329704463179
 20
2626.7646843612611
 30
0.0
 41
90.0
 42
90.0
 43
90.0
  0
TEXT
  8
3
  40
135
  5
9FB9
  62
0
  72
0
  71
0
 10
4007.33
 20
2500.31
 30
0.000000
  1
1060
  0
POINT
  5
9F68
  8
DEFPOINTS
 62
     0
 10
3747.32970446318
 20
2929.425423612121
 30
0.0
  0
POINT
  5
9F69
  8
DEFPOINTS
 62
     0
 10
4807.329704463179
 20
3207.0746748242041
 30
0.0
  0
POINT
  5
9F6A
  8
DEFPOINTS
 62
     0
 10
4807.329704463179
 20
2626.7646843612611
 30
0.0
  0
ENDBLK
  5
90F8
  8
0
  0
BLOCK
  8
0
  2
*D12
 70
     1
 10
0.0
 20
0.0
 30
0.0
  3
*D12
  1

  0
LINE
  5
9F50
  8
3
 62
     0
 10
1207.32970446318
 20
3184.5746748242041
 30
0.0
 11
1207.32970446318
 21
2256.3125723612611
 31
0.0
  0
LINE
  5
9F51
  8
3
 62
     0
 10
4807.329704463179
 20
3184.5746748242041
 30
0.0
 11
4807.329704463179
 21
2256.3125723612611
 31
0.0
  0
LINE
  5
9F52
  8
3
 62
     0
 10
1297.32970446318
 20
2301.3125723612611
 30
0.0
 11
4717.3297044631781
 21
2301.3125723612611
 31
0.0
  0
INSERT
  5
9F53
  8
3
 62
     0
  2
_OPEN
 10
1207.32970446318
 20
2301.3125723612611
 30
0.0
 41
90.0
 42
90.0
 43
90.0
 50
180.0
  0
INSERT
  5
9F54
  8
3
 62
     0
  2
_OPEN
 10
4807.329704463179
 20
2301.3125723612611
 30
0.0
 41
90.0
 42
90.0
 43
90.0
  0
TEXT
  8
3
  40
135
  5
9FBA
  62
0
  72
0
  71
0
 10
3042.54
 20
2174.86
 30
0.000000
  1
3600
  0
POINT
  5
9F56
  8
DEFPOINTS
 62
     0
 10
1207.32970446318
 20
3207.0746748242041
 30
0.0
  0
POINT
  5
9F57
  8
DEFPOINTS
 62
     0
 10
4807.329704463179
 20
3207.0746748242041
 30
0.0
  0
POINT
  5
9F58
  8
DEFPOINTS
 62
     0
 10
4807.329704463179
 20
2301.3125723612611
 30
0.0
  0
ENDBLK
  5
9104
  8
0
  0
BLOCK
  8
0
  2
*D13
 70
     1
 10
0.0
 20
0.0
 30
0.0
  3
*D13
  1

  0
LINE
  5
9F2C
  8
3
 62
     0
 10
6486.6376499999997
 20
3184.5746748242041
 30
0.0
 11
6486.6376499999997
 21
2519.5384851081481
 31
0.0
  0
LINE
  5
9F2D
  8
3
 62
     0
 10
7597.6376499999988
 20
2959.8688318242048
 30
0.0
 11
7597.6376499999988
 21
2519.5384851081481
 31
0.0
  0
LINE
  5
9F2E
  8
3
 62
     0
 10
6576.6376499999988
 20
2564.5384851081481
 30
0.0
 11
7507.6376499999978
 21
2564.5384851081481
 31
0.0
  0
INSERT
  5
9F2F
  8
3
 62
     0
  2
_OPEN
 10
6486.6376499999997
 20
2564.5384851081481
 30
0.0
 41
90.0
 42
90.0
 43
90.0
 50
180.0
  0
INSERT
  5
9F30
  8
3
 62
     0
  2
_OPEN
 10
7597.6376499999988
 20
2564.5384851081481
 30
0.0
 41
90.0
 42
90.0
 43
90.0
  0
TEXT
  8
3
  40
135
  5
9FBB
  62
0
  72
0
  71
0
 10
6794.64
 20
2438.09
 30
0.000000
  1
1111
  0
POINT
  5
9F32
  8
DEFPOINTS
 62
     0
 10
6486.6376499999997
 20
3207.0746748242041
 30
0.0
  0
POINT
  5
9F33
  8
DEFPOINTS
 62
     0
 10
7597.6376499999988
 20
2982.3688318242048
 30
0.0
  0
POINT
  5
9F34
  8
DEFPOINTS
 62
     0
 10
7597.6376499999988
 20
2564.5384851081481
 30
0.0
  0
ENDBLK
  5
9146
  8
0
  0
BLOCK
  8
0
  2
*D14
 70
     1
 10
0.0
 20
0.0
 30
0.0
  3
*D14
  1

  0
LINE
  5
9F35
  8
3
 62
     0
 10
7597.6376499999988
 20
2959.8688318242048
 30
0.0
 11
7597.6376499999988
 21
2519.5384851081481
 31
0.0
  0
LINE
  5
9F36
  8
3
 62
     0
 10
8336.6376500000006
 20
3184.5746748242041
 30
0.0
 11
8336.6376500000006
 21
2519.5384851081481
 31
0.0
  0
LINE
  5
9F37
  8
3
 62
     0
 10
7687.6376499999978
 20
2564.5384851081481
 30
0.0
 11
8246.6376500000024
 21
2564.5384851081481
 31
0.0
  0
INSERT
  5
9F38
  8
3
 62
     0
  2
_OPEN
 10
7597.6376499999988
 20
2564.5384851081481
 30
0.0
 41
90.0
 42
90.0
 43
90.0
 50
180.0
  0
INSERT
  5
9F39
  8
3
 62
     0
  2
_OPEN
 10
8336.6376500000006
 20
2564.5384851081481
 30
0.0
 41
90.0
 42
90.0
 43
90.0
  0
TEXT
  8
3
  40
135
  5
9FBC
  62
0
  72
0
  71
0
 10
7697.14
 20
2438.09
 30
0.000000
  1
739
  0
POINT
  5
9F3B
  8
DEFPOINTS
 62
     0
 10
7597.6376499999988
 20
2982.3688318242048
 30
0.0
  0
POINT
  5
9F3C
  8
DEFPOINTS
 62
     0
 10
8336.6376500000006
 20
3207.0746748242041
 30
0.0
  0
POINT
  5
9F3D
  8
DEFPOINTS
 62
     0
 10
8336.6376500000006
 20
2564.5384851081481
 30
0.0
  0
ENDBLK
  5
9152
  8
0
  0
BLOCK
  8
0
  2
*D15
 70
     1
 10
0.0
 20
0.0
 30
0.0
  3
*D15
  1

  0
LINE
  5
9F3E
  8
3
 62
     0
 10
6486.6376499999997
 20
3184.5746748242041
 30
0.0
 11
6486.6376499999997
 21
2169.188438544405
 31
0.0
  0
LINE
  5
9F3F
  8
3
 62
     0
 10
8336.6376500000006
 20
3184.5746748242041
 30
0.0
 11
8336.6376500000006
 21
2169.188438544405
 31
0.0
  0
LINE
  5
9F40
  8
3
 62
     0
 10
6576.6376499999988
 20
2214.188438544405
 30
0.0
 11
8246.6376500000024
 21
2214.188438544405
 31
0.0
  0
INSERT
  5
9F41
  8
3
 62
     0
  2
_OPEN
 10
6486.6376499999997
 20
2214.188438544405
 30
0.0
 41
90.0
 42
90.0
 43
90.0
 50
180.0
  0
INSERT
  5
9F42
  8
3
 62
     0
  2
_OPEN
 10
8336.6376500000006
 20
2214.188438544405
 30
0.0
 41
90.0
 42
90.0
 43
90.0
  0
TEXT
  8
3
  40
135
  5
9FBD
  62
0
  72
0
  71
0
 10
7216.83
 20
2087.74
 30
0.000000
  1
1850
  0
POINT
  5
9F44
  8
DEFPOINTS
 62
     0
 10
6486.6376499999997
 20
3207.0746748242041
 30
0.0
  0
POINT
  5
9F45
  8
DEFPOINTS
 62
     0
 10
8336.6376500000006
 20
3207.0746748242041
 30
0.0
  0
POINT
  5
9F46
  8
DEFPOINTS
 62
     0
 10
8336.6376500000006
 20
2214.188438544405
 30
0.0
  0
ENDBLK
  5
915E
  8
0
  0
BLOCK
  8
0
  2
*D16
 70
     1
 10
0.0
 20
0.0
 30
0.0
  3
*D16
  1

  0
LINE
  5
9F6B
  8
3
 62
     0
 10
4934.6137374631808
 20
3435.7848368242039
 30
0.0
 11
5352.8068642437511
 21
3435.7848368242039
 31
0.0
  0
LINE
  5
9F6C
  8
3
 62
     0
 10
4934.829704463179
 20
5286.0746748242063
 30
0.0
 11
5352.8068642437511
 21
5286.0746748242063
 31
0.0
  0
LINE
  5
9F6D
  8
3
 62
     0
 10
5307.8068642437511
 20
3525.784836824203
 30
0.0
 11
5307.8068642437511
 21
5196.0746748242063
 31
0.0
  0
INSERT
  5
9F6E
  8
3
 62
     0
  2
_OPEN
 10
5307.8068642437511
 20
3435.7848368242039
 30
0.0
 41
90.0
 42
90.0
 43
90.0
 50
270.0
  0
INSERT
  5
9F6F
  8
3
 62
     0
  2
_OPEN
 10
5307.8068642437511
 20
5286.0746748242063
 30
0.0
 41
90.0
 42
90.0
 43
90.0
 50
90.0
  0
TEXT
  8
3
  40
135
  5
9FBE
  62
0
  72
0
  71
0
 10
4925.31
 20
4121.98
 30
0.000000
  1
1850
  0
POINT
  5
9F71
  8
DEFPOINTS
 62
     0
 10
4912.1137374631808
 20
3435.7848368242039
 30
0.0
  0
POINT
  5
9F72
  8
DEFPOINTS
 62
     0
 10
4912.329704463179
 20
5286.0746748242063
 30
0.0
  0
POINT
  5
9F73
  8
DEFPOINTS
 62
     0
 10
5307.8068642437511
 20
5286.0746748242063
 30
0.0
  0
ENDBLK
  5
91D3
  8
0
  0
BLOCK
  8
0
  2
*D17
 70
     1
 10
0.0
 20
0.0
 30
0.0
  3
*D17
  1

  0
LINE
  5
9F74
  8
3
 62
     0
 10
5330.3068642437511
 20
3435.7848368242039
 30
0.0
 11
5710.293960206569
 21
3435.7848368242039
 31
0.0
  0
LINE
  5
9F75
  8
3
 62
     0
 10
5026.1136164169357
 20
5357.0746748242036
 30
0.0
 11
5710.293960206569
 21
5357.0746748242036
 31
0.0
  0
LINE
  5
9F76
  8
3
 62
     0
 10
5665.293960206569
 20
3525.784836824203
 30
0.0
 11
5665.293960206569
 21
5267.0746748242036
 31
0.0
  0
INSERT
  5
9F77
  8
3
 62
     0
  2
_OPEN
 10
5665.293960206569
 20
3435.7848368242039
 30
0.0
 41
90.0
 42
90.0
 43
90.0
 50
270.0
  0
INSERT
  5
9F78
  8
3
 62
     0
  2
_OPEN
 10
5665.293960206569
 20
5357.0746748242036
 30
0.0
 41
90.0
 42
90.0
 43
90.0
 50
90.0
  0
TEXT
  8
3
  40
135
  5
9FBF
  62
0
  72
0
  71
0
 10
5282.79
 20
4157.48
 30
0.000000
  1
1921
  0
POINT
  5
9F7A
  8
DEFPOINTS
 62
     0
 10
5307.8068642437511
 20
3435.7848368242039
 30
0.0
  0
POINT
  5
9F7B
  8
DEFPOINTS
 62
     0
 10
5003.6136164169357
 20
5357.0746748242036
 30
0.0
  0
POINT
  5
9F7C
  8
DEFPOINTS
 62
     0
 10
5665.293960206569
 20
5357.0746748242036
 30
0.0
  0
ENDBLK
  5
91DF
  8
0
  0
BLOCK
  8
0
  2
*D18
 70
     1
 10
0.0
 20
0.0
 30
0.0
  3
*D18
  1

  0
LINE
  5
9F47
  8
3
 62
     0
 10
8415.1376500000006
 20
6257.0746748242036
 30
0.0
 11
8822.5519079999995
 21
6257.0746748242036
 31
0.0
  0
LINE
  5
9F48
  8
3
 62
     0
 10
8415.1376500000006
 20
4457.0746748242036
 30
0.0
 11
8822.5519079999995
 21
4457.0746748242036
 31
0.0
  0
LINE
  5
9F49
  8
3
 62
     0
 10
8777.5519079999995
 20
6167.0746748242036
 30
0.0
 11
8777.5519079999995
 21
4547.0746748242036
 31
0.0
  0
SOLID
  5
9F4A
  8
3
 62
     0
 10
8762.5519079999976
 20
6167.0746748242036
 30
0.0
 11
8792.5519079999995
 21
6167.0746748242036
 31
0.0
 12
8777.5519079999995
 22
6257.0746748242036
 32
0.0
 13
8777.5519079999995
 23
6257.0746748242036
 33
0.0
  0
SOLID
  5
9F4B
  8
3
 62
     0
 10
8762.5519079999976
 20
4547.0746748242036
 30
0.0
 11
8792.5519079999995
 21
4547.0746748242036
 31
0.0
 12
8777.5519079999995
 22
4457.0746748242036
 32
0.0
 13
8777.5519079999995
 23
4457.0746748242036
 33
0.0
  0
TEXT
  8
3
  40
135
  5
9FC0
  62
0
  72
0
  71
0
 10
8395.05
 20
5063.83
 30
0.000000
  1
φ1800
  0
POINT
  5
9F4D
  8
DEFPOINTS
 62
     0
 10
8392.6376500000006
 20
6257.0746748242036
 30
0.0
  0
POINT
  5
9F4E
  8
DEFPOINTS
 62
     0
 10
8392.6376500000006
 20
4457.0746748242036
 30
0.0
  0
POINT
  5
9F4F
  8
DEFPOINTS
 62
     0
 10
8777.5519079999995
 20
4457.0746748242036
 30
0.0
  0
ENDBLK
  5
93A4
  8
0
  0
BLOCK
  8
0
  2
*D19
 70
     1
 10
0.0
 20
0.0
 30
0.0
  3
*D19
  1

  0
LINE
  5
9F86
  8
3
 62
     0
 10
5026.1136164169357
 20
5357.0746748242036
 30
0.0
 11
5710.293960206568
 21
5357.0746748242036
 31
0.0
  0
LINE
  5
9F87
  8
3
 62
     0
 10
3659.329704463285
 20
6649.0746748242027
 30
0.0
 11
5710.293960206569
 21
6649.0746748242027
 31
0.0
  0
LINE
  5
9F88
  8
3
 62
     0
 10
5665.293960206568
 20
5447.0746748242054
 30
0.0
 11
5665.293960206569
 21
6559.0746748242036
 31
0.0
  0
INSERT
  5
9F89
  8
3
 62
     0
  2
_OPEN
 10
5665.293960206568
 20
5357.0746748242036
 30
0.0
 41
90.0
 42
90.0
 43
90.0
 50
270.0
  0
INSERT
  5
9F8A
  8
3
 62
     0
  2
_OPEN
 10
5665.293960206569
 20
6649.0746748242027
 30
0.0
 41
90.0
 42
90.0
 43
90.0
 50
90.0
  0
TEXT
  8
3
  40
135
  5
9FC1
  62
0
  72
0
  71
0
 10
5282.79
 20
5764.12
 30
0.000000
  1
1292
  0
POINT
  5
9F8C
  8
DEFPOINTS
 62
     0
 10
5003.6136164169357
 20
5357.0746748242036
 30
0.0
  0
POINT
  5
9F8D
  8
DEFPOINTS
 62
     0
 10
3636.829704463285
 20
6649.0746748242027
 30
0.0
  0
POINT
  5
9F8E
  8
DEFPOINTS
 62
     0
 10
5665.293960206569
 20
6649.0746748242027
 30
0.0
  0
ENDBLK
  5
99C3
  8
0
  0
BLOCK
  8
0
  2
*D20
 70
     1
 10
0.0
 20
0.0
 30
0.0
  3
*D20
  1

  0
LINE
  5
9F8F
  8
3
 62
     0
 10
2088.351061144821
 20
5357.0746748242036
 30
0.0
 11
840.76783943931548
 21
5357.0746748242063
 31
0.0
  0
LINE
  5
9F90
  8
3
 62
     0
 10
1184.82970446318
 20
3207.0746748242041
 30
0.0
 11
840.76783943931514
 21
3207.074674824205
 31
0.0
  0
LINE
  5
9F91
  8
3
 62
     0
 10
885.76783943931559
 20
5267.0746748242054
 30
0.0
 11
885.76783943931503
 21
3297.074674824205
 31
0.0
  0
INSERT
  5
9F92
  8
3
 62
     0
  2
_OPEN
 10
885.76783943931559
 20
5357.0746748242063
 30
0.0
 41
90.0
 42
90.0
 43
90.0
 50
90.0
  0
INSERT
  5
9F93
  8
3
 62
     0
  2
_OPEN
 10
885.76783943931503
 20
3207.074674824205
 30
0.0
 41
90.0
 42
90.0
 43
90.0
 50
270.0
  0
TEXT
  8
3
  40
135
  5
9FC2
  62
0
  72
0
  71
0
 10
503.268
 20
4043.12
 30
0.000000
  1
2150
  0
POINT
  5
9F95
  8
DEFPOINTS
 62
     0
 10
2110.8510611448219
 20
5357.0746748242036
 30
0.0
  0
POINT
  5
9F96
  8
DEFPOINTS
 62
     0
 10
1207.32970446318
 20
3207.0746748242041
 30
0.0
  0
POINT
  5
9F97
  8
DEFPOINTS
 62
     0
 10
885.76783943931503
 20
3207.074674824205
 30
0.0
  0
ENDBLK
  5
99D9
  8
0
  0
BLOCK
  8
0
  2
*D21
 70
     1
 10
0.0
 20
0.0
 30
0.0
  3
*D21
  1

  0
LINE
  5
9F98
  8
3
 62
     0
 10
6937.6376499999988
 20
6671.5746748242063
 30
0.0
 11
6937.6376499999988
 21
7086.4553940273136
 31
0.0
  0
LINE
  5
9F99
  8
3
 62
     0
 10
8257.6376500000006
 20
6671.5746748242054
 30
0.0
 11
8257.6376500000006
 21
7086.4553940273136
 31
0.0
  0
LINE
  5
9F9A
  8
3
 62
     0
 10
7027.6376499999988
 20
7041.4553940273154
 30
0.0
 11
8167.6376500000006
 21
7041.4553940273154
 31
0.0
  0
INSERT
  5
9F9B
  8
3
 62
     0
  2
_OPEN
 10
6937.6376499999988
 20
7041.4553940273154
 30
0.0
 41
90.0
 42
90.0
 43
90.0
 50
180.0
  0
INSERT
  5
9F9C
  8
3
 62
     0
  2
_OPEN
 10
8257.6376500000006
 20
7041.4553940273154
 30
0.0
 41
90.0
 42
90.0
 43
90.0
  0
TEXT
  8
3
  40
135
  5
9FC3
  62
0
  72
0
  71
0
 10
7327.64
 20
6915.01
 30
0.000000
  1
1320
  0
POINT
  5
9F9E
  8
DEFPOINTS
 62
     0
 10
6937.6376499999988
 20
6649.0746748242054
 30
0.0
  0
POINT
  5
9F9F
  8
DEFPOINTS
 62
     0
 10
8257.6376500000006
 20
6649.0746748242054
 30
0.0
  0
POINT
  5
9FA0
  8
DEFPOINTS
 62
     0
 10
8257.6376500000006
 20
7041.4553940273154
 30
0.0
  0
ENDBLK
  5
99E6
  8
0
  0
BLOCK
  8
0
  2
*D22
 70
     1
 10
0.0
 20
0.0
 30
0.0
  3
*D22
  1

  0
LINE
  5
9FA1
  8
3
 62
     0
 10
6497.6376499999997
 20
5859.5746748242054
 30
0.0
 11
6497.6376499999997
 21
7429.0618732420298
 31
0.0
  0
LINE
  5
9FA2
  8
3
 62
     0
 10
7597.6376499999988
 20
7454.782220363576
 30
0.0
 11
7597.6376499999988
 21
7339.0618732420289
 31
0.0
  0
LINE
  5
9FA3
  8
3
 62
     0
 10
6587.6376499999988
 20
7384.0618732420289
 30
0.0
 11
7507.6376499999978
 21
7384.0618732420289
 31
0.0
  0
INSERT
  5
9FA4
  8
3
 62
     0
  2
_OPEN
 10
6497.6376499999997
 20
7384.0618732420289
 30
0.0
 41
90.0
 42
90.0
 43
90.0
 50
180.0
  0
INSERT
  5
9FA5
  8
3
 62
     0
  2
_OPEN
 10
7597.6376499999988
 20
7384.0618732420289
 30
0.0
 41
90.0
 42
90.0
 43
90.0
  0
TEXT
  8
3
  40
135
  5
9FC4
  62
0
  72
0
  71
0
 10
6777.64
 20
7292.97
 30
0.000000
  1
(1150)
  0
POINT
  5
9FA7
  8
DEFPOINTS
 62
     0
 10
6497.6376499999997
 20
5837.0746748242036
 30
0.0
  0
POINT
  5
9FA8
  8
DEFPOINTS
 62
     0
 10
7597.6376499999988
 20
7477.282220363576
 30
0.0
  0
POINT
  5
9FA9
  8
DEFPOINTS
 62
     0
 10
7597.6376499999988
 20
7384.0618732420289
 30
0.0
  0
ENDBLK
  5
99F3
  8
0
  0
BLOCK
  8
0
  2
*D23
 70
     1
 10
0.0
 20
0.0
 30
0.0
  3
*D23
  1

  0
LINE
  5
9FAA
  8
3
 62
     0
 10
7597.6376499999988
 20
7454.782220363576
 30
0.0
 11
7597.6376499999988
 21
7339.0618732420289
 31
0.0
  0
LINE
  5
9FAB
  8
3
 62
     0
 10
8392.6376500000006
 20
6344.5746748242063
 30
0.0
 11
8392.6376500000006
 21
7429.0618732420298
 31
0.0
  0
LINE
  5
9FAC
  8
3
 62
     0
 10
7687.6376499999978
 20
7384.0618732420289
 30
0.0
 11
8302.6376500000006
 21
7384.0618732420289
 31
0.0
  0
INSERT
  5
9FAD
  8
3
 62
     0
  2
_OPEN
 10
7597.6376499999988
 20
7384.0618732420289
 30
0.0
 41
90.0
 42
90.0
 43
90.0
 50
180.0
  0
INSERT
  5
9FAE
  8
3
 62
     0
  2
_OPEN
 10
8392.6376500000006
 20
7384.0618732420289
 30
0.0
 41
90.0
 42
90.0
 43
90.0
  0
TEXT
  8
3
  40
135
  5
9FC5
  62
0
  72
0
  71
0
 10
7725.14
 20
7257.61
 30
0.000000
  1
795
  0
POINT
  5
9FB0
  8
DEFPOINTS
 62
     0
 10
7597.6376499999988
 20
7477.282220363576
 30
0.0
  0
POINT
  5
9FB1
  8
DEFPOINTS
 62
     0
 10
8392.6376500000006
 20
6322.0746748242063
 30
0.0
  0
POINT
  5
9FB2
  8
DEFPOINTS
 62
     0
 10
8392.6376500000006
 20
7384.0618732420289
 30
0.0
  0
ENDBLK
  5
9A09
  8
0
  0
ENDSEC
  0
SECTION
  2
ENTITIES
  0
INSERT
  5
8E52
  8
0
  2
YA_N
 10
12518.736613999999
 20
-6524.6833909999987
 30
0.0
  0
INSERT
  5
8E53
  8
0
  2
YA_N
 10
18386.038918999999
 20
2975.8020809999989
 30
0.0
  0
INSERT
  5
8E54
  8
0
  2
YA_N
 10
12518.736613999999
 20
-6524.6833909999987
 30
0.0
  0
INSERT
  5
8E55
  8
0
  2
YA_N
 10
18386.038918999999
 20
2975.8020809999989
 30
0.0
  0
LINE
  5
8E56
  8
1
 10
6486.6376499999997
 20
3357.0746748242041
 30
0.0
 11
8336.6376500000006
 21
3357.0746748242041
 31
0.0
  0
LINE
  5
8E57
  8
1
 10
6486.6376499999997
 20
3207.0746748242041
 30
0.0
 11
8336.6376500000006
 21
3207.0746748242041
 31
0.0
  0
LINE
  5
8E58
  8
1
 10
6561.6376499999997
 20
3357.0746748242041
 30
0.0
 11
6486.6376499999997
 21
3357.0746748242041
 31
0.0
  0
LINE
  5
8E59
  8
1
 10
6561.6376499999997
 20
3207.0746748242041
 30
0.0
 11
6486.6376499999997
 21
3207.0746748242041
 31
0.0
  0
LINE
  5
8E5A
  8
2
 10
7597.6376499999988
 20
2959.8688318242062
 30
0.0
 11
7597.6376499999988
 21
7019.261737675366
 31
0.0
  0
LINE
  5
8E5B
  8
1
 10
8257.6376500000006
 20
5348.0746748242036
 30
0.0
 11
8257.6376500000006
 21
3433.9806690049581
 31
0.0
  0
LINE
  5
8E5C
  8
1
 10
8392.6376500000006
 20
4392.0746748242027
 30
0.0
 11
8392.6376500000006
 21
6322.0746748242063
 31
0.0
  0
LINE
  5
8E5D
  8
1
 10
8257.6376500000006
 20
6649.0746748242054
 30
0.0
 11
8257.6376500000006
 21
5366.0746748242054
 31
0.0
  0
LINE
  5
8E5E
  8
1
 10
8261.6376500000006
 20
3207.0746748242041
 30
0.0
 11
8336.6376500000006
 21
3207.0746748242041
 31
0.0
  0
LINE
  5
8E5F
  8
1
 10
8261.6376500000006
 20
3357.0746748242041
 30
0.0
 11
8336.6376500000006
 21
3357.0746748242041
 31
0.0
  0
LINE
  5
8E60
  8
1
 10
8257.6376500000006
 20
4457.0746748242036
 30
0.0
 11
8392.6376500000006
 21
4457.0746748242036
 31
0.0
  0
LINE
  5
8E61
  8
1
 10
8257.6376500000006
 20
6257.0746748242036
 30
0.0
 11
8392.6376500000006
 21
6257.0746748242036
 31
0.0
  0
LINE
  5
8E62
  8
1
 10
2193.329704463179
 20
9363.5698250355745
 30
0.0
 11
1207.32970446318
 21
9363.5698250355745
 31
0.0
  0
LINE
  5
8E63
  8
1
 10
4807.3297044631781
 20
8163.5698250355763
 30
0.0
 11
1207.32970446318
 21
8163.5698250355763
 31
0.0
  0
LINE
  5
8E64
  8
1
 10
4807.3297044631781
 20
10013.569825035571
 30
0.0
 11
4647.3297044631763
 21
10013.569825035571
 31
0.0
  0
LINE
  5
8E65
  8
2
 10
3747.3297044631781
 20
8109.5040792468944
 30
0.0
 11
3747.3297044631781
 21
10184.023165513179
 31
0.0
  0
LINE
  5
8E66
  8
1
 10
1207.32970446318
 20
8163.5698250355763
 30
0.0
 11
1207.32970446318
 21
8238.5698250355745
 31
0.0
  0
INSERT
  5
8E67
  8
0
  2
YA_N
 10
12518.736613999999
 20
-6524.6833909999987
 30
0.0
  0
LINE
  5
8E68
  8
2
 10
6397.6376499999997
 20
5357.0746748242036
 30
0.0
 11
8498.3907209999998
 21
5357.0746748242036
 31
0.0
  0
LINE
  5
8E69
  8
1
 10
6497.6376499999978
 20
3422.0746748242041
 30
0.0
 11
6497.6376499999997
 21
5837.0746748242036
 31
0.0
  0
LINE
  5
8E6A
  8
1
 10
6697.6376499999997
 20
5837.0746748242036
 30
0.0
 11
6697.6376499999969
 21
3422.0746748242041
 31
0.0
  0
LINE
  5
8E6B
  8
1
 10
6697.6376499999978
 20
3422.0746748242041
 30
0.0
 11
6497.6376499999978
 21
3422.0746748242041
 31
0.0
  0
LINE
  5
8E6C
  8
1
 10
6657.6376499999988
 20
3557.0746748242041
 30
0.0
 11
6657.6376499999988
 21
3857.0746748242041
 31
0.0
  0
LINE
  5
8E6D
  8
1
 10
6537.6376499999988
 20
3557.0746748242041
 30
0.0
 11
6537.6376499999988
 21
3857.0746748242041
 31
0.0
  0
LINE
  5
8E6E
  8
1
 10
6537.6376499999988
 20
5757.0746748242036
 30
0.0
 11
6657.6376499999988
 21
5757.0746748242036
 31
0.0
  0
LINE
  5
8E6F
  8
1
 10
6657.6376499999988
 20
4957.0746748242036
 30
0.0
 11
6537.6376499999988
 21
4957.0746748242036
 31
0.0
  0
LINE
  5
8E70
  8
1
 10
6537.6376499999988
 20
3857.0746748242041
 30
0.0
 11
6537.6376499999988
 21
5757.0746748242036
 31
0.0
  0
LINE
  5
8E71
  8
1
 10
6657.6376499999988
 20
3857.0746748242041
 30
0.0
 11
6657.6376499999988
 21
5757.0746748242036
 31
0.0
  0
LINE
  5
8E72
  8
2
 10
6597.6376499999997
 20
5802.9226748242054
 30
0.0
 11
6597.6376499999988
 21
3535.0378191813502
 31
0.0
  0
LINE
  5
8E73
  8
1
 10
6697.6376499999997
 20
5837.0746748242036
 30
0.0
 11
6497.6376499999997
 21
5837.0746748242036
 31
0.0
  0
LINE
  5
8E74
  8
2
 10
6463.3366499999984
 20
3707.0746748242041
 30
0.0
 11
6868.637649999996
 21
3707.0746748242041
 31
0.0
  0
LINE
  5
8E75
  8
1
 10
6537.6376499999988
 20
3857.0746748242041
 30
0.0
 11
6657.6376499999988
 21
3857.0746748242041
 31
0.0
  0
LINE
  5
8E76
  8
1
 10
6537.6376499999988
 20
3557.0746748242041
 30
0.0
 11
6657.6376499999988
 21
3557.0746748242041
 31
0.0
  0
INSERT
  5
8E77
  8
0
  2
YA_N
 10
18386.038918999999
 20
2975.8020809999989
 30
0.0
  0
LINE
  5
8E78
  8
1
 10
6486.6376499999997
 20
3357.0746748242041
 30
0.0
 11
6486.6376499999997
 21
3207.0746748242041
 31
0.0
  0
LINE
  5
8E79
  8
1
 10
8336.6376500000006
 20
3357.0746748242041
 30
0.0
 11
8336.6376500000006
 21
3207.0746748242041
 31
0.0
  0
LINE
  5
8E80
  8
2
 10
5277.4736414631807
 20
9274.5698250355745
 30
0.0
 11
2318.9243519375809
 21
9274.5698250355745
 31
0.0
  0
LINE
  5
8E81
  8
1
 10
4912.329704463179
 20
9934.5698250355763
 30
0.0
 11
2193.329704463179
 21
9934.5698250355781
 31
0.0
  0
LINE
  5
8E82
  8
1
 10
4912.329704463179
 20
8614.5698250355763
 30
0.0
 11
2193.329704463179
 21
8614.5698250355763
 31
0.0
  0
LINE
  5
8E83
  8
1
 10
4807.329704463179
 20
8163.5698250355763
 30
0.0
 11
4807.329704463179
 21
8614.5698250355763
 31
0.0
  0
LINE
  5
8E85
  8
1
 10
1527.32970446318
 20
8214.5698250355745
 30
0.0
 11
1527.32970446318
 21
8334.5698250355745
 31
0.0
  0
LINE
  5
8E86
  8
1
 10
1827.329704463179
 20
8214.5698250355745
 30
0.0
 11
1827.329704463179
 21
8334.5698250355745
 31
0.0
  0
LINE
  5
8E87
  8
1
 10
1677.3297044631779
 20
8140.2688250355741
 30
0.0
 11
1677.3297044631779
 21
8488.0698250355745
 31
0.0
  0
LINE
  5
8E88
  8
1
 10
4227.329704463179
 20
8374.5698250355745
 30
0.0
 11
4227.329704463179
 21
8174.5698250355736
 31
0.0
  0
LINE
  5
8E89
  8
1
 10
3347.329704463179
 20
8334.5698250355745
 30
0.0
 11
3347.329704463179
 21
8214.5698250355745
 31
0.0
  0
LINE
  5
8E8A
  8
1
 10
4147.3297044631781
 20
8214.5698250355745
 30
0.0
 11
4147.3297044631781
 21
8334.5698250355745
 31
0.0
  0
LINE
  5
8E8B
  8
1
 10
1392.32970446318
 20
8374.5698250355745
 30
0.0
 11
1392.32970446318
 21
8174.5698250355736
 31
0.0
  0
LINE
  5
8E8C
  8
1
 10
1527.32970446318
 20
8214.5698250355745
 30
0.0
 11
1827.329704463179
 21
8214.5698250355745
 31
0.0
  0
LINE
  5
8E8D
  8
1
 10
1392.32970446318
 20
8174.5698250355736
 30
0.0
 11
4227.329704463179
 21
8174.5698250355736
 31
0.0
  0
LINE
  5
8E8E
  8
2
 10
4193.177704463179
 20
8274.5698250355745
 30
0.0
 11
1470.8786604631789
 21
8274.5698250355745
 31
0.0
  0
LINE
  5
8E8F
  8
1
 10
3347.329704463179
 20
8214.5698250355745
 30
0.0
 11
4147.3297044631781
 21
8214.5698250355745
 31
0.0
  0
LINE
  5
8E90
  8
1
 10
1527.32970446318
 20
8334.5698250355745
 30
0.0
 11
1827.329704463179
 21
8334.5698250355745
 31
0.0
  0
LINE
  5
8E91
  8
1
 10
4227.329704463179
 20
8374.5698250355745
 30
0.0
 11
1392.32970446318
 21
8374.5698250355745
 31
0.0
  0
LINE
  5
8E92
  8
1
 10
3347.329704463179
 20
8334.5698250355745
 30
0.0
 11
4147.3297044631781
 21
8334.5698250355745
 31
0.0
  0
LINE
  5
8E93
  8
1
 10
6657.6376499999988
 20
5402.0746748242054
 30
0.0
 11
6937.6376499999988
 21
5402.0746748242054
 31
0.0
  0
LINE
  5
8E94
  8
1
 10
6657.6376499999988
 20
5312.0746748242054
 30
0.0
 11
6937.6376499999988
 21
5312.0746748242054
 31
0.0
  0
LINE
  5
8E95
  8
1
 10
1407.32970446318
 20
9313.5698250355763
 30
0.0
 11
1407.32970446318
 21
8461.0698250355763
 31
0.0
  0
LINE
  5
8E96
  8
1
 10
1964.829704463179
 20
8461.0698250355763
 30
0.0
 11
1964.829704463179
 21
9313.5698250355763
 31
0.0
  0
LINE
  5
8E97
  8
2
 10
1677.3297044631779
 20
8255.0732440355769
 30
0.0
 11
1677.3297044631779
 21
9332.861141035577
 31
0.0
  0
LINE
  5
8E98
  8
1
 10
1407.32970446318
 20
9313.5698250355763
 30
0.0
 11
1964.829704463179
 21
9313.5698250355763
 31
0.0
  0
LINE
  5
8E99
  8
1
 10
1964.829704463179
 20
8461.0698250355763
 30
0.0
 11
1407.32970446318
 21
8461.0698250355763
 31
0.0
  0
LINE
  5
8E9A
  8
1
 10
1591.829704463179
 20
8454.5698250355745
 30
0.0
 11
1762.829704463179
 21
8454.5698250355745
 31
0.0
  0
LINE
  5
8E9B
  8
1
 10
1634.829704463179
 20
8274.5698250355745
 30
0.0
 11
1724.829704463179
 21
8274.5698250355745
 31
0.0
  0
LINE
  5
8E9C
  8
1
 10
1627.3297044631779
 20
8444.5698250355745
 30
0.0
 11
1727.329704463179
 21
8444.5698250355745
 31
0.0
  0
LINE
  5
8E9D
  8
1
 10
1634.829704463179
 20
8274.5698250355745
 30
0.0
 11
1634.829704463179
 21
8444.5698250355745
 31
0.0
  0
LINE
  5
8E9E
  8
1
 10
1627.3297044631779
 20
8444.5698250355745
 30
0.0
 11
1627.3297044631779
 21
8454.5698250355745
 31
0.0
  0
ARC
  5
8E9F
  8
1
 10
1591.829704463179
 20
8456.5698250355745
 30
0.0
 40
2.0
 50
180.0
 51
270.0
  0
LINE
  5
8EA0
  8
1
 10
1589.829704463179
 20
8461.4182000355759
 30
0.0
 11
1589.829704463179
 21
8456.5698250355745
 31
0.0
  0
LINE
  5
8EA1
  8
1
 10
1724.829704463179
 20
8274.5698250355745
 30
0.0
 11
1724.829704463179
 21
8414.5698250355763
 31
0.0
  0
LINE
  5
8EA2
  8
1
 10
1719.829704463179
 20
8274.5698250355745
 30
0.0
 11
1719.829704463179
 21
8439.0698250355745
 31
0.0
  0
LINE
  5
8EA3
  8
1
 10
1727.329704463179
 20
8444.5698250355745
 30
0.0
 11
1727.329704463179
 21
8454.5698250355745
 31
0.0
  0
ARC
  5
8EA4
  8
1
 10
1762.829704463179
 20
8456.5698250355745
 30
0.0
 40
2.0
 50
270.0
 51
0.000000000000007
  0
LINE
  5
8EA5
  8
1
 10
1764.829704463179
 20
8461.0698250355763
 30
0.0
 11
1764.829704463179
 21
8456.5698250355745
 31
0.0
  0
LINE
  5
8EA6
  8
1
 10
1719.829704463179
 20
8414.5698250355763
 30
0.0
 11
1724.829704463179
 21
8414.5698250355763
 31
0.0
  0
LINE
  5
8EA7
  8
1
 10
6868.6376499999978
 20
3977.074674824205
 30
0.0
 11
6784.1376499999988
 21
3977.074674824205
 31
0.0
  0
LINE
  5
8EA8
  8
1
 10
6784.1376499999988
 20
3419.5746748242041
 30
0.0
 11
6868.6376499999978
 21
3419.5746748242041
 31
0.0
  0
LINE
  5
8EA9
  8
1
 10
6784.1376499999988
 20
3419.5746748242041
 30
0.0
 11
6784.1376499999988
 21
3977.074674824205
 31
0.0
  0
LINE
  5
8EAA
  8
1
 10
6777.6376499999988
 20
3792.574674824205
 30
0.0
 11
6777.6376499999988
 21
3621.5746748242041
 31
0.0
  0
LINE
  5
8EAB
  8
1
 10
6784.4860249999983
 20
3794.5746748242041
 30
0.0
 11
6779.6376499999988
 21
3794.5746748242041
 31
0.0
  0
ARC
  5
8EAC
  8
1
 10
6779.6376499999988
 20
3792.574674824205
 30
0.0
 40
2.0
 50
90.0
 51
180.0
  0
LINE
  5
8EAD
  8
1
 10
6597.6376499999988
 20
3664.5746748242041
 30
0.0
 11
6762.1376499999978
 21
3664.5746748242041
 31
0.0
  0
LINE
  5
8EAF
  8
1
 10
6597.6376499999988
 20
3749.5746748242041
 30
0.0
 11
6767.6376499999988
 21
3749.5746748242041
 31
0.0
  0
LINE
  5
8EB1
  8
1
 10
6784.1376499999988
 20
3619.5746748242041
 30
0.0
 11
6779.6376499999988
 21
3619.5746748242041
 31
0.0
  0
ARC
  5
8EB2
  8
1
 10
6779.6376499999988
 20
3621.5746748242041
 30
0.0
 40
2.0
 50
180.0
 51
270.0
  0
LINE
  5
8EB3
  8
1
 10
6767.6376499999988
 20
3657.0746748242041
 30
0.0
 11
6777.6376499999988
 21
3657.0746748242041
 31
0.0
  0
LINE
  5
8EB4
  8
1
 10
6767.6376499999988
 20
3757.0746748242041
 30
0.0
 11
6777.6376499999988
 21
3757.0746748242041
 31
0.0
  0
LINE
  5
8EB5
  8
1
 10
6767.6376499999988
 20
3757.0746748242041
 30
0.0
 11
6767.6376499999988
 21
3657.0746748242041
 31
0.0
  0
DIMENSION
  5
8EB7
  8
3
  2
*D6
 10
2687.329704463179
 20
10320.822061390931
 30
0.0
 11
3740.2584184631792
 21
10320.822061390931
 31
0.0
 70
   128
 13
4807.3297044631781
 23
10013.569825035571
 33
0.0
 14
2687.329704463179
 24
10013.569825035571
 34
0.0
 50
0.000000000000007
1001
ACAD
1000
DSTYLE
1002
{
1070
   287
1070
     3
1070
   287
1070
     3
1070
   287
1070
     3
1070
   287
1070
     3
1070
   287
1070
     3
1070
   287
1070
     3
1070
    40
1040
45.0
1070
   143
1040
0.039
1070
   271
1070
     4
1070
   272
1070
     4
1070
   279
1070
     0
1070
   284
1070
     0
1070
   285
1070
     0
1070
   286
1070
     0
1070
   341
1005
8D0F
1070
     6
1000
OPEN
1070
     7
1000
OPEN
1002
}
  0
DIMENSION
  5
8EB8
  8
3
  2
*D7
 10
1207.32970446318
 20
10320.822061390931
 30
0.0
 11
1947.32970446318
 21
10433.322061390931
 31
0.0
 70
     0
 13
2687.329704463179
 23
10013.569825035571
 33
0.0
 14
1207.32970446318
 24
9363.5698250355745
 34
0.0
 50
0.000000000000007
1001
ACAD
1000
DSTYLE
1002
{
1070
   287
1070
     3
1070
   287
1070
     3
1070
   287
1070
     3
1070
   287
1070
     3
1070
   287
1070
     3
1070
   287
1070
     3
1070
    40
1040
45.0
1070
   143
1040
0.039
1070
   271
1070
     4
1070
   272
1070
     4
1070
   279
1070
     0
1070
   284
1070
     0
1070
   285
1070
     0
1070
   286
1070
     0
1070
   341
1005
8D0F
1070
     6
1000
OPEN
1070
     7
1000
OPEN
1002
}
  0
DIMENSION
  5
8EB9
  8
3
  2
*D9
 10
965.19765646318069
 20
8163.5698250355763
 30
0.0
 11
965.19765646317944
 21
8757.2817040355767
 31
0.0
 70
   128
 13
1207.32970446318
 23
9363.5698250355745
 33
0.0
 14
1207.32970446318
 24
8163.5698250355763
 34
0.0
 50
90.0
1001
ACAD
1000
DSTYLE
1002
{
1070
   287
1070
     3
1070
   287
1070
     3
1070
   287
1070
     3
1070
   287
1070
     3
1070
   287
1070
     3
1070
   287
1070
     3
1070
    40
1040
45.0
1070
   143
1040
0.039
1070
   271
1070
     4
1070
   272
1070
     4
1070
   279
1070
     0
1070
   284
1070
     0
1070
   285
1070
     0
1070
   286
1070
     0
1070
   341
1005
8D0F
1070
     6
1000
OPEN
1070
     7
1000
OPEN
1002
}
  0
DIMENSION
  5
8EBA
  8
3
  2
*D8
 10
4807.3297044631781
 20
7682.284521137195
 30
0.0
 11
3247.3483604631788
 21
7682.284521137195
 31
0.0
 70
   128
 13
1207.32970446318
 23
8163.5698250355763
 33
0.0
 14
4807.3297044631781
 24
8163.5698250355763
 34
0.0
 50
0.000000000000007
1001
ACAD
1000
DSTYLE
1002
{
1070
   287
1070
     3
1070
   287
1070
     3
1070
   287
1070
     3
1070
   287
1070
     3
1070
   287
1070
     3
1070
   287
1070
     3
1070
    40
1040
45.0
1070
   143
1040
0.039
1070
   271
1070
     4
1070
   272
1070
     4
1070
   279
1070
     0
1070
   284
1070
     0
1070
   285
1070
     0
1070
   286
1070
     0
1070
   341
1005
8D0F
1070
     6
1000
OPEN
1070
     7
1000
OPEN
1002
}
  0
DIMENSION
  5
8EBB
  8
3
  2
*D13
 10
7597.6376499999988
 20
2564.5384851081481
 30
0.0
 11
7064.637444
 21
2564.5384851081481
 31
0.0
 70
   128
 13
6486.6376499999997
 23
3207.0746748242041
 33
0.0
 14
7597.6376499999988
 24
2982.3688318242048
 34
0.0
1001
ACAD
1000
DSTYLE
1002
{
1070
   287
1070
     3
1070
   287
1070
     3
1070
   287
1070
     3
1070
   287
1070
     3
1070
   287
1070
     3
1070
   287
1070
     3
1070
    40
1040
45.0
1070
   143
1040
0.039
1070
   271
1070
     4
1070
   272
1070
     4
1070
   279
1070
     0
1070
   284
1070
     0
1070
   285
1070
     0
1070
   286
1070
     0
1070
   341
1005
8D0F
1070
     6
1000
OPEN
1070
     7
1000
OPEN
1002
}
  0
DIMENSION
  5
8EBC
  8
3
  2
*D14
 10
8336.6376500000006
 20
2564.5384851081481
 30
0.0
 11
7967.1376499999988
 21
2677.0384851081481
 31
0.0
 70
     0
 13
7597.6376499999988
 23
2982.3688318242048
 33
0.0
 14
8336.6376500000006
 24
3207.0746748242041
 34
0.0
1001
ACAD
1000
DSTYLE
1002
{
1070
   287
1070
     3
1070
   287
1070
     3
1070
   287
1070
     3
1070
   287
1070
     3
1070
   287
1070
     3
1070
   287
1070
     3
1070
    40
1040
45.0
1070
   143
1040
0.039
1070
   271
1070
     4
1070
   272
1070
     4
1070
   279
1070
     0
1070
   284
1070
     0
1070
   285
1070
     0
1070
   286
1070
     0
1070
   341
1005
8D0F
1070
     6
1000
OPEN
1070
     7
1000
OPEN
1002
}
  0
DIMENSION
  5
8EBD
  8
3
  2
*D15
 10
8336.6376500000006
 20
2214.188438544405
 30
0.0
 11
7486.8346590000001
 21
2214.188438544405
 31
0.0
 70
   128
 13
6486.6376499999997
 23
3207.0746748242041
 33
0.0
 14
8336.6376500000006
 24
3207.0746748242041
 34
0.0
1001
ACAD
1000
DSTYLE
1002
{
1070
   287
1070
     3
1070
   287
1070
     3
1070
   287
1070
     3
1070
   287
1070
     3
1070
   287
1070
     3
1070
   287
1070
     3
1070
    40
1040
45.0
1070
   143
1040
0.039
1070
   271
1070
     4
1070
   272
1070
     4
1070
   279
1070
     0
1070
   284
1070
     0
1070
   285
1070
     0
1070
   286
1070
     0
1070
   341
1005
8D0F
1070
     6
1000
OPEN
1070
     7
1000
OPEN
1002
}
  0
DIMENSION
  5
8EBE
  8
3
  2
*D18
 10
8777.5519079999995
 20
4457.0746748242036
 30
0.0
 11
8777.5519079999976
 21
5302.7844258242048
 31
0.0
 70
   128
 13
8392.6376500000006
 23
6257.0746748242036
 33
0.0
 14
8392.6376500000006
 24
4457.0746748242036
 34
0.0
 50
90.0
1001
ACAD
1000
DSTYLE
1002
{
1070
   287
1070
     3
1070
   287
1070
     3
1070
   287
1070
     3
1070
   287
1070
     3
1070
   287
1070
     3
1070
   287
1070
     3
1070
   287
1070
     3
1070
     3
1000
φ<>
1070
    40
1040
45.0
1070
   143
1040
0.039
1070
   172
1070
     1
1070
   271
1070
     0
1070
   279
1070
     0
1070
   288
1070
     1
1002
}
  0
LINE
  5
8EC1
  8
4
 10
8325.0
 20
1775.845221491152
 30
0.0
 11
8325.0
 21
875.84522149115207
 31
0.0
  0
LINE
  5
8EC2
  8
4
 10
5175.0
 20
1775.845221491152
 30
0.0
 11
5175.0
 21
875.84522149115207
 31
0.0
  0
LINE
  5
8EC3
  8
4
 10
2925.0
 20
1775.845221491152
 30
0.0
 11
2925.0
 21
875.84522149115207
 31
0.0
  0
LINE
  5
8EC6
  8
4
 10
2925.0
 20
875.84522149115207
 30
0.0
 11
8325.0
 21
875.84522149115207
 31
0.0
  0
LINE
  5
8EC7
  8
4
 10
2925.0
 20
1325.845221491152
 30
0.0
 11
8325.0
 21
1325.845221491152
 31
0.0
  0
TEXT
  5
8EC8
  8
4
 10
3098.259364
 20
1467.788837491152
 30
0.0
 40
225.0
  1
機器名称
  0
TEXT
  5
8EC9
  8
4
 10
3088.1614769999978
 20
973.24842649115214
 30
0.0
 40
225.0
  1
機器型番
  0
TEXT
  5
8ECA
  8
4
 10
5197.1468830000013
 20
1429.233946491152
 30
0.0
 40
202.49999999999989
  1
ミツヤリミットロードファン
  0
TEXT
  5
8ECB
  8
4
 10
5339.9452300000012
 20
953.06335049115205
 30
0.0
 40
225.0
  1
LL＃11-4
  0
TEXT
  5
8ECD
  8
4
 10
3693.629000655952
 20
11055.9079831539
 30
0.0
 40
243.0
  1
床置ベット
  0
TEXT
  5
8ECE
  8
4
 10
1258.0479374325371
 20
11732.9425901539
 30
0.0
 40
324.0
  1
ベルト駆動式片吸込両持リミットロードファン
 41
0.8670367995036059
 72
     5
 11
8224.8620288039092
 21
11732.9425901539
 31
0.0
  0
LINE
  5
8ECF
  8
4
 10
1125.0
 20
11442.8175911539
 30
0.0
 11
8325.0
 21
11442.8175911539
 31
0.0
  0
LINE
  5
8ED0
  8
4
 10
1125.0
 20
12342.8175911539
 30
0.0
 11
8325.0
 21
12342.8175911539
 31
0.0
  0
LINE
  5
8ED1
  8
4
 10
2925.0
 20
1775.845221491152
 30
0.0
 11
8325.0
 21
1775.845221491152
 31
0.0
  0
LINE
  5
8ED2
  8
4
 10
1125.0
 20
12342.8175911539
 30
0.0
 11
1125.0
 21
11442.8175911539
 31
0.0
  0
TEXT
  5
8ED3
  8
4
 10
1658.1327569999989
 20
11050.915846153899
 30
0.0
 40
243.0
  1
左回転右横向
  0
TEXT
  5
8ED4
  8
4
 10
6610.3630169999997
 20
12507.7530641539
 30
0.0
 40
252.0
  1
No.
  0
TEXT
  5
8ED5
  8
4
 10
5900.8322820000003
 20
11055.9079831539
 30
0.0
 40
243.0
  1
縮尺：1/45
  0
LINE
  5
8ED6
  8
4
 10
8325.0
 20
12342.8175911539
 30
0.0
 11
8325.0
 21
11442.8175911539
 31
0.0
  0
LINE
  5
8ED7
  8
4
 10
9450.0
 20
13275.0
 30
0.0
 11
9450.0
 21
13275.0
 31
0.0
  0
LINE
  5
8ED8
  8
4
 10
6482.7784009999996
 20
12396.164321153899
 30
0.0
 11
6482.7784009999996
 21
12870.41337415389
 31
0.0
  0
LINE
  5
8ED9
  8
4
 10
6482.7784009999996
 20
12870.41337415389
 30
0.0
 11
8325.0
 21
12870.41337415389
 31
0.0
  0
LINE
  5
8EDA
  8
4
 10
8325.0
 20
12870.41337415389
 30
0.0
 11
8325.0
 21
12396.164321153899
 31
0.0
  0
LINE
  5
8EDB
  8
4
 10
8325.0
 20
12396.164321153899
 30
0.0
 11
6482.7784009999996
 21
12396.164321153899
 31
0.0
  0
LINE
  5
8EDC
  8
4
 10
0.0
 20
0.0
 30
0.0
 11
0.0
 21
13275.0
 31
0.0
  0
LINE
  5
8EDD
  8
4
 10
0.0
 20
13275.0
 30
0.0
 11
9450.0
 21
13275.0
 31
0.0
  0
LINE
  5
8EDE
  8
4
 10
9450.0
 20
13275.0
 30
0.0
 11
9450.0
 21
0.0
 31
0.0
  0
LINE
  5
8EDF
  8
4
 10
9450.0
 20
0.0
 30
0.0
 11
0.0
 21
0.0
 31
0.0
  0
LINE
  5
8EE0
  8
1
 10
6937.6376499999988
 20
6649.0746748242054
 30
0.0
 11
6937.6376499999988
 21
3433.9806690049568
 31
0.0
  0
DIMENSION
  5
8EE1
  8
3
  2
*D12
 10
4807.329704463179
 20
2301.3125723612611
 30
0.0
 11
3312.5433424631801
 21
2301.3125723612611
 31
0.0
 70
   128
 13
1207.32970446318
 23
3207.0746748242041
 33
0.0
 14
4807.329704463179
 24
3207.0746748242041
 34
0.0
 50
0.000000000000007
1001
ACAD
1000
DSTYLE
1002
{
1070
   287
1070
     3
1070
   287
1070
     3
1070
   287
1070
     3
1070
   287
1070
     3
1070
   287
1070
     3
1070
   287
1070
     3
1070
    40
1040
45.0
1070
   143
1040
0.039
1070
   271
1070
     4
1070
   272
1070
     4
1070
   279
1070
     0
1070
   284
1070
     0
1070
   285
1070
     0
1070
   286
1070
     0
1070
   341
1005
8D0F
1070
     6
1000
OPEN
1070
     7
1000
OPEN
1002
}
  0
DIMENSION
  5
8EE2
  8
3
  2
*D10
 10
3747.32970446318
 20
2626.7646843612611
 30
0.0
 11
2709.4044294631799
 21
2626.7646843612611
 31
0.0
 70
   128
 13
1207.32970446318
 23
3207.0746748242041
 33
0.0
 14
3747.32970446318
 24
2929.425423612121
 34
0.0
 50
0.000000000000007
1001
ACAD
1000
DSTYLE
1002
{
1070
   287
1070
     3
1070
   287
1070
     3
1070
   287
1070
     3
1070
   287
1070
     3
1070
   287
1070
     3
1070
   287
1070
     3
1070
    40
1040
45.0
1070
   143
1040
0.039
1070
   271
1070
     4
1070
   272
1070
     4
1070
   279
1070
     0
1070
   284
1070
     0
1070
   285
1070
     0
1070
   286
1070
     0
1070
   341
1005
8D0F
1070
     6
1000
OPEN
1070
     7
1000
OPEN
1002
}
  0
LINE
  5
8EE7
  8
1
 10
4807.32970446318
 20
3357.0746748242041
 30
0.0
 11
1207.32970446318
 21
3357.0746748242041
 31
0.0
  0
LINE
  5
8EE8
  8
1
 10
4807.32970446318
 20
3207.0746748242041
 30
0.0
 11
1207.32970446318
 21
3207.0746748242041
 31
0.0
  0
LINE
  5
8EEB
  8
2
 10
2110.8510611448219
 20
5357.0746748242036
 30
0.0
 11
5003.6136164169357
 21
5357.0746748242036
 31
0.0
  0
ARC
  5
8EEC
  8
1
 10
3878.32970446318
 20
5226.0746748242054
 30
0.0
 40
1685.0
 50
180.0
 51
264.61205899999987
  0
LINE
  5
8EED
  8
1
 10
4847.32970446318
 20
5286.0746748242063
 30
0.0
 11
4847.32970446318
 21
3441.894973824204
 31
0.0
  0
LINE
  5
8EEE
  8
1
 10
4912.329704463179
 20
5350.0746748242036
 30
0.0
 11
4912.329704463179
 21
3374.0746748242059
 31
0.0
  0
LINE
  5
8EEF
  8
1
 10
4912.1137374631808
 20
3435.7848368242039
 30
0.0
 11
3719.8943034631811
 21
3546.2295888242061
 31
0.0
  0
LINE
  5
8EF0
  8
1
 10
1521.85057246318
 20
3438.8839978242049
 30
0.0
 11
1832.8088364631799
 21
3438.8839978242049
 31
0.0
  0
LINE
  5
8EF1
  8
2
 10
1339.87074046318
 20
3707.0746748242041
 30
0.0
 11
2020.6069264631799
 21
3707.0746748242041
 31
0.0
  0
LINE
  5
8EF2
  8
1
 10
1327.32970446318
 20
3427.0746748242041
 30
0.0
 11
2027.3297044631811
 21
3427.0746748242041
 31
0.0
  0
ARC
  5
8EF3
  8
1
 10
1677.3297044631811
 20
3707.0746748242041
 30
0.0
 40
310.0
 50
300.10230799999982
 51
239.89769200000001
  0
CIRCLE
  5
8EF4
  8
1
 10
1677.3297044631811
 20
3707.0746748242041
 30
0.0
 40
150.0
  0
ARC
  5
8EF5
  8
1
 10
1677.3297044631811
 20
3707.0746748242041
 30
0.0
 40
280.0
 50
132.89140997659129
 51
304.2254168070898
  0
LINE
  5
8EF6
  8
1
 10
1397.32970446318
 20
3574.0333278242051
 30
0.0
 11
1397.32970446318
 21
3427.0746748242041
 31
0.0
  0
LINE
  5
8EF8
  8
1
 10
1207.32970446318
 20
3357.0746748242041
 30
0.0
 11
1207.32970446318
 21
3207.0746748242041
 31
0.0
  0
LINE
  5
8EF9
  8
1
 10
1327.32970446318
 20
3427.0746748242041
 30
0.0
 11
1507.3297044631811
 21
3427.0746748242041
 31
0.0
  0
LINE
  5
8EFA
  8
1
 10
1327.32970446318
 20
3427.0746748242041
 30
0.0
 11
1327.32970446318
 21
3357.0746748242041
 31
0.0
  0
LINE
  5
8EFB
  8
1
 10
1957.32970446318
 20
3574.0333278242051
 30
0.0
 11
1957.32970446318
 21
3427.0746748242041
 31
0.0
  0
LINE
  5
8EFC
  8
2
 10
1677.3297044631811
 20
3284.2767448242048
 30
0.0
 11
1677.3297044631811
 21
4189.0735268242051
 31
0.0
  0
LINE
  5
8EFD
  8
1
 10
2027.3297044631811
 20
3427.0746748242041
 30
0.0
 11
2027.3297044631811
 21
3357.0746748242041
 31
0.0
  0
DIMENSION
  5
8EFE
  8
3
  2
*D11
 10
4807.329704463179
 20
2626.7646843612611
 30
0.0
 11
4277.32970446318
 21
2739.2646843612611
 31
0.0
 70
     0
 13
3747.32970446318
 23
2929.425423612121
 33
0.0
 14
4807.329704463179
 24
3207.0746748242041
 34
0.0
 50
0.000000000000007
1001
ACAD
1000
DSTYLE
1002
{
1070
   287
1070
     3
1070
   287
1070
     3
1070
   287
1070
     3
1070
   287
1070
     3
1070
   287
1070
     3
1070
   287
1070
     3
1070
    40
1040
45.0
1070
   143
1040
0.039
1070
   271
1070
     4
1070
   272
1070
     4
1070
   279
1070
     0
1070
   284
1070
     0
1070
   285
1070
     0
1070
   286
1070
     0
1070
   341
1005
8D0F
1070
     6
1000
OPEN
1070
     7
1000
OPEN
1002
}
  0
ARC
  5
8EFF
  8
1
 10
3636.82970446318
 20
5467.5746748242054
 30
0.0
 40
1181.4999999999991
 50
0.000000000000007
 51
90.0
  0
ARC
  5
8F00
  8
1
 10
3616.329704463179
 20
5226.0746748242054
 30
0.0
 40
1423.0
 50
90.0
 51
180.0
  0
LINE
  5
8F01
  8
2
 10
3747.329704463179
 20
2906.925423612121
 30
0.0
 11
3747.329704463179
 21
7266.0761058498083
 31
0.0
  0
LINE
  5
8F02
  8
1
 10
4801.0253364631799
 20
5286.0746748242063
 30
0.0
 11
4912.329704463179
 21
5286.0746748242063
 31
0.0
  0
ARC
  5
8F03
  8
1
 10
3747.3287044631788
 20
5357.0746748242036
 30
0.0
 40
480.0
 50
304.22541680708969
 51
132.89140997659129
  0
CIRCLE
  5
8F04
  8
1
 10
3747.329704463179
 20
5357.0746748242036
 30
0.0
 40
400.0
  0
ARC
  5
8F06
  8
1
 10
3857.82970446318
 20
5467.5746748242054
 30
0.0
 40
960.5
 50
349.107665
 51
0.000000000000007
  0
LINE
  5
8F08
  8
1
 10
4807.32970446318
 20
3357.0746748242041
 30
0.0
 11
4807.32970446318
 21
3207.0746748242041
 31
0.0
  0
DIMENSION
  5
8F0C
  8
3
  2
*D16
 10
5307.8068642437511
 20
5286.0746748242063
 30
0.0
 11
5195.3068642437502
 21
4360.9297558242051
 31
0.0
 70
     0
  1
1850
 13
4912.1137374631808
 23
3435.7848368242039
 33
0.0
 14
4912.329704463179
 24
5286.0746748242063
 34
0.0
 50
270.0
1001
ACAD
1000
DSTYLE
1002
{
1070
   287
1070
     3
1070
   287
1070
     3
1070
   287
1070
     3
1070
   287
1070
     3
1070
   287
1070
     3
1070
   287
1070
     3
1070
    40
1040
45.0
1070
   143
1040
0.039
1070
   271
1070
     4
1070
   272
1070
     4
1070
   279
1070
     0
1070
   284
1070
     0
1070
   285
1070
     0
1070
   286
1070
     0
1070
   341
1005
8D0F
1070
     6
1000
OPEN
1070
     7
1000
OPEN
1002
}
  0
DIMENSION
  5
8F0D
  8
3
  2
*D17
 10
5665.293960206569
 20
5357.0746748242036
 30
0.0
 11
5552.7939602065671
 21
4396.4297558242051
 31
0.0
 70
     0
  1
1921
 13
5307.8068642437511
 23
3435.7848368242039
 33
0.0
 14
5003.6136164169357
 24
5357.0746748242036
 34
0.0
 50
270.0
1001
ACAD
1000
DSTYLE
1002
{
1070
   287
1070
     3
1070
   287
1070
     3
1070
   287
1070
     3
1070
   287
1070
     3
1070
   287
1070
     3
1070
   287
1070
     3
1070
    40
1040
45.0
1070
   143
1040
0.039
1070
   271
1070
     4
1070
   272
1070
     4
1070
   279
1070
     0
1070
   284
1070
     0
1070
   285
1070
     0
1070
   286
1070
     0
1070
   341
1005
8D0F
1070
     6
1000
OPEN
1070
     7
1000
OPEN
1002
}
  0
LINE
  5
8F12
  8
1
 10
4912.329704463179
 20
8545.5698250355781
 30
0.0
 11
4912.329704463179
 21
10003.569825035571
 31
0.0
  0
LINE
  5
8F13
  8
1
 10
2193.329704463179
 20
8614.5698250355763
 30
0.0
 11
2193.329704463179
 21
9934.5698250355781
 31
0.0
  0
LINE
  5
8F14
  8
1
 10
2847.329704463179
 20
9934.5698250355781
 30
0.0
 11
2847.329704463179
 21
10069.569825035571
 31
0.0
  0
LINE
  5
8F15
  8
1
 10
4647.3297044631763
 20
9934.5698250355763
 30
0.0
 11
4647.3297044631781
 21
10069.569825035571
 31
0.0
  0
LINE
  5
8F16
  8
1
 10
4712.3297044631781
 20
10069.569825035571
 30
0.0
 11
2782.3297044631781
 21
10069.569825035571
 31
0.0
  0
LINE
  5
8F17
  8
1
 10
6937.6376499999988
 20
3433.9806690049568
 30
0.0
 11
8257.6376500000006
 21
3433.9806690049568
 31
0.0
  0
DIMENSION
  5
8F1C
  8
3
  2
*D5
 10
5668.8127705611632
 20
10013.569825035571
 30
0.0
 11
5556.3127705611614
 21
9088.5698250355745
 31
0.0
 70
     0
 13
4807.3297044631781
 23
8163.5698250355763
 33
0.0
 14
4807.3297044631781
 24
10013.569825035571
 34
0.0
 50
90.0
1001
ACAD
1000
DSTYLE
1002
{
1070
   287
1070
     3
1070
   287
1070
     3
1070
   287
1070
     3
1070
   287
1070
     3
1070
   287
1070
     3
1070
   287
1070
     3
1070
    40
1040
45.0
1070
   143
1040
0.039
1070
   271
1070
     4
1070
   272
1070
     4
1070
   279
1070
     0
1070
   284
1070
     0
1070
   285
1070
     0
1070
   286
1070
     0
1070
   341
1005
8D0F
1070
     6
1000
OPEN
1070
     7
1000
OPEN
1002
}
  0
LINE
  5
8F1D
  8
1
 10
2193.329704463179
 20
9288.5698250355763
 30
0.0
 11
1207.32970446318
 21
9288.5698250355763
 31
0.0
  0
LINE
  5
8F1E
  8
1
 10
4807.3297044631781
 20
8238.5698250355745
 30
0.0
 11
4227.329704463179
 21
8238.5698250355745
 31
0.0
  0
LINE
  5
8F21
  8
1
 10
4807.3297044631781
 20
9938.5698250355763
 30
0.0
 11
2687.32970446318
 21
9938.5698250355763
 31
0.0
  0
LINE
  5
8F22
  8
1
 10
2847.329704463179
 20
10013.569825035571
 30
0.0
 11
2687.32970446318
 21
10013.569825035571
 31
0.0
  0
LINE
  5
8F23
  8
1
 10
1392.32970446318
 20
8238.5698250355745
 30
0.0
 11
1207.32970446318
 21
8238.5698250355745
 31
0.0
  0
LINE
  5
8F24
  8
1
 10
2687.32970446318
 20
9934.5698250355781
 30
0.0
 11
2687.32970446318
 21
10013.569825035571
 31
0.0
  0
LINE
  5
8F25
  8
1
 10
2762.32970446318
 20
9934.5698250355763
 30
0.0
 11
2762.32970446318
 21
9938.5698250355781
 31
0.0
  0
LINE
  5
8F26
  8
1
 10
4732.3297044631809
 20
9934.5698250355763
 30
0.0
 11
4732.329704463179
 21
9938.5698250355781
 31
0.0
  0
LINE
  5
8F27
  8
1
 10
4807.3297044631781
 20
9934.5698250355763
 30
0.0
 11
4807.3297044631781
 21
10013.569825035571
 31
0.0
  0
LINE
  5
9319
  8
1
 10
6937.6376499999988
 20
5283.9806690049572
 30
0.0
 11
8257.6376500000006
 21
5283.9806690049572
 31
0.0
  0
LINE
  5
931B
  8
1
 10
6937.6376499999988
 20
5283.9806690049572
 30
0.0
 11
8257.6376500000006
 21
3433.9806690049581
 31
0.0
  0
LINE
  5
931C
  8
1
 10
8257.6376500000006
 20
5283.9806690049572
 30
0.0
 11
6937.6376499999988
 21
3433.9806690049568
 31
0.0
  0
LINE
  5
931D
  8
1
 10
6868.6376499999978
 20
5352.9806690049572
 30
0.0
 11
6868.6376499999978
 21
3364.9806690049559
 31
0.0
  0
LINE
  5
931E
  8
1
 10
8326.6376499999951
 20
5352.9806690049572
 30
0.0
 11
8326.6376499999951
 21
3364.9806690049568
 31
0.0
  0
LINE
  5
931F
  8
1
 10
6868.6376499999978
 20
3364.9806690049559
 30
0.0
 11
8326.6376499999951
 21
3364.9806690049568
 31
0.0
  0
LINE
  5
9320
  8
1
 10
6868.6376499999978
 20
5352.9806690049572
 30
0.0
 11
8326.6376499999951
 21
5352.9806690049572
 31
0.0
  0
LINE
  5
9514
  8
1
 10
1207.32970446318
 20
9288.5698250355781
 30
0.0
 11
1207.32970446318
 21
9363.5698250355745
 31
0.0
  0
LINE
  5
9891
  8
1
 10
3636.82970446318
 20
6649.0746748242027
 30
0.0
 11
3616.329704463179
 21
6649.0746748242054
 31
0.0
  0
LINE
  5
9892
  8
1
 10
3420.6354074676929
 20
5708.7442494226034
 30
0.0
 11
1486.7586145491459
 21
3912.2152600066038
 31
0.0
  0
LINE
  5
9893
  8
1
 10
4017.3048106590668
 20
4960.1957234003394
 30
0.0
 11
1834.815766410781
 21
3475.5619531602829
 31
0.0
  0
LINE
  5
9894
  8
1
 10
3469.5790751789859
 20
5644.9194036837671
 30
0.0
 11
1573.173218481608
 21
3815.0164481465399
 31
0.0
  0
LINE
  5
9895
  8
1
 10
3965.9999330281312
 20
5022.1368729275682
 30
0.0
 11
1759.3310401750371
 21
3581.4729991129652
 31
0.0
  0
LINE
  5
99A3
  8
1
 10
6937.6376499999988
 20
6649.0746748242054
 30
0.0
 11
8257.6376500000006
 21
6649.0746748242054
 31
0.0
  0
DIMENSION
  5
99B7
  8
3
  2
*D19
 10
5665.293960206569
 20
6649.0746748242027
 30
0.0
 11
5552.7939602065671
 21
6003.0746748242054
 31
0.0
 70
     0
 13
5003.6136164169357
 23
5357.0746748242036
 33
0.0
 14
3636.829704463285
 24
6649.0746748242027
 34
0.0
 50
270.0
1001
ACAD
1000
DSTYLE
1002
{
1070
   287
1070
     3
1070
   287
1070
     3
1070
   287
1070
     3
1070
    40
1040
45.0
1070
   143
1040
0.039
1070
   271
1070
     4
1070
   272
1070
     4
1070
   279
1070
     0
1070
   284
1070
     0
1070
   285
1070
     0
1070
   286
1070
     0
1070
   341
1005
8D0F
1070
     6
1000
OPEN
1070
     7
1000
OPEN
1002
}
  0
DIMENSION
  5
99CD
  8
3
  2
*D20
 10
885.76783943931503
 20
3207.074674824205
 30
0.0
 11
773.26783943931468
 21
4282.0746748242063
 31
0.0
 70
     0
 13
2110.8510611448219
 23
5357.0746748242036
 33
0.0
 14
1207.32970446318
 24
3207.0746748242041
 34
0.0
 50
90.0
1001
ACAD
1000
DSTYLE
1002
{
1070
   287
1070
     3
1070
   287
1070
     3
1070
   287
1070
     3
1070
    40
1040
45.0
1070
   143
1040
0.039
1070
   271
1070
     4
1070
   272
1070
     4
1070
   279
1070
     0
1070
   284
1070
     0
1070
   285
1070
     0
1070
   286
1070
     0
1070
   341
1005
8D0F
1070
     6
1000
OPEN
1070
     7
1000
OPEN
1002
}
  0
DIMENSION
  5
99DA
  8
3
  2
*D21
 10
8257.6376500000006
 20
7041.4553940273154
 30
0.0
 11
7597.6376499999997
 21
7153.9553940273154
 31
0.0
 70
     0
 13
6937.6376499999988
 23
6649.0746748242054
 33
0.0
 14
8257.6376500000006
 24
6649.0746748242054
 34
0.0
1001
ACAD
1000
DSTYLE
1002
{
1070
   287
1070
     3
1070
   287
1070
     3
1070
   287
1070
     3
1070
    40
1040
45.0
1070
   143
1040
0.039
1070
   271
1070
     4
1070
   272
1070
     4
1070
   279
1070
     0
1070
   284
1070
     0
1070
   285
1070
     0
1070
   286
1070
     0
1070
   341
1005
8D0F
1070
     6
1000
OPEN
1070
     7
1000
OPEN
1002
}
  0
DIMENSION
  5
99E7
  8
3
  2
*D22
 10
7597.6376499999988
 20
7384.0618732420289
 30
0.0
 11
7047.6376499999978
 21
7531.9190160991729
 31
0.0
 70
     0
  1
(1150)
 13
6497.6376499999997
 23
5837.0746748242036
 33
0.0
 14
7597.6376499999988
 24
7477.282220363576
 34
0.0
1001
ACAD
1000
DSTYLE
1002
{
1070
   287
1070
     3
1070
   287
1070
     3
1070
   287
1070
     3
1070
    40
1040
45.0
1070
   143
1040
0.039
1070
   271
1070
     4
1070
   272
1070
     4
1070
   279
1070
     0
1070
   284
1070
     0
1070
   285
1070
     0
1070
   286
1070
     0
1070
   341
1005
8D0F
1070
     6
1000
OPEN
1070
     7
1000
OPEN
1002
}
  0
DIMENSION
  5
99FD
  8
3
  2
*D23
 10
8392.6376500000006
 20
7384.0618732420289
 30
0.0
 11
7995.1376499999997
 21
7496.5618732420289
 31
0.0
 70
     0
 13
7597.6376499999988
 23
7477.282220363576
 33
0.0
 14
8392.6376500000006
 24
6322.0746748242063
 34
0.0
1001
ACAD
1000
DSTYLE
1002
{
1070
   287
1070
     4
1070
   287
1070
     4
1070
   287
1070
     4
1070
    40
1040
45.0
1070
   143
1040
0.039
1070
   271
1070
     4
1070
   272
1070
     4
1070
   279
1070
     1
1070
   284
1070
     0
1070
   285
1070
     0
1070
   286
1070
     0
1070
   341
1005
8D0F
1070
     6
1000
OPEN
1070
     7
1000
OPEN
1002
}
  0
LINE
  5
9A0B
  8
2
 10
7597.6376499999988
 20
7264.3748126316032
 30
0.0
 11
7597.6376499999988
 21
7534.2502033175942
 31
0.0
  0
ENDSEC
  0
EOF
