  0
SECTION
  2
HEADER
  9
$ACADVER
  1
AC1009
  9
$INSBASE
 10
0.0
 20
0.0
 30
0.0
  9
$EXTMIN
 10
24351.313316901629
 20
28467.953183477599
 30
0.0
  9
$EXTMAX
 10
36951.313316901636
 20
46167.953183477613
 30
0.0
  9
$LIMMIN
 10
0.0
 20
0.0
  9
$LIMMAX
 10
297.0
 20
210.0
  9
$ORTHOMODE
 70
     0
  9
$REGENMODE
 70
     1
  9
$FILLMODE
 70
     1
  9
$QTEXTMODE
 70
     0
  9
$MIRRTEXT
 70
     0
  9
$DRAGMODE
 70
     2
  9
$LTSCALE
 40
200.0
  9
$OSMODE
 70
    37
  9
$ATTMODE
 70
     1
  9
$TEXTSIZE
 40
150.0
  9
$TRACEWID
 40
0.05
  9
$TEXTSTYLE
  7
STANDARD
  9
$CLAYER
  8
FUTO
  9
$CELTYPE
  6
BYLAYER
  9
$CECOLOR
 62
   256
  9
$DIMSCALE
 40
40.0
  9
$DIMASZ
 40
2.0
  9
$DIMEXO
 40
1.0
  9
$DIMDLI
 40
10.0
  9
$DIMRND
 40
0.0
  9
$DIMDLE
 40
0.0
  9
$DIMEXE
 40
1.0
  9
$DIMTP
 40
0.0
  9
$DIMTM
 40
0.0
  9
$DIMTXT
 40
3.0
  9
$DIMCEN
 40
0.0
  9
$DIMTSZ
 40
0.0
  9
$DIMTOL
 70
     0
  9
$DIMLIM
 70
     0
  9
$DIMTIH
 70
     0
  9
$DIMTOH
 70
     0
  9
$DIMSE1
 70
     0
  9
$DIMSE2
 70
     0
  9
$DIMTAD
 70
     1
  9
$DIMZIN
 70
     8
  9
$DIMBLK
  1

  9
$DIMASO
 70
     1
  9
$DIMSHO
 70
     1
  9
$DIMPOST
  1

  9
$DIMAPOST
  1

  9
$DIMALT
 70
     0
  9
$DIMALTD
 70
     2
  9
$DIMALTF
 40
0.03937
  9
$DIMLFAC
 40
1.0
  9
$DIMTOFL
 70
     1
  9
$DIMTVP
 40
0.0
  9
$DIMTIX
 70
     0
  9
$DIMSOXD
 70
     0
  9
$DIMSAH
 70
     1
  9
$DIMBLK1
  1
OPEN
  9
$DIMBLK2
  1
OPEN
  9
$DIMSTYLE
  2
MATSU
  9
$DIMCLRD
 70
   256
  9
$DIMCLRE
 70
   256
  9
$DIMCLRT
 70
   256
  9
$DIMTFAC
 40
1.0
  9
$DIMGAP
 40
0.5
  9
$LUNITS
 70
     2
  9
$LUPREC
 70
     3
  9
$SKETCHINC
 40
0.1
  9
$FILLETRAD
 40
7.0
  9
$AUNITS
 70
     0
  9
$AUPREC
 70
     2
  9
$MENU
  1
acad
  9
$ELEVATION
 40
0.0
  9
$PELEVATION
 40
0.0
  9
$THICKNESS
 40
0.0
  9
$LIMCHECK
 70
     0
  9
$BLIPMODE
 70
     0
  9
$CHAMFERA
 40
0.0
  9
$CHAMFERB
 40
0.0
  9
$SKPOLY
 70
     0
  9
$TDCREATE
 40
2451593.4082031241
  9
$TDUPDATE
 40
2454953.651094282
  9
$TDINDWG
 40
0.5533056134
  9
$TDUSRTIMER
 40
0.5533056134
  9
$USRTIMER
 70
     1
  9
$ANGBASE
 50
0.0
  9
$ANGDIR
 70
     0
  9
$PDMODE
 70
     0
  9
$PDSIZE
 40
1.0
  9
$PLINEWID
 40
0.0
  9
$COORDS
 70
     1
  9
$SPLFRAME
 70
     0
  9
$SPLINETYPE
 70
     6
  9
$SPLINESEGS
 70
     8
  9
$ATTDIA
 70
     0
  9
$ATTREQ
 70
     1
  9
$HANDLING
 70
 10241
  9
$HANDSEED
  5
2529
  9
$SURFTAB1
 70
     6
  9
$SURFTAB2
 70
     6
  9
$SURFTYPE
 70
     6
  9
$SURFU
 70
     6
  9
$SURFV
 70
     6
  9
$UCSNAME
  2

  9
$UCSORG
 10
0.0
 20
0.0
 30
0.0
  9
$UCSXDIR
 10
1.0
 20
0.0
 30
0.0
  9
$UCSYDIR
 10
0.0
 20
1.0
 30
0.0
  9
$PUCSNAME
  2

  9
$PUCSORG
 10
0.0
 20
0.0
 30
0.0
  9
$PUCSXDIR
 10
1.0
 20
0.0
 30
0.0
  9
$PUCSYDIR
 10
0.0
 20
1.0
 30
0.0
  9
$USERI1
 70
     0
  9
$USERI2
 70
     0
  9
$USERI3
 70
     0
  9
$USERI4
 70
     0
  9
$USERI5
 70
     0
  9
$USERR1
 40
0.0
  9
$USERR2
 40
0.0
  9
$USERR3
 40
0.0
  9
$USERR4
 40
0.0
  9
$USERR5
 40
0.0
  9
$WORLDVIEW
 70
     1
  9
$SHADEDGE
 70
     3
  9
$SHADEDIF
 70
    70
  9
$TILEMODE
 70
     1
  9
$MAXACTVP
 70
    16
  9
$PLIMCHECK
 70
     0
  9
$PEXTMIN
 10
1.0000000000000000E+020
 20
1.0000000000000000E+020
 30
1.0000000000000000E+020
  9
$PEXTMAX
 10
-1.0000000000000000E+020
 20
-1.0000000000000000E+020
 30
-1.0000000000000000E+020
  9
$PLIMMIN
 10
0.0
 20
0.0
  9
$PLIMMAX
 10
12.0
 20
9.0
  9
$UNITMODE
 70
     0
  9
$VISRETAIN
 70
     0
  9
$PLINEGEN
 70
     0
  9
$PSLTSCALE
 70
     0
  0
ENDSEC
  0
SECTION
  2
TABLES
  0
TABLE
  2
VPORT
 70
     2
  0
VPORT
  2
*ACTIVE
 70
     0
 10
0.0
 20
0.0
 11
1.0
 21
1.0
 12
36033.585623905099
 22
30610.53499552609
 13
0.0
 23
0.0
 14
5.0
 24
5.0
 15
0.0
 25
0.0
 16
0.0
 26
0.0
 36
1.0
 17
0.0
 27
0.0
 37
0.0
 40
5189.5142989178876
 41
3.1666666666666661
 42
50.0
 43
0.0
 44
0.0
 50
0.0
 51
0.0
 71
     0
 72
   100
 73
     1
 74
     0
 75
     0
 76
     0
 77
     0
 78
     0
  0
ENDTAB
  0
TABLE
  2
LTYPE
 70
     4
  0
LTYPE
  2
CONTINUOUS
 70
     0
  3
Solid line
 72
    65
 73
     0
 40
0.0
  0
LTYPE
  2
CENTER
 70
     0
  3
____ _ ____ _ ____ _ ____ _ ____ _ ____ _ ____ 
 72
    65
 73
     4
 40
2.0
 49
1.25
 49
-0.25
 49
0.25
 49
-0.25
  0
LTYPE
  2
HIDDEN
 70
     0
  3
__ __ __ __ __ __ __ __ __ __ __ __ __ __ __ __
 72
    65
 73
     2
 40
0.375
 49
0.25
 49
-0.125
  0
LTYPE
  2
PHANTOM
 70
     0
  3
______  __  __  ______  __  __  ______  __  __ 
 72
    65
 73
     6
 40
2.5
 49
1.25
 49
-0.25
 49
0.25
 49
-0.25
 49
0.25
 49
-0.25
  0
ENDTAB
  0
TABLE
  2
LAYER
 70
    10
  0
LAYER
  2
0
 70
     0
 62
     7
  6
CONTINUOUS
  0
LAYER
  2
CT
 70
     0
 62
     3
  6
CENTER
  0
LAYER
  2
FUTO
 70
     0
 62
     4
  6
CONTINUOUS
  0
LAYER
  2
HOSO
 70
     0
 62
     7
  6
CONTINUOUS
  0
LAYER
  2
KL
 70
     0
 62
     7
  6
HIDDEN
  0
LAYER
  2
SL
 70
     0
 62
     1
  6
PHANTOM
  0
LAYER
  2
SP
 70
     0
 62
     2
  6
CONTINUOUS
  0
LAYER
  2
1
 70
     0
 62
     7
  6
CONTINUOUS
  0
LAYER
  2
DEFPOINTS
 70
     0
 62
     7
  6
CONTINUOUS
  0
LAYER
  2
4
 70
     0
 62
     7
  6
CONTINUOUS
  0
ENDTAB
  0
TABLE
  2
STYLE
 70
     1
  0
STYLE
  2
STANDARD
 70
     0
 40
0.0
 41
1.0
 50
15.0
 71
     0
 42
150.0
  3
C:\Program Files\AutoCAD LT\simplex.shx
  4
bigfont.shx
  0
ENDTAB
  0
TABLE
  2
VIEW
 70
     0
  0
ENDTAB
  0
TABLE
  2
UCS
 70
     0
  0
ENDTAB
  0
TABLE
  2
APPID
 70
     2
  0
APPID
  2
ACAD
 70
     0
  0
APPID
  2
CONTENTBLOCKICON
 70
     0
  0
ENDTAB
  0
TABLE
  2
DIMSTYLE
 70
     2
  0
DIMSTYLE
  2
MATSU
 70
     0
  3

  4

  5

  6
OPEN
  7
OPEN
 40
1.0
 41
2.0
 42
1.0
 43
10.0
 44
1.0
 45
0.0
 46
0.0
 47
0.0
 48
0.0
140
3.0
141
0.0
142
0.0
143
0.03937
144
1.0
145
0.0
146
1.0
147
0.5
 71
     0
 72
     0
 73
     0
 74
     0
 75
     0
 76
     0
 77
     1
 78
     8
170
     0
171
     2
172
     1
173
     1
174
     0
175
     0
176
   256
177
   256
178
   256
  0
DIMSTYLE
  2
STANDARD
 70
     0
  3

  4

  5

  6

  7

 40
1.0
 41
0.18
 42
0.0625
 43
0.38
 44
0.18
 45
0.0
 46
0.0
 47
0.0
 48
0.0
140
0.18
141
0.09
142
0.0
143
25.399999999999999
144
1.0
145
0.0
146
1.0
147
0.09
 71
     0
 72
     0
 73
     1
 74
     1
 75
     0
 76
     0
 77
     0
 78
     0
170
     0
171
     2
172
     0
173
     0
174
     0
175
     0
176
     0
177
     0
178
     0
  0
ENDTAB
  0
ENDSEC
  0
SECTION
  2
BLOCKS
  0
BLOCK
  8
0
  2
$MODEL_SPACE
 70
     0
 10
0.0
 20
0.0
 30
0.0
  3
$MODEL_SPACE
  1

  0
ENDBLK
  5
7
  8
0
  0
BLOCK
 67
     1
  8
0
  2
$PAPER_SPACE
 70
     0
 10
0.0
 20
0.0
 30
0.0
  3
$PAPER_SPACE
  1

  0
ENDBLK
  5
A
 67
     1
  8
0
  0
BLOCK
  8
0
  2
_OPEN
 70
     0
 10
0.0
 20
0.0
 30
0.0
  3
_OPEN
  1

  0
LINE
  5
27
  8
0
  6
BYBLOCK
 62
     0
 10
-1.0
 20
0.1666666666666666
 30
0.0
 11
0.0
 21
0.0
 31
0.0
  0
LINE
  5
28
  8
0
  6
BYBLOCK
 62
     0
 10
0.0
 20
0.0
 30
0.0
 11
-1.0
 21
-0.1666666666666666
 31
0.0
  0
LINE
  5
29
  8
0
  6
BYBLOCK
 62
     0
 10
0.0
 20
0.0
 30
0.0
 11
-1.0
 21
0.0
 31
0.0
  0
ENDBLK
  5
2B
  8
0
  0
BLOCK
  8
0
  2
_DOT
 70
     0
 10
0.0
 20
0.0
 30
0.0
  3
_DOT
  1

  0
POLYLINE
  5
DB
  8
0
  6
BYBLOCK
 62
     0
 66
     1
 10
0.0
 20
0.0
 30
0.0
 70
     1
 40
0.25
 41
0.25
  0
VERTEX
  5
2503
  8
0
  6
BYBLOCK
 62
     0
 10
-0.125
 20
0.0
 30
0.0
 42
1.0
  0
VERTEX
  5
2504
  8
0
  6
BYBLOCK
 62
     0
 10
0.125
 20
0.0
 30
0.0
 42
1.0
  0
SEQEND
  5
2505
  8
0
  6
BYBLOCK
 62
     0
  0
LINE
  5
DF
  8
0
  6
BYBLOCK
 62
     0
 10
-0.25
 20
0.0
 30
0.0
 11
-1.0
 21
0.0
 31
0.0
  0
ENDBLK
  5
E1
  8
0
  0
BLOCK
  8
0
  2
まっすぐの矢印
 70
     0
 10
0.0
 20
0.0
 30
0.0
  3
まっすぐの矢印
  1

  0
LINE
  5
8C
  8
SP
 10
13.01863531255526
 20
-41.453946163708451
 30
0.0
 11
13.01863531255526
 21
-93.495696758840026
 31
0.0
  0
LINE
  5
8D
  8
SP
 10
13.01863531255526
 20
-93.495696758840026
 30
0.0
 11
-13.01863531255526
 21
-93.495696758840026
 31
0.0
  0
LINE
  5
8E
  8
SP
 10
-13.01863531255526
 20
-93.495696758840026
 30
0.0
 11
-13.01863531255526
 21
-41.453946163708451
 31
0.0
  0
LINE
  5
8F
  8
SP
 10
-13.01863531255526
 20
-41.453946163708451
 30
0.0
 11
-32.06015471115802
 21
-41.453946163708451
 31
0.0
  0
LINE
  5
90
  8
SP
 10
-32.06015471115802
 20
-41.453946163708451
 30
0.0
 11
0.0
 21
0.0
 31
0.0
  0
LINE
  5
91
  8
SP
 10
0.0
 20
0.0
 30
0.0
 11
32.06015471115802
 21
-41.453946163708451
 31
0.0
  0
LINE
  5
92
  8
SP
 10
32.06015471115802
 20
-41.453946163708451
 30
0.0
 11
13.01863531255526
 21
-41.453946163708451
 31
0.0
  0
ENDBLK
  5
94
  8
0
  0
BLOCK
  8
0
  2
左回転矢印
 70
     0
 10
0.0
 20
0.0
 30
0.0
  3
左回転矢印
  1

  0
LINE
  5
2C7
  8
SP
 10
43.930449171819873
 20
24.859487323637271
 30
0.0
 11
38.511878498580238
 21
44.478978865188871
 31
0.0
  0
LINE
  5
2C8
  8
SP
 10
38.511878498580238
 20
44.478978865188871
 30
0.0
 11
0.0
 21
0.0
 31
0.0
  0
LINE
  5
2C9
  8
SP
 10
0.0
 20
0.0
 30
0.0
 11
52.57968174421967
 21
-6.4575435924972453
 31
0.0
  0
LINE
  5
2CA
  8
SP
 10
52.57968174421967
 20
-6.4575435924972453
 30
0.0
 11
48.189912989015284
 21
9.436875093862227
 31
0.0
  0
ARC
  5
2CB
  8
SP
 10
93.893649146691985
 20
-156.0466295121104
 30
0.0
 40
171.67883327727239
 50
67.881388989212894
 51
105.4392492786835
  0
LINE
  5
2CC
  8
SP
 10
158.53505643637521
 20
2.997736182040398
 30
0.0
 11
164.55945966006539
 21
17.820238190756751
 31
0.0
  0
ARC
  5
2CD
  8
SP
 10
93.893649146692198
 20
-156.04662951211091
 30
0.0
 40
187.67883327727299
 50
67.881388989212994
 51
105.4392492786836
  0
ENDBLK
  5
2CF
  8
0
  0
BLOCK
  8
0
  2
*D4
 70
     1
 10
0.0
 20
0.0
 30
0.0
  3
*D4
  1

  0
LINE
  5
24F6
  8
SP
 10
27754.227617849501
 20
33460.643016232389
 30
0.0
 11
27104.818528643911
 21
33460.643016232389
 31
0.0
  0
LINE
  5
24F7
  8
SP
 10
27144.818528643911
 20
33680.643016232389
 30
0.0
 11
27144.818528643911
 21
33760.643016232389
 31
0.0
  0
LINE
  5
24F8
  8
SP
 10
27144.818528643911
 20
33380.643016232389
 30
0.0
 11
27144.818528643911
 21
33300.643016232389
 31
0.0
  0
LINE
  5
24F9
  8
SP
 10
27144.818528643911
 20
33530.643016232389
 30
0.0
 11
26921.23698363443
 21
33591.71905320455
 31
0.0
  0
LINE
  5
24FA
  8
SP
 10
26921.23698363443
 20
33591.71905320455
 30
0.0
 11
26921.23698363443
 21
34071.008449473229
 31
0.0
  0
TEXT
  8
0
  40
120
  5
2525
  72
0
  71
0
 10
26569.8
 20
33619.0
 30
0.000000
  1
(140)
  0
LINE
  5
24FC
  8
SP
 10
27144.818528643911
 20
33600.643016232389
 30
0.0
 11
27144.818528643911
 21
33460.643016232389
 31
0.0
  0
LINE
  5
24FD
  8
SP
 10
27144.818528643911
 20
33600.643016232389
 30
0.0
 11
27144.818528643911
 21
33460.643016232389
 31
0.0
  0
INSERT
  5
24FE
  8
SP
  2
_OPEN
 10
27144.818528643911
 20
33600.643016232389
 30
0.0
 41
80.0
 42
80.0
 43
80.0
 50
270.0
  0
INSERT
  5
24FF
  8
SP
  2
_DOT
 10
27144.818528643911
 20
33460.643016232389
 30
0.0
 41
80.0
 42
80.0
 43
80.0
 50
90.0
  0
POINT
  5
2500
  8
DEFPOINTS
 62
     0
 10
27829.114405517012
 20
33600.643016232389
 30
0.0
  0
POINT
  5
2501
  8
DEFPOINTS
 62
     0
 10
27794.227617849501
 20
33460.643016232389
 30
0.0
  0
POINT
  5
2502
  8
DEFPOINTS
 62
     0
 10
27144.818528643911
 20
33460.643016232389
 30
0.0
  0
ENDBLK
  5
88C
  8
0
  0
BLOCK
  8
0
  2
*D5
 70
     1
 10
0.0
 20
0.0
 30
0.0
  3
*D5
  1

  0
LINE
  5
2490
  8
SP
 10
31444.803062809689
 20
36169.01681623239
 30
0.0
 11
31444.803062809689
 21
37562.347114927252
 31
0.0
  0
LINE
  5
2491
  8
SP
 10
33894.803062809689
 20
37090.971308222543
 30
0.0
 11
33894.803062809689
 21
37562.347114927252
 31
0.0
  0
LINE
  5
2492
  8
SP
 10
31524.803062809689
 20
37522.347114927252
 30
0.0
 11
33814.803062809689
 21
37522.347114927252
 31
0.0
  0
INSERT
  5
2493
  8
SP
  2
_OPEN
 10
31444.803062809689
 20
37522.347114927252
 30
0.0
 41
80.0
 42
80.0
 43
80.0
 50
180.0
  0
INSERT
  5
2494
  8
SP
  2
_OPEN
 10
33894.803062809689
 20
37522.347114927252
 30
0.0
 41
80.0
 42
80.0
 43
80.0
  0
TEXT
  5
2495
  8
FUTO
 10
32372.810373904711
 20
37593.775686355817
 30
0.0
 40
120.0
  1
(2450)
 51
15.0
  0
POINT
  5
2496
  8
DEFPOINTS
 62
     0
 10
31444.803062809689
 20
36129.01681623239
 30
0.0
  0
POINT
  5
2497
  8
DEFPOINTS
 62
     0
 10
33894.803062809689
 20
37050.971308222543
 30
0.0
  0
POINT
  5
2498
  8
DEFPOINTS
 62
     0
 10
33894.803062809689
 20
37522.347114927252
 30
0.0
  0
ENDBLK
  5
1423
  8
0
  0
BLOCK
  8
0
  2
*D6
 70
     1
 10
0.0
 20
0.0
 30
0.0
  3
*D6
  1

  0
LINE
  5
2506
  8
SP
 10
27754.227617849501
 20
33310.643016232389
 30
0.0
 11
27104.818528643911
 21
33310.643016232389
 31
0.0
  0
LINE
  5
2507
  8
SP
 10
27144.818528643911
 20
33540.643016232389
 30
0.0
 11
27144.818528643911
 21
33620.643016232389
 31
0.0
  0
LINE
  5
2508
  8
SP
 10
27144.818528643911
 20
33230.643016232389
 30
0.0
 11
27144.818528643911
 21
32830.643016232389
 31
0.0
  0
LINE
  5
2509
  8
SP
 10
27144.818528643911
 20
33460.643016232389
 30
0.0
 11
27144.818528643911
 21
33310.643016232389
 31
0.0
  0
INSERT
  5
250A
  8
SP
  2
_DOT
 10
27144.818528643911
 20
33460.643016232389
 30
0.0
 41
80.0
 42
80.0
 43
80.0
 50
270.0
  0
INSERT
  5
250B
  8
SP
  2
_OPEN
 10
27144.818528643911
 20
33310.643016232389
 30
0.0
 41
80.0
 42
80.0
 43
80.0
 50
90.0
  0
TEXT
  8
0
  40
120
  5
2526
  72
0
  71
0
 10
26824.8
 20
32778.2
 30
0.000000
  1
150
  0
POINT
  5
250D
  8
DEFPOINTS
 62
     0
 10
27794.227617849501
 20
33460.643016232389
 30
0.0
  0
POINT
  5
250E
  8
DEFPOINTS
 62
     0
 10
27794.227617849501
 20
33310.643016232389
 30
0.0
  0
POINT
  5
250F
  8
DEFPOINTS
 62
     0
 10
27144.818528643911
 20
33310.643016232389
 30
0.0
  0
ENDBLK
  5
18FA
  8
0
  0
BLOCK
  8
0
  2
*D7
 70
     1
 10
0.0
 20
0.0
 30
0.0
  3
*D7
  1

  0
LINE
  5
2499
  8
SP
 10
28854.227617849501
 20
41653.727047615292
 30
0.0
 11
28854.227617849501
 21
41912.605675926017
 31
0.0
  0
LINE
  5
249A
  8
SP
 10
27689.227617849501
 20
41388.731744443066
 30
0.0
 11
27689.227617849501
 21
41912.605675926017
 31
0.0
  0
LINE
  5
249B
  8
SP
 10
28774.227617849501
 20
41872.60567592601
 30
0.0
 11
27769.227617849501
 21
41872.60567592601
 31
0.0
  0
INSERT
  5
249C
  8
SP
  2
_OPEN
 10
28854.227617849501
 20
41872.60567592601
 30
0.0
 41
80.0
 42
80.0
 43
80.0
  0
INSERT
  5
249D
  8
SP
  2
_OPEN
 10
27689.227617849501
 20
41872.60567592601
 30
0.0
 41
80.0
 42
80.0
 43
80.0
 50
180.0
  0
TEXT
  5
249E
  8
FUTO
 10
28059.778848385551
 20
41892.605675926017
 30
0.0
 40
120.0
  1
1165
 51
15.0
  0
POINT
  5
249F
  8
DEFPOINTS
 62
     0
 10
28854.227617849501
 20
41613.727047615292
 30
0.0
  0
POINT
  5
24A0
  8
DEFPOINTS
 62
     0
 10
27689.227617849501
 20
41348.731744443059
 30
0.0
  0
POINT
  5
24A1
  8
DEFPOINTS
 62
     0
 10
27689.227617849501
 20
41872.60567592601
 30
0.0
  0
ENDBLK
  5
1915
  8
0
  0
BLOCK
  8
0
  2
*D8
 70
     1
 10
0.0
 20
0.0
 30
0.0
  3
*D8
  1

  0
LINE
  5
24A2
  8
SP
 10
30794.227617849501
 20
39995.731744443059
 30
0.0
 11
30794.227617849501
 21
41912.605675926017
 31
0.0
  0
LINE
  5
24A3
  8
SP
 10
28934.227617849501
 20
41872.60567592601
 30
0.0
 11
30714.227617849501
 21
41872.60567592601
 31
0.0
  0
INSERT
  5
24A4
  8
SP
  2
_OPEN
 10
28854.227617849501
 20
41872.60567592601
 30
0.0
 41
80.0
 42
80.0
 43
80.0
 50
180.0
  0
INSERT
  5
24A5
  8
SP
  2
_OPEN
 10
30794.227617849501
 20
41872.60567592601
 30
0.0
 41
80.0
 42
80.0
 43
80.0
  0
TEXT
  5
24A6
  8
FUTO
 10
29601.055410584759
 20
41892.605675926017
 30
0.0
 40
120.0
  1
1940
 51
15.0
  0
POINT
  5
24A7
  8
DEFPOINTS
 62
     0
 10
28854.227617849501
 20
41872.60567592601
 30
0.0
  0
POINT
  5
24A8
  8
DEFPOINTS
 62
     0
 10
30794.227617849501
 20
39955.731744443059
 30
0.0
  0
POINT
  5
24A9
  8
DEFPOINTS
 62
     0
 10
30794.227617849501
 20
41872.60567592601
 30
0.0
  0
ENDBLK
  5
1921
  8
0
  0
BLOCK
  8
0
  2
*D9
 70
     1
 10
0.0
 20
0.0
 30
0.0
  3
*D9
  1

  0
LINE
  5
24C4
  8
SP
 10
27849.227617849501
 20
41414.731744443059
 30
0.0
 11
27229.24135235939
 21
41414.731744443059
 31
0.0
  0
LINE
  5
24C5
  8
SP
 10
27241.993174140582
 20
40619.731744443066
 30
0.0
 11
27309.241352359379
 21
40619.731744443066
 31
0.0
  0
LINE
  5
24C6
  8
SP
 10
27269.24135235939
 20
41334.731744443059
 30
0.0
 11
27269.241352359379
 21
40699.731744443066
 31
0.0
  0
INSERT
  5
24C7
  8
SP
  2
_OPEN
 10
27269.24135235939
 20
41414.731744443059
 30
0.0
 41
80.0
 42
80.0
 43
80.0
 50
90.0
  0
INSERT
  5
24C8
  8
SP
  2
_OPEN
 10
27269.241352359379
 20
40619.731744443066
 30
0.0
 41
80.0
 42
80.0
 43
80.0
 50
270.0
  0
TEXT
  5
24C9
  8
FUTO
 10
27249.241352359379
 20
40841.1547928972
 30
0.0
 40
120.0
  1
795
 50
90.0
 51
15.0
  0
POINT
  5
24CA
  8
DEFPOINTS
 62
     0
 10
27889.227617849501
 20
41414.731744443059
 30
0.0
  0
POINT
  5
24CB
  8
DEFPOINTS
 62
     0
 10
27201.993174140582
 20
40619.731744443066
 30
0.0
  0
POINT
  5
24CC
  8
DEFPOINTS
 62
     0
 10
27269.241352359379
 20
40619.731744443066
 30
0.0
  0
ENDBLK
  5
192F
  8
0
  0
BLOCK
  8
0
  2
*D10
 70
     1
 10
0.0
 20
0.0
 30
0.0
  3
*D10
  1

  0
LINE
  5
24AA
  8
SP
 10
28434.227617849501
 20
38169.731744443059
 30
0.0
 11
27229.241352359379
 21
38169.731744443059
 31
0.0
  0
LINE
  5
24AB
  8
SP
 10
27269.241352359379
 20
40539.731744443066
 30
0.0
 11
27269.241352359379
 21
38249.731744443059
 31
0.0
  0
INSERT
  5
24AC
  8
SP
  2
_OPEN
 10
27269.241352359379
 20
40619.731744443066
 30
0.0
 41
80.0
 42
80.0
 43
80.0
 50
90.0
  0
INSERT
  5
24AD
  8
SP
  2
_OPEN
 10
27269.241352359379
 20
38169.731744443059
 30
0.0
 41
80.0
 42
80.0
 43
80.0
 50
270.0
  0
TEXT
  5
24AE
  8
FUTO
 10
27249.241352359379
 20
39173.145640810697
 30
0.0
 40
120.0
  1
2450
 50
90.0
 51
15.0
  0
POINT
  5
24AF
  8
DEFPOINTS
 62
     0
 10
27269.241352359379
 20
40619.731744443066
 30
0.0
  0
POINT
  5
24B0
  8
DEFPOINTS
 62
     0
 10
28474.227617849501
 20
38169.731744443059
 30
0.0
  0
POINT
  5
24B1
  8
DEFPOINTS
 62
     0
 10
27269.241352359379
 20
38169.731744443059
 30
0.0
  0
ENDBLK
  5
193B
  8
0
  0
BLOCK
  8
0
  2
*D11
 70
     1
 10
0.0
 20
0.0
 30
0.0
  3
*D11
  1

  0
LINE
  5
2457
  8
SP
 10
27794.227617849501
 20
33270.643016232389
 30
0.0
 11
27794.227617849501
 21
32516.72108689346
 31
0.0
  0
LINE
  5
2458
  8
SP
 10
30794.227617849501
 20
33270.643016232389
 30
0.0
 11
30794.227617849501
 21
32516.72108689346
 31
0.0
  0
LINE
  5
2459
  8
SP
 10
27874.227617849501
 20
32556.72108689346
 30
0.0
 11
30714.227617849501
 21
32556.72108689346
 31
0.0
  0
INSERT
  5
245A
  8
SP
  2
_OPEN
 10
27794.227617849501
 20
32556.72108689346
 30
0.0
 41
80.0
 42
80.0
 43
80.0
 50
180.0
  0
INSERT
  5
245B
  8
SP
  2
_OPEN
 10
30794.227617849501
 20
32556.72108689346
 30
0.0
 41
80.0
 42
80.0
 43
80.0
  0
TEXT
  5
245C
  8
FUTO
 10
29069.5792377322
 20
32576.72108689346
 30
0.0
 40
120.0
  1
3000
 51
15.0
  0
POINT
  5
245D
  8
DEFPOINTS
 62
     0
 10
27794.227617849501
 20
33310.643016232389
 30
0.0
  0
POINT
  5
245E
  8
DEFPOINTS
 62
     0
 10
30794.227617849501
 20
33310.643016232389
 30
0.0
  0
POINT
  5
245F
  8
DEFPOINTS
 62
     0
 10
30794.227617849501
 20
32556.72108689346
 30
0.0
  0
ENDBLK
  5
1983
  8
0
  0
BLOCK
  8
0
  2
*D12
 70
     1
 10
0.0
 20
0.0
 30
0.0
  3
*D12
  1

  0
LINE
  5
2510
  8
SP
 10
30794.227617849501
 20
33270.643016232389
 30
0.0
 11
30794.227617849501
 21
32835.435637514092
 31
0.0
  0
LINE
  5
2511
  8
SP
 10
28934.227617849501
 20
32875.435637514092
 30
0.0
 11
30714.227617849501
 21
32875.435637514092
 31
0.0
  0
INSERT
  5
2512
  8
SP
  2
_OPEN
 10
28854.227617849501
 20
32875.435637514092
 30
0.0
 41
80.0
 42
80.0
 43
80.0
 50
180.0
  0
INSERT
  5
2513
  8
SP
  2
_OPEN
 10
30794.227617849501
 20
32875.435637514092
 30
0.0
 41
80.0
 42
80.0
 43
80.0
  0
TEXT
  8
0
  40
120
  5
2527
  72
0
  71
0
 10
29584.2
 20
32743.0
 30
0.000000
  1
1940
  0
POINT
  5
2515
  8
DEFPOINTS
 62
     0
 10
28854.227617849501
 20
33229.988841222177
 30
0.0
  0
POINT
  5
2516
  8
DEFPOINTS
 62
     0
 10
30794.227617849501
 20
33310.643016232389
 30
0.0
  0
POINT
  5
2517
  8
DEFPOINTS
 62
     0
 10
30794.227617849501
 20
32875.435637514092
 30
0.0
  0
ENDBLK
  5
198E
  8
0
  0
BLOCK
  8
0
  2
*D13
 70
     1
 10
0.0
 20
0.0
 30
0.0
  3
*D13
  1

  0
LINE
  5
247F
  8
SP
 10
27794.227617849501
 20
33270.643016232389
 30
0.0
 11
27794.227617849501
 21
32835.435637514092
 31
0.0
  0
LINE
  5
2480
  8
SP
 10
28854.227617849501
 20
33189.988841222177
 30
0.0
 11
28854.227617849501
 21
32835.435637514092
 31
0.0
  0
LINE
  5
2481
  8
SP
 10
27874.227617849501
 20
32875.435637514092
 30
0.0
 11
28774.227617849501
 21
32875.435637514092
 31
0.0
  0
INSERT
  5
2482
  8
SP
  2
_OPEN
 10
27794.227617849501
 20
32875.435637514092
 30
0.0
 41
80.0
 42
80.0
 43
80.0
 50
180.0
  0
INSERT
  5
2483
  8
SP
  2
_OPEN
 10
28854.227617849501
 20
32875.435637514092
 30
0.0
 41
80.0
 42
80.0
 43
80.0
  0
TEXT
  5
2484
  8
FUTO
 10
28101.055410584759
 20
32895.435637514092
 30
0.0
 40
120.0
  1
1060
 51
15.0
  0
POINT
  5
2485
  8
DEFPOINTS
 62
     0
 10
27794.227617849501
 20
33310.643016232389
 30
0.0
  0
POINT
  5
2486
  8
DEFPOINTS
 62
     0
 10
28854.227617849501
 20
33229.988841222177
 30
0.0
  0
POINT
  5
2487
  8
DEFPOINTS
 62
     0
 10
28854.227617849501
 20
32875.435637514092
 30
0.0
  0
ENDBLK
  5
199A
  8
0
  0
BLOCK
  8
0
  2
*D14
 70
     1
 10
0.0
 20
0.0
 30
0.0
  3
*D14
  1

  0
LINE
  5
24BB
  8
SP
 10
27689.227617849501
 20
35754.449496675406
 30
0.0
 11
27689.227617849501
 21
37578.834832737921
 31
0.0
  0
LINE
  5
24BC
  8
SP
 10
28854.227617849501
 20
37107.302355139691
 30
0.0
 11
28854.227617849501
 21
37578.834832737921
 31
0.0
  0
LINE
  5
24BD
  8
SP
 10
27769.227617849501
 20
37538.834832737921
 30
0.0
 11
28774.227617849501
 21
37538.834832737921
 31
0.0
  0
INSERT
  5
24BE
  8
SP
  2
_OPEN
 10
27689.227617849501
 20
37538.834832737921
 30
0.0
 41
80.0
 42
80.0
 43
80.0
 50
180.0
  0
INSERT
  5
24BF
  8
SP
  2
_OPEN
 10
28854.227617849501
 20
37538.834832737921
 30
0.0
 41
80.0
 42
80.0
 43
80.0
  0
TEXT
  5
24C0
  8
FUTO
 10
28059.778848385551
 20
37558.834832737921
 30
0.0
 40
120.0
  1
1165
 51
15.0
  0
POINT
  5
24C1
  8
DEFPOINTS
 62
     0
 10
27689.227617849501
 20
35714.449496675406
 30
0.0
  0
POINT
  5
24C2
  8
DEFPOINTS
 62
     0
 10
28854.227617849501
 20
37067.302355139691
 30
0.0
  0
POINT
  5
24C3
  8
DEFPOINTS
 62
     0
 10
28854.227617849501
 20
37538.834832737921
 30
0.0
  0
ENDBLK
  5
19AE
  8
0
  0
BLOCK
  8
0
  2
*D15
 70
     1
 10
0.0
 20
0.0
 30
0.0
  3
*D15
  1

  0
LINE
  5
2445
  8
SP
 10
31783.803062809689
 20
33270.642999626398
 30
0.0
 11
31783.803062809689
 21
32531.12484189717
 31
0.0
  0
LINE
  5
2446
  8
SP
 10
34633.803062809682
 20
33270.642999626398
 30
0.0
 11
34633.803062809682
 21
32531.12484189717
 31
0.0
  0
LINE
  5
2447
  8
SP
 10
31863.803062809689
 20
32571.12484189717
 30
0.0
 11
34553.803062809682
 21
32571.12484189717
 31
0.0
  0
INSERT
  5
2448
  8
SP
  2
_OPEN
 10
31783.803062809689
 20
32571.12484189717
 30
0.0
 41
80.0
 42
80.0
 43
80.0
 50
180.0
  0
INSERT
  5
2449
  8
SP
  2
_OPEN
 10
34633.803062809682
 20
32571.12484189717
 30
0.0
 41
80.0
 42
80.0
 43
80.0
  0
TEXT
  5
244A
  8
FUTO
 10
32987.21695917732
 20
32591.12484189717
 30
0.0
 40
120.0
  1
2850
 51
15.0
  0
POINT
  5
244B
  8
DEFPOINTS
 62
     0
 10
31783.803062809689
 20
33310.642999626398
 30
0.0
  0
POINT
  5
244C
  8
DEFPOINTS
 62
     0
 10
34633.803062809682
 20
33310.642999626398
 30
0.0
  0
POINT
  5
244D
  8
DEFPOINTS
 62
     0
 10
34633.803062809682
 20
32571.12484189717
 30
0.0
  0
ENDBLK
  5
1A36
  8
0
  0
BLOCK
  8
0
  2
*D16
 70
     1
 10
0.0
 20
0.0
 30
0.0
  3
*D16
  1

  0
LINE
  5
244E
  8
SP
 10
31783.803062809689
 20
33270.642999626398
 30
0.0
 11
31783.803062809689
 21
32831.162386862088
 31
0.0
  0
LINE
  5
244F
  8
SP
 10
33894.803062809689
 20
33249.715947632467
 30
0.0
 11
33894.803062809689
 21
32831.162386862088
 31
0.0
  0
LINE
  5
2450
  8
SP
 10
31863.803062809689
 20
32871.162386862088
 30
0.0
 11
33814.803062809689
 21
32871.162386862088
 31
0.0
  0
INSERT
  5
2451
  8
SP
  2
_OPEN
 10
31783.803062809689
 20
32871.162386862088
 30
0.0
 41
80.0
 42
80.0
 43
80.0
 50
180.0
  0
INSERT
  5
2452
  8
SP
  2
_OPEN
 10
33894.803062809689
 20
32871.162386862088
 30
0.0
 41
80.0
 42
80.0
 43
80.0
  0
TEXT
  5
2453
  8
FUTO
 10
32660.368968406681
 20
32891.162386862088
 30
0.0
 40
120.0
  1
2111
 51
15.0
  0
POINT
  5
2454
  8
DEFPOINTS
 62
     0
 10
31783.803062809689
 20
33310.642999626398
 30
0.0
  0
POINT
  5
2455
  8
DEFPOINTS
 62
     0
 10
33894.803062809689
 20
33289.715947632467
 30
0.0
  0
POINT
  5
2456
  8
DEFPOINTS
 62
     0
 10
33894.803062809689
 20
32871.162386862088
 30
0.0
  0
ENDBLK
  5
1A42
  8
0
  0
BLOCK
  8
0
  2
*D17
 70
     1
 10
0.0
 20
0.0
 30
0.0
  3
*D17
  1

  0
LINE
  5
2518
  8
SP
 10
34633.803062809682
 20
33270.642999626398
 30
0.0
 11
34633.803062809682
 21
32831.162386862088
 31
0.0
  0
LINE
  5
2519
  8
SP
 10
33974.803062809689
 20
32871.162386862088
 30
0.0
 11
34553.803062809682
 21
32871.162386862088
 31
0.0
  0
INSERT
  5
251A
  8
SP
  2
_OPEN
 10
33894.803062809689
 20
32871.162386862088
 30
0.0
 41
80.0
 42
80.0
 43
80.0
 50
180.0
  0
INSERT
  5
251B
  8
SP
  2
_OPEN
 10
34633.803062809682
 20
32871.162386862088
 30
0.0
 41
80.0
 42
80.0
 43
80.0
  0
TEXT
  8
0
  40
120
  5
2528
  72
0
  71
0
 10
34024.3
 20
32738.8
 30
0.000000
  1
739
  0
POINT
  5
251D
  8
DEFPOINTS
 62
     0
 10
33894.803062809689
 20
33289.715947632467
 30
0.0
  0
POINT
  5
251E
  8
DEFPOINTS
 62
     0
 10
34633.803062809682
 20
33310.642999626398
 30
0.0
  0
POINT
  5
251F
  8
DEFPOINTS
 62
     0
 10
34633.803062809682
 20
32871.162386862088
 30
0.0
  0
ENDBLK
  5
1A4D
  8
0
  0
BLOCK
  8
0
  2
*D18
 70
     1
 10
0.0
 20
0.0
 30
0.0
  3
*D18
  1

  0
LINE
  5
24D9
  8
SP
 10
33894.803062809689
 20
37514.289454291633
 30
0.0
 11
33894.803062809689
 21
37482.347114927252
 31
0.0
  0
LINE
  5
24DA
  8
SP
 10
34689.803062809689
 20
36754.01681623239
 30
0.0
 11
34689.803062809689
 21
37562.347114927252
 31
0.0
  0
LINE
  5
24DB
  8
SP
 10
33974.803062809689
 20
37522.347114927252
 30
0.0
 11
34609.803062809689
 21
37522.347114927252
 31
0.0
  0
INSERT
  5
24DC
  8
SP
  2
_OPEN
 10
33894.803062809689
 20
37522.347114927252
 30
0.0
 41
80.0
 42
80.0
 43
80.0
 50
180.0
  0
INSERT
  5
24DD
  8
SP
  2
_OPEN
 10
34689.803062809689
 20
37522.347114927252
 30
0.0
 41
80.0
 42
80.0
 43
80.0
  0
TEXT
  5
24DE
  8
FUTO
 10
34047.588486307919
 20
37542.347114927252
 30
0.0
 40
120.0
  1
795
 51
15.0
  0
POINT
  5
24DF
  8
DEFPOINTS
 62
     0
 10
33894.803062809689
 20
37554.289454291633
 30
0.0
  0
POINT
  5
24E0
  8
DEFPOINTS
 62
     0
 10
34689.803062809689
 20
36714.01681623239
 30
0.0
  0
POINT
  5
24E1
  8
DEFPOINTS
 62
     0
 10
34689.803062809689
 20
37522.347114927252
 30
0.0
  0
ENDBLK
  5
1A85
  8
0
  0
BLOCK
  8
0
  2
*D19
 70
     1
 10
0.0
 20
0.0
 30
0.0
  3
*D19
  1

  0
LINE
  5
243C
  8
SP
 10
27754.227617849501
 20
33600.643016232389
 30
0.0
 11
27104.818528643911
 21
33600.643016232389
 31
0.0
  0
LINE
  5
243D
  8
SP
 10
27268.873618805399
 20
35750.643016232389
 30
0.0
 11
27104.818528643911
 21
35750.643016232389
 31
0.0
  0
LINE
  5
243E
  8
SP
 10
27144.818528643911
 20
33680.643016232389
 30
0.0
 11
27144.818528643911
 21
35670.643016232389
 31
0.0
  0
INSERT
  5
243F
  8
SP
  2
_OPEN
 10
27144.818528643911
 20
33600.643016232389
 30
0.0
 41
80.0
 42
80.0
 43
80.0
 50
270.0
  0
INSERT
  5
2440
  8
SP
  2
_OPEN
 10
27144.818528643911
 20
35750.643016232389
 30
0.0
 41
80.0
 42
80.0
 43
80.0
 50
90.0
  0
TEXT
  5
2441
  8
FUTO
 10
27124.818528643911
 20
34465.485484028599
 30
0.0
 40
120.0
  1
2150
 50
90.0
 51
15.0
  0
POINT
  5
2442
  8
DEFPOINTS
 62
     0
 10
27794.227617849501
 20
33600.643016232389
 30
0.0
  0
POINT
  5
2443
  8
DEFPOINTS
 62
     0
 10
27308.873618805399
 20
35750.643016232389
 30
0.0
  0
POINT
  5
2444
  8
DEFPOINTS
 62
     0
 10
27144.818528643911
 20
35750.643016232389
 30
0.0
  0
ENDBLK
  5
1A9B
  8
0
  0
BLOCK
  8
0
  2
*D20
 70
     1
 10
0.0
 20
0.0
 30
0.0
  3
*D20
  1

  0
LINE
  5
24B2
  8
SP
 10
28706.415914086279
 20
37042.643016232389
 30
0.0
 11
27104.818528643911
 21
37042.643016232389
 31
0.0
  0
LINE
  5
24B3
  8
SP
 10
27268.873618805399
 20
35750.643016232389
 30
0.0
 11
27104.818528643911
 21
35750.643016232389
 31
0.0
  0
LINE
  5
24B4
  8
SP
 10
27144.818528643911
 20
36962.643016232389
 30
0.0
 11
27144.818528643911
 21
35830.643016232389
 31
0.0
  0
INSERT
  5
24B5
  8
SP
  2
_OPEN
 10
27144.818528643911
 20
37042.643016232389
 30
0.0
 41
80.0
 42
80.0
 43
80.0
 50
90.0
  0
INSERT
  5
24B6
  8
SP
  2
_OPEN
 10
27144.818528643911
 20
35750.643016232389
 30
0.0
 41
80.0
 42
80.0
 43
80.0
 50
270.0
  0
TEXT
  5
24B7
  8
FUTO
 10
27124.818528643911
 20
36173.470808967657
 30
0.0
 40
120.0
  1
1292
 50
90.0
 51
15.0
  0
POINT
  5
24B8
  8
DEFPOINTS
 62
     0
 10
28746.415914086279
 20
37042.643016232389
 30
0.0
  0
POINT
  5
24B9
  8
DEFPOINTS
 62
     0
 10
27308.873618805399
 20
35750.643016232389
 30
0.0
  0
POINT
  5
24BA
  8
DEFPOINTS
 62
     0
 10
27144.818528643911
 20
35750.643016232389
 30
0.0
  0
ENDBLK
  5
1AB2
  8
0
  0
BLOCK
  8
0
  2
*D21
 70
     1
 10
0.0
 20
0.0
 30
0.0
  3
*D21
  1

  0
LINE
  5
24CE
  8
SP
 10
34729.803062809689
 20
36649.016816232397
 30
0.0
 11
35309.811205021419
 21
36649.016816232397
 31
0.0
  0
LINE
  5
24CF
  8
SP
 10
34729.803062809689
 20
34849.01681623239
 30
0.0
 11
35309.811205021419
 21
34849.01681623239
 31
0.0
  0
LINE
  5
24D0
  8
SP
 10
35269.811205021419
 20
36569.016816232397
 30
0.0
 11
35269.811205021419
 21
34929.01681623239
 31
0.0
  0
INSERT
  5
24D1
  8
SP
  2
_OPEN
 10
35269.811205021419
 20
36649.016816232397
 30
0.0
 41
80.0
 42
80.0
 43
80.0
 50
90.0
  0
INSERT
  5
24D2
  8
SP
  2
_OPEN
 10
35269.811205021419
 20
34849.01681623239
 30
0.0
 41
80.0
 42
80.0
 43
80.0
 50
270.0
  0
INSERT
  5
24D3
  8
FUTO
  2
*U22
 10
0.0
 20
0.0
 30
0.0
  0
POINT
  5
24D4
  8
DEFPOINTS
 62
     0
 10
34689.803062809689
 20
36649.016816232397
 30
0.0
  0
POINT
  5
24D5
  8
DEFPOINTS
 62
     0
 10
34689.803062809689
 20
34849.01681623239
 30
0.0
  0
POINT
  5
24D6
  8
DEFPOINTS
 62
     0
 10
35269.811205021419
 20
34849.01681623239
 30
0.0
  0
ENDBLK
  5
24D8
  8
0
  0
BLOCK
  8
0
  2
*U22
 70
     1
 10
0.0
 20
0.0
 30
0.0
  3
*U22
  1

  0
TEXT
  5
2521
  8
FUTO
 10
35249.811205021411
 20
35452.009399395582
 30
0.0
 40
120.0
  1
\U+2205
 50
90.0
 51
15.0
  0
TEXT
  5
2522
  8
FUTO
 10
35249.811205021411
 20
35560.580827967009
 30
0.0
 40
120.0
  1
1800
 50
90.0
 51
15.0
  0
ENDBLK
  5
2524
  8
0
  0
ENDSEC
  0
SECTION
  2
ENTITIES
  0
INSERT
  5
89
  8
FUTO
  2
まっすぐの矢印
 10
27403.566007184359
 20
34184.200719572051
 30
0.0
 41
-2.0
 42
2.0
 43
2.0
 50
90.0
  0
LINE
  5
AF
  8
CT
 10
28854.227617849501
 20
35750.643016232389
 30
0.0
 11
27682.692122368371
 21
35854.586019081689
 31
0.0
  0
LINE
  5
B2
  8
CT
 10
27308.873618805399
 20
35750.643016232389
 30
0.0
 11
30768.855724359601
 21
35750.643016232389
 31
0.0
  0
DIMENSION
  5
CF
  8
SP
  2
*D4
 10
27144.818528643911
 20
33460.643016232389
 30
0.0
 11
26921.236983634419
 21
33611.719053204557
 31
0.0
 70
   128
  1
(<>)
 13
27829.114405517012
 23
33600.643016232389
 33
0.0
 14
27794.227617849501
 24
33460.643016232389
 34
0.0
 50
90.0
1001
ACAD
1000
DSTYLE
1002
{
1070
   287
1070
     4
1070
    40
1040
40.0
1070
    75
1070
     1
1070
   279
1070
     1
1070
   289
1070
     3
1070
     7
1000
DOT
1002
}
  0
DIMENSION
  5
E7
  8
SP
  2
*D6
 10
27144.818528643911
 20
33310.643016232389
 30
0.0
 11
27064.8185286439
 21
32990.643016232403
 31
0.0
 70
     0
 13
27794.227617849501
 23
33460.643016232389
 33
0.0
 14
27794.227617849501
 24
33310.643016232389
 34
0.0
 50
90.0
1001
ACAD
1000
DSTYLE
1002
{
1070
   287
1070
     1
1070
    40
1040
40.0
1070
    75
1070
     1
1070
   289
1070
     1
1070
     6
1000
DOT
1002
}
  0
LINE
  5
104
  8
CT
 10
28854.227617849501
 20
37067.302355139691
 30
0.0
 11
28854.227617849501
 21
33209.090746444781
 31
0.0
  0
ARC
  5
10E
  8
FUTO
 10
30354.227617849501
 20
34100.643016232389
 30
0.0
 40
280.0
 50
227.41944536016459
 51
37.127932652023048
  0
ARC
  5
111
  8
FUTO
 10
30354.227617849501
 20
34100.643016232389
 30
0.0
 40
310.0
 50
300.10230806831191
 51
239.897691931688
  0
LINE
  5
112
  8
CT
 10
30354.227617849501
 20
34765.408902158713
 30
0.0
 11
30354.227617849501
 21
33778.351699971252
 31
0.0
  0
LINE
  5
115
  8
FUTO
 10
27813.227617849501
 20
35759.643016232389
 30
0.0
 11
27813.227617849501
 21
36204.144473955232
 31
0.0
  0
LINE
  5
116
  8
FUTO
 10
27804.227617849501
 20
35759.643016232389
 30
0.0
 11
27804.227617849501
 21
36172.337489191021
 31
0.0
  0
LINE
  5
117
  8
FUTO
 10
29904.227617849501
 20
35759.643016232389
 30
0.0
 11
29904.227617849501
 21
35588.092778118429
 31
0.0
  0
LINE
  5
118
  8
FUTO
 10
29895.227617849501
 20
35759.643016232389
 30
0.0
 11
29895.227617849501
 21
35594.549659630968
 31
0.0
  0
LINE
  5
119
  8
CT
 10
30354.227617849501
 20
33814.14175323239
 30
0.0
 11
30354.227617849501
 21
34398.413432232388
 31
0.0
  0
ARC
  5
122
  8
FUTO
 10
28964.727617849501
 20
35861.143016232389
 30
0.0
 40
1201.5
 50
95.276856286926375
 51
187.7248117103407
  0
ARC
  5
123
  8
KL
 10
28964.727617849501
 20
35861.143016232389
 30
0.0
 40
1181.4999999999991
 50
89.005821056327946
 51
180.0
  0
ARC
  5
124
  8
KL
 10
28985.22761784949
 20
35619.643016232389
 30
0.0
 40
1423.0
 50
5.2633654058965771
 51
90.000000000000028
  0
DIMENSION
  5
13A
  8
SP
  2
*D12
 10
30794.227617849501
 20
32875.435637514092
 30
0.0
 11
29824.227617849501
 21
32955.435637514092
 31
0.0
 70
     0
 13
28854.227617849501
 23
33229.988841222177
 33
0.0
 14
30794.227617849501
 24
33310.643016232389
 34
0.0
 50
180.0
1001
ACAD
1000
DSTYLE
1002
{
1070
   287
1070
     4
1070
    40
1040
40.0
1070
    75
1070
     1
1070
   279
1070
     1
1070
   289
1070
     3
1002
}
  0
LINE
  5
146
  8
FUTO
 10
27794.227617849501
 20
33460.643016232389
 30
0.0
 11
30794.227617849501
 21
33460.643016232389
 31
0.0
1001
ACAD
1000
ASC_BOUNDS
1002
{
1070
    19
1005
0
1002
}
  0
LINE
  5
147
  8
FUTO
 10
27794.227617849501
 20
33448.643016232389
 30
0.0
 11
30794.227617849501
 21
33448.643016232389
 31
0.0
  0
LINE
  5
148
  8
FUTO
 10
27794.227617849501
 20
33322.643016232389
 30
0.0
 11
30794.227617849501
 21
33322.643016232389
 31
0.0
  0
LINE
  5
149
  8
FUTO
 10
27794.227617849501
 20
33310.643016232389
 30
0.0
 11
30794.227617849501
 21
33310.643016232389
 31
0.0
  0
DIMENSION
  5
14A
  8
SP
  2
*D11
 10
30794.227617849501
 20
32556.72108689346
 30
0.0
 11
29294.227617849501
 21
32636.72108689346
 31
0.0
 70
     0
 13
27794.227617849501
 23
33310.643016232389
 33
0.0
 14
30794.227617849501
 24
33310.643016232389
 34
0.0
 50
180.0
1001
ACAD
1000
DSTYLE
1002
{
1070
    40
1040
40.0
1002
}
  0
LINE
  5
157
  8
FUTO
 10
27794.227617849501
 20
33738.643016232389
 30
0.0
 11
30794.227617849501
 21
33738.643016232389
 31
0.0
  0
LINE
  5
158
  8
FUTO
 10
27794.227617849501
 20
33612.643016232389
 30
0.0
 11
30794.227617849501
 21
33612.643016232389
 31
0.0
  0
LINE
  5
159
  8
FUTO
 10
27794.227617849501
 20
33750.643016232389
 30
0.0
 11
30794.227617849501
 21
33750.643016232389
 31
0.0
  0
LINE
  5
15A
  8
FUTO
 10
27794.227617849501
 20
33600.643016232389
 30
0.0
 11
30794.227617849501
 21
33600.643016232389
 31
0.0
1001
ACAD
1000
ASC_BOUNDS
1002
{
1070
    19
1005
0
1002
}
  0
LINE
  5
15B
  8
FUTO
 10
30074.227617849501
 20
33850.643016232389
 30
0.0
 11
30170.924590051269
 21
33850.643016232389
 31
0.0
  0
LINE
  5
15C
  8
FUTO
 10
30074.227617849501
 20
33820.643016232389
 30
0.0
 11
30184.227617849501
 21
33820.643016232389
 31
0.0
  0
LINE
  5
15D
  8
FUTO
 10
30254.227617849501
 20
33820.643016232389
 30
0.0
 11
30039.227617849501
 21
33820.643016232389
 31
0.0
  0
LINE
  5
15E
  8
FUTO
 10
30029.227617849501
 20
33750.643016232389
 30
0.0
 11
30254.227617849501
 21
33750.643016232389
 31
0.0
  0
LINE
  5
15F
  8
CT
 10
30016.768653659739
 20
34100.643016232389
 30
0.0
 11
30697.504840042529
 21
34100.643016232389
 31
0.0
  0
LINE
  5
160
  8
CT
 10
30402.330685357389
 20
33663.780836293037
 30
0.0
 11
30402.330685357389
 21
33399.040331658391
 31
0.0
  0
LINE
  5
161
  8
FUTO
 10
30546.183907356441
 20
33600.643016232389
 30
0.0
 11
30546.183907356441
 21
33589.643016232389
 31
0.0
  0
LINE
  5
162
  8
FUTO
 10
30618.18390735643
 20
33600.643016232389
 30
0.0
 11
30618.18390735643
 21
33589.643016232389
 31
0.0
  0
LINE
  5
163
  8
CT
 10
30582.183907356441
 20
33615.170999439601
 30
0.0
 11
30582.183907356441
 21
33440.964224535448
 31
0.0
  0
ARC
  5
164
  8
FUTO
 10
30525.683907356441
 20
33580.643016232389
 30
0.0
 40
9.0
 50
90.0
 51
180.0
  0
LINE
  5
165
  8
FUTO
 10
30647.683907356441
 20
33504.643016232389
 30
0.0
 11
30516.683907356441
 21
33504.643016232389
 31
0.0
  0
LINE
  5
166
  8
FUTO
 10
30794.227617849501
 20
33460.643016232389
 30
0.0
 11
30794.227617849501
 21
33310.643016232389
 31
0.0
  0
LINE
  5
167
  8
FUTO
 10
30618.18390735643
 20
33595.643016232389
 30
0.0
 11
30546.183907356441
 21
33595.643016232389
 31
0.0
  0
ARC
  5
168
  8
FUTO
 10
30638.683907356441
 20
33580.643016232389
 30
0.0
 40
9.0
 50
359.99999999999989
 51
90.000000000000099
  0
LINE
  5
169
  8
FUTO
 10
30647.683907356441
 20
33580.643016232389
 30
0.0
 11
30647.683907356441
 21
33504.643016232389
 31
0.0
  0
LINE
  5
16A
  8
FUTO
 10
30618.18390735643
 20
33460.643016232389
 30
0.0
 11
30546.183907356441
 21
33460.643016232389
 31
0.0
  0
LINE
  5
16B
  8
FUTO
 10
30546.183907356441
 20
33471.643016232389
 30
0.0
 11
30546.183907356441
 21
33460.643016232389
 31
0.0
  0
LINE
  5
16C
  8
FUTO
 10
30618.18390735643
 20
33471.643016232389
 30
0.0
 11
30618.18390735643
 21
33460.643016232389
 31
0.0
  0
LINE
  5
16D
  8
FUTO
 10
30533.183907356441
 20
33504.643016232389
 30
0.0
 11
30533.183907356441
 21
33478.643016232389
 31
0.0
  0
ARC
  5
16E
  8
FUTO
 10
30540.183907356441
 20
33478.643016232389
 30
0.0
 40
7.0
 50
179.99999999999989
 51
269.99999999999977
  0
LINE
  5
16F
  8
FUTO
 10
30624.183907356441
 20
33471.643016232389
 30
0.0
 11
30540.183907356441
 21
33471.643016232389
 31
0.0
  0
LINE
  5
170
  8
FUTO
 10
30631.183907356441
 20
33504.643016232389
 30
0.0
 11
30631.183907356441
 21
33478.643016232389
 31
0.0
  0
ARC
  5
171
  8
FUTO
 10
30624.183907356441
 20
33478.643016232389
 30
0.0
 40
7.0
 50
270.00000000000011
 51
0.0000000000000579
  0
LINE
  5
172
  8
FUTO
 10
30618.18390735643
 20
33465.643016232389
 30
0.0
 11
30546.183907356441
 21
33465.643016232389
 31
0.0
  0
LINE
  5
173
  8
FUTO
 10
30638.683907356441
 20
33589.643016232389
 30
0.0
 11
30525.683907356441
 21
33589.643016232389
 31
0.0
  0
LINE
  5
174
  8
FUTO
 10
30516.683907356441
 20
33580.643016232389
 30
0.0
 11
30516.683907356441
 21
33504.643016232389
 31
0.0
  0
LINE
  5
175
  8
FUTO
 10
30669.227617849501
 20
33820.643016232389
 30
0.0
 11
30454.227617849501
 21
33820.643016232389
 31
0.0
  0
LINE
  5
176
  8
FUTO
 10
30454.227617849501
 20
33750.643016232389
 30
0.0
 11
30679.227617849501
 21
33750.643016232389
 31
0.0
  0
CIRCLE
  5
177
  8
SL
 10
30354.227617849501
 20
34100.643016232389
 30
0.0
 40
200.0
  0
LINE
  5
178
  8
FUTO
 10
30634.227617849501
 20
33967.601669275849
 30
0.0
 11
30634.227617849501
 21
33820.643016232389
 31
0.0
  0
LINE
  5
179
  8
FUTO
 10
30794.227617849501
 20
33750.643016232389
 30
0.0
 11
30794.227617849501
 21
33600.643016232389
 31
0.0
  0
LINE
  5
17A
  8
FUTO
 10
30618.18390735643
 20
33600.643016232389
 30
0.0
 11
30546.183907356441
 21
33600.643016232389
 31
0.0
  0
LINE
  5
17B
  8
CT
 10
30582.727617849501
 20
33865.812464722039
 30
0.0
 11
30582.727617849501
 21
33778.351699971252
 31
0.0
  0
LINE
  5
17C
  8
FUTO
 10
30537.53064564773
 20
33850.643016232389
 30
0.0
 11
30634.227617849501
 21
33850.643016232389
 31
0.0
  0
LINE
  5
17D
  8
FUTO
 10
30524.227617849501
 20
33841.413388296081
 30
0.0
 11
30524.227617849501
 21
33820.643016232389
 31
0.0
  0
LINE
  5
17E
  8
FUTO
 10
30524.227617849501
 20
33820.643016232389
 30
0.0
 11
30634.227617849501
 21
33820.643016232389
 31
0.0
  0
LINE
  5
17F
  8
FUTO
 10
30679.227617849501
 20
33750.643016232389
 30
0.0
 11
30669.227617849501
 21
33820.643016232389
 31
0.0
  0
LINE
  5
180
  8
CT
 10
30354.227617849501
 20
33609.22463104393
 30
0.0
 11
30354.227617849501
 21
34274.741030428988
 31
0.0
  0
LINE
  5
181
  8
FUTO
 10
30198.748485573891
 20
33832.452338864918
 30
0.0
 11
30509.7067501251
 21
33832.452338864918
 31
0.0
  0
LINE
  5
182
  8
FUTO
 10
30454.227617849501
 20
33810.643016232389
 30
0.0
 11
30254.227617849501
 21
33810.643016232389
 31
0.0
  0
LINE
  5
183
  8
FUTO
 10
30454.227617849501
 20
33760.643016232389
 30
0.0
 11
30254.227617849501
 21
33760.643016232389
 31
0.0
  0
LINE
  5
184
  8
FUTO
 10
30454.227617849501
 20
33810.643016232389
 30
0.0
 11
30454.227617849501
 21
33820.643016232389
 31
0.0
  0
LINE
  5
185
  8
FUTO
 10
30454.227617849501
 20
33750.643016232389
 30
0.0
 11
30454.227617849501
 21
33760.643016232389
 31
0.0
  0
LINE
  5
186
  8
CT
 10
30125.727617849501
 20
33865.812464722039
 30
0.0
 11
30125.727617849501
 21
33774.18690164978
 31
0.0
  0
LINE
  5
187
  8
FUTO
 10
30184.227617849501
 20
33841.413388296081
 30
0.0
 11
30184.227617849501
 21
33820.643016232389
 31
0.0
  0
LINE
  5
188
  8
FUTO
 10
30254.227617849501
 20
33810.643016232389
 30
0.0
 11
30254.227617849501
 21
33820.643016232389
 31
0.0
  0
LINE
  5
189
  8
FUTO
 10
30111.227617849501
 20
33820.643016232389
 30
0.0
 11
30211.227617849501
 21
33820.643016232389
 31
0.0
  0
LINE
  5
18A
  8
FUTO
 10
30254.227617849501
 20
33750.643016232389
 30
0.0
 11
30254.227617849501
 21
33760.643016232389
 31
0.0
  0
LINE
  5
18B
  8
CT
 10
29804.324011959259
 20
33615.170999439601
 30
0.0
 11
29804.324011959259
 21
33440.964224535448
 31
0.0
  0
LINE
  5
18C
  8
FUTO
 10
29840.324011959259
 20
33600.643016232389
 30
0.0
 11
29840.324011959259
 21
33589.643016232389
 31
0.0
  0
LINE
  5
18D
  8
FUTO
 10
29768.324011959259
 20
33600.643016232389
 30
0.0
 11
29768.324011959259
 21
33589.643016232389
 31
0.0
  0
LINE
  5
18E
  8
FUTO
 10
29738.824011959248
 20
33580.643016232389
 30
0.0
 11
29738.824011959248
 21
33504.643016232389
 31
0.0
  0
LINE
  5
18F
  8
FUTO
 10
29860.824011959248
 20
33589.643016232389
 30
0.0
 11
29747.824011959248
 21
33589.643016232389
 31
0.0
  0
LINE
  5
190
  8
FUTO
 10
29840.324011959259
 20
33465.643016232389
 30
0.0
 11
29768.324011959259
 21
33465.643016232389
 31
0.0
  0
ARC
  5
191
  8
FUTO
 10
29846.324011959259
 20
33478.643016232389
 30
0.0
 40
7.0
 50
270.00000000000011
 51
0.0000000000000579
  0
LINE
  5
192
  8
FUTO
 10
29853.324011959248
 20
33504.643016232389
 30
0.0
 11
29853.324011959248
 21
33478.643016232389
 31
0.0
  0
LINE
  5
193
  8
FUTO
 10
29846.324011959259
 20
33471.643016232389
 30
0.0
 11
29762.324011959259
 21
33471.643016232389
 31
0.0
  0
ARC
  5
194
  8
FUTO
 10
29762.324011959259
 20
33478.643016232389
 30
0.0
 40
7.0
 50
179.99999999999989
 51
269.99999999999977
  0
LINE
  5
195
  8
FUTO
 10
29755.324011959259
 20
33504.643016232389
 30
0.0
 11
29755.324011959259
 21
33478.643016232389
 31
0.0
  0
LINE
  5
196
  8
FUTO
 10
29840.324011959259
 20
33471.643016232389
 30
0.0
 11
29840.324011959259
 21
33460.643016232389
 31
0.0
  0
LINE
  5
197
  8
FUTO
 10
29768.324011959259
 20
33471.643016232389
 30
0.0
 11
29768.324011959259
 21
33460.643016232389
 31
0.0
  0
LINE
  5
198
  8
FUTO
 10
29840.324011959259
 20
33460.643016232389
 30
0.0
 11
29768.324011959259
 21
33460.643016232389
 31
0.0
  0
LINE
  5
199
  8
FUTO
 10
29869.824011959248
 20
33580.643016232389
 30
0.0
 11
29869.824011959248
 21
33504.643016232389
 31
0.0
  0
ARC
  5
19A
  8
FUTO
 10
29860.824011959248
 20
33580.643016232389
 30
0.0
 40
9.0
 50
359.99999999999989
 51
90.000000000000099
  0
LINE
  5
19B
  8
FUTO
 10
29840.324011959259
 20
33595.643016232389
 30
0.0
 11
29768.324011959259
 21
33595.643016232389
 31
0.0
  0
LINE
  5
19C
  8
FUTO
 10
29869.824011959248
 20
33504.643016232389
 30
0.0
 11
29738.824011959248
 21
33504.643016232389
 31
0.0
  0
ARC
  5
19D
  8
FUTO
 10
29747.824011959248
 20
33580.643016232389
 30
0.0
 40
9.0
 50
90.0
 51
180.0
  0
LINE
  5
1A1
  8
FUTO
 10
29554.227617849501
 20
33460.643016232389
 30
0.0
 11
29554.227617849501
 21
33310.643016232389
 31
0.0
  0
LINE
  5
1A2
  8
FUTO
 10
29563.227617849501
 20
33460.643016232389
 30
0.0
 11
29563.227617849501
 21
33310.643016232389
 31
0.0
  0
LINE
  5
1A3
  8
FUTO
 10
29545.227617849501
 20
33460.643016232389
 30
0.0
 11
29545.227617849501
 21
33310.643016232389
 31
0.0
  0
ARC
  5
1A4
  8
FUTO
 10
28985.22761784949
 20
35619.643016232389
 30
0.0
 40
1443.0
 50
49.068359736206048
 51
95.208659318954403
  0
LINE
  5
1A7
  8
FUTO
 10
30074.22761784949
 20
33967.601669275857
 30
0.0
 11
30074.227617849501
 21
33820.643016232389
 31
0.0
  0
LINE
  5
1A8
  8
KL
 10
29897.337819737451
 20
34411.993817193877
 30
0.0
 11
29939.334415604379
 21
34362.345184661237
 31
0.0
  0
LINE
  5
1A9
  8
KL
 10
29911.080654304991
 20
34423.618553666129
 30
0.0
 11
29953.077250171918
 21
34373.969921133481
 31
0.0
  0
LINE
  5
1AA
  8
KL
 10
29904.227617849501
 20
34417.784455502377
 30
0.0
 11
29946.20583288815
 21
34368.157552897348
 31
0.0
  0
LINE
  5
1AB
  8
FUTO
 10
30039.227617849501
 20
33820.643016232389
 30
0.0
 11
30029.227617849501
 21
33750.643016232389
 31
0.0
  0
LINE
  5
1AC
  8
KL
 10
29939.33441560436
 20
34362.34518466123
 30
0.0
 11
29953.077250171918
 21
34373.969921133481
 31
0.0
  0
LINE
  5
1AD
  8
FUTO
 10
29840.324011959259
 20
33600.643016232389
 30
0.0
 11
29768.324011959259
 21
33600.643016232389
 31
0.0
  0
LINE
  5
1AE
  8
KL
 10
29479.227617849501
 20
33750.643016232389
 30
0.0
 11
29479.227617849501
 21
33600.643016232389
 31
0.0
  0
LINE
  5
1AF
  8
FUTO
 10
29545.227617849501
 20
33750.643016232389
 30
0.0
 11
29545.227617849501
 21
33600.643016232389
 31
0.0
  0
LINE
  5
1B0
  8
FUTO
 10
29563.227617849501
 20
33750.643016232389
 30
0.0
 11
29563.227617849501
 21
33600.643016232389
 31
0.0
  0
LINE
  5
1B1
  8
FUTO
 10
29554.227617849501
 20
33750.643016232389
 30
0.0
 11
29554.227617849501
 21
33600.643016232389
 31
0.0
  0
LINE
  5
1B2
  8
KL
 10
29554.227617849501
 20
33764.807910770811
 30
0.0
 11
29554.227617849501
 21
33600.643016232389
 31
0.0
  0
DIMENSION
  5
1B3
  8
SP
  2
*D13
 10
28854.227617849501
 20
32875.435637514092
 30
0.0
 11
28324.227617849501
 21
32955.435637514092
 31
0.0
 70
     0
 13
27794.227617849501
 23
33310.643016232389
 33
0.0
 14
28854.227617849501
 24
33229.988841222177
 34
0.0
 50
180.0
1001
ACAD
1000
DSTYLE
1002
{
1070
    40
1040
40.0
1002
}
  0
LINE
  5
1C0
  8
FUTO
 10
28977.745856739832
 20
33600.643016232389
 30
0.0
 11
28977.745856739832
 21
33589.643016232389
 31
0.0
  0
LINE
  5
1C1
  8
FUTO
 10
29049.745856739832
 20
33600.643016232389
 30
0.0
 11
29049.745856739832
 21
33589.643016232389
 31
0.0
  0
LINE
  5
1C2
  8
CT
 10
29013.745856739832
 20
33615.170999439601
 30
0.0
 11
29013.745856739832
 21
33440.964224535448
 31
0.0
  0
LINE
  5
1C3
  8
FUTO
 10
29079.245856739832
 20
33504.643016232389
 30
0.0
 11
28948.245856739832
 21
33504.643016232389
 31
0.0
  0
LINE
  5
1C4
  8
FUTO
 10
29049.745856739832
 20
33595.643016232389
 30
0.0
 11
28977.745856739832
 21
33595.643016232389
 31
0.0
  0
LINE
  5
1C5
  8
FUTO
 10
29049.745856739832
 20
33460.643016232389
 30
0.0
 11
28977.745856739832
 21
33460.643016232389
 31
0.0
  0
LINE
  5
1C6
  8
FUTO
 10
29055.745856739832
 20
33471.643016232389
 30
0.0
 11
28971.745856739832
 21
33471.643016232389
 31
0.0
  0
LINE
  5
1C7
  8
FUTO
 10
29049.745856739832
 20
33465.643016232389
 30
0.0
 11
28977.745856739832
 21
33465.643016232389
 31
0.0
  0
LINE
  5
1C8
  8
FUTO
 10
29070.245856739832
 20
33589.643016232389
 30
0.0
 11
28957.245856739832
 21
33589.643016232389
 31
0.0
  0
ARC
  5
1C9
  8
FUTO
 10
29070.245856739832
 20
33580.643016232389
 30
0.0
 40
9.0
 50
359.99999999999989
 51
90.000000000000099
  0
LINE
  5
1CA
  8
FUTO
 10
29079.245856739832
 20
33580.643016232389
 30
0.0
 11
29079.245856739832
 21
33504.643016232389
 31
0.0
  0
LINE
  5
1CB
  8
FUTO
 10
29049.745856739832
 20
33471.643016232389
 30
0.0
 11
29049.745856739832
 21
33460.643016232389
 31
0.0
  0
LINE
  5
1CC
  8
FUTO
 10
29062.745856739832
 20
33504.643016232389
 30
0.0
 11
29062.745856739832
 21
33478.643016232389
 31
0.0
  0
ARC
  5
1CD
  8
FUTO
 10
29055.745856739832
 20
33478.643016232389
 30
0.0
 40
7.0
 50
270.00000000000011
 51
0.0000000000000579
  0
ARC
  5
1CE
  8
FUTO
 10
28957.245856739832
 20
33580.643016232389
 30
0.0
 40
9.0
 50
90.0
 51
180.0
  0
LINE
  5
1CF
  8
FUTO
 10
28977.745856739832
 20
33471.643016232389
 30
0.0
 11
28977.745856739832
 21
33460.643016232389
 31
0.0
  0
LINE
  5
1D0
  8
FUTO
 10
28964.745856739832
 20
33504.643016232389
 30
0.0
 11
28964.745856739832
 21
33478.643016232389
 31
0.0
  0
ARC
  5
1D1
  8
FUTO
 10
28971.745856739832
 20
33478.643016232389
 30
0.0
 40
7.0
 50
179.99999999999989
 51
269.99999999999977
  0
LINE
  5
1D2
  8
FUTO
 10
28948.245856739832
 20
33580.643016232389
 30
0.0
 11
28948.245856739832
 21
33504.643016232389
 31
0.0
  0
LINE
  5
1D3
  8
FUTO
 10
29049.745856739832
 20
33600.643016232389
 30
0.0
 11
28977.745856739832
 21
33600.643016232389
 31
0.0
  0
LINE
  5
1D4
  8
CT
 10
27976.11203462609
 20
33615.170999439601
 30
0.0
 11
27976.11203462609
 21
33440.964224535448
 31
0.0
  0
LINE
  5
1D5
  8
FUTO
 10
27940.11203462609
 20
33600.643016232389
 30
0.0
 11
27940.11203462609
 21
33589.643016232389
 31
0.0
  0
LINE
  5
1D6
  8
FUTO
 10
28012.11203462609
 20
33600.643016232389
 30
0.0
 11
28012.11203462609
 21
33589.643016232389
 31
0.0
  0
LINE
  5
1D7
  8
FUTO
 10
28032.61203462609
 20
33589.643016232389
 30
0.0
 11
27919.61203462609
 21
33589.643016232389
 31
0.0
  0
LINE
  5
1D8
  8
FUTO
 10
28012.11203462609
 20
33465.643016232389
 30
0.0
 11
27940.11203462609
 21
33465.643016232389
 31
0.0
  0
LINE
  5
1D9
  8
FUTO
 10
28018.11203462609
 20
33471.643016232389
 30
0.0
 11
27934.11203462609
 21
33471.643016232389
 31
0.0
  0
LINE
  5
1DA
  8
FUTO
 10
28012.11203462609
 20
33460.643016232389
 30
0.0
 11
27940.11203462609
 21
33460.643016232389
 31
0.0
  0
LINE
  5
1DB
  8
FUTO
 10
28012.11203462609
 20
33595.643016232389
 30
0.0
 11
27940.11203462609
 21
33595.643016232389
 31
0.0
  0
LINE
  5
1DC
  8
FUTO
 10
28041.61203462609
 20
33504.643016232389
 30
0.0
 11
27910.61203462609
 21
33504.643016232389
 31
0.0
  0
ARC
  5
1DD
  8
FUTO
 10
28018.11203462609
 20
33478.643016232389
 30
0.0
 40
7.0
 50
270.00000000000011
 51
0.0000000000000579
  0
LINE
  5
1DE
  8
FUTO
 10
28025.11203462609
 20
33504.643016232389
 30
0.0
 11
28025.11203462609
 21
33478.643016232389
 31
0.0
  0
LINE
  5
1DF
  8
FUTO
 10
28012.11203462609
 20
33471.643016232389
 30
0.0
 11
28012.11203462609
 21
33460.643016232389
 31
0.0
  0
LINE
  5
1E0
  8
FUTO
 10
28041.61203462609
 20
33580.643016232389
 30
0.0
 11
28041.61203462609
 21
33504.643016232389
 31
0.0
  0
ARC
  5
1E1
  8
FUTO
 10
28032.61203462609
 20
33580.643016232389
 30
0.0
 40
9.0
 50
359.99999999999989
 51
90.000000000000099
  0
LINE
  5
1E2
  8
FUTO
 10
28154.227617849501
 20
33460.643016232389
 30
0.0
 11
28154.227617849501
 21
33310.643016232389
 31
0.0
  0
LINE
  5
1E3
  8
FUTO
 10
27910.61203462609
 20
33580.643016232389
 30
0.0
 11
27910.61203462609
 21
33504.643016232389
 31
0.0
  0
ARC
  5
1E4
  8
FUTO
 10
27934.11203462609
 20
33478.643016232389
 30
0.0
 40
7.0
 50
179.99999999999989
 51
269.99999999999977
  0
LINE
  5
1E5
  8
FUTO
 10
27927.11203462609
 20
33504.643016232389
 30
0.0
 11
27927.11203462609
 21
33478.643016232389
 31
0.0
  0
LINE
  5
1E6
  8
FUTO
 10
27940.11203462609
 20
33471.643016232389
 30
0.0
 11
27940.11203462609
 21
33460.643016232389
 31
0.0
  0
ARC
  5
1E7
  8
FUTO
 10
27919.61203462609
 20
33580.643016232389
 30
0.0
 40
9.0
 50
90.0
 51
180.0
  0
LINE
  5
1E8
  8
FUTO
 10
27794.227617849501
 20
33460.643016232389
 30
0.0
 11
27794.227617849501
 21
33310.643016232389
 31
0.0
  0
LINE
  5
1E9
  8
FUTO
 10
28012.11203462609
 20
33600.643016232389
 30
0.0
 11
27940.11203462609
 21
33600.643016232389
 31
0.0
  0
LINE
  5
1EC
  8
KL
 10
28229.227617849501
 20
33750.643016232389
 30
0.0
 11
28229.227617849501
 21
33600.643016232389
 31
0.0
  0
LINE
  5
1ED
  8
FUTO
 10
28154.227617849501
 20
33750.643016232389
 30
0.0
 11
28154.227617849501
 21
33600.643016232389
 31
0.0
  0
LINE
  5
1EE
  8
KL
 10
28154.227617849501
 20
33764.807910770811
 30
0.0
 11
28154.227617849501
 21
33600.643016232389
 31
0.0
  0
LINE
  5
1EF
  8
FUTO
 10
27794.227617849501
 20
33750.643016232389
 30
0.0
 11
27794.227617849501
 21
33600.643016232389
 31
0.0
  0
LINE
  5
1F0
  8
FUTO
 10
30543.10753229434
 20
39880.731744443066
 30
0.0
 11
30543.10753229434
 21
39728.731744443059
 31
0.0
  0
LINE
  5
1F1
  8
FUTO
 10
30794.227617849501
 20
39955.731744443059
 30
0.0
 11
30794.227617849501
 21
39880.731744443059
 31
0.0
  0
LINE
  5
1F2
  8
CT
 10
30354.227617849501
 20
39806.103633001192
 30
0.0
 11
30354.227617849501
 21
38262.636921396414
 31
0.0
  0
LINE
  5
1F3
  8
FUTO
 10
29554.227617849501
 20
39880.731744443059
 30
0.0
 11
29554.227617849501
 21
38508.731744443059
 31
0.0
  0
LINE
  5
1F4
  8
FUTO
 10
29479.227617849501
 20
39880.731744443059
 30
0.0
 11
29479.227617849501
 21
38583.731744443059
 31
0.0
  0
LINE
  5
1F5
  8
FUTO
 10
28229.227617849501
 20
39880.731744443059
 30
0.0
 11
28229.227617849501
 21
38583.731744443059
 31
0.0
  0
LINE
  5
1F6
  8
FUTO
 10
28154.227617849501
 20
39880.731744443059
 30
0.0
 11
28154.227617849501
 21
38508.731744443059
 31
0.0
  0
DIMENSION
  5
253
  8
SP
  2
*D14
 10
28854.227617849501
 20
37538.834832737921
 30
0.0
 11
28271.727617849501
 21
37618.834832737921
 31
0.0
 70
     0
 13
27689.227617849501
 23
35714.449496675406
 33
0.0
 14
28854.227617849501
 24
37067.302355139691
 34
0.0
 50
180.0
1001
ACAD
1000
DSTYLE
1002
{
1070
    40
1040
40.0
1002
}
  0
ARC
  5
263
  8
FUTO
 10
28854.227617849501
 20
35750.643016232389
 30
0.0
 40
480.0
 50
37.127932652022849
 51
227.41944536016459
  0
LINE
  5
265
  8
FUTO
 10
29154.227617849501
 20
35628.643016232389
 30
0.0
 11
29196.276043673541
 21
35628.643016232389
 31
0.0
  0
LINE
  5
267
  8
FUTO
 10
30452.227617849501
 20
35741.643016232389
 30
0.0
 11
29690.19981815364
 21
35741.643016232389
 31
0.0
  0
LINE
  5
268
  8
FUTO
 10
30452.227617849501
 20
35759.643016232389
 30
0.0
 11
29665.110307112522
 21
35759.643016232389
 31
0.0
  0
ARC
  5
269
  8
FUTO
 10
28723.227617849501
 20
35619.643016232389
 30
0.0
 40
1705.0
 50
296.7418488230777
 51
307.4592633947517
  0
ARC
  5
26A
  8
KL
 10
28723.227617849501
 20
35619.643016232389
 30
0.0
 40
1685.0
 50
275.38794086100319
 51
355.16337676580599
  0
LINE
  5
26D
  8
FUTO
 10
29895.227617849501
 20
36739.530957055038
 30
0.0
 11
29895.227617849501
 21
35750.643016232389
 31
0.0
  0
LINE
  5
26E
  8
FUTO
 10
29904.227617849501
 20
36732.157285803791
 30
0.0
 11
29904.227617849501
 21
35750.643016232389
 31
0.0
  0
LINE
  5
26F
  8
KL
 10
30402.227617849501
 20
35750.180367209039
 30
0.0
 11
30402.227617849501
 21
35477.572611150958
 31
0.0
  0
LINE
  5
272
  8
CT
 10
30455.934032473771
 20
34550.643016232389
 30
0.0
 11
30610.230969993449
 21
34550.643016232389
 31
0.0
  0
LINE
  5
273
  8
FUTO
 10
30144.227617849501
 20
34690.643016232389
 30
0.0
 11
30534.227617849501
 21
34690.643016232389
 31
0.0
  0
LINE
  5
274
  8
FUTO
 10
30144.227617849501
 20
34425.643016232389
 30
0.0
 11
30534.227617849501
 21
34425.643016232389
 31
0.0
  0
ARC
  5
275
  8
FUTO
 10
30534.227617849501
 20
34670.643016232389
 30
0.0
 40
20.0
 50
0.000000000000007
 51
90.0
  0
ARC
  5
276
  8
FUTO
 10
30534.227617849501
 20
34445.643016232389
 30
0.0
 40
20.0
 50
270.0
 51
0.000000000000007
  0
LINE
  5
277
  8
FUTO
 10
30554.227617849501
 20
34670.643016232389
 30
0.0
 11
30554.227617849501
 21
34445.643016232389
 31
0.0
  0
ARC
  5
279
  8
FUTO
 10
30144.227617849501
 20
34670.643016232389
 30
0.0
 40
20.0
 50
90.0
 51
180.0
  0
LINE
  5
27A
  8
KL
 10
30316.894941910901
 20
35007.359225110209
 30
0.0
 11
30353.208179877569
 21
34990.426084153951
 31
0.0
  0
LINE
  5
27B
  8
CT
 10
30253.8620952532
 20
34965.032359489451
 30
0.0
 11
30360.808378489251
 21
34915.162488605267
 31
0.0
  0
LINE
  5
27C
  8
KL
 10
30366.49744036535
 20
34995.262979406907
 30
0.0
 11
30303.10470110425
 21
34859.316811351411
 31
0.0
  0
LINE
  5
27D
  8
KL
 10
30353.208179877569
 20
34990.426084153951
 30
0.0
 11
30298.26780585129
 21
34872.606071839189
 31
0.0
  0
LINE
  5
27E
  8
KL
 10
30321.121124528308
 20
35016.42230298058
 30
0.0
 11
30366.49744036535
 21
34995.262979406907
 31
0.0
  0
LINE
  5
27F
  8
KL
 10
30257.728385267212
 20
34880.476134925091
 30
0.0
 11
30303.10470110425
 21
34859.316811351411
 31
0.0
  0
LINE
  5
280
  8
KL
 10
30261.954567884619
 20
34889.539212795447
 30
0.0
 11
30298.26780585129
 21
34872.606071839189
 31
0.0
  0
ARC
  5
281
  8
FUTO
 10
30144.227617849501
 20
34445.643016232389
 30
0.0
 40
20.0
 50
180.0
 51
270.0
  0
LINE
  5
282
  8
FUTO
 10
30124.227617849501
 20
34670.643016232389
 30
0.0
 11
30124.227617849501
 21
34445.643016232389
 31
0.0
  0
LINE
  5
283
  8
FUTO
 10
30452.227617849501
 20
35759.643016232389
 30
0.0
 11
30452.227617849501
 21
35741.643016232389
 31
0.0
  0
ARC
  5
284
  8
FUTO
 10
28985.22761784949
 20
35619.643016232389
 30
0.0
 40
1443.0
 50
5.567600038522011
 51
50.441358354594847
  0
LINE
  5
285
  8
FUTO
 10
27754.227617849501
 20
35748.643016232389
 30
0.0
 11
27754.227617849501
 21
33760.643016232389
 31
0.0
  0
LINE
  5
286
  8
FUTO
 10
27689.227617849501
 20
35536.083244200046
 30
0.0
 11
27689.227617849501
 21
34508.681075455272
 31
0.0
  0
LINE
  5
287
  8
FUTO
 10
27689.227617849501
 20
35536.083244200046
 30
0.0
 11
27689.227617849501
 21
33760.643016232389
 31
0.0
  0
LINE
  5
288
  8
FUTO
 10
27695.227617849501
 20
35537.141206084307
 30
0.0
 11
27695.227617849501
 21
34502.681075455272
 31
0.0
  0
LINE
  5
289
  8
FUTO
 10
27813.227617849501
 20
33750.643016232389
 30
0.0
 11
27813.227617849501
 21
35741.643016232389
 31
0.0
  0
LINE
  5
28A
  8
FUTO
 10
27804.227617849501
 20
33750.643016232389
 30
0.0
 11
27804.227617849501
 21
35741.643016232389
 31
0.0
  0
LINE
  5
291
  8
KL
 10
28656.006803612199
 20
35777.26084490231
 30
0.0
 11
28376.984103014402
 21
35802.010589153877
 31
0.0
  0
LINE
  5
292
  8
KL
 10
28654.41642010838
 20
35759.331241440137
 30
0.0
 11
28375.39371951059
 21
35784.080985691697
 31
0.0
  0
CIRCLE
  5
295
  8
SL
 10
28854.227617849501
 20
35750.643016232389
 30
0.0
 40
355.0
  0
ARC
  5
296
  8
FUTO
 10
28802.22761784949
 20
35840.709658225969
 30
0.0
 40
15.000000000000099
 50
25.864502996822029
 51
214.135497003171
  0
ARC
  5
297
  8
FUTO
 10
28854.227617849501
 20
35750.643016232389
 30
0.0
 40
103.9999999999995
 50
68.270994006339393
 51
111.7290059936601
  0
LINE
  5
298
  8
CT
 10
28854.227617849501
 20
35874.4117753971
 30
0.0
 11
28854.227617849501
 21
35620.81929233027
 31
0.0
  0
ARC
  5
299
  8
FUTO
 10
28906.227617849501
 20
35840.709658225969
 30
0.0
 40
15.000000000000201
 50
325.8645029968294
 51
154.13549700317759
  0
ARC
  5
29E
  8
FUTO
 10
28802.22761784949
 20
35660.576374238808
 30
0.0
 40
14.99999999999998
 50
145.86450299682841
 51
334.13549700317782
  0
CIRCLE
  5
29F
  8
FUTO
 10
28854.227617849501
 20
35750.643016232389
 30
0.0
 40
41.5
  0
LINE
  5
2A0
  8
FUTO
 10
28939.227617849501
 20
35643.643016232389
 30
0.0
 11
28769.227617849501
 21
35643.643016232389
 31
0.0
  0
LINE
  5
2A2
  8
KL
 10
28512.179192025451
 20
35628.643016232389
 30
0.0
 11
28854.227617849501
 21
35628.643016232389
 31
0.0
  0
LINE
  5
2A4
  8
FUTO
 10
28978.227617849501
 20
35674.643016232389
 30
0.0
 11
29046.22761784949
 21
35674.643016232389
 31
0.0
  0
LINE
  5
2A5
  8
FUTO
 10
29059.227617849501
 20
35638.643016232389
 30
0.0
 11
28939.227617849501
 21
35638.643016232389
 31
0.0
  0
LINE
  5
2A6
  8
KL
 10
29196.276043673541
 20
35628.643016232389
 30
0.0
 11
28854.227617849501
 21
35628.643016232389
 31
0.0
  0
LINE
  5
2A7
  8
FUTO
 10
29059.227617849501
 20
35638.643016232389
 30
0.0
 11
29059.227617849501
 21
35628.643016232389
 31
0.0
  0
ARC
  5
2A8
  8
FUTO
 10
29046.22761784949
 20
35671.643016232389
 30
0.0
 40
3.0
 50
0.000000000000007
 51
90.0
  0
LINE
  5
2A9
  8
FUTO
 10
29049.227617849501
 20
35671.643016232389
 30
0.0
 11
29049.227617849501
 21
35638.643016232389
 31
0.0
  0
LINE
  5
2AA
  8
KL
 10
29054.227617849501
 20
35759.643016232389
 30
0.0
 11
29054.227617849501
 21
35741.643016232389
 31
0.0
  0
ARC
  5
2AD
  8
FUTO
 10
28854.227617849501
 20
35750.643016232389
 30
0.0
 40
104.0000000000007
 50
248.27099400633949
 51
291.72900599365971
  0
ARC
  5
2AE
  8
FUTO
 10
28958.227617849501
 20
35750.643016232389
 30
0.0
 40
15.0
 50
265.86450299682951
 51
94.135497003170499
  0
ARC
  5
2AF
  8
FUTO
 10
28978.227617849501
 20
35694.643016232389
 30
0.0
 40
20.0
 50
180.0
 51
270.0
  0
LINE
  5
2B0
  8
FUTO
 10
28939.227617849501
 20
35638.643016232389
 30
0.0
 11
28939.227617849501
 21
35643.643016232389
 31
0.0
  0
LINE
  5
2B1
  8
CT
 10
29014.227617849501
 20
35628.643016232389
 30
0.0
 11
29014.227617849501
 21
35684.643016232389
 31
0.0
  0
LINE
  5
2B2
  8
FUTO
 10
28958.227617849501
 20
35735.643016232389
 30
0.0
 11
28958.227617849501
 21
35694.643016232389
 31
0.0
  0
ARC
  5
2B3
  8
FUTO
 10
28906.227617849501
 20
35660.576374238808
 30
0.0
 40
14.999999999999719
 50
205.86450299682281
 51
34.135497003170862
  0
ARC
  5
2B4
  8
FUTO
 10
28854.227617849501
 20
35750.643016232389
 30
0.0
 40
104.0000000000002
 50
308.27099400633909
 51
351.72900599365983
  0
ARC
  5
2B5
  8
FUTO
 10
28854.227617849501
 20
35750.643016232389
 30
0.0
 40
103.9999999999998
 50
8.2709940063395706
 51
51.729005993660287
  0
LINE
  5
2B6
  8
KL
 10
28654.41642010838
 20
35759.331241440137
 30
0.0
 11
28656.006803612199
 21
35777.26084490231
 31
0.0
  0
LINE
  5
2B7
  8
FUTO
 10
28649.227617849501
 20
35628.643016232389
 30
0.0
 11
28649.227617849501
 21
35638.643016232389
 31
0.0
  0
ARC
  5
2B8
  8
FUTO
 10
28662.227617849501
 20
35671.643016232389
 30
0.0
 40
3.0
 50
90.0
 51
180.0
  0
LINE
  5
2B9
  8
FUTO
 10
28659.227617849501
 20
35638.643016232389
 30
0.0
 11
28659.227617849501
 21
35671.643016232389
 31
0.0
  0
LINE
  5
2BA
  8
CT
 10
28694.227617849501
 20
35628.643016232389
 30
0.0
 11
28694.227617849501
 21
35684.643016232389
 31
0.0
  0
LINE
  5
2BB
  8
FUTO
 10
28662.227617849501
 20
35674.643016232389
 30
0.0
 11
28730.227617849501
 21
35674.643016232389
 31
0.0
  0
LINE
  5
2BC
  8
FUTO
 10
28750.227617849501
 20
35694.643016232389
 30
0.0
 11
28750.227617849501
 21
35735.643016232389
 31
0.0
  0
ARC
  5
2BD
  8
FUTO
 10
28730.227617849501
 20
35694.643016232389
 30
0.0
 40
20.0
 50
270.0
 51
0.000000000000007
  0
LINE
  5
2BE
  8
FUTO
 10
28769.227617849501
 20
35643.643016232389
 30
0.0
 11
28769.227617849501
 21
35638.643016232389
 31
0.0
  0
LINE
  5
2BF
  8
FUTO
 10
28769.227617849501
 20
35638.643016232389
 30
0.0
 11
28649.227617849501
 21
35638.643016232389
 31
0.0
  0
ARC
  5
2C0
  8
FUTO
 10
28750.227617849501
 20
35750.643016232389
 30
0.0
 40
15.0
 50
85.864502996829515
 51
270.0
  0
ARC
  5
2C1
  8
FUTO
 10
28854.227617849501
 20
35750.643016232389
 30
0.0
 40
103.9999999999998
 50
188.27099400633949
 51
231.72900599366031
  0
ARC
  5
2C2
  8
FUTO
 10
28854.227617849501
 20
35750.643016232389
 30
0.0
 40
103.9999999999994
 50
128.27099400633961
 51
171.72900599366019
  0
INSERT
  5
2C5
  8
FUTO
  2
左回転矢印
 10
29041.662224401749
 20
36449.08208958133
 30
0.0
 41
-2.0
 42
2.0
 43
2.0
  0
LINE
  5
2D0
  8
FUTO
 10
28827.173115332389
 20
35851.062406260171
 30
0.0
 11
28827.173115332389
 21
35854.643016232389
 31
0.0
  0
LINE
  5
2D1
  8
FUTO
 10
28881.282120366599
 20
35851.062406260171
 30
0.0
 11
28881.282120366599
 21
35854.643016232389
 31
0.0
  0
LINE
  5
2D2
  8
FUTO
 10
28881.282120366599
 20
35854.643016232389
 30
0.0
 11
28827.173115332389
 21
35854.643016232389
 31
0.0
  0
LINE
  5
2D3
  8
FUTO
 10
27695.227617849501
 20
35748.643016232389
 30
0.0
 11
27695.227617849501
 21
35501.294625292263
 31
0.0
  0
LINE
  5
2D4
  8
FUTO
 10
27689.227617849501
 20
35748.643016232389
 30
0.0
 11
27689.227617849501
 21
35499.956042133301
 31
0.0
  0
LINE
  5
2D5
  8
FUTO
 10
27689.227617849501
 20
35748.643016232389
 30
0.0
 11
27689.227617849501
 21
35554.360923214001
 31
0.0
  0
ARC
  5
2D6
  8
KL
 10
28743.727617849501
 20
35861.143016232389
 30
0.0
 40
960.5
 50
180.0
 51
215.70063660443361
  0
LINE
  5
2D8
  8
FUTO
 10
27774.131128689551
 20
35699.643016232389
 30
0.0
 11
27689.227617849501
 21
35699.643016232389
 31
0.0
  0
LINE
  5
2D9
  8
FUTO
 10
27754.227617849501
 20
35748.643016232389
 30
0.0
 11
27689.227617849501
 21
35748.643016232389
 31
0.0
  0
LINE
  5
2DA
  8
FUTO
 10
27754.227617849501
 20
35748.643016232389
 30
0.0
 11
27689.227617849501
 21
35748.643016232389
 31
0.0
  0
LINE
  5
2DB
  8
KL
 10
27800.53198596818
 20
35679.643016232389
 30
0.0
 11
27689.227617849501
 21
35679.643016232389
 31
0.0
  0
LINE
  5
2DC
  8
FUTO
 10
27715.50531014103
 20
35842.64010220777
 30
0.0
 11
27713.095649437972
 21
35860.924515765699
 31
0.0
  0
LINE
  5
2DD
  8
FUTO
 10
27689.227617849501
 20
33809.554259074786
 30
0.0
 11
28171.557839377201
 21
33855.045466907053
 31
0.0
  0
LINE
  5
2DE
  8
KL
 10
27689.227617849501
 20
33829.643016232389
 30
0.0
 11
28881.44705142609
 21
33942.087768009929
 31
0.0
  0
LINE
  5
2E3
  8
FUTO
 10
27695.227617849501
 20
34502.681075455272
 30
0.0
 11
27695.227617849501
 21
33760.643016232389
 31
0.0
  0
LINE
  5
2E4
  8
FUTO
 10
27754.227617849501
 20
33760.643016232389
 30
0.0
 11
27689.227617849501
 21
33760.643016232389
 31
0.0
  0
LINE
  5
2FF
  8
FUTO
 10
30794.227617849501
 20
38583.731744443059
 30
0.0
 11
28154.227617849501
 21
38583.731744443059
 31
0.0
  0
LINE
  5
300
  8
FUTO
 10
30794.227617849501
 20
38508.731744443059
 30
0.0
 11
28154.227617849501
 21
38508.731744443059
 31
0.0
  0
LINE
  5
3C8
  8
FUTO
 10
30408.227617849501
 20
41283.731744443059
 30
0.0
 11
27689.227617849501
 21
41283.731744443059
 31
0.0
  0
LINE
  5
3C9
  8
FUTO
 10
29914.227617849501
 20
39955.731744443059
 30
0.0
 11
27689.227617849501
 21
39955.731744443059
 31
0.0
  0
LINE
  5
3CA
  8
FUTO
 10
29914.227617849501
 20
39880.731744443059
 30
0.0
 11
27794.227617849501
 21
39880.731744443059
 31
0.0
  0
LINE
  5
3CB
  8
FUTO
 10
29914.227617849501
 20
41358.731744443066
 30
0.0
 11
27794.227617849501
 21
41358.731744443066
 31
0.0
  0
LINE
  5
3DA
  8
FUTO
 10
30794.227617849501
 20
39880.731744443059
 30
0.0
 11
29554.227617849501
 21
39880.731744443059
 31
0.0
  0
LINE
  5
3DB
  8
FUTO
 10
30794.227617849501
 20
39955.731744443059
 30
0.0
 11
30458.227617849501
 21
39955.731744443066
 31
0.0
  0
LINE
  5
406
  8
FUTO
 10
27794.227617849501
 20
39880.731744443059
 30
0.0
 11
27794.227617849501
 21
39905.731744443066
 31
0.0
  0
LINE
  5
438
  8
SL
 10
31764.803062809689
 20
36029.01681623239
 30
0.0
 11
31764.803062809679
 21
33959.01681623239
 31
0.0
  0
LINE
  5
439
  8
SL
 10
31594.803062809679
 20
36029.01681623239
 30
0.0
 11
31594.803062809689
 21
33959.01681623239
 31
0.0
  0
LINE
  5
43A
  8
CT
 10
33894.803062809689
 20
37253.33990455429
 30
0.0
 11
33894.803062809689
 21
33231.564249971729
 31
0.0
  0
LINE
  5
43C
  8
FUTO
 10
34558.003062809687
 20
33750.642999626398
 30
0.0
 11
34558.003062809687
 21
35817.716816232387
 31
0.0
  0
LINE
  5
43D
  8
FUTO
 10
34554.803062809697
 20
33750.642999626398
 30
0.0
 11
34554.803062809689
 21
35817.716816232387
 31
0.0
  0
LINE
  5
43E
  8
FUTO
 10
33234.803062809689
 20
33750.642999626398
 30
0.0
 11
33234.803062809689
 21
35817.716816232387
 31
0.0
  0
LINE
  5
43F
  8
FUTO
 10
33231.603062809692
 20
33750.642999626398
 30
0.0
 11
33231.603062809692
 21
35817.716816232387
 31
0.0
  0
LINE
  5
441
  8
FUTO
 10
31794.803062809679
 20
36129.01681623239
 30
0.0
 11
31794.803062809679
 21
33849.01681623239
 31
0.0
  0
LINE
  5
442
  8
FUTO
 10
31444.803062809689
 20
36129.01681623239
 30
0.0
 11
31444.803062809689
 21
33849.01681623239
 31
0.0
  0
LINE
  5
445
  8
FUTO
 10
32844.803062809689
 20
35599.016816232397
 30
0.0
 11
32844.803062809682
 21
35589.01681623239
 31
0.0
  0
LINE
  5
446
  8
FUTO
 10
33024.803062809689
 20
35599.016816232397
 30
0.0
 11
33024.803062809689
 21
33750.642999626398
 31
0.0
  0
LINE
  5
449
  8
FUTO
 10
32023.803062809689
 20
35627.01681623239
 30
0.0
 11
32023.803062809689
 21
35589.01681623239
 31
0.0
  0
LINE
  5
44A
  8
FUTO
 10
31843.803062809689
 20
35627.01681623239
 30
0.0
 11
31843.803062809689
 21
34409.01681623239
 31
0.0
  0
DIMENSION
  5
44B
  8
SP
  2
*D21
 10
35269.811205021419
 20
34849.01681623239
 30
0.0
 11
35189.811205021411
 21
35749.016816232397
 31
0.0
 70
     0
  1
%%C<>
 13
34689.803062809689
 23
36649.016816232397
 33
0.0
 14
34689.803062809689
 24
34849.01681623239
 34
0.0
 50
90.0
1001
ACAD
1000
DSTYLE
1002
{
1070
    40
1040
40.0
1002
}
  0
LINE
  5
461
  8
KL
 10
34564.003062809679
 20
36714.01681623239
 30
0.0
 11
34564.003062809679
 21
34784.01681623239
 31
0.0
  0
LINE
  5
462
  8
FUTO
 10
34683.803062809689
 20
36714.01681623239
 30
0.0
 11
34683.803062809689
 21
34784.01681623239
 31
0.0
  0
LINE
  5
463
  8
FUTO
 10
34689.803062809689
 20
36714.01681623239
 30
0.0
 11
34689.803062809689
 21
34784.01681623239
 31
0.0
  0
LINE
  5
464
  8
FUTO
 10
33141.603062809678
 20
35723.997660926638
 30
0.0
 11
33141.603062809692
 21
33750.642999626398
 31
0.0
  0
LINE
  5
465
  8
FUTO
 10
34648.003062809679
 20
35723.997660926638
 30
0.0
 11
34648.003062809679
 21
33750.642999626398
 31
0.0
  0
LINE
  5
46B
  8
FUTO
 10
33155.803062809689
 20
33448.642999626398
 30
0.0
 11
34558.799062809681
 21
33448.642999626398
 31
0.0
  0
LINE
  5
46C
  8
FUTO
 10
33155.803062809689
 20
33322.642999626398
 30
0.0
 11
34558.799062809681
 21
33322.642999626398
 31
0.0
  0
LINE
  5
46D
  8
FUTO
 10
33155.803062809689
 20
33612.642999626398
 30
0.0
 11
34558.799062809681
 21
33612.642999626398
 31
0.0
  0
LINE
  5
46E
  8
FUTO
 10
33155.803062809689
 20
33738.642999626398
 30
0.0
 11
34558.799062809681
 21
33738.642999626398
 31
0.0
  0
LINE
  5
470
  8
FUTO
 10
31783.80706280969
 20
33460.642999626398
 30
0.0
 11
34638.803062809689
 21
33460.642999626398
 31
0.0
1001
ACAD
1000
ASC_BOUNDS
1002
{
1070
    19
1002
}
  0
LINE
  5
471
  8
FUTO
 10
31783.803062809689
 20
33600.642999626398
 30
0.0
 11
34633.803062809682
 21
33600.642999626412
 31
0.0
1001
ACAD
1000
ASC_BOUNDS
1002
{
1070
    19
1005
0
1005
0
1005
0
1002
}
  0
DIMENSION
  5
472
  8
SP
  2
*D16
 10
33894.803062809689
 20
32871.162386862088
 30
0.0
 11
32839.303062809689
 21
32951.162386862088
 31
0.0
 70
     0
 13
31783.803062809689
 23
33310.642999626398
 33
0.0
 14
33894.803062809689
 24
33289.715947632467
 34
0.0
1001
ACAD
1000
DSTYLE
1002
{
1070
    40
1040
40.0
1002
}
  0
DIMENSION
  5
47F
  8
SP
  2
*D15
 10
34633.803062809682
 20
32571.12484189717
 30
0.0
 11
33208.803062809689
 21
32651.12484189717
 31
0.0
 70
     0
 13
31783.803062809689
 23
33310.642999626398
 33
0.0
 14
34633.803062809682
 24
33310.642999626398
 34
0.0
1001
ACAD
1000
DSTYLE
1002
{
1070
    40
1040
40.0
1002
}
  0
LINE
  5
48C
  8
FUTO
 10
31783.803062809689
 20
33310.642999626398
 30
0.0
 11
34633.799062809689
 21
33310.642999626398
 31
0.0
  0
LINE
  5
48D
  8
FUTO
 10
31783.803062809689
 20
33750.642999626398
 30
0.0
 11
34648.003062809679
 21
33750.642999626398
 31
0.0
  0
LINE
  5
48E
  8
CT
 10
31386.493791260778
 20
34099.01681623239
 30
0.0
 11
31966.996324116892
 21
34099.01681623239
 31
0.0
  0
LINE
  5
48F
  8
FUTO
 10
31753.30706280969
 20
33503.016816232397
 30
0.0
 11
31884.30706280969
 21
33503.016816232397
 31
0.0
  0
ARC
  5
490
  8
FUTO
 10
31875.30706280969
 20
33579.01681623239
 30
0.0
 40
9.0
 50
0.0
 51
90.0
  0
LINE
  5
491
  8
FUTO
 10
31858.80706280969
 20
33322.642999626398
 30
0.0
 11
33137.913167415201
 21
33322.642999626398
 31
0.0
  0
LINE
  5
492
  8
FUTO
 10
31858.80706280969
 20
33448.642999626398
 30
0.0
 11
33137.913167415209
 21
33448.642999626398
 31
0.0
  0
LINE
  5
493
  8
FUTO
 10
31858.80706280969
 20
33738.642999626398
 30
0.0
 11
33137.913167415209
 21
33738.642999626398
 31
0.0
  0
LINE
  5
494
  8
FUTO
 10
31858.80706280969
 20
33612.642999626398
 30
0.0
 11
33137.913167415209
 21
33612.642999626398
 31
0.0
  0
LINE
  5
495
  8
CT
 10
31818.80706280969
 20
33613.544799439602
 30
0.0
 11
31818.80706280969
 21
33439.338024535449
 31
0.0
  0
LINE
  5
496
  8
FUTO
 10
31862.30706280969
 20
33599.01681623239
 30
0.0
 11
31862.30706280969
 21
33588.01681623239
 31
0.0
  0
LINE
  5
497
  8
FUTO
 10
31857.30706280969
 20
33599.01681623239
 30
0.0
 11
31857.30706280969
 21
33594.01681623239
 31
0.0
  0
LINE
  5
498
  8
FUTO
 10
31775.30706280969
 20
33599.01681623239
 30
0.0
 11
31775.30706280969
 21
33588.01681623239
 31
0.0
  0
LINE
  5
499
  8
FUTO
 10
31780.30706280969
 20
33599.01681623239
 30
0.0
 11
31780.30706280969
 21
33594.01681623239
 31
0.0
  0
LINE
  5
49A
  8
FUTO
 10
31762.30706280969
 20
33588.01681623239
 30
0.0
 11
31875.30706280969
 21
33588.01681623239
 31
0.0
  0
LINE
  5
49B
  8
FUTO
 10
31780.30706280969
 20
33464.01681623239
 30
0.0
 11
31780.30706280969
 21
33459.016816232397
 31
0.0
  0
LINE
  5
49C
  8
FUTO
 10
31775.30706280969
 20
33470.179419066801
 30
0.0
 11
31775.30706280969
 21
33459.016816232397
 31
0.0
  0
LINE
  5
49D
  8
FUTO
 10
31775.30706280969
 20
33459.016816232397
 30
0.0
 11
31780.30706280969
 21
33459.016816232397
 31
0.0
  0
LINE
  5
49E
  8
FUTO
 10
31857.30706280969
 20
33464.016816232383
 30
0.0
 11
31857.30706280969
 21
33459.016816232397
 31
0.0
  0
LINE
  5
49F
  8
FUTO
 10
31857.30706280969
 20
33459.016816232397
 30
0.0
 11
31862.30706280969
 21
33459.016816232397
 31
0.0
  0
LINE
  5
4A0
  8
FUTO
 10
31862.30706280969
 20
33470.179419066801
 30
0.0
 11
31862.30706280969
 21
33459.016816232397
 31
0.0
  0
LINE
  5
4A1
  8
FUTO
 10
31780.30706280969
 20
33464.01681623239
 30
0.0
 11
31857.30706280969
 21
33464.01681623239
 31
0.0
  0
LINE
  5
4A2
  8
FUTO
 10
31867.807062809679
 20
33503.016816232397
 30
0.0
 11
31867.807062809679
 21
33477.01681623239
 31
0.0
  0
ARC
  5
4A3
  8
FUTO
 10
31860.80706280969
 20
33477.01681623239
 30
0.0
 40
7.0
 50
270.00000000000011
 51
0.0000000000000254
  0
LINE
  5
4A4
  8
FUTO
 10
31776.80706280969
 20
33470.01681623239
 30
0.0
 11
31860.80706280969
 21
33470.01681623239
 31
0.0
  0
LINE
  5
4A5
  8
FUTO
 10
31769.80706280969
 20
33503.016816232397
 30
0.0
 11
31769.80706280969
 21
33477.01681623239
 31
0.0
  0
ARC
  5
4A6
  8
FUTO
 10
31776.80706280969
 20
33477.01681623239
 30
0.0
 40
7.0
 50
179.99999999999989
 51
269.99999999999977
  0
ARC
  5
4A7
  8
FUTO
 10
31762.30706280969
 20
33579.01681623239
 30
0.0
 40
9.0
 50
89.999999999999915
 51
180.0
  0
LINE
  5
4A8
  8
FUTO
 10
31753.30706280969
 20
33579.01681623239
 30
0.0
 11
31753.30706280969
 21
33503.016816232397
 31
0.0
  0
LINE
  5
4A9
  8
FUTO
 10
31780.30706280969
 20
33594.01681623239
 30
0.0
 11
31857.30706280969
 21
33594.01681623239
 31
0.0
  0
LINE
  5
4AA
  8
FUTO
 10
31858.80706280969
 20
33460.642999626398
 30
0.0
 11
31858.80706280969
 21
33310.642999626398
 31
0.0
  0
LINE
  5
4AB
  8
FUTO
 10
31858.80706280969
 20
33310.642999626398
 30
0.0
 11
31783.80706280969
 21
33310.642999626398
 31
0.0
  0
LINE
  5
4AC
  8
FUTO
 10
31848.655685780679
 20
33323.320032255862
 30
0.0
 11
31787.458439838701
 21
33317.965966996941
 31
0.0
  0
LINE
  5
4AD
  8
FUTO
 10
31858.80706280969
 20
33460.642999626398
 30
0.0
 11
31783.80706280969
 21
33460.642999626398
 31
0.0
1001
ACAD
1000
ASC_BOUNDS
1002
{
1070
    19
1002
}
  0
LINE
  5
4AE
  8
FUTO
 10
31848.655685780679
 20
33447.965966996941
 30
0.0
 11
31787.458439838701
 21
33453.32003225587
 31
0.0
  0
LINE
  5
4AF
  8
FUTO
 10
31852.30706280969
 20
33443.981188204569
 30
0.0
 11
31852.30706280969
 21
33327.304811048241
 31
0.0
  0
ARC
  5
4B0
  8
FUTO
 10
31848.30706280969
 20
33327.304811048241
 30
0.0
 40
4.0
 50
274.99999999999972
 51
0.0
  0
LINE
  5
4B1
  8
FUTO
 10
31858.80706280969
 20
33460.642999626398
 30
0.0
 11
31858.80706280969
 21
33310.642999626398
 31
0.0
  0
ARC
  5
4B2
  8
FUTO
 10
31848.30706280969
 20
33443.981188204569
 30
0.0
 40
4.0
 50
0.0
 51
85.000000000000256
  0
ARC
  5
4B3
  8
FUTO
 10
31787.807062809679
 20
33313.981188204569
 30
0.0
 40
4.0
 50
95.000000000000185
 51
180.0
  0
LINE
  5
4B4
  8
FUTO
 10
31783.80706280969
 20
33310.642999626398
 30
0.0
 11
31783.80706280969
 21
33313.981188204569
 31
0.0
  0
LINE
  5
4B5
  8
FUTO
 10
31783.80706280969
 20
33460.642999626398
 30
0.0
 11
31783.80706280969
 21
33457.304811048241
 31
0.0
  0
ARC
  5
4B6
  8
FUTO
 10
31787.807062809679
 20
33457.304811048241
 30
0.0
 40
4.0
 50
180.0
 51
264.99999999999977
  0
ARC
  5
4B7
  8
FUTO
 10
31788.803062809679
 20
33313.064999626411
 30
0.0
 40
5.0
 50
95.001000000000005
 51
180.00099999999989
  0
LINE
  5
4B8
  8
FUTO
 10
31788.370062809689
 20
33318.045999626411
 30
0.0
 11
31843.174062809681
 21
33322.842999626402
 31
0.0
  0
LINE
  5
4B9
  8
FUTO
 10
31783.803062809689
 20
33310.642999626398
 30
0.0
 11
31783.803062809689
 21
33313.064999626411
 31
0.0
  0
LINE
  5
4BA
  8
FUTO
 10
31783.803062809689
 20
33310.642999626398
 30
0.0
 11
31858.803062809689
 21
33310.642999626398
 31
0.0
  0
LINE
  5
4BB
  8
SL
 10
31764.803062809689
 20
34209.01681623239
 30
0.0
 11
31764.803062809689
 21
33959.01681623239
 31
0.0
  0
LINE
  5
4BC
  8
SL
 10
31594.803062809679
 20
34209.01681623239
 30
0.0
 11
31594.803062809679
 21
33959.01681623239
 31
0.0
  0
LINE
  5
4BD
  8
SL
 10
31594.803062809679
 20
33959.01681623239
 30
0.0
 11
31764.803062809689
 21
33959.01681623239
 31
0.0
  0
LINE
  5
4BE
  8
FUTO
 10
31444.803062809689
 20
33849.01681623239
 30
0.0
 11
31794.803062809679
 21
33849.01681623239
 31
0.0
  0
LINE
  5
4BF
  8
FUTO
 10
31857.30706280969
 20
33599.01681623239
 30
0.0
 11
31862.30706280969
 21
33599.01681623239
 31
0.0
  0
LINE
  5
4C0
  8
FUTO
 10
31775.30706280969
 20
33599.01681623239
 30
0.0
 11
31780.30706280969
 21
33599.01681623239
 31
0.0
  0
LINE
  5
4C1
  8
FUTO
 10
31783.803062809689
 20
33600.642999626398
 30
0.0
 11
31858.803062809689
 21
33600.642999626398
 31
0.0
  0
LINE
  5
4C2
  8
FUTO
 10
31783.803062809689
 20
33600.642999626398
 30
0.0
 11
31783.803062809689
 21
33603.064999626411
 31
0.0
  0
LINE
  5
4C3
  8
FUTO
 10
31788.370062809689
 20
33608.045999626411
 30
0.0
 11
31843.174062809681
 21
33612.842999626402
 31
0.0
  0
ARC
  5
4C4
  8
FUTO
 10
31787.807062809679
 20
33747.304811048241
 30
0.0
 40
4.0
 50
180.0
 51
264.99999999999977
  0
LINE
  5
4C5
  8
FUTO
 10
31783.80706280969
 20
33750.642999626398
 30
0.0
 11
31783.80706280969
 21
33747.304811048241
 31
0.0
  0
LINE
  5
4C6
  8
FUTO
 10
31783.80706280969
 20
33600.642999626398
 30
0.0
 11
31783.80706280969
 21
33603.981188204569
 31
0.0
  0
ARC
  5
4C7
  8
FUTO
 10
31787.807062809679
 20
33603.981188204569
 30
0.0
 40
4.0
 50
95.000000000000185
 51
180.0
  0
ARC
  5
4C8
  8
FUTO
 10
31848.30706280969
 20
33733.981188204569
 30
0.0
 40
4.0
 50
0.0
 51
85.000000000000256
  0
LINE
  5
4C9
  8
FUTO
 10
31858.80706280969
 20
33750.642999626398
 30
0.0
 11
31858.80706280969
 21
33600.642999626398
 31
0.0
  0
ARC
  5
4CA
  8
FUTO
 10
31848.30706280969
 20
33617.304811048241
 30
0.0
 40
4.0
 50
274.99999999999972
 51
0.0
  0
LINE
  5
4CB
  8
FUTO
 10
31852.30706280969
 20
33733.981188204569
 30
0.0
 11
31852.30706280969
 21
33617.304811048241
 31
0.0
  0
LINE
  5
4CC
  8
FUTO
 10
31848.655685780679
 20
33737.965966996941
 30
0.0
 11
31787.458439838701
 21
33743.32003225587
 31
0.0
  0
LINE
  5
4CD
  8
FUTO
 10
31858.80706280969
 20
33750.642999626398
 30
0.0
 11
31783.80706280969
 21
33750.642999626398
 31
0.0
  0
LINE
  5
4CE
  8
FUTO
 10
31848.655685780679
 20
33613.32003225587
 30
0.0
 11
31787.458439838701
 21
33607.965966996941
 31
0.0
  0
LINE
  5
4CF
  8
FUTO
 10
31858.80706280969
 20
33600.642999626398
 30
0.0
 11
31783.80706280969
 21
33600.642999626398
 31
0.0
  0
LINE
  5
4D0
  8
FUTO
 10
31858.80706280969
 20
33750.642999626398
 30
0.0
 11
31858.80706280969
 21
33600.642999626398
 31
0.0
  0
LINE
  5
4D1
  8
SL
 10
31594.803062809679
 20
34239.01681623239
 30
0.0
 11
31764.803062809689
 21
34239.01681623239
 31
0.0
  0
LINE
  5
4D4
  8
FUTO
 10
31884.30706280969
 20
33579.01681623239
 30
0.0
 11
31884.30706280969
 21
33503.016816232397
 31
0.0
  0
LINE
  5
4D5
  8
CT
 10
33115.803062809689
 20
33613.544799439602
 30
0.0
 11
33115.803062809689
 21
33439.338024535449
 31
0.0
  0
LINE
  5
4D6
  8
FUTO
 10
33159.303062809689
 20
33599.01681623239
 30
0.0
 11
33159.303062809689
 21
33588.01681623239
 31
0.0
  0
LINE
  5
4D7
  8
FUTO
 10
33154.303062809689
 20
33599.01681623239
 30
0.0
 11
33154.303062809689
 21
33594.01681623239
 31
0.0
  0
LINE
  5
4D8
  8
FUTO
 10
33072.303062809689
 20
33599.01681623239
 30
0.0
 11
33072.303062809689
 21
33588.01681623239
 31
0.0
  0
LINE
  5
4D9
  8
FUTO
 10
33077.303062809689
 20
33599.01681623239
 30
0.0
 11
33077.303062809689
 21
33594.01681623239
 31
0.0
  0
LINE
  5
4DA
  8
FUTO
 10
33154.303062809689
 20
33459.016816232397
 30
0.0
 11
33159.303062809689
 21
33459.016816232397
 31
0.0
  0
LINE
  5
4DB
  8
FUTO
 10
33073.803062809689
 20
33470.01681623239
 30
0.0
 11
33157.803062809689
 21
33470.01681623239
 31
0.0
  0
LINE
  5
4DC
  8
1
 10
33081.604062809682
 20
33310.642999626398
 30
0.0
 11
33156.604062809689
 21
33310.642999626398
 31
0.0
  0
LINE
  5
4DD
  8
FUTO
 10
33059.303062809689
 20
33588.01681623239
 30
0.0
 11
33172.303062809682
 21
33588.01681623239
 31
0.0
  0
LINE
  5
4DE
  8
FUTO
 10
33050.303062809682
 20
33503.016816232397
 30
0.0
 11
33181.303062809689
 21
33503.016816232397
 31
0.0
  0
LINE
  5
4DF
  8
FUTO
 10
33077.303062809689
 20
33464.01681623239
 30
0.0
 11
33077.303062809689
 21
33459.016816232397
 31
0.0
  0
LINE
  5
4E0
  8
FUTO
 10
33072.303062809689
 20
33470.179419066801
 30
0.0
 11
33072.303062809689
 21
33459.016816232397
 31
0.0
  0
LINE
  5
4E1
  8
FUTO
 10
33072.303062809689
 20
33459.016816232397
 30
0.0
 11
33077.303062809689
 21
33459.016816232397
 31
0.0
  0
LINE
  5
4E2
  8
FUTO
 10
33154.303062809689
 20
33464.016816232383
 30
0.0
 11
33154.303062809689
 21
33459.016816232397
 31
0.0
  0
LINE
  5
4E3
  8
FUTO
 10
33077.303062809689
 20
33464.01681623239
 30
0.0
 11
33154.303062809689
 21
33464.01681623239
 31
0.0
  0
LINE
  5
4E4
  8
FUTO
 10
33066.803062809689
 20
33503.016816232397
 30
0.0
 11
33066.803062809689
 21
33477.01681623239
 31
0.0
  0
ARC
  5
4E5
  8
FUTO
 10
33073.803062809689
 20
33477.01681623239
 30
0.0
 40
7.0
 50
179.99999999999989
 51
269.99999999999977
  0
ARC
  5
4E6
  8
FUTO
 10
33059.303062809689
 20
33579.01681623239
 30
0.0
 40
9.0
 50
89.999999999999915
 51
180.0
  0
LINE
  5
4E7
  8
FUTO
 10
33050.303062809682
 20
33579.01681623239
 30
0.0
 11
33050.303062809682
 21
33503.016816232397
 31
0.0
  0
LINE
  5
4E8
  8
FUTO
 10
33077.303062809689
 20
33594.01681623239
 30
0.0
 11
33154.303062809689
 21
33594.01681623239
 31
0.0
  0
LINE
  5
4E9
  8
FUTO
 10
33155.803062809689
 20
33310.642999626398
 30
0.0
 11
33080.803062809682
 21
33310.642999626398
 31
0.0
  0
LINE
  5
4EA
  8
FUTO
 10
33145.651685780671
 20
33323.320032255862
 30
0.0
 11
33084.454439838701
 21
33317.965966996941
 31
0.0
  0
LINE
  5
4EB
  8
FUTO
 10
33080.799062809689
 20
33310.642999626398
 30
0.0
 11
33155.799062809681
 21
33310.642999626398
 31
0.0
  0
LINE
  5
4EC
  8
FUTO
 10
33155.803062809689
 20
33460.642999626398
 30
0.0
 11
33080.803062809682
 21
33460.642999626398
 31
0.0
  0
LINE
  5
4ED
  8
FUTO
 10
33145.651685780671
 20
33447.965966996941
 30
0.0
 11
33084.454439838701
 21
33453.32003225587
 31
0.0
  0
ARC
  5
4EE
  8
FUTO
 10
33084.803062809682
 20
33313.981188204569
 30
0.0
 40
4.0
 50
95.000000000000185
 51
180.0
  0
LINE
  5
4EF
  8
FUTO
 10
33080.803062809682
 20
33310.642999626398
 30
0.0
 11
33080.803062809682
 21
33313.981188204569
 31
0.0
  0
LINE
  5
4F0
  8
FUTO
 10
33080.799062809689
 20
33310.642999626398
 30
0.0
 11
33080.799062809689
 21
33313.064999626411
 31
0.0
  0
LINE
  5
4F1
  8
FUTO
 10
33080.803062809682
 20
33460.642999626398
 30
0.0
 11
33080.803062809682
 21
33457.304811048241
 31
0.0
  0
ARC
  5
4F2
  8
FUTO
 10
33084.803062809682
 20
33457.304811048241
 30
0.0
 40
4.0
 50
180.0
 51
264.99999999999972
  0
LINE
  5
4F3
  8
FUTO
 10
33085.366062809677
 20
33318.045999626411
 30
0.0
 11
33140.170062809681
 21
33322.842999626402
 31
0.0
  0
LINE
  5
4F4
  8
FUTO
 10
33155.803062809689
 20
33460.642999626398
 30
0.0
 11
33155.803062809689
 21
33310.642999626398
 31
0.0
  0
LINE
  5
4F5
  8
FUTO
 10
33149.303062809682
 20
33443.981188204569
 30
0.0
 11
33149.303062809682
 21
33327.304811048241
 31
0.0
  0
LINE
  5
4F6
  8
FUTO
 10
33155.803062809689
 20
33460.642999626398
 30
0.0
 11
33155.803062809689
 21
33310.642999626398
 31
0.0
  0
ARC
  5
4F7
  8
FUTO
 10
33145.303062809689
 20
33327.304811048241
 30
0.0
 40
4.0
 50
275.0
 51
0.0
  0
ARC
  5
4F8
  8
FUTO
 10
33145.303062809689
 20
33443.981188204569
 30
0.0
 40
4.0
 50
0.0
 51
84.999999999999957
  0
ARC
  5
4F9
  8
FUTO
 10
33172.303062809682
 20
33579.01681623239
 30
0.0
 40
9.0
 50
0.0
 51
90.0
  0
LINE
  5
4FA
  8
FUTO
 10
33181.303062809689
 20
33579.01681623239
 30
0.0
 11
33181.303062809689
 21
33503.016816232397
 31
0.0
  0
LINE
  5
4FB
  8
FUTO
 10
33159.303062809689
 20
33470.179419066801
 30
0.0
 11
33159.303062809689
 21
33459.016816232397
 31
0.0
  0
LINE
  5
4FC
  8
FUTO
 10
33164.803062809682
 20
33503.016816232397
 30
0.0
 11
33164.803062809682
 21
33477.01681623239
 31
0.0
  0
ARC
  5
4FD
  8
FUTO
 10
33157.803062809689
 20
33477.01681623239
 30
0.0
 40
7.0
 50
270.00000000000011
 51
0.0000000000000254
  0
LINE
  5
4FE
  8
FUTO
 10
33154.303062809689
 20
33599.01681623239
 30
0.0
 11
33159.303062809689
 21
33599.01681623239
 31
0.0
  0
LINE
  5
4FF
  8
1
 10
33081.604062809682
 20
33600.642999626398
 30
0.0
 11
33156.604062809689
 21
33600.642999626398
 31
0.0
  0
LINE
  5
500
  8
FUTO
 10
33072.303062809689
 20
33599.01681623239
 30
0.0
 11
33077.303062809689
 21
33599.01681623239
 31
0.0
  0
LINE
  5
501
  8
FUTO
 10
33155.803062809689
 20
33750.642999626398
 30
0.0
 11
33080.803062809682
 21
33750.642999626398
 31
0.0
  0
LINE
  5
502
  8
FUTO
 10
33145.651685780671
 20
33737.965966996941
 30
0.0
 11
33084.454439838701
 21
33743.32003225587
 31
0.0
  0
ARC
  5
503
  8
FUTO
 10
33145.303062809689
 20
33733.981188204569
 30
0.0
 40
4.0
 50
0.0
 51
84.999999999999957
  0
LINE
  5
504
  8
FUTO
 10
33080.803062809682
 20
33750.642999626398
 30
0.0
 11
33080.803062809682
 21
33747.304811048241
 31
0.0
  0
ARC
  5
505
  8
FUTO
 10
33084.803062809682
 20
33747.304811048241
 30
0.0
 40
4.0
 50
180.0
 51
264.99999999999972
  0
LINE
  5
506
  8
FUTO
 10
33155.803062809689
 20
33600.642999626398
 30
0.0
 11
33080.803062809682
 21
33600.642999626398
 31
0.0
  0
LINE
  5
507
  8
FUTO
 10
33145.651685780671
 20
33613.32003225587
 30
0.0
 11
33084.454439838701
 21
33607.965966996941
 31
0.0
  0
ARC
  5
508
  8
FUTO
 10
33145.303062809689
 20
33617.304811048241
 30
0.0
 40
4.0
 50
275.0
 51
0.0
  0
ARC
  5
509
  8
FUTO
 10
33084.803062809682
 20
33603.981188204569
 30
0.0
 40
4.0
 50
95.000000000000185
 51
180.0
  0
LINE
  5
50A
  8
FUTO
 10
33080.803062809682
 20
33600.642999626398
 30
0.0
 11
33080.803062809682
 21
33603.981188204569
 31
0.0
  0
LINE
  5
50B
  8
FUTO
 10
33080.799062809689
 20
33600.642999626398
 30
0.0
 11
33080.799062809689
 21
33603.064999626411
 31
0.0
  0
LINE
  5
50C
  8
FUTO
 10
33085.366062809677
 20
33608.045999626411
 30
0.0
 11
33140.170062809681
 21
33612.842999626402
 31
0.0
  0
LINE
  5
50D
  8
FUTO
 10
33080.799062809689
 20
33600.642999626398
 30
0.0
 11
33155.799062809681
 21
33600.642999626398
 31
0.0
  0
LINE
  5
50E
  8
FUTO
 10
33155.803062809689
 20
33750.642999626398
 30
0.0
 11
33155.803062809689
 21
33600.642999626398
 31
0.0
  0
LINE
  5
50F
  8
FUTO
 10
33149.303062809682
 20
33733.981188204569
 30
0.0
 11
33149.303062809682
 21
33617.304811048241
 31
0.0
  0
LINE
  5
510
  8
FUTO
 10
33155.803062809689
 20
33750.642999626398
 30
0.0
 11
33155.803062809689
 21
33600.642999626398
 31
0.0
  0
DIMENSION
  5
517
  8
SP
  2
*D17
 10
34633.803062809682
 20
32871.162386862088
 30
0.0
 11
34264.303062809682
 21
32951.162386862088
 31
0.0
 70
     0
 13
33894.803062809689
 23
33289.715947632467
 33
0.0
 14
34633.803062809682
 24
33310.642999626398
 34
0.0
1001
ACAD
1000
DSTYLE
1002
{
1070
   287
1070
     4
1070
    40
1040
40.0
1070
    75
1070
     1
1070
   279
1070
     1
1070
   289
1070
     3
1002
}
  0
LINE
  5
525
  8
FUTO
 10
34560.303062809689
 20
33599.01681623239
 30
0.0
 11
34560.303062809689
 21
33594.01681623239
 31
0.0
  0
LINE
  5
526
  8
FUTO
 10
34555.303062809689
 20
33599.01681623239
 30
0.0
 11
34555.303062809689
 21
33588.01681623239
 31
0.0
  0
LINE
  5
527
  8
FUTO
 10
34637.303062809689
 20
33599.01681623239
 30
0.0
 11
34637.303062809689
 21
33594.01681623239
 31
0.0
  0
LINE
  5
528
  8
FUTO
 10
34642.303062809689
 20
33599.01681623239
 30
0.0
 11
34642.303062809689
 21
33588.01681623239
 31
0.0
  0
LINE
  5
529
  8
CT
 10
34598.803062809689
 20
33613.544799439602
 30
0.0
 11
34598.803062809689
 21
33439.338024535449
 31
0.0
  0
ARC
  5
52A
  8
FUTO
 10
34640.803062809689
 20
33477.01681623239
 30
0.0
 40
7.0
 50
270.00000000000011
 51
0.0000000000000254
  0
LINE
  5
52B
  8
FUTO
 10
34533.303062809689
 20
33503.016816232397
 30
0.0
 11
34664.303062809682
 21
33503.016816232397
 31
0.0
  0
LINE
  5
52C
  8
FUTO
 10
34542.303062809682
 20
33588.01681623239
 30
0.0
 11
34655.303062809689
 21
33588.01681623239
 31
0.0
  0
LINE
  5
52D
  8
FUTO
 10
34560.303062809689
 20
33594.01681623239
 30
0.0
 11
34637.303062809689
 21
33594.01681623239
 31
0.0
  0
LINE
  5
52E
  8
FUTO
 10
34533.303062809689
 20
33579.01681623239
 30
0.0
 11
34533.303062809689
 21
33503.016816232397
 31
0.0
  0
ARC
  5
52F
  8
FUTO
 10
34542.303062809682
 20
33579.01681623239
 30
0.0
 40
9.0
 50
89.999999999999915
 51
180.0
  0
ARC
  5
530
  8
FUTO
 10
34556.803062809689
 20
33477.01681623239
 30
0.0
 40
7.0
 50
179.99999999999989
 51
269.99999999999977
  0
LINE
  5
531
  8
FUTO
 10
34549.803062809682
 20
33503.016816232397
 30
0.0
 11
34549.803062809682
 21
33477.01681623239
 31
0.0
  0
LINE
  5
532
  8
FUTO
 10
34556.803062809689
 20
33470.01681623239
 30
0.0
 11
34640.803062809689
 21
33470.01681623239
 31
0.0
  0
LINE
  5
533
  8
FUTO
 10
34560.303062809689
 20
33464.01681623239
 30
0.0
 11
34637.303062809689
 21
33464.01681623239
 31
0.0
  0
LINE
  5
534
  8
FUTO
 10
34642.303062809689
 20
33470.179419066801
 30
0.0
 11
34642.303062809689
 21
33459.016816232397
 31
0.0
  0
LINE
  5
535
  8
FUTO
 10
34637.303062809689
 20
33459.016816232397
 30
0.0
 11
34642.303062809689
 21
33459.016816232397
 31
0.0
  0
LINE
  5
536
  8
FUTO
 10
34637.303062809689
 20
33464.016816232383
 30
0.0
 11
34637.303062809689
 21
33459.016816232397
 31
0.0
  0
LINE
  5
537
  8
FUTO
 10
34555.303062809689
 20
33459.016816232397
 30
0.0
 11
34560.303062809689
 21
33459.016816232397
 31
0.0
  0
LINE
  5
538
  8
FUTO
 10
34555.303062809689
 20
33470.179419066801
 30
0.0
 11
34555.303062809689
 21
33459.016816232397
 31
0.0
  0
LINE
  5
539
  8
FUTO
 10
34560.303062809689
 20
33464.01681623239
 30
0.0
 11
34560.303062809689
 21
33459.016816232397
 31
0.0
  0
LINE
  5
53A
  8
FUTO
 10
34633.803062809682
 20
33310.642999626398
 30
0.0
 11
34558.803062809689
 21
33310.642999626398
 31
0.0
  0
LINE
  5
53B
  8
FUTO
 10
34629.236062809687
 20
33318.045999626411
 30
0.0
 11
34574.43206280969
 21
33322.842999626402
 31
0.0
  0
LINE
  5
53C
  8
1
 10
34632.998062809689
 20
33310.642999626398
 30
0.0
 11
34557.998062809682
 21
33310.642999626398
 31
0.0
  0
LINE
  5
53D
  8
FUTO
 10
34568.9504398387
 20
33323.320032255862
 30
0.0
 11
34630.147685780677
 21
33317.965966996941
 31
0.0
  0
LINE
  5
53E
  8
FUTO
 10
34558.799062809681
 20
33310.642999626398
 30
0.0
 11
34633.799062809689
 21
33310.642999626398
 31
0.0
  0
LINE
  5
53F
  8
FUTO
 10
34568.9504398387
 20
33447.965966996941
 30
0.0
 11
34630.147685780677
 21
33453.32003225587
 31
0.0
  0
LINE
  5
540
  8
FUTO
 10
34558.799062809681
 20
33460.642999626398
 30
0.0
 11
34633.799062809689
 21
33460.642999626398
 31
0.0
1001
ACAD
1000
ASC_BOUNDS
1002
{
1070
    19
1005
0
1002
}
  0
LINE
  5
541
  8
FUTO
 10
34558.799062809681
 20
33460.642999626398
 30
0.0
 11
34558.799062809681
 21
33310.642999626398
 31
0.0
  0
LINE
  5
542
  8
FUTO
 10
34565.299062809689
 20
33443.981188204569
 30
0.0
 11
34565.299062809689
 21
33327.304811048241
 31
0.0
  0
LINE
  5
543
  8
FUTO
 10
34558.799062809681
 20
33460.642999626398
 30
0.0
 11
34558.799062809681
 21
33310.642999626398
 31
0.0
  0
ARC
  5
544
  8
FUTO
 10
34569.299062809689
 20
33327.304811048241
 30
0.0
 40
4.0
 50
180.0
 51
264.99999999999989
  0
ARC
  5
545
  8
FUTO
 10
34569.299062809689
 20
33443.981188204569
 30
0.0
 40
4.0
 50
95.000000000000057
 51
180.0
  0
LINE
  5
546
  8
FUTO
 10
34633.803062809682
 20
33310.642999626398
 30
0.0
 11
34633.803062809682
 21
33313.064999626411
 31
0.0
  0
LINE
  5
547
  8
FUTO
 10
34633.799062809689
 20
33310.642999626398
 30
0.0
 11
34633.799062809689
 21
33313.981188204569
 31
0.0
  0
ARC
  5
548
  8
FUTO
 10
34629.799062809689
 20
33313.981188204569
 30
0.0
 40
4.0
 50
0.0
 51
84.999999999999801
  0
ARC
  5
549
  8
FUTO
 10
34629.799062809689
 20
33457.304811048241
 30
0.0
 40
4.0
 50
275.00000000000011
 51
0.0
  0
LINE
  5
54A
  8
FUTO
 10
34633.799062809689
 20
33460.642999626398
 30
0.0
 11
34633.799062809689
 21
33457.304811048241
 31
0.0
  0
LINE
  5
54B
  8
FUTO
 10
34664.303062809682
 20
33579.01681623239
 30
0.0
 11
34664.303062809682
 21
33503.016816232397
 31
0.0
  0
ARC
  5
54C
  8
FUTO
 10
34655.303062809689
 20
33579.01681623239
 30
0.0
 40
9.0
 50
0.0
 51
90.0
  0
LINE
  5
54D
  8
FUTO
 10
34647.803062809689
 20
33503.016816232397
 30
0.0
 11
34647.803062809689
 21
33477.01681623239
 31
0.0
  0
LINE
  5
551
  8
FUTO
 10
34555.303062809689
 20
33599.01681623239
 30
0.0
 11
34560.303062809689
 21
33599.01681623239
 31
0.0
  0
LINE
  5
552
  8
FUTO
 10
34637.303062809689
 20
33599.01681623239
 30
0.0
 11
34642.303062809689
 21
33599.01681623239
 31
0.0
  0
LINE
  5
554
  8
FUTO
 10
34633.803062809682
 20
33600.642999626398
 30
0.0
 11
34558.803062809689
 21
33600.642999626398
 31
0.0
  0
LINE
  5
555
  8
FUTO
 10
34629.236062809687
 20
33608.045999626411
 30
0.0
 11
34574.43206280969
 21
33612.842999626402
 31
0.0
  0
LINE
  5
556
  8
FUTO
 10
34633.803062809682
 20
33600.642999626398
 30
0.0
 11
34633.803062809682
 21
33603.064999626411
 31
0.0
  0
LINE
  5
557
  8
1
 10
34632.998062809689
 20
33600.642999626398
 30
0.0
 11
34557.998062809682
 21
33600.642999626398
 31
0.0
  0
ARC
  5
558
  8
FUTO
 10
34629.799062809689
 20
33747.304811048241
 30
0.0
 40
4.0
 50
275.00000000000011
 51
0.0
  0
LINE
  5
559
  8
FUTO
 10
34633.799062809689
 20
33750.642999626398
 30
0.0
 11
34633.799062809689
 21
33747.304811048241
 31
0.0
  0
LINE
  5
55A
  8
FUTO
 10
34633.799062809689
 20
33600.642999626398
 30
0.0
 11
34633.799062809689
 21
33603.981188204569
 31
0.0
  0
ARC
  5
55B
  8
FUTO
 10
34629.799062809689
 20
33603.981188204569
 30
0.0
 40
4.0
 50
0.0
 51
84.999999999999801
  0
ARC
  5
55C
  8
FUTO
 10
34569.299062809689
 20
33733.981188204569
 30
0.0
 40
4.0
 50
95.000000000000057
 51
180.0
  0
LINE
  5
55D
  8
FUTO
 10
34558.799062809681
 20
33750.642999626398
 30
0.0
 11
34558.799062809681
 21
33600.642999626398
 31
0.0
  0
ARC
  5
55E
  8
FUTO
 10
34569.299062809689
 20
33617.304811048241
 30
0.0
 40
4.0
 50
180.0
 51
264.99999999999989
  0
LINE
  5
55F
  8
FUTO
 10
34565.299062809689
 20
33733.981188204569
 30
0.0
 11
34565.299062809689
 21
33617.304811048241
 31
0.0
  0
LINE
  5
560
  8
FUTO
 10
34568.9504398387
 20
33737.965966996941
 30
0.0
 11
34630.147685780677
 21
33743.32003225587
 31
0.0
  0
LINE
  5
561
  8
FUTO
 10
34558.799062809681
 20
33750.642999626398
 30
0.0
 11
34633.799062809689
 21
33750.642999626398
 31
0.0
  0
LINE
  5
562
  8
FUTO
 10
34568.9504398387
 20
33613.32003225587
 30
0.0
 11
34630.147685780677
 21
33607.965966996941
 31
0.0
  0
LINE
  5
563
  8
FUTO
 10
34558.799062809681
 20
33600.642999626398
 30
0.0
 11
34633.799062809689
 21
33600.642999626398
 31
0.0
  0
LINE
  5
564
  8
FUTO
 10
34558.799062809681
 20
33750.642999626398
 30
0.0
 11
34558.799062809681
 21
33600.642999626398
 31
0.0
  0
LINE
  5
56B
  8
KL
 10
34558.003062809687
 20
34843.01681623239
 30
0.0
 11
34648.003062809679
 21
34843.01681623239
 31
0.0
  0
LINE
  5
56C
  8
KL
 10
34558.003062809687
 20
34849.01681623239
 30
0.0
 11
34689.803062809689
 21
34849.01681623239
 31
0.0
  0
LINE
  5
56D
  8
HOSO
 10
34515.469053198773
 20
34809.01681623239
 30
0.0
 11
34589.576668347028
 21
34809.01681623239
 31
0.0
  0
LINE
  5
56E
  8
KL
 10
34558.003062809687
 20
34784.01681623239
 30
0.0
 11
34564.003062809679
 21
34784.01681623239
 31
0.0
  0
LINE
  5
56F
  8
FUTO
 10
34648.003062809679
 20
34843.01681623239
 30
0.0
 11
34689.803062809689
 21
34843.01681623239
 31
0.0
  0
LINE
  5
570
  8
FUTO
 10
34683.803062809689
 20
34784.01681623239
 30
0.0
 11
34689.803062809689
 21
34784.01681623239
 31
0.0
  0
LINE
  5
571
  8
HOSO
 10
34656.320516623658
 20
34809.01681623239
 30
0.0
 11
34730.428131771929
 21
34809.01681623239
 31
0.0
  0
LINE
  5
600
  8
FUTO
 10
33166.603062809692
 20
35740.016816232397
 30
0.0
 11
34623.003062809679
 21
35740.016816232397
 31
0.0
  0
LINE
  5
601
  8
FUTO
 10
33166.603062809692
 20
35758.01681623239
 30
0.0
 11
34623.003062809679
 21
35758.01681623239
 31
0.0
  0
LINE
  5
61E
  8
CT
 10
31392.876941124901
 20
35749.01681623239
 30
0.0
 11
34888.798365981907
 21
35749.01681623239
 31
0.0
  0
LINE
  5
623
  8
FUTO
 10
32000.303062809679
 20
35853.01681623239
 30
0.0
 11
31867.303062809689
 21
35853.01681623239
 31
0.0
  0
LINE
  5
624
  8
FUTO
 10
31867.303062809689
 20
35645.01681623239
 30
0.0
 11
31878.803062809689
 21
35645.01681623239
 31
0.0
  0
ARC
  5
625
  8
FUTO
 10
31884.803062809689
 20
35667.01681623239
 30
0.0
 40
6.0
 50
90.0
 51
180.0
  0
LINE
  5
626
  8
FUTO
 10
31843.803062809689
 20
35627.01681623239
 30
0.0
 11
32023.803062809689
 21
35627.01681623239
 31
0.0
  0
ARC
  5
628
  8
FUTO
 10
31867.303062809689
 20
35847.01681623239
 30
0.0
 40
6.0
 50
90.0
 51
180.0
  0
LINE
  5
62A
  8
FUTO
 10
31861.303062809679
 20
35839.016816232397
 30
0.0
 11
31856.303062809689
 21
35839.016816232397
 31
0.0
  0
ARC
  5
62B
  8
FUTO
 10
31867.303062809689
 20
35651.01681623239
 30
0.0
 40
6.0
 50
180.0
 51
270.0
  0
LINE
  5
62C
  8
FUTO
 10
31856.303062809689
 20
35659.01681623239
 30
0.0
 11
31861.303062809679
 21
35659.01681623239
 31
0.0
  0
LINE
  5
62D
  8
FUTO
 10
31861.303062809679
 20
35847.01681623239
 30
0.0
 11
31861.303062809679
 21
35651.01681623239
 31
0.0
  0
LINE
  5
62E
  8
FUTO
 10
31856.303062809689
 20
35839.016816232397
 30
0.0
 11
31856.303062809689
 21
35659.01681623239
 31
0.0
  0
LINE
  5
62F
  8
FUTO
 10
31764.803062809689
 20
35701.51681623239
 30
0.0
 11
31856.303062809689
 21
35701.51681623239
 31
0.0
  0
LINE
  5
630
  8
FUTO
 10
31764.803062809689
 20
35796.51681623239
 30
0.0
 11
31856.303062809689
 21
35796.51681623239
 31
0.0
  0
LINE
  5
631
  8
SL
 10
31594.803062809679
 20
36029.01681623239
 30
0.0
 11
31764.803062809689
 21
36029.01681623239
 31
0.0
  0
LINE
  5
632
  8
FUTO
 10
31444.803062809689
 20
36129.01681623239
 30
0.0
 11
31794.803062809679
 21
36129.01681623239
 31
0.0
  0
LINE
  5
636
  8
FUTO
 10
33231.603062809692
 20
35817.716816232387
 30
0.0
 11
33231.603062809692
 21
37035.838200888807
 31
0.0
  0
LINE
  5
637
  8
FUTO
 10
33234.803062809689
 20
35817.716816232387
 30
0.0
 11
33234.803062809689
 21
37035.838200888807
 31
0.0
  0
LINE
  5
638
  8
FUTO
 10
33166.603062809678
 20
37035.838200888807
 30
0.0
 11
33166.603062809678
 21
35740.01681623239
 31
0.0
  0
LINE
  5
63B
  8
SL
 10
32814.314684135759
 20
35965.091486042649
 30
0.0
 11
32048.93672733807
 21
35965.091486042649
 31
0.0
  0
LINE
  5
63D
  8
FUTO
 10
32844.803062809689
 20
35589.01681623239
 30
0.0
 11
32023.803062809689
 21
35589.01681623239
 31
0.0
  0
LINE
  5
63E
  8
FUTO
 10
32011.303062809689
 20
35696.51681623239
 30
0.0
 11
32841.303062809689
 21
35696.51681623239
 31
0.0
  0
LINE
  5
63F
  8
FUTO
 10
32011.303062809689
 20
35801.51681623239
 30
0.0
 11
32841.303062809689
 21
35801.51681623239
 31
0.0
  0
LINE
  5
640
  8
SL
 10
32048.93672733807
 20
35965.091486042649
 30
0.0
 11
32048.93672733807
 21
35589.01681623239
 31
0.0
  0
LINE
  5
641
  8
CT
 10
31933.803062809679
 20
35930.082730652022
 30
0.0
 11
31933.803062809679
 21
35540.082562706601
 31
0.0
  0
ARC
  5
642
  8
FUTO
 10
32000.303062809679
 20
35847.01681623239
 30
0.0
 40
6.0
 50
0.0
 51
90.0
  0
LINE
  5
643
  8
FUTO
 10
31988.803062809679
 20
35853.01681623239
 30
0.0
 11
31988.803062809679
 21
35627.01681623239
 31
0.0
  0
LINE
  5
644
  8
FUTO
 10
31878.803062809689
 20
35853.01681623239
 30
0.0
 11
31878.803062809689
 21
35627.01681623239
 31
0.0
  0
LINE
  5
645
  8
CT
 10
31933.803062809679
 20
35872.785575397102
 30
0.0
 11
31933.803062809679
 21
35619.193092330272
 31
0.0
  0
LINE
  5
646
  8
FUTO
 10
32006.303062809679
 20
35839.016816232397
 30
0.0
 11
32011.303062809689
 21
35839.016816232397
 31
0.0
  0
LINE
  5
647
  8
FUTO
 10
32011.303062809689
 20
35659.01681623239
 30
0.0
 11
32006.303062809679
 21
35659.01681623239
 31
0.0
  0
ARC
  5
648
  8
FUTO
 10
32000.303062809679
 20
35651.01681623239
 30
0.0
 40
6.0
 50
270.0
 51
0.0
  0
LINE
  5
649
  8
FUTO
 10
32000.303062809679
 20
35645.01681623239
 30
0.0
 11
31988.803062809679
 21
35645.01681623239
 31
0.0
  0
ARC
  5
64A
  8
FUTO
 10
31982.803062809689
 20
35667.01681623239
 30
0.0
 40
6.0
 50
0.0
 51
90.0
  0
LINE
  5
64B
  8
FUTO
 10
32011.303062809689
 20
35839.016816232397
 30
0.0
 11
32011.303062809689
 21
35659.01681623239
 31
0.0
  0
LINE
  5
64C
  8
FUTO
 10
32006.303062809679
 20
35847.01681623239
 30
0.0
 11
32006.303062809679
 21
35651.01681623239
 31
0.0
  0
LINE
  5
64D
  8
FUTO
 10
31878.803062809689
 20
35637.016816232397
 30
0.0
 11
31988.803062809679
 21
35637.016816232397
 31
0.0
  0
LINE
  5
64E
  8
FUTO
 10
31982.803062809689
 20
35673.01681623239
 30
0.0
 11
31884.803062809689
 21
35673.01681623239
 31
0.0
  0
LINE
  5
653
  8
SL
 10
32814.314684135759
 20
35965.091486042649
 30
0.0
 11
32814.314684135759
 21
35589.01681623239
 31
0.0
  0
LINE
  5
654
  8
CT
 10
32934.803062809689
 20
35957.78764431263
 30
0.0
 11
32934.803062809689
 21
35508.115340545039
 31
0.0
  0
LINE
  5
655
  8
FUTO
 10
33013.303062809689
 20
35856.51681623239
 30
0.0
 11
33028.303062809689
 21
35833.01681623239
 31
0.0
  0
LINE
  5
656
  8
FUTO
 10
33001.303062809689
 20
35879.016816232397
 30
0.0
 11
33001.303062809689
 21
35664.016816232397
 31
0.0
  0
LINE
  5
657
  8
FUTO
 10
33001.303062809689
 20
35654.01681623239
 30
0.0
 11
33001.303062809689
 21
35879.016753038013
 31
0.0
  0
LINE
  5
658
  8
FUTO
 10
33013.303062809689
 20
35619.01681623239
 30
0.0
 11
33013.303062809689
 21
35879.016816232397
 31
0.0
  0
LINE
  5
659
  8
FUTO
 10
32841.303062809689
 20
35833.01681623239
 30
0.0
 11
32856.303062809689
 21
35856.51681623239
 31
0.0
  0
LINE
  5
65A
  8
FUTO
 10
32868.303062809689
 20
35879.016816232397
 30
0.0
 11
32868.303062809689
 21
35664.016816232397
 31
0.0
  0
LINE
  5
65B
  8
CT
 10
32934.803062809689
 20
35913.178395898598
 30
0.0
 11
32934.803062809689
 21
35571.308773054501
 31
0.0
  0
LINE
  5
65C
  8
FUTO
 10
32856.303062809689
 20
35879.016816232397
 30
0.0
 11
32856.303062809689
 21
35619.01681623239
 31
0.0
  0
LINE
  5
662
  8
FUTO
 10
33166.603062809678
 20
35740.01681623239
 30
0.0
 11
33141.603062809678
 21
35723.997660926638
 31
0.0
  0
LINE
  5
664
  8
FUTO
 10
33024.803062809689
 20
35599.016816232397
 30
0.0
 11
32844.803062809689
 21
35599.016816232397
 31
0.0
  0
LINE
  5
665
  8
FUTO
 10
33009.803062809689
 20
35609.01681623239
 30
0.0
 11
32859.803062809682
 21
35609.01681623239
 31
0.0
  0
LINE
  5
666
  8
FUTO
 10
32859.803062809682
 20
35664.016816232397
 30
0.0
 11
33009.803062809689
 21
35664.016816232397
 31
0.0
  0
LINE
  5
667
  8
FUTO
 10
32841.303062809689
 20
35665.01681623239
 30
0.0
 11
32841.303062809689
 21
35833.01681623239
 31
0.0
  0
LINE
  5
668
  8
FUTO
 10
32856.303062809689
 20
35619.01681623239
 30
0.0
 11
32859.803062809682
 21
35619.01681623239
 31
0.0
  0
LINE
  5
669
  8
CT
 10
32884.803062809689
 20
35574.061723881139
 30
0.0
 11
32884.803062809689
 21
35694.83424900291
 31
0.0
  0
LINE
  5
66A
  8
FUTO
 10
32859.803062809682
 20
35599.016816232397
 30
0.0
 11
32859.803062809682
 21
35664.016816232397
 31
0.0
  0
LINE
  5
66B
  8
FUTO
 10
32856.303062809689
 20
35641.51681623239
 30
0.0
 11
32841.303062809689
 21
35665.01681623239
 31
0.0
  0
LINE
  5
66C
  8
FUTO
 10
33028.303062809689
 20
35801.51681623239
 30
0.0
 11
33166.603062809678
 21
35801.51681623239
 31
0.0
  0
LINE
  5
66E
  8
FUTO
 10
33028.303062809689
 20
35696.51681623239
 30
0.0
 11
33141.603062809692
 21
35696.51681623239
 31
0.0
  0
LINE
  5
67F
  8
CT
 10
33046.193401046017
 20
35749.01681623239
 30
0.0
 11
33155.536022921922
 21
35749.01681623239
 31
0.0
  0
LINE
  5
69D
  8
FUTO
 10
33028.303062809689
 20
35833.01681623239
 30
0.0
 11
33028.303062809689
 21
35665.01681623239
 31
0.0
  0
LINE
  5
69E
  8
FUTO
 10
33009.803062809689
 20
35619.01681623239
 30
0.0
 11
33013.303062809689
 21
35619.01681623239
 31
0.0
  0
LINE
  5
69F
  8
FUTO
 10
33009.803062809689
 20
35664.016816232397
 30
0.0
 11
33009.803062809689
 21
35599.016816232397
 31
0.0
  0
LINE
  5
6A0
  8
FUTO
 10
33028.303062809689
 20
35665.01681623239
 30
0.0
 11
33013.303062809689
 21
35641.51681623239
 31
0.0
  0
LINE
  5
6A1
  8
CT
 10
32984.803062809689
 20
35574.061723881139
 30
0.0
 11
32984.803062809689
 21
35694.83424900291
 31
0.0
  0
LINE
  5
6AC
  8
FUTO
 10
32996.303062809689
 20
35897.01681623239
 30
0.0
 11
32873.303062809682
 21
35897.01681623239
 31
0.0
  0
LINE
  5
6AD
  8
FUTO
 10
32873.303062809682
 20
35897.01681623239
 30
0.0
 11
32873.303062809682
 21
35879.016816232397
 31
0.0
  0
LINE
  5
6AE
  8
FUTO
 10
32873.303062809682
 20
35879.016816232397
 30
0.0
 11
32856.303062809689
 21
35879.016816232397
 31
0.0
  0
LINE
  5
6B7
  8
FUTO
 10
33013.303062809689
 20
35879.016816232397
 30
0.0
 11
32996.303062809689
 21
35879.016816232397
 31
0.0
  0
LINE
  5
6B8
  8
FUTO
 10
32996.303062809689
 20
35879.016816232397
 30
0.0
 11
32996.303062809689
 21
35897.01681623239
 31
0.0
  0
LINE
  5
6BC
  8
FUTO
 10
33231.603062809692
 20
36694.216816232387
 30
0.0
 11
33231.603062809692
 21
37035.838200888807
 31
0.0
  0
DIMENSION
  5
6CD
  8
SP
  2
*D18
 10
34689.803062809689
 20
37522.347114927252
 30
0.0
 11
34223.665437853793
 21
37522.347114927252
 31
0.0
 70
   128
 13
33894.803062809689
 23
37554.289454291633
 33
0.0
 14
34689.803062809689
 24
36714.01681623239
 34
0.0
1001
ACAD
1000
DSTYLE
1002
{
1070
    40
1040
40.0
1002
}
  0
LINE
  5
6E1
  8
FUTO
 10
34554.803062809689
 20
35817.716816232387
 30
0.0
 11
34554.803062809689
 21
37035.838200888807
 31
0.0
  0
LINE
  5
6E2
  8
FUTO
 10
34558.003062809687
 20
35817.716816232387
 30
0.0
 11
34558.003062809687
 21
37035.838200888807
 31
0.0
  0
LINE
  5
6E3
  8
FUTO
 10
34623.00306281013
 20
37035.838200888807
 30
0.0
 11
34623.003062809679
 21
35740.016816232397
 31
0.0
  0
LINE
  5
701
  8
FUTO
 10
34623.003062809723
 20
35740.016816232361
 30
0.0
 11
34648.003062809723
 21
35723.99766092663
 31
0.0
  0
INSERT
  5
702
  8
FUTO
  2
まっすぐの矢印
 10
34885.276215380189
 20
36234.563119081497
 30
0.0
 41
2.0
 42
2.0
 43
2.0
 50
90.0
  0
LINE
  5
704
  8
FUTO
 10
34623.003062809679
 20
36655.01681623239
 30
0.0
 11
34689.803062809689
 21
36655.01681623239
 31
0.0
  0
LINE
  5
705
  8
KL
 10
34558.003062809687
 20
36649.016816232397
 30
0.0
 11
34689.803062809689
 21
36649.016816232397
 31
0.0
  0
LINE
  5
706
  8
HOSO
 10
34529.065093001693
 20
36689.016816232397
 30
0.0
 11
34588.895441831759
 21
36689.016816232397
 31
0.0
  0
LINE
  5
707
  8
KL
 10
34564.003062809679
 20
36714.01681623239
 30
0.0
 11
34558.003062809687
 21
36714.01681623239
 31
0.0
  0
LINE
  5
708
  8
KL
 10
34558.003062809687
 20
36655.01681623239
 30
0.0
 11
34623.003062809679
 21
36655.01681623239
 31
0.0
  0
LINE
  5
709
  8
FUTO
 10
34683.803062809689
 20
36714.01681623239
 30
0.0
 11
34689.803062809689
 21
36714.01681623239
 31
0.0
  0
LINE
  5
70A
  8
HOSO
 10
34657.135286249999
 20
36689.016816232397
 30
0.0
 11
34716.965635080072
 21
36689.016816232397
 31
0.0
  0
LINE
  5
88D
  8
CT
 10
30534.262777187789
 20
40619.731744443066
 30
0.0
 11
27201.993174140582
 21
40619.731744443066
 31
0.0
  0
LINE
  5
88E
  8
FUTO
 10
27689.227617849501
 20
39890.731744443059
 30
0.0
 11
27689.227617849501
 21
41348.731744443059
 31
0.0
  0
LINE
  5
89C
  8
FUTO
 10
27754.227617849501
 20
39890.731744443059
 30
0.0
 11
27689.227617849501
 21
39890.731744443059
 31
0.0
  0
LINE
  5
89D
  8
FUTO
 10
27754.227617849501
 20
39890.731744443059
 30
0.0
 11
27754.227617849501
 21
41348.731744443059
 31
0.0
  0
LINE
  5
89E
  8
FUTO
 10
27754.227617849501
 20
41348.731744443059
 30
0.0
 11
27689.227617849501
 21
41348.731744443059
 31
0.0
  0
LINE
  5
89F
  8
FUTO
 10
30408.227617849501
 20
41283.731744443059
 30
0.0
 11
30408.227617849501
 21
39955.731744443066
 31
0.0
  0
LINE
  5
8A0
  8
FUTO
 10
30458.227617849501
 20
41333.731744443059
 30
0.0
 11
27754.227617849501
 21
41333.731744443059
 31
0.0
  0
LINE
  5
8A1
  8
FUTO
 10
30458.227617849501
 20
41333.731744443059
 30
0.0
 11
30458.227617849501
 21
39905.731744443066
 31
0.0
  0
LINE
  5
8A2
  8
FUTO
 10
30458.227617849501
 20
39905.731744443066
 30
0.0
 11
27754.227617849501
 21
39905.731744443066
 31
0.0
  0
LINE
  5
8A3
  8
FUTO
 10
30408.227617849501
 20
39955.731744443066
 30
0.0
 11
29554.227617849501
 21
39955.731744443059
 31
0.0
  0
LINE
  5
8A4
  8
FUTO
 10
29914.227617849501
 20
41333.731744443059
 30
0.0
 11
29914.227617849501
 21
41358.731744443066
 31
0.0
  0
LINE
  5
8A5
  8
FUTO
 10
27794.227617849501
 20
41333.731744443059
 30
0.0
 11
27794.227617849501
 21
41358.731744443066
 31
0.0
  0
LINE
  5
132F
  8
FUTO
 10
28474.227617849501
 20
38169.731744443059
 30
0.0
 11
30634.227617849501
 21
38169.731744443059
 31
0.0
  0
LINE
  5
1330
  8
FUTO
 10
28474.227617849501
 20
38519.731744443059
 30
0.0
 11
30634.227617849501
 21
38519.731744443059
 31
0.0
  0
LINE
  5
1336
  8
SL
 10
28574.227617849501
 20
38319.731744443059
 30
0.0
 11
30554.227617849501
 21
38319.731744443066
 31
0.0
  0
LINE
  5
1337
  8
SL
 10
28574.227617849501
 20
38489.731744443059
 30
0.0
 11
30554.227617849501
 21
38489.731744443059
 31
0.0
  0
LINE
  5
1338
  8
CT
 10
28854.227617849501
 20
38117.805622758278
 30
0.0
 11
28854.227617849501
 21
41613.727047615292
 31
0.0
  0
LINE
  5
1342
  8
FUTO
 10
28750.227617849501
 20
38592.231744443059
 30
0.0
 11
28750.227617849501
 21
38603.731744443059
 31
0.0
  0
LINE
  5
1343
  8
FUTO
 10
28958.227617849501
 20
38725.231744443059
 30
0.0
 11
28958.227617849501
 21
38592.231744443059
 31
0.0
  0
ARC
  5
1344
  8
FUTO
 10
28952.227617849501
 20
38592.231744443059
 30
0.0
 40
6.0
 50
270.0
 51
0.000000000000007
  0
LINE
  5
1345
  8
SL
 10
29134.227617849501
 20
38319.731744443059
 30
0.0
 11
29134.227617849501
 21
38489.731744443059
 31
0.0
  0
LINE
  5
1346
  8
FUTO
 10
28901.727617849501
 20
38489.731744443059
 30
0.0
 11
28901.727617849501
 21
38581.231744443059
 31
0.0
  0
LINE
  5
1347
  8
FUTO
 10
28806.727617849501
 20
38489.731744443059
 30
0.0
 11
28806.727617849501
 21
38581.231744443059
 31
0.0
  0
LINE
  5
1348
  8
FUTO
 10
28944.227617849501
 20
38581.231744443059
 30
0.0
 11
28764.22761784949
 21
38581.231744443059
 31
0.0
  0
LINE
  5
1349
  8
FUTO
 10
28952.227617849501
 20
38586.231744443059
 30
0.0
 11
28756.227617849501
 21
38586.231744443059
 31
0.0
  0
LINE
  5
134A
  8
FUTO
 10
28764.22761784949
 20
38581.231744443059
 30
0.0
 11
28764.22761784949
 21
38586.231744443059
 31
0.0
  0
ARC
  5
134B
  8
FUTO
 10
28756.227617849501
 20
38592.231744443059
 30
0.0
 40
6.0
 50
180.0
 51
270.0
  0
LINE
  5
134C
  8
FUTO
 10
28944.227617849501
 20
38586.231744443059
 30
0.0
 11
28944.227617849501
 21
38581.231744443059
 31
0.0
  0
LINE
  5
1353
  8
FUTO
 10
28906.727617849501
 20
38736.231744443059
 30
0.0
 11
28906.727617849501
 21
39566.231744443059
 31
0.0
  0
LINE
  5
1354
  8
FUTO
 10
28801.727617849501
 20
38736.231744443059
 30
0.0
 11
28801.727617849501
 21
39566.231744443059
 31
0.0
  0
LINE
  5
1357
  8
CT
 10
28977.996377014209
 20
38658.731744443059
 30
0.0
 11
28724.403893947368
 21
38658.731744443059
 31
0.0
  0
LINE
  5
1358
  8
FUTO
 10
28958.227617849501
 20
38603.731744443059
 30
0.0
 11
28750.227617849501
 21
38603.731744443059
 31
0.0
  0
LINE
  5
1359
  8
FUTO
 10
28958.227617849501
 20
38713.731744443059
 30
0.0
 11
28750.227617849501
 21
38713.731744443059
 31
0.0
  0
ARC
  5
135A
  8
FUTO
 10
28952.227617849501
 20
38725.231744443059
 30
0.0
 40
6.0
 50
0.000000000000007
 51
90.0
  0
LINE
  5
135B
  8
CT
 10
29035.29353226913
 20
38658.731744443059
 30
0.0
 11
28645.293364323708
 21
38658.731744443059
 31
0.0
  0
LINE
  5
135F
  8
FUTO
 10
28952.227617849501
 20
38731.231744443059
 30
0.0
 11
28756.227617849501
 21
38731.231744443059
 31
0.0
  0
LINE
  5
1360
  8
FUTO
 10
28944.227617849501
 20
38736.231744443059
 30
0.0
 11
28764.22761784949
 21
38736.231744443059
 31
0.0
  0
LINE
  5
1362
  8
FUTO
 10
28750.227617849501
 20
38725.231744443059
 30
0.0
 11
28750.227617849501
 21
38713.731744443059
 31
0.0
  0
ARC
  5
1363
  8
FUTO
 10
28756.227617849501
 20
38725.231744443059
 30
0.0
 40
6.0
 50
90.0
 51
180.0
  0
LINE
  5
1364
  8
FUTO
 10
28764.22761784949
 20
38736.231744443059
 30
0.0
 11
28764.22761784949
 21
38731.231744443059
 31
0.0
  0
LINE
  5
1365
  8
FUTO
 10
28944.227617849501
 20
38731.231744443059
 30
0.0
 11
28944.227617849501
 21
38736.231744443059
 31
0.0
  0
LINE
  5
136A
  8
FUTO
 10
28984.227617849501
 20
39581.231744443059
 30
0.0
 11
28724.227617849501
 21
39581.231744443059
 31
0.0
  0
LINE
  5
136B
  8
CT
 10
29018.389197515698
 20
39659.731744443059
 30
0.0
 11
28676.519574671609
 21
39659.731744443059
 31
0.0
  0
LINE
  5
136C
  8
FUTO
 10
28984.227617849501
 20
39593.231744443066
 30
0.0
 11
28724.227617849501
 21
39593.231744443066
 31
0.0
  0
LINE
  5
136D
  8
FUTO
 10
28938.227617849501
 20
39566.231744443059
 30
0.0
 11
28961.727617849501
 21
39581.231744443059
 31
0.0
  0
LINE
  5
136E
  8
FUTO
 10
28724.227617849501
 20
39738.231744443059
 30
0.0
 11
28984.227617849501
 21
39738.231744443059
 31
0.0
  0
LINE
  5
136F
  8
FUTO
 10
28724.227617849501
 20
39726.231744443059
 30
0.0
 11
28984.227554655121
 21
39726.231744443059
 31
0.0
  0
LINE
  5
1370
  8
FUTO
 10
28984.227617849501
 20
39726.231744443059
 30
0.0
 11
28769.227617849501
 21
39726.231744443059
 31
0.0
  0
LINE
  5
1371
  8
FUTO
 10
28961.727617849501
 20
39738.231744443059
 30
0.0
 11
28938.227617849501
 21
39753.231744443066
 31
0.0
  0
LINE
  5
1372
  8
CT
 10
29062.998445929741
 20
39659.731744443059
 30
0.0
 11
28613.32614216215
 21
39659.731744443059
 31
0.0
  0
LINE
  5
137E
  8
FUTO
 10
28746.727617849501
 20
39581.231744443059
 30
0.0
 11
28770.227617849501
 21
39566.231744443059
 31
0.0
  0
LINE
  5
1381
  8
FUTO
 10
28724.227617849501
 20
39581.231744443059
 30
0.0
 11
28724.227617849501
 21
39584.731744443059
 31
0.0
  0
LINE
  5
1382
  8
FUTO
 10
28770.227617849501
 20
39566.231744443059
 30
0.0
 11
28938.227617849501
 21
39566.231744443059
 31
0.0
  0
LINE
  5
1384
  8
FUTO
 10
28770.227617849501
 20
39753.231744443066
 30
0.0
 11
28746.727617849501
 21
39738.231744443059
 31
0.0
  0
LINE
  5
1386
  8
FUTO
 10
28724.227617849501
 20
39734.731744443059
 30
0.0
 11
28724.227617849501
 21
39738.231744443059
 31
0.0
  0
LINE
  5
1387
  8
FUTO
 10
28938.227617849501
 20
39753.231744443066
 30
0.0
 11
28770.227617849501
 21
39753.231744443066
 31
0.0
  0
LINE
  5
13A3
  8
CT
 10
28854.227617849501
 20
39771.122082679402
 30
0.0
 11
28854.227617849501
 21
39880.464704555299
 31
0.0
  0
LINE
  5
13B2
  8
FUTO
 10
28801.727617849501
 20
39753.231744443066
 30
0.0
 11
28801.727617849501
 21
39905.731744443066
 31
0.0
  0
LINE
  5
13B4
  8
FUTO
 10
28906.727617849501
 20
39753.231744443066
 30
0.0
 11
28906.727617849501
 21
39905.731744443066
 31
0.0
  0
LINE
  5
13BE
  8
FUTO
 10
29002.227617849501
 20
39721.231744443059
 30
0.0
 11
29002.227617849501
 21
39598.231744443059
 31
0.0
  0
LINE
  5
13BF
  8
FUTO
 10
28984.227617849501
 20
39598.231744443059
 30
0.0
 11
28984.227617849501
 21
39581.231744443059
 31
0.0
  0
LINE
  5
13C0
  8
FUTO
 10
29002.227617849501
 20
39598.231744443059
 30
0.0
 11
28984.227617849501
 21
39598.231744443059
 31
0.0
  0
LINE
  5
13C1
  8
FUTO
 10
28984.227617849501
 20
39721.231744443059
 30
0.0
 11
29002.227617849501
 21
39721.231744443059
 31
0.0
  0
LINE
  5
13C2
  8
FUTO
 10
28984.227617849501
 20
39738.231744443059
 30
0.0
 11
28984.227617849501
 21
39721.231744443059
 31
0.0
  0
LINE
  5
13E1
  8
FUTO
 10
28474.227617849501
 20
38169.731744443059
 30
0.0
 11
28474.227617849501
 21
38519.731744443059
 31
0.0
  0
LINE
  5
13E2
  8
SL
 10
28574.227617849501
 20
38319.731744443059
 30
0.0
 11
28574.227617849501
 21
38489.731744443059
 31
0.0
  0
DIMENSION
  5
1417
  8
SP
  2
*D5
 10
33894.803062809689
 20
37522.347114927252
 30
0.0
 11
32669.803062809689
 21
37633.775686355817
 31
0.0
 70
     0
  1
(<>)
 13
31444.803062809689
 23
36129.01681623239
 33
0.0
 14
33894.803062809689
 24
37050.971308222543
 34
0.0
1001
ACAD
1000
DSTYLE
1002
{
1070
    40
1040
40.0
1002
}
  0
LINE
  5
1453
  8
FUTO
 10
28750.227617849501
 20
38725.231744443059
 30
0.0
 11
28750.227617849501
 21
38592.231744443059
 31
0.0
  0
LINE
  5
1454
  8
FUTO
 10
28706.227617849501
 20
39721.231744443059
 30
0.0
 11
28706.227617849501
 21
39598.231744443059
 31
0.0
  0
LINE
  5
1455
  8
FUTO
 10
28706.227617849501
 20
39598.231744443059
 30
0.0
 11
28724.227617849501
 21
39598.231744443059
 31
0.0
  0
LINE
  5
1456
  8
FUTO
 10
28724.227617849501
 20
39598.231744443059
 30
0.0
 11
28724.227617849501
 21
39581.231744443059
 31
0.0
  0
LINE
  5
1457
  8
FUTO
 10
28724.227617849501
 20
39738.231744443059
 30
0.0
 11
28724.227617849501
 21
39721.231744443059
 31
0.0
  0
LINE
  5
1458
  8
FUTO
 10
28724.227617849501
 20
39721.231744443059
 30
0.0
 11
28706.227617849501
 21
39721.231744443059
 31
0.0
  0
LINE
  5
1698
  8
FUTO
 10
31833.303062809689
 20
33819.01681623239
 30
0.0
 11
31833.303062809689
 21
33749.01681623426
 31
0.0
  0
LINE
  5
1699
  8
FUTO
 10
32533.303062809689
 20
33819.01681623239
 30
0.0
 11
32533.303062809689
 21
33749.016816234289
 31
0.0
  0
LINE
  5
169A
  8
FUTO
 10
32328.303062809679
 20
33819.01681623239
 30
0.0
 11
31833.303062809689
 21
33819.01681623239
 31
0.0
  0
LINE
  5
169B
  8
FUTO
 10
31833.303062809689
 20
33819.01681623239
 30
0.0
 11
32533.303062809689
 21
33819.01681623239
 31
0.0
  0
LINE
  5
16AB
  8
FUTO
 10
31769.803062809679
 20
34199.01681623239
 30
0.0
 11
31769.803062809679
 21
33999.01681623239
 31
0.0
  0
LINE
  5
16AC
  8
FUTO
 10
33003.803062809689
 20
34359.01681623239
 30
0.0
 11
33003.803062809689
 21
33880.867878150311
 31
0.0
  0
LINE
  5
16AD
  8
FUTO
 10
31789.803062809689
 20
34409.01681623239
 30
0.0
 11
31789.803062809689
 21
33832.79009276021
 31
0.0
  0
LINE
  5
16AE
  8
FUTO
 10
31868.803062809679
 20
34409.01681623239
 30
0.0
 11
31868.803062809679
 21
33832.79009276021
 31
0.0
  0
LINE
  5
16AF
  8
FUTO
 10
32753.803062809689
 20
34409.01681623239
 30
0.0
 11
32753.803062809689
 21
33830.867878150311
 31
0.0
  0
LINE
  5
16B0
  8
CT
 10
32183.303062809679
 20
34445.656184219028
 30
0.0
 11
32183.303062809679
 21
33727.068289215313
 31
0.0
  0
LINE
  5
16B1
  8
FUTO
 10
32328.303062809679
 20
33819.01681623239
 30
0.0
 11
32448.303062809679
 21
33819.01681623239
 31
0.0
  0
LINE
  5
16B2
  8
FUTO
 10
31918.303062809679
 20
33849.01681623239
 30
0.0
 11
32448.303062809679
 21
33849.01681623239
 31
0.0
  0
LINE
  5
16B3
  8
FUTO
 10
32753.803062809689
 20
33830.867878150311
 30
0.0
 11
32953.803062809689
 21
33830.867878150311
 31
0.0
  0
ARC
  5
16B4
  8
FUTO
 10
32953.803062809689
 20
33880.867878150311
 30
0.0
 40
50.0
 50
270.0
 51
0.0
  0
LINE
  5
16B5
  8
FUTO
 10
32448.303062809679
 20
33830.867878150311
 30
0.0
 11
32733.477844811521
 21
33830.867878150311
 31
0.0
  0
LINE
  5
16B6
  8
FUTO
 10
32753.803062809689
 20
33842.401165809759
 30
0.0
 11
32733.477844811528
 21
33830.867878150311
 31
0.0
  0
LINE
  5
16B7
  8
CT
 10
32411.803062809679
 20
33873.007567991328
 30
0.0
 11
32411.803062809679
 21
33802.534525908857
 31
0.0
  0
LINE
  5
16B8
  8
FUTO
 10
32448.303062809679
 20
33849.01681623239
 30
0.0
 11
32448.303062809679
 21
33819.01681623239
 31
0.0
  0
LINE
  5
16B9
  8
FUTO
 10
32328.303062809679
 20
33830.867878150311
 30
0.0
 11
32038.303062809679
 21
33830.867878150311
 31
0.0
  0
LINE
  5
16BA
  8
FUTO
 10
32328.303062809679
 20
33830.867878150311
 30
0.0
 11
32328.303062809679
 21
33819.01681623239
 31
0.0
  0
LINE
  5
16BB
  8
FUTO
 10
31918.303062809679
 20
33849.01681623239
 30
0.0
 11
31918.303062809679
 21
33819.01681623239
 31
0.0
  0
LINE
  5
16BC
  8
CT
 10
31954.803062809679
 20
33873.007567991328
 30
0.0
 11
31954.803062809679
 21
33802.534525908857
 31
0.0
  0
LINE
  5
16BD
  8
FUTO
 10
31918.303062809679
 20
33832.79009276021
 30
0.0
 11
31789.803062809689
 21
33832.79009276021
 31
0.0
  0
LINE
  5
16BE
  8
FUTO
 10
32038.303062809679
 20
33830.867878150311
 30
0.0
 11
32038.303062809679
 21
33819.01681623239
 31
0.0
  0
LINE
  5
16BF
  8
FUTO
 10
31918.303062809679
 20
33819.01681623239
 30
0.0
 11
32038.303062809679
 21
33819.01681623239
 31
0.0
  0
LINE
  5
16C0
  8
FUTO
 10
31789.803062809689
 20
33999.01681623239
 30
0.0
 11
31769.803062809679
 21
33999.01681623239
 31
0.0
  0
LINE
  5
16C1
  8
FUTO
 10
32732.408236644122
 20
34409.01681623239
 30
0.0
 11
31789.803062809689
 21
34409.01681623239
 31
0.0
  0
LINE
  5
16C2
  8
CT
 10
33040.445828274118
 20
34099.01681623239
 30
0.0
 11
31568.6542319703
 21
34099.01681623239
 31
0.0
  0
LINE
  5
16C3
  8
FUTO
 10
32953.803062809689
 20
34409.01681623239
 30
0.0
 11
32753.803062809689
 21
34409.01681623239
 31
0.0
  0
ARC
  5
16C4
  8
FUTO
 10
32953.803062809689
 20
34359.01681623239
 30
0.0
 40
50.0
 50
0.0
 51
90.0
  0
LINE
  5
16C5
  8
FUTO
 10
32753.803062809689
 20
34384.46568580364
 30
0.0
 11
32732.408236644122
 21
34409.01681623239
 31
0.0
  0
LINE
  5
16C6
  8
FUTO
 10
31769.803062809679
 20
34141.516816232397
 30
0.0
 11
31594.803062809679
 21
34141.516816232397
 31
0.0
  0
LINE
  5
16C7
  8
FUTO
 10
31769.803062809679
 20
34056.51681623239
 30
0.0
 11
31594.803062809679
 21
34056.51681623239
 31
0.0
  0
LINE
  5
16C8
  8
CT
 10
31978.803062809689
 20
34732.386530196891
 30
0.0
 11
31978.803062809689
 21
34333.5269986411
 31
0.0
  0
LINE
  5
16C9
  8
FUTO
 10
31789.803062809689
 20
34199.01681623239
 30
0.0
 11
31769.803062809679
 21
34199.01681623239
 31
0.0
  0
LINE
  5
16CA
  8
FUTO
 10
32078.803062809689
 20
34689.01681623239
 30
0.0
 11
31878.803062809689
 21
34689.01681623239
 31
0.0
  0
LINE
  5
16CB
  8
FUTO
 10
32078.803062809689
 20
34424.01681623239
 30
0.0
 11
31878.803062809689
 21
34424.01681623239
 31
0.0
  0
LINE
  5
16CC
  8
CT
 10
32142.668989996069
 20
34549.016816232397
 30
0.0
 11
31840.532800611549
 21
34549.016816232397
 31
0.0
  0
LINE
  5
16CD
  8
FUTO
 10
32098.803062809689
 20
34669.016816232397
 30
0.0
 11
32098.803062809689
 21
34444.01681623239
 31
0.0
  0
ARC
  5
16CE
  8
FUTO
 10
32078.803062809689
 20
34444.01681623239
 30
0.0
 40
20.0
 50
270.0
 51
0.0
  0
ARC
  5
16CF
  8
FUTO
 10
32078.803062809689
 20
34669.016816232397
 30
0.0
 40
20.0
 50
0.0
 51
90.0
  0
LINE
  5
16D0
  8
FUTO
 10
31858.803062809689
 20
34669.016816232397
 30
0.0
 11
31858.803062809689
 21
34444.01681623239
 31
0.0
  0
ARC
  5
16D1
  8
FUTO
 10
31878.803062809689
 20
34444.01681623239
 30
0.0
 40
20.0
 50
180.0
 51
270.0
  0
ARC
  5
16D2
  8
FUTO
 10
31878.803062809689
 20
34669.016816232397
 30
0.0
 40
20.0
 50
90.0
 51
180.0
  0
LINE
  5
16D3
  8
FUTO
 10
31764.803062809689
 20
34141.516816232397
 30
0.0
 11
31764.803062809689
 21
34056.51681623239
 31
0.0
  0
LINE
  5
16D4
  8
FUTO
 10
31594.803062809679
 20
34141.516816232397
 30
0.0
 11
31594.803062809679
 21
34056.51681623239
 31
0.0
  0
LINE
  5
17EE
  8
FUTO
 10
30044.227617849541
 20
39457.336918277513
 30
0.0
 11
30044.227617849509
 21
38514.731744443088
 31
0.0
  0
LINE
  5
17EF
  8
CT
 10
30354.227617849559
 20
39765.374509907502
 30
0.0
 11
30354.227617849501
 21
38293.582913603677
 31
0.0
  0
LINE
  5
17F0
  8
FUTO
 10
30664.227617849541
 20
39457.336918277491
 30
0.0
 11
30664.227617849501
 21
38514.731744443059
 31
0.0
  0
LINE
  5
17F1
  8
FUTO
 10
30144.227617849509
 20
38583.731744443081
 30
0.0
 11
30534.227617849509
 21
38583.731744443059
 31
0.0
  0
LINE
  5
17F2
  8
CT
 10
30562.54047722683
 20
38703.731744443059
 30
0.0
 11
30099.557838212309
 21
38703.731744443081
 31
0.0
  0
LINE
  5
17F3
  8
CT
 10
30700.866985836161
 20
38908.231744443059
 30
0.0
 11
29982.279090832439
 21
38908.231744443081
 31
0.0
  0
LINE
  5
17F4
  8
FUTO
 10
30664.227617849501
 20
38514.731744443059
 30
0.0
 11
30044.227617849509
 21
38514.731744443088
 31
0.0
  0
LINE
  5
17F5
  8
FUTO
 10
30454.227617849501
 20
38494.731744443066
 30
0.0
 11
30254.227617849501
 21
38494.731744443081
 31
0.0
  0
LINE
  5
17F6
  8
FUTO
 10
30144.227617849519
 20
38823.731744443081
 30
0.0
 11
30534.227617849519
 21
38823.731744443059
 31
0.0
  0
LINE
  5
17F7
  8
FUTO
 10
30723.572006692419
 20
38558.231744443059
 30
0.0
 11
30723.572006692451
 21
39258.231744443052
 31
0.0
  0
LINE
  5
17F8
  8
FUTO
 10
30554.227617849519
 20
38803.731744443059
 30
0.0
 11
30554.227617849509
 21
38703.731744443059
 31
0.0
  0
LINE
  5
17F9
  8
CT
 10
30354.227617849421
 20
38148.280788272983
 30
0.0
 11
30354.227617850011
 21
39406.687184389157
 31
0.0
  0
LINE
  5
17FA
  8
FUTO
 10
30664.227617849509
 20
38558.231744443059
 30
0.0
 11
30723.572006692419
 21
38558.231744443059
 31
0.0
  0
LINE
  5
17FE
  8
FUTO
 10
30311.727617849501
 20
38494.731744443066
 30
0.0
 11
30311.727617849501
 21
38319.731744443066
 31
0.0
  0
LINE
  5
17FF
  8
FUTO
 10
30396.727617849509
 20
38494.731744443066
 30
0.0
 11
30396.727617849501
 21
38319.731744443066
 31
0.0
  0
LINE
  5
1802
  8
FUTO
 10
30396.727617849501
 20
38319.731744443066
 30
0.0
 11
30311.727617849501
 21
38319.731744443066
 31
0.0
  0
ARC
  5
1804
  8
FUTO
 10
30534.227617849509
 20
38603.731744443059
 30
0.0
 40
20.0
 50
270.0
 51
0.000000000000007
  0
LINE
  5
1805
  8
FUTO
 10
30554.227617849509
 20
38603.731744443059
 30
0.0
 11
30554.227617849509
 21
38703.731744443059
 31
0.0
  0
LINE
  5
1806
  8
FUTO
 10
30664.227617849509
 20
38593.731744443059
 30
0.0
 11
30551.548125925201
 21
38593.731744443059
 31
0.0
  0
LINE
  5
1807
  8
FUTO
 10
30396.727617849509
 20
38489.731744443066
 30
0.0
 11
30311.727617849501
 21
38489.731744443066
 31
0.0
  0
LINE
  5
1808
  8
FUTO
 10
30454.227617849501
 20
38514.731744443066
 30
0.0
 11
30454.227617849501
 21
38494.731744443059
 31
0.0
  0
LINE
  5
1809
  8
FUTO
 10
30664.22761784953
 20
39258.231744443052
 30
0.0
 11
30723.572006692451
 21
39258.231744443052
 31
0.0
  0
ARC
  5
180A
  8
FUTO
 10
30534.227617849519
 20
38803.731744443059
 30
0.0
 40
20.0
 50
0.000000000000007
 51
90.0
  0
LINE
  5
180B
  8
FUTO
 10
29984.883229006598
 20
38558.231744443088
 30
0.0
 11
29984.88322900662
 21
39258.231744443088
 31
0.0
  0
LINE
  5
180C
  8
FUTO
 10
30124.227617849519
 20
38803.731744443081
 30
0.0
 11
30124.227617849509
 21
38703.731744443081
 31
0.0
  0
LINE
  5
180F
  8
FUTO
 10
30126.90710977382
 20
38593.731744443081
 30
0.0
 11
30044.227617849509
 21
38593.731744443081
 31
0.0
  0
LINE
  5
1810
  8
CT
 10
30079.656062895308
 20
38679.731744443081
 30
0.0
 11
30009.18302081283
 21
38679.731744443081
 31
0.0
  0
ARC
  5
1811
  8
FUTO
 10
30144.227617849509
 20
38603.731744443081
 30
0.0
 40
20.0
 50
180.0
 51
270.0
  0
LINE
  5
1812
  8
FUTO
 10
30124.227617849509
 20
38603.731744443081
 30
0.0
 11
30124.227617849509
 21
38703.731744443081
 31
0.0
  0
LINE
  5
1813
  8
FUTO
 10
30254.227617849501
 20
38514.731744443081
 30
0.0
 11
30254.227617849501
 21
38494.731744443081
 31
0.0
  0
LINE
  5
1814
  8
FUTO
 10
30044.227617849509
 20
38558.231744443088
 30
0.0
 11
29984.883229006598
 21
38558.231744443088
 31
0.0
  0
ARC
  5
1815
  8
FUTO
 10
30144.227617849519
 20
38803.731744443081
 30
0.0
 40
20.0
 50
90.0
 51
180.0
  0
LINE
  5
1816
  8
CT
 10
30079.65606289533
 20
39136.731744443081
 30
0.0
 11
30009.183020812859
 21
39136.731744443081
 31
0.0
  0
LINE
  5
1817
  8
FUTO
 10
30044.22761784953
 20
39258.231744443088
 30
0.0
 11
29984.88322900662
 21
39258.231744443088
 31
0.0
  0
LINE
  5
181A
  8
FUTO
 10
30664.227617849541
 20
39478.731744443052
 30
0.0
 11
30044.227617849541
 21
39478.731744443088
 31
0.0
  0
LINE
  5
181B
  8
FUTO
 10
30614.227617849559
 20
39728.731744443059
 30
0.0
 11
30094.227617849559
 21
39728.731744443081
 31
0.0
  0
LINE
  5
181F
  8
FUTO
 10
30639.676487420791
 20
39478.731744443066
 30
0.0
 11
30664.227617849541
 21
39457.336918277491
 31
0.0
  0
ARC
  5
1820
  8
FUTO
 10
30614.227617849549
 20
39678.731744443059
 30
0.0
 40
50.0
 50
0.000000000000007
 51
90.0
  0
LINE
  5
1821
  8
FUTO
 10
30664.227617849549
 20
39678.731744443059
 30
0.0
 11
30664.227617849541
 21
39478.731744443052
 31
0.0
  0
ARC
  5
1824
  8
FUTO
 10
30094.227617849549
 20
39678.731744443081
 30
0.0
 40
50.0
 50
90.0
 51
180.0
  0
LINE
  5
1825
  8
FUTO
 10
30068.778748278291
 20
39478.731744443081
 30
0.0
 11
30044.227617849541
 21
39457.336918277513
 31
0.0
  0
LINE
  5
1826
  8
FUTO
 10
30044.227617849549
 20
39678.731744443088
 30
0.0
 11
30044.227617849541
 21
39478.731744443088
 31
0.0
  0
LINE
  5
1827
  8
FUTO
 10
30794.227617849501
 20
38583.731744443059
 30
0.0
 11
30794.227617849501
 21
38508.731744443059
 31
0.0
  0
LINE
  5
1828
  8
FUTO
 10
30618.10753229434
 20
39880.731744443066
 30
0.0
 11
30618.10753229434
 21
39728.580979782237
 31
0.0
  0
LINE
  5
1829
  8
FUTO
 10
30090.347703404841
 20
39880.73174444319
 30
0.0
 11
30090.347703404768
 21
39728.580979782368
 31
0.0
  0
LINE
  5
182A
  8
FUTO
 10
30165.347703404841
 20
39880.731744443146
 30
0.0
 11
30165.347703404768
 21
39728.731744443146
 31
0.0
  0
LINE
  5
182B
  8
SL
 10
30554.227617849501
 20
38319.731744443066
 30
0.0
 11
30554.227617849501
 21
38489.731744443059
 31
0.0
  0
LINE
  5
182D
  8
FUTO
 10
30634.227617849501
 20
38169.731744443059
 30
0.0
 11
30634.227617849501
 21
38519.731744443059
 31
0.0
  0
LINE
  5
182F
  8
FUTO
 10
28512.179192025451
 20
38583.731744443059
 30
0.0
 11
28512.179192025451
 21
39905.731744443066
 31
0.0
  0
LINE
  5
1830
  8
FUTO
 10
29196.276043673541
 20
38583.731744443059
 30
0.0
 11
29196.276043673541
 21
39905.731744443066
 31
0.0
  0
LINE
  5
1832
  8
FUTO
 10
29819.227617849501
 20
41414.731744443059
 30
0.0
 11
27889.227617849501
 21
41414.731744443059
 31
0.0
  0
LINE
  5
1833
  8
FUTO
 10
29819.227617849501
 20
41408.731744443066
 30
0.0
 11
27889.227617849501
 21
41408.731744443066
 31
0.0
  0
LINE
  5
1834
  8
KL
 10
29819.227617849501
 20
41288.931744443064
 30
0.0
 11
27889.227617849501
 21
41288.931744443071
 31
0.0
  0
LINE
  5
1839
  8
KL
 10
27954.227617849501
 20
41282.931744443071
 30
0.0
 11
27954.227617849501
 21
41414.731744443059
 31
0.0
  0
LINE
  5
183A
  8
KL
 10
27948.227617849501
 20
41282.931744443071
 30
0.0
 11
27948.227617849501
 21
41372.931744443071
 31
0.0
  0
LINE
  5
183B
  8
KL
 10
27889.227617849501
 20
41282.931744443071
 30
0.0
 11
27889.227617849501
 21
41288.931744443071
 31
0.0
  0
LINE
  5
183C
  8
HOSO
 10
27914.227617849501
 20
41240.39773483215
 30
0.0
 11
27914.227617849501
 21
41314.50534998042
 31
0.0
  0
LINE
  5
183D
  8
HOSO
 10
27914.227617849501
 20
41381.249198257043
 30
0.0
 11
27914.227617849501
 21
41455.356813405298
 31
0.0
  0
LINE
  5
183E
  8
FUTO
 10
27889.227617849501
 20
41408.731744443066
 30
0.0
 11
27889.227617849501
 21
41414.731744443059
 31
0.0
  0
LINE
  5
183F
  8
FUTO
 10
27948.227617849501
 20
41372.931744443071
 30
0.0
 11
27948.227617849501
 21
41414.731744443059
 31
0.0
  0
INSERT
  5
185B
  8
FUTO
  2
まっすぐの矢印
 10
29339.773920698612
 20
41610.20489701358
 30
0.0
 41
-2.0
 42
2.0
 43
2.0
 50
180.0
  0
LINE
  5
185D
  8
KL
 10
29754.227617849501
 20
41282.931744443071
 30
0.0
 11
29754.227617849501
 21
41414.731744443059
 31
0.0
  0
LINE
  5
185E
  8
FUTO
 10
29760.227617849501
 20
41347.931744443071
 30
0.0
 11
29760.227617849501
 21
41414.731744443059
 31
0.0
  0
LINE
  5
185F
  8
KL
 10
29760.227617849501
 20
41282.931744443071
 30
0.0
 11
29760.227617849501
 21
41347.931744443071
 31
0.0
  0
LINE
  5
1860
  8
KL
 10
29819.227617849501
 20
41288.931744443064
 30
0.0
 11
29819.227617849501
 21
41282.931744443071
 31
0.0
  0
LINE
  5
1861
  8
HOSO
 10
29794.227617849501
 20
41253.993774635077
 30
0.0
 11
29794.227617849501
 21
41313.82412346515
 31
0.0
  0
LINE
  5
1862
  8
HOSO
 10
29794.227617849501
 20
41382.063967883383
 30
0.0
 11
29794.227617849501
 21
41441.894316713449
 31
0.0
  0
LINE
  5
1863
  8
FUTO
 10
29819.227617849501
 20
41408.731744443066
 30
0.0
 11
29819.227617849501
 21
41414.731744443059
 31
0.0
  0
LINE
  5
188F
  8
FUTO
 10
28375.39371951059
 20
35784.080985691697
 30
0.0
 11
27715.50531014103
 21
35842.64010220777
 31
0.0
  0
LINE
  5
1890
  8
FUTO
 10
28376.984103014402
 20
35802.010589153877
 30
0.0
 11
27713.095649437972
 21
35860.924515765699
 31
0.0
  0
LINE
  5
1891
  8
KL
 10
29665.110307112522
 20
35759.643016232389
 30
0.0
 11
29054.227617849501
 21
35759.643016232389
 31
0.0
  0
LINE
  5
1892
  8
KL
 10
29690.19981815364
 20
35741.643016232389
 30
0.0
 11
29054.227617849501
 21
35741.643016232389
 31
0.0
  0
LINE
  5
1893
  8
KL
 10
29904.227617849501
 20
34802.27017742327
 30
0.0
 11
29904.227617849501
 21
34133.891501282087
 31
0.0
  0
LINE
  5
1894
  8
KL
 10
29895.227617849501
 20
34805.953567403951
 30
0.0
 11
29895.227617849501
 21
34142.161790052858
 31
0.0
  0
LINE
  5
1895
  8
FUTO
 10
29913.227617849501
 20
35741.643016232389
 30
0.0
 11
29913.227617849501
 21
35147.044910451194
 31
0.0
  0
LINE
  5
1896
  8
FUTO
 10
29904.227617849501
 20
35588.092778118429
 30
0.0
 11
29904.227617849501
 21
35170.821074991109
 31
0.0
  0
LINE
  5
1897
  8
FUTO
 10
29895.227617849501
 20
35594.549659630968
 30
0.0
 11
29895.227617849501
 21
35170.821074991109
 31
0.0
  0
DIMENSION
  5
1909
  8
SP
  2
*D7
 10
27689.227617849501
 20
41872.60567592601
 30
0.0
 11
28271.727617849501
 21
41952.60567592601
 31
0.0
 70
     0
 13
28854.227617849501
 23
41613.727047615292
 33
0.0
 14
27689.227617849501
 24
41348.731744443059
 34
0.0
 50
180.0
1001
ACAD
1000
DSTYLE
1002
{
1070
    40
1040
40.0
1002
}
  0
DIMENSION
  5
1916
  8
SP
  2
*D8
 10
30794.227617849501
 20
41872.60567592601
 30
0.0
 11
29824.227617849501
 21
41952.60567592601
 31
0.0
 70
     0
 13
28854.227617849501
 23
41872.60567592601
 33
0.0
 14
30794.227617849501
 24
39955.731744443059
 34
0.0
 50
180.0
1001
ACAD
1000
DSTYLE
1002
{
1070
    40
1040
40.0
1002
}
  0
DIMENSION
  5
1923
  8
SP
  2
*D9
 10
27269.241352359379
 20
40619.731744443066
 30
0.0
 11
27189.241352359379
 21
41017.231744443066
 31
0.0
 70
     0
 13
27889.227617849501
 23
41414.731744443059
 33
0.0
 14
27201.993174140582
 24
40619.731744443066
 34
0.0
 50
90.0
1001
ACAD
1000
DSTYLE
1002
{
1070
    40
1040
40.0
1002
}
  0
DIMENSION
  5
1930
  8
SP
  2
*D10
 10
27269.241352359379
 20
38169.731744443059
 30
0.0
 11
27189.241352359379
 21
39394.731744443066
 31
0.0
 70
     0
 13
27269.241352359379
 23
40619.731744443066
 33
0.0
 14
28474.227617849501
 24
38169.731744443059
 34
0.0
 50
90.0
1001
ACAD
1000
DSTYLE
1002
{
1070
    40
1040
40.0
1002
}
  0
LINE
  5
19B8
  8
KL
 10
31843.803062809689
 20
34409.01681623239
 30
0.0
 11
31843.803062809689
 21
33750.642999626398
 31
0.0
  0
LINE
  5
1A4E
  8
FUTO
 10
28154.227617849501
 20
33764.807910770811
 30
0.0
 11
28478.291817525591
 21
35452.193231453071
 31
0.0
  0
LINE
  5
1A4F
  8
SL
 10
30511.209125035712
 20
34224.565598522888
 30
0.0
 11
29132.86979310503
 21
35970.605599798022
 31
0.0
  0
LINE
  5
1A50
  8
SL
 10
30215.948976424981
 20
33956.14728160404
 30
0.0
 11
28608.78302932097
 21
35494.163087267058
 31
0.0
  0
LINE
  5
1A51
  8
FUTO
 10
30577.468750666088
 20
34269.650106671717
 30
0.0
 11
29236.926702677942
 21
36040.369456985522
 31
0.0
  0
LINE
  5
1A52
  8
FUTO
 10
30164.77230705402
 20
33894.471521569838
 30
0.0
 11
28529.447085057262
 21
35397.206168239449
 31
0.0
  0
LINE
  5
1A53
  8
KL
 10
29913.227617849501
 20
35147.044910451194
 30
0.0
 11
29913.227617849501
 21
34421.080400230552
 31
0.0
  0
LINE
  5
1A54
  8
KL
 10
29904.227617849501
 20
35170.821074991109
 30
0.0
 11
29904.227617849501
 21
34802.27017742327
 31
0.0
  0
LINE
  5
1A55
  8
KL
 10
29895.227617849501
 20
35170.821074991109
 30
0.0
 11
29895.227617849501
 21
34805.953567403951
 31
0.0
  0
LINE
  5
1A56
  8
FUTO
 10
29554.227617849501
 20
33764.807910770811
 30
0.0
 11
29393.149810970139
 21
34603.531617639972
 31
0.0
  0
LINE
  5
1A57
  8
KL
 10
28478.291817525591
 20
35452.193231453071
 30
0.0
 11
28512.179192025451
 21
35628.643016232389
 31
0.0
  0
LINE
  5
1A58
  8
KL
 10
29393.149810970139
 20
34603.531617639972
 30
0.0
 11
29196.276043673541
 21
35628.643016232389
 31
0.0
  0
LINE
  5
1A59
  8
FUTO
 10
29904.227617849501
 20
34133.891501282087
 30
0.0
 11
29904.227617849501
 21
33750.643016232389
 31
0.0
  0
LINE
  5
1A5A
  8
FUTO
 10
29895.227617849501
 20
34142.161790052858
 30
0.0
 11
29895.227617849501
 21
33750.643016232389
 31
0.0
  0
ARC
  5
1A5B
  8
FUTO
 10
28723.227617849501
 20
35619.643016232389
 30
0.0
 40
1705.0
 50
330.03011408362448
 51
4.103263208912229
  0
LINE
  5
1A65
  8
FUTO
 10
33231.603062809692
 20
33828.01681623239
 30
0.0
 11
34558.003062809687
 21
33828.01681623239
 31
0.0
  0
LINE
  5
1A66
  8
FUTO
 10
33171.603062809692
 20
33768.016816232397
 30
0.0
 11
34618.003062809687
 21
33768.016816232397
 31
0.0
  0
LINE
  5
1A67
  8
FUTO
 10
33234.803062809689
 20
33849.01681623239
 30
0.0
 11
33234.803062809689
 21
33828.01681623239
 31
0.0
  0
LINE
  5
1A68
  8
FUTO
 10
33231.603062809692
 20
33849.01681623239
 30
0.0
 11
33231.603062809692
 21
33828.01681623239
 31
0.0
  0
LINE
  5
1A6A
  8
KL
 10
33171.603062809692
 20
33888.662112564278
 30
0.0
 11
33171.603062809692
 21
33768.016816232397
 31
0.0
  0
LINE
  5
1A6B
  8
FUTO
 10
34558.003062809687
 20
33849.01681623239
 30
0.0
 11
34558.003062809687
 21
33828.01681623239
 31
0.0
  0
LINE
  5
1A6C
  8
FUTO
 10
34554.803062809689
 20
33849.01681623239
 30
0.0
 11
34554.803062809689
 21
33828.01681623239
 31
0.0
  0
LINE
  5
1A6E
  8
KL
 10
34618.003062809687
 20
33888.662112564278
 30
0.0
 11
34618.003062809687
 21
33768.016816232397
 31
0.0
  0
LINE
  5
1A6F
  8
FUTO
 10
33166.603062809692
 20
37035.838200888807
 30
0.0
 11
34623.00306281013
 21
37035.838200888807
 31
0.0
  0
DIMENSION
  5
1A8F
  8
SP
  2
*D19
 10
27144.818528643911
 20
35750.643016232389
 30
0.0
 11
27064.8185286439
 21
34675.643016232403
 31
0.0
 70
     0
 13
27794.227617849501
 23
33600.643016232389
 33
0.0
 14
27308.873618805399
 24
35750.643016232389
 34
0.0
 50
90.0
1001
ACAD
1000
DSTYLE
1002
{
1070
    40
1040
40.0
1002
}
  0
LINE
  5
1AA5
  8
CT
 10
28746.415914086279
 20
37042.643016232389
 30
0.0
 11
28854.227617849501
 21
37042.643016232389
 31
0.0
  0
DIMENSION
  5
1AA6
  8
SP
  2
*D20
 10
27144.818528643911
 20
35750.643016232389
 30
0.0
 11
27064.8185286439
 21
36396.643016232403
 31
0.0
 70
     0
 13
28746.415914086279
 23
37042.643016232389
 33
0.0
 14
27308.873618805399
 24
35750.643016232389
 34
0.0
 50
90.0
1001
ACAD
1000
DSTYLE
1002
{
1070
    40
1040
40.0
1002
}
  0
TEXT
  5
22A0
  8
SP
 10
51070.006466381521
 20
41041.973397816233
 30
0.0
 40
100.0
  1
 
  0
LINE
  5
22A1
  8
4
 10
35451.313316901636
 20
31467.953183477599
 30
0.0
 11
35451.313316901636
 21
30267.953183477599
 31
0.0
  0
LINE
  5
22A2
  8
4
 10
31251.31331690164
 20
31467.953183477599
 30
0.0
 11
31251.31331690164
 21
30267.953183477599
 31
0.0
  0
LINE
  5
22A3
  8
4
 10
28251.313316901629
 20
31467.953183477599
 30
0.0
 11
28251.313316901629
 21
30267.953183477599
 31
0.0
  0
LINE
  5
22A6
  8
4
 10
28251.313316901629
 20
30267.953183477599
 30
0.0
 11
35451.313316901636
 21
30267.953183477599
 31
0.0
  0
LINE
  5
22A7
  8
4
 10
28251.313316901629
 20
30867.953183477599
 30
0.0
 11
35451.313316901636
 21
30867.953183477599
 31
0.0
  0
TEXT
  5
22A8
  8
4
 10
28482.32580198305
 20
31057.21133867728
 30
0.0
 40
300.0
  1
機器名称
  0
TEXT
  5
22A9
  8
4
 10
28468.861953050418
 20
30397.824123869668
 30
0.0
 40
300.0
  1
機器型番
  0
TEXT
  5
22AA
  8
4
 10
31280.071687107891
 20
31001.07699761929
 30
0.0
 40
270.0
  1
ミツヤリミットロードファン
  0
TEXT
  5
22AB
  8
4
 10
31471.240290414531
 20
30370.910689157259
 30
0.0
 40
300.0
  1
LL#11-1
  0
TEXT
  5
22AD
  8
4
 10
26248.318876878318
 20
43671.23904067339
 30
0.0
 40
432.0
  1
遠心式片吸込片持リミットロードファン
  0
LINE
  5
22AE
  8
4
 10
25851.31331690164
 20
43284.405709066428
 30
0.0
 11
35451.313316901636
 21
43284.405709066428
 31
0.0
  0
LINE
  5
22AF
  8
4
 10
25851.31331690164
 20
44484.405709066428
 30
0.0
 11
35451.313316901636
 21
44484.405709066428
 31
0.0
  0
LINE
  5
22B0
  8
4
 10
28251.313316901629
 20
31467.953183477599
 30
0.0
 11
35451.313316901636
 21
31467.953183477599
 31
0.0
  0
LINE
  5
22B1
  8
4
 10
25851.31331690164
 20
44484.405709066428
 30
0.0
 11
25851.31331690164
 21
43284.405709066428
 31
0.0
  0
TEXT
  5
22B2
  8
4
 10
26386.35441380808
 20
42761.870048755671
 30
0.0
 40
323.99999999999989
  1
右回転左横向
  0
TEXT
  5
22B3
  8
4
 10
33165.13067239739
 20
44704.319672449463
 30
0.0
 40
336.00000000000011
  1
No.
  0
TEXT
  5
22B4
  8
4
 10
33129.459775623473
 20
41909.356061992003
 30
0.0
 40
323.99999999999989
  1
縮尺：1/60
  0
LINE
  5
22B5
  8
4
 10
35451.313316901636
 20
44484.405709066428
 30
0.0
 11
35451.313316901636
 21
43284.405709066428
 31
0.0
  0
LINE
  5
22B6
  8
4
 10
36951.313316901636
 20
46167.953183477613
 30
0.0
 11
36951.313316901636
 21
46167.953183477613
 31
0.0
  0
LINE
  5
22B7
  8
4
 10
32995.017851060831
 20
44555.534682230013
 30
0.0
 11
32995.017851060831
 21
45187.866752776121
 31
0.0
  0
LINE
  5
22B8
  8
4
 10
32995.017851060831
 20
45187.866752776121
 30
0.0
 11
35451.313316901636
 21
45187.866752776121
 31
0.0
  0
LINE
  5
22B9
  8
4
 10
35451.313316901636
 20
45187.866752776121
 30
0.0
 11
35451.313316901636
 21
44555.534682230013
 31
0.0
  0
LINE
  5
22BA
  8
4
 10
35451.313316901636
 20
44555.534682230013
 30
0.0
 11
32995.017851060831
 21
44555.534682230013
 31
0.0
  0
LINE
  5
22BB
  8
4
 10
24351.313316901629
 20
28467.953183477599
 30
0.0
 11
24351.313316901629
 21
46167.953183477613
 31
0.0
  0
LINE
  5
22BC
  8
4
 10
24351.313316901629
 20
46167.953183477613
 30
0.0
 11
36951.313316901636
 21
46167.953183477613
 31
0.0
  0
LINE
  5
22BD
  8
4
 10
36951.313316901636
 20
46167.953183477613
 30
0.0
 11
36951.313316901636
 21
28467.953183477599
 31
0.0
  0
LINE
  5
22BE
  8
4
 10
36951.313316901636
 20
28467.953183477599
 30
0.0
 11
24351.313316901629
 21
28467.953183477599
 31
0.0
  0
TEXT
  5
22BF
  8
4
 10
29463.090200994789
 20
42761.939973404049
 30
0.0
 40
323.99999999999989
  1
床置防振ベット
  0
ENDSEC
  0
EOF
