  0
SECTION
  2
HEADER
  9
$ACADVER
  1
AC1009
  9
$INSBASE
 10
0.0
 20
0.0
 30
0.0
  9
$EXTMIN
 10
8244.1365260201983
 20
20576.95398272829
 30
0.0
  9
$EXTMAX
 10
20844.1365260202
 20
38276.953982728301
 30
0.0
  9
$LIMMIN
 10
0.0
 20
0.0
  9
$LIMMAX
 10
297.0
 20
210.0
  9
$ORTHOMODE
 70
     0
  9
$REGENMODE
 70
     1
  9
$FILLMODE
 70
     1
  9
$QTEXTMODE
 70
     0
  9
$MIRRTEXT
 70
     0
  9
$DRAGMODE
 70
     2
  9
$LTSCALE
 40
200.0
  9
$OSMODE
 70
    37
  9
$ATTMODE
 70
     1
  9
$TEXTSIZE
 40
150.0
  9
$TRACEWID
 40
0.05
  9
$TEXTSTYLE
  7
STANDARD
  9
$CLAYER
  8
FUTO
  9
$CELTYPE
  6
BYLAYER
  9
$CECOLOR
 62
   256
  9
$DIMSCALE
 40
40.0
  9
$DIMASZ
 40
2.0
  9
$DIMEXO
 40
1.0
  9
$DIMDLI
 40
10.0
  9
$DIMRND
 40
0.0
  9
$DIMDLE
 40
0.0
  9
$DIMEXE
 40
1.0
  9
$DIMTP
 40
0.0
  9
$DIMTM
 40
0.0
  9
$DIMTXT
 40
3.0
  9
$DIMCEN
 40
0.0
  9
$DIMTSZ
 40
0.0
  9
$DIMTOL
 70
     0
  9
$DIMLIM
 70
     0
  9
$DIMTIH
 70
     0
  9
$DIMTOH
 70
     0
  9
$DIMSE1
 70
     0
  9
$DIMSE2
 70
     0
  9
$DIMTAD
 70
     1
  9
$DIMZIN
 70
     8
  9
$DIMBLK
  1

  9
$DIMASO
 70
     1
  9
$DIMSHO
 70
     1
  9
$DIMPOST
  1

  9
$DIMAPOST
  1

  9
$DIMALT
 70
     0
  9
$DIMALTD
 70
     2
  9
$DIMALTF
 40
0.03937
  9
$DIMLFAC
 40
1.0
  9
$DIMTOFL
 70
     1
  9
$DIMTVP
 40
0.0
  9
$DIMTIX
 70
     0
  9
$DIMSOXD
 70
     0
  9
$DIMSAH
 70
     1
  9
$DIMBLK1
  1
OPEN
  9
$DIMBLK2
  1
OPEN
  9
$DIMSTYLE
  2
MATSU
  9
$DIMCLRD
 70
   256
  9
$DIMCLRE
 70
   256
  9
$DIMCLRT
 70
   256
  9
$DIMTFAC
 40
1.0
  9
$DIMGAP
 40
0.5
  9
$LUNITS
 70
     2
  9
$LUPREC
 70
     3
  9
$SKETCHINC
 40
0.1
  9
$FILLETRAD
 40
7.0
  9
$AUNITS
 70
     0
  9
$AUPREC
 70
     2
  9
$MENU
  1
acad
  9
$ELEVATION
 40
0.0
  9
$PELEVATION
 40
0.0
  9
$THICKNESS
 40
0.0
  9
$LIMCHECK
 70
     0
  9
$BLIPMODE
 70
     0
  9
$CHAMFERA
 40
0.0
  9
$CHAMFERB
 40
0.0
  9
$SKPOLY
 70
     0
  9
$TDCREATE
 40
2451593.4082031241
  9
$TDUPDATE
 40
2454953.651042569
  9
$TDINDWG
 40
0.5640036574
  9
$TDUSRTIMER
 40
0.5640036574
  9
$USRTIMER
 70
     1
  9
$ANGBASE
 50
0.0
  9
$ANGDIR
 70
     0
  9
$PDMODE
 70
     0
  9
$PDSIZE
 40
1.0
  9
$PLINEWID
 40
0.0
  9
$COORDS
 70
     1
  9
$SPLFRAME
 70
     0
  9
$SPLINETYPE
 70
     6
  9
$SPLINESEGS
 70
     8
  9
$ATTDIA
 70
     0
  9
$ATTREQ
 70
     1
  9
$HANDLING
 70
 10241
  9
$HANDSEED
  5
2702
  9
$SURFTAB1
 70
     6
  9
$SURFTAB2
 70
     6
  9
$SURFTYPE
 70
     6
  9
$SURFU
 70
     6
  9
$SURFV
 70
     6
  9
$UCSNAME
  2

  9
$UCSORG
 10
0.0
 20
0.0
 30
0.0
  9
$UCSXDIR
 10
1.0
 20
0.0
 30
0.0
  9
$UCSYDIR
 10
0.0
 20
1.0
 30
0.0
  9
$PUCSNAME
  2

  9
$PUCSORG
 10
0.0
 20
0.0
 30
0.0
  9
$PUCSXDIR
 10
1.0
 20
0.0
 30
0.0
  9
$PUCSYDIR
 10
0.0
 20
1.0
 30
0.0
  9
$USERI1
 70
     0
  9
$USERI2
 70
     0
  9
$USERI3
 70
     0
  9
$USERI4
 70
     0
  9
$USERI5
 70
     0
  9
$USERR1
 40
0.0
  9
$USERR2
 40
0.0
  9
$USERR3
 40
0.0
  9
$USERR4
 40
0.0
  9
$USERR5
 40
0.0
  9
$WORLDVIEW
 70
     1
  9
$SHADEDGE
 70
     3
  9
$SHADEDIF
 70
    70
  9
$TILEMODE
 70
     1
  9
$MAXACTVP
 70
    16
  9
$PLIMCHECK
 70
     0
  9
$PEXTMIN
 10
1.0000000000000000E+020
 20
1.0000000000000000E+020
 30
1.0000000000000000E+020
  9
$PEXTMAX
 10
-1.0000000000000000E+020
 20
-1.0000000000000000E+020
 30
-1.0000000000000000E+020
  9
$PLIMMIN
 10
0.0
 20
0.0
  9
$PLIMMAX
 10
12.0
 20
9.0
  9
$UNITMODE
 70
     0
  9
$VISRETAIN
 70
     0
  9
$PLINEGEN
 70
     0
  9
$PSLTSCALE
 70
     0
  0
ENDSEC
  0
SECTION
  2
TABLES
  0
TABLE
  2
VPORT
 70
     2
  0
VPORT
  2
*ACTIVE
 70
     0
 10
0.0
 20
0.0
 11
1.0
 21
1.0
 12
19878.243160701029
 22
22612.858108563421
 13
0.0
 23
0.0
 14
5.0
 24
5.0
 15
0.0
 25
0.0
 16
0.0
 26
0.0
 36
1.0
 17
0.0
 27
0.0
 37
0.0
 40
5294.2334800224944
 41
3.1666666666666661
 42
50.0
 43
0.0
 44
0.0
 50
0.0
 51
0.0
 71
     0
 72
   100
 73
     1
 74
     0
 75
     0
 76
     0
 77
     0
 78
     0
  0
ENDTAB
  0
TABLE
  2
LTYPE
 70
     4
  0
LTYPE
  2
CONTINUOUS
 70
     0
  3
Solid line
 72
    65
 73
     0
 40
0.0
  0
LTYPE
  2
CENTER
 70
     0
  3
____ _ ____ _ ____ _ ____ _ ____ _ ____ _ ____ 
 72
    65
 73
     4
 40
2.0
 49
1.25
 49
-0.25
 49
0.25
 49
-0.25
  0
LTYPE
  2
HIDDEN
 70
     0
  3
__ __ __ __ __ __ __ __ __ __ __ __ __ __ __ __
 72
    65
 73
     2
 40
0.375
 49
0.25
 49
-0.125
  0
LTYPE
  2
PHANTOM
 70
     0
  3
______  __  __  ______  __  __  ______  __  __ 
 72
    65
 73
     6
 40
2.5
 49
1.25
 49
-0.25
 49
0.25
 49
-0.25
 49
0.25
 49
-0.25
  0
ENDTAB
  0
TABLE
  2
LAYER
 70
    10
  0
LAYER
  2
0
 70
     0
 62
     7
  6
CONTINUOUS
  0
LAYER
  2
CT
 70
     0
 62
     3
  6
CENTER
  0
LAYER
  2
FUTO
 70
     0
 62
     4
  6
CONTINUOUS
  0
LAYER
  2
HOSO
 70
     0
 62
     7
  6
CONTINUOUS
  0
LAYER
  2
KL
 70
     0
 62
     7
  6
HIDDEN
  0
LAYER
  2
SL
 70
     0
 62
     1
  6
PHANTOM
  0
LAYER
  2
SP
 70
     0
 62
     2
  6
CONTINUOUS
  0
LAYER
  2
1
 70
     0
 62
     7
  6
CONTINUOUS
  0
LAYER
  2
DEFPOINTS
 70
     0
 62
     7
  6
CONTINUOUS
  0
LAYER
  2
4
 70
     0
 62
     7
  6
CONTINUOUS
  0
ENDTAB
  0
TABLE
  2
STYLE
 70
     1
  0
STYLE
  2
STANDARD
 70
     0
 40
0.0
 41
1.0
 50
15.0
 71
     0
 42
150.0
  3
C:\Program Files\AutoCAD LT\simplex.shx
  4
bigfont.shx
  0
ENDTAB
  0
TABLE
  2
VIEW
 70
     0
  0
ENDTAB
  0
TABLE
  2
UCS
 70
     0
  0
ENDTAB
  0
TABLE
  2
APPID
 70
     2
  0
APPID
  2
ACAD
 70
     0
  0
APPID
  2
CONTENTBLOCKICON
 70
     0
  0
ENDTAB
  0
TABLE
  2
DIMSTYLE
 70
     2
  0
DIMSTYLE
  2
MATSU
 70
     0
  3

  4

  5

  6
OPEN
  7
OPEN
 40
1.0
 41
2.0
 42
1.0
 43
10.0
 44
1.0
 45
0.0
 46
0.0
 47
0.0
 48
0.0
140
3.0
141
0.0
142
0.0
143
0.03937
144
1.0
145
0.0
146
1.0
147
0.5
 71
     0
 72
     0
 73
     0
 74
     0
 75
     0
 76
     0
 77
     1
 78
     8
170
     0
171
     2
172
     1
173
     1
174
     0
175
     0
176
   256
177
   256
178
   256
  0
DIMSTYLE
  2
STANDARD
 70
     0
  3

  4

  5

  6

  7

 40
1.0
 41
0.18
 42
0.0625
 43
0.38
 44
0.18
 45
0.0
 46
0.0
 47
0.0
 48
0.0
140
0.18
141
0.09
142
0.0
143
25.399999999999999
144
1.0
145
0.0
146
1.0
147
0.09
 71
     0
 72
     0
 73
     1
 74
     1
 75
     0
 76
     0
 77
     0
 78
     0
170
     0
171
     2
172
     0
173
     0
174
     0
175
     0
176
     0
177
     0
178
     0
  0
ENDTAB
  0
ENDSEC
  0
SECTION
  2
BLOCKS
  0
BLOCK
  8
0
  2
$MODEL_SPACE
 70
     0
 10
0.0
 20
0.0
 30
0.0
  3
$MODEL_SPACE
  1

  0
ENDBLK
  5
7
  8
0
  0
BLOCK
 67
     1
  8
0
  2
$PAPER_SPACE
 70
     0
 10
0.0
 20
0.0
 30
0.0
  3
$PAPER_SPACE
  1

  0
ENDBLK
  5
A
 67
     1
  8
0
  0
BLOCK
  8
0
  2
_OPEN
 70
     0
 10
0.0
 20
0.0
 30
0.0
  3
_OPEN
  1

  0
LINE
  5
27
  8
0
  6
BYBLOCK
 62
     0
 10
-1.0
 20
0.1666666666666666
 30
0.0
 11
0.0
 21
0.0
 31
0.0
  0
LINE
  5
28
  8
0
  6
BYBLOCK
 62
     0
 10
0.0
 20
0.0
 30
0.0
 11
-1.0
 21
-0.1666666666666666
 31
0.0
  0
LINE
  5
29
  8
0
  6
BYBLOCK
 62
     0
 10
0.0
 20
0.0
 30
0.0
 11
-1.0
 21
0.0
 31
0.0
  0
ENDBLK
  5
2B
  8
0
  0
BLOCK
  8
0
  2
_DOT
 70
     0
 10
0.0
 20
0.0
 30
0.0
  3
_DOT
  1

  0
POLYLINE
  5
DB
  8
0
  6
BYBLOCK
 62
     0
 66
     1
 10
0.0
 20
0.0
 30
0.0
 70
     1
 40
0.25
 41
0.25
  0
VERTEX
  5
26DC
  8
0
  6
BYBLOCK
 62
     0
 10
-0.125
 20
0.0
 30
0.0
 42
1.0
  0
VERTEX
  5
26DD
  8
0
  6
BYBLOCK
 62
     0
 10
0.125
 20
0.0
 30
0.0
 42
1.0
  0
SEQEND
  5
26DE
  8
0
  6
BYBLOCK
 62
     0
  0
LINE
  5
DF
  8
0
  6
BYBLOCK
 62
     0
 10
-0.25
 20
0.0
 30
0.0
 11
-1.0
 21
0.0
 31
0.0
  0
ENDBLK
  5
E1
  8
0
  0
BLOCK
  8
0
  2
まっすぐの矢印
 70
     0
 10
0.0
 20
0.0
 30
0.0
  3
まっすぐの矢印
  1

  0
LINE
  5
8C
  8
SP
 10
13.01863531255526
 20
-41.453946163708451
 30
0.0
 11
13.01863531255526
 21
-93.495696758840026
 31
0.0
  0
LINE
  5
8D
  8
SP
 10
13.01863531255526
 20
-93.495696758840026
 30
0.0
 11
-13.01863531255526
 21
-93.495696758840026
 31
0.0
  0
LINE
  5
8E
  8
SP
 10
-13.01863531255526
 20
-93.495696758840026
 30
0.0
 11
-13.01863531255526
 21
-41.453946163708451
 31
0.0
  0
LINE
  5
8F
  8
SP
 10
-13.01863531255526
 20
-41.453946163708451
 30
0.0
 11
-32.06015471115802
 21
-41.453946163708451
 31
0.0
  0
LINE
  5
90
  8
SP
 10
-32.06015471115802
 20
-41.453946163708451
 30
0.0
 11
0.0
 21
0.0
 31
0.0
  0
LINE
  5
91
  8
SP
 10
0.0
 20
0.0
 30
0.0
 11
32.06015471115802
 21
-41.453946163708451
 31
0.0
  0
LINE
  5
92
  8
SP
 10
32.06015471115802
 20
-41.453946163708451
 30
0.0
 11
13.01863531255526
 21
-41.453946163708451
 31
0.0
  0
ENDBLK
  5
94
  8
0
  0
BLOCK
  8
0
  2
左回転矢印
 70
     0
 10
0.0
 20
0.0
 30
0.0
  3
左回転矢印
  1

  0
LINE
  5
2C7
  8
SP
 10
43.930449171819873
 20
24.859487323637271
 30
0.0
 11
38.511878498580238
 21
44.478978865188871
 31
0.0
  0
LINE
  5
2C8
  8
SP
 10
38.511878498580238
 20
44.478978865188871
 30
0.0
 11
0.0
 21
0.0
 31
0.0
  0
LINE
  5
2C9
  8
SP
 10
0.0
 20
0.0
 30
0.0
 11
52.57968174421967
 21
-6.4575435924972453
 31
0.0
  0
LINE
  5
2CA
  8
SP
 10
52.57968174421967
 20
-6.4575435924972453
 30
0.0
 11
48.189912989015284
 21
9.436875093862227
 31
0.0
  0
ARC
  5
2CB
  8
SP
 10
93.893649146691985
 20
-156.0466295121104
 30
0.0
 40
171.67883327727239
 50
67.881388989212894
 51
105.4392492786835
  0
LINE
  5
2CC
  8
SP
 10
158.53505643637521
 20
2.997736182040398
 30
0.0
 11
164.55945966006539
 21
17.820238190756751
 31
0.0
  0
ARC
  5
2CD
  8
SP
 10
93.893649146692198
 20
-156.04662951211091
 30
0.0
 40
187.67883327727299
 50
67.881388989212994
 51
105.4392492786836
  0
ENDBLK
  5
2CF
  8
0
  0
BLOCK
  8
0
  2
*D4
 70
     1
 10
0.0
 20
0.0
 30
0.0
  3
*D4
  1

  0
LINE
  5
26CF
  8
SP
 10
14131.309775227701
 20
26438.46159590656
 30
0.0
 11
14780.718864433289
 21
26438.46159590656
 31
0.0
  0
LINE
  5
26D0
  8
SP
 10
14740.718864433289
 20
26658.46159590656
 30
0.0
 11
14740.718864433289
 21
26738.46159590656
 31
0.0
  0
LINE
  5
26D1
  8
SP
 10
14740.718864433289
 20
26358.46159590656
 30
0.0
 11
14740.718864433289
 21
26278.46159590656
 31
0.0
  0
LINE
  5
26D2
  8
SP
 10
14740.718864433289
 20
26508.46159590656
 30
0.0
 11
15157.228486024571
 21
26569.537632878732
 31
0.0
  0
LINE
  5
26D3
  8
SP
 10
15157.228486024571
 20
26569.537632878732
 30
0.0
 11
15157.228486024571
 21
27048.827029147411
 31
0.0
  0
TEXT
  8
0
  40
120
  5
26FE
  72
0
  71
0
 10
14805.8
 20
26596.8
 30
0.000000
  1
(140)
  0
LINE
  5
26D5
  8
SP
 10
14740.718864433289
 20
26578.46159590656
 30
0.0
 11
14740.718864433289
 21
26438.46159590656
 31
0.0
  0
LINE
  5
26D6
  8
SP
 10
14740.718864433289
 20
26578.46159590656
 30
0.0
 11
14740.718864433289
 21
26438.46159590656
 31
0.0
  0
INSERT
  5
26D7
  8
SP
  2
_OPEN
 10
14740.718864433289
 20
26578.46159590656
 30
0.0
 41
80.0
 42
80.0
 43
80.0
 50
270.0
  0
INSERT
  5
26D8
  8
SP
  2
_DOT
 10
14740.718864433289
 20
26438.46159590656
 30
0.0
 41
80.0
 42
80.0
 43
80.0
 50
90.0
  0
POINT
  5
26D9
  8
DEFPOINTS
 62
     0
 10
14056.42298756018
 20
26578.46159590656
 30
0.0
  0
POINT
  5
26DA
  8
DEFPOINTS
 62
     0
 10
14091.309775227701
 20
26438.46159590656
 30
0.0
  0
POINT
  5
26DB
  8
DEFPOINTS
 62
     0
 10
14740.718864433289
 20
26438.46159590656
 30
0.0
  0
ENDBLK
  5
88C
  8
0
  0
BLOCK
  8
0
  2
*D5
 70
     1
 10
0.0
 20
0.0
 30
0.0
  3
*D5
  1

  0
LINE
  5
269E
  8
SP
 10
15766.272692163489
 20
28586.835395906572
 30
0.0
 11
15766.272692163489
 21
29720.01344921517
 31
0.0
  0
LINE
  5
269F
  8
SP
 10
18216.272692163489
 20
29440.05727039255
 30
0.0
 11
18216.272692163489
 21
29720.01344921517
 31
0.0
  0
LINE
  5
26A0
  8
SP
 10
15846.272692163489
 20
29680.01344921517
 30
0.0
 11
18136.272692163489
 21
29680.01344921517
 31
0.0
  0
INSERT
  5
26A1
  8
SP
  2
_OPEN
 10
15766.272692163489
 20
29680.01344921517
 30
0.0
 41
80.0
 42
80.0
 43
80.0
 50
180.0
  0
INSERT
  5
26A2
  8
SP
  2
_OPEN
 10
18216.272692163489
 20
29680.01344921517
 30
0.0
 41
80.0
 42
80.0
 43
80.0
  0
TEXT
  5
26A3
  8
FUTO
 10
16694.280003258518
 20
29751.442020643739
 30
0.0
 40
120.0
  1
(2450)
 51
15.0
  0
POINT
  5
26A4
  8
DEFPOINTS
 62
     0
 10
15766.272692163489
 20
28546.835395906572
 30
0.0
  0
POINT
  5
26A5
  8
DEFPOINTS
 62
     0
 10
18216.272692163489
 20
29400.05727039255
 30
0.0
  0
POINT
  5
26A6
  8
DEFPOINTS
 62
     0
 10
18216.272692163489
 20
29680.01344921517
 30
0.0
  0
ENDBLK
  5
1423
  8
0
  0
BLOCK
  8
0
  2
*D6
 70
     1
 10
0.0
 20
0.0
 30
0.0
  3
*D6
  1

  0
LINE
  5
2633
  8
SP
 10
13031.309775227701
 20
29554.844847896249
 30
0.0
 11
13031.309775227701
 21
29718.899938057741
 31
0.0
  0
LINE
  5
2634
  8
SP
 10
11041.309775227701
 20
29373.46159590657
 30
0.0
 11
11041.309775227701
 21
29718.899938057741
 31
0.0
  0
LINE
  5
2635
  8
SP
 10
12951.309775227701
 20
29678.899938057741
 30
0.0
 11
11121.309775227701
 21
29678.899938057741
 31
0.0
  0
INSERT
  5
2636
  8
SP
  2
_OPEN
 10
13031.309775227701
 20
29678.899938057741
 30
0.0
 41
80.0
 42
80.0
 43
80.0
  0
INSERT
  5
2637
  8
SP
  2
_OPEN
 10
11041.309775227701
 20
29678.899938057741
 30
0.0
 41
80.0
 42
80.0
 43
80.0
 50
180.0
  0
TEXT
  5
2638
  8
FUTO
 10
11813.13756796296
 20
29698.899938057741
 30
0.0
 40
120.0
  1
1990
 51
15.0
  0
POINT
  5
2639
  8
DEFPOINTS
 62
     0
 10
13031.309775227701
 20
29514.844847896249
 30
0.0
  0
POINT
  5
263A
  8
DEFPOINTS
 62
     0
 10
11041.309775227701
 20
29333.46159590657
 30
0.0
  0
POINT
  5
263B
  8
DEFPOINTS
 62
     0
 10
11041.309775227701
 20
29678.899938057741
 30
0.0
  0
ENDBLK
  5
18B9
  8
0
  0
BLOCK
  8
0
  2
*D7
 70
     1
 10
0.0
 20
0.0
 30
0.0
  3
*D7
  1

  0
LINE
  5
26DF
  8
SP
 10
14131.309775227701
 20
26288.46159590656
 30
0.0
 11
14780.718864433289
 21
26288.46159590656
 31
0.0
  0
LINE
  5
26E0
  8
SP
 10
14740.718864433289
 20
26518.46159590656
 30
0.0
 11
14740.718864433289
 21
26598.46159590656
 31
0.0
  0
LINE
  5
26E1
  8
SP
 10
14740.718864433289
 20
26208.46159590656
 30
0.0
 11
14740.718864433289
 21
25808.46159590656
 31
0.0
  0
LINE
  5
26E2
  8
SP
 10
14740.718864433289
 20
26438.46159590656
 30
0.0
 11
14740.718864433289
 21
26288.46159590656
 31
0.0
  0
INSERT
  5
26E3
  8
SP
  2
_DOT
 10
14740.718864433289
 20
26438.46159590656
 30
0.0
 41
80.0
 42
80.0
 43
80.0
 50
270.0
  0
INSERT
  5
26E4
  8
SP
  2
_OPEN
 10
14740.718864433289
 20
26288.46159590656
 30
0.0
 41
80.0
 42
80.0
 43
80.0
 50
90.0
  0
TEXT
  8
0
  40
120
  5
26FF
  72
0
  71
0
 10
14420.7
 20
25756.1
 30
0.000000
  1
150
  0
POINT
  5
26E6
  8
DEFPOINTS
 62
     0
 10
14091.309775227701
 20
26438.46159590656
 30
0.0
  0
POINT
  5
26E7
  8
DEFPOINTS
 62
     0
 10
14091.309775227701
 20
26288.46159590656
 30
0.0
  0
POINT
  5
26E8
  8
DEFPOINTS
 62
     0
 10
14740.718864433289
 20
26288.46159590656
 30
0.0
  0
ENDBLK
  5
18FA
  8
0
  0
BLOCK
  8
0
  2
*D8
 70
     1
 10
0.0
 20
0.0
 30
0.0
  3
*D8
  1

  0
LINE
  5
267B
  8
SP
 10
14036.309775227701
 20
33556.699110529429
 30
0.0
 11
14778.622532183501
 21
33556.699110529429
 31
0.0
  0
LINE
  5
267C
  8
SP
 10
14723.54421893662
 20
32761.699110529429
 30
0.0
 11
14778.622532183501
 21
32761.699110529429
 31
0.0
  0
LINE
  5
267D
  8
SP
 10
14738.622532183501
 20
33476.699110529429
 30
0.0
 11
14738.622532183501
 21
32841.699110529429
 31
0.0
  0
INSERT
  5
267E
  8
SP
  2
_OPEN
 10
14738.622532183501
 20
33556.699110529429
 30
0.0
 41
80.0
 42
80.0
 43
80.0
 50
90.0
  0
INSERT
  5
267F
  8
SP
  2
_OPEN
 10
14738.622532183501
 20
32761.699110529429
 30
0.0
 41
80.0
 42
80.0
 43
80.0
 50
270.0
  0
TEXT
  5
2680
  8
FUTO
 10
14718.622532183501
 20
32973.072047737391
 30
0.0
 40
120.0
  1
795
 50
90.0
 51
15.0
  0
POINT
  5
2681
  8
DEFPOINTS
 62
     0
 10
13996.309775227701
 20
33556.699110529429
 30
0.0
  0
POINT
  5
2682
  8
DEFPOINTS
 62
     0
 10
14683.54421893662
 20
32761.699110529429
 30
0.0
  0
POINT
  5
2683
  8
DEFPOINTS
 62
     0
 10
14738.622532183501
 20
32761.699110529429
 30
0.0
  0
ENDBLK
  5
192F
  8
0
  0
BLOCK
  8
0
  2
*D9
 70
     1
 10
0.0
 20
0.0
 30
0.0
  3
*D9
  1

  0
LINE
  5
2644
  8
SP
 10
14656.296040717811
 20
32761.699110529429
 30
0.0
 11
14778.622532183501
 21
32761.699110529429
 31
0.0
  0
LINE
  5
2645
  8
SP
 10
13451.309775227701
 20
30311.699110529429
 30
0.0
 11
14778.622532183501
 21
30311.699110529429
 31
0.0
  0
LINE
  5
2646
  8
SP
 10
14738.622532183501
 20
32681.699110529429
 30
0.0
 11
14738.622532183501
 21
30391.699110529429
 31
0.0
  0
INSERT
  5
2647
  8
SP
  2
_OPEN
 10
14738.622532183501
 20
32761.699110529429
 30
0.0
 41
80.0
 42
80.0
 43
80.0
 50
90.0
  0
INSERT
  5
2648
  8
SP
  2
_OPEN
 10
14738.622532183501
 20
30311.699110529429
 30
0.0
 41
80.0
 42
80.0
 43
80.0
 50
270.0
  0
TEXT
  5
2649
  8
FUTO
 10
14718.62253218349
 20
31237.696200869421
 30
0.0
 40
120.0
  1
2450
 50
90.0
 51
15.0
  0
POINT
  5
264A
  8
DEFPOINTS
 62
     0
 10
14616.296040717811
 20
32761.699110529429
 30
0.0
  0
POINT
  5
264B
  8
DEFPOINTS
 62
     0
 10
13411.309775227701
 20
30311.699110529429
 30
0.0
  0
POINT
  5
264C
  8
DEFPOINTS
 62
     0
 10
14738.622532183501
 20
30311.699110529429
 30
0.0
  0
ENDBLK
  5
193B
  8
0
  0
BLOCK
  8
0
  2
*D10
 70
     1
 10
0.0
 20
0.0
 30
0.0
  3
*D10
  1

  0
LINE
  5
2621
  8
SP
 10
14091.309775227701
 20
26248.46159590656
 30
0.0
 11
14091.309775227701
 21
25494.539666567631
 31
0.0
  0
LINE
  5
2622
  8
SP
 10
11091.309775227701
 20
26248.46159590656
 30
0.0
 11
11091.309775227701
 21
25494.539666567631
 31
0.0
  0
LINE
  5
2623
  8
SP
 10
14011.309775227701
 20
25534.539666567631
 30
0.0
 11
11171.309775227701
 21
25534.539666567631
 31
0.0
  0
INSERT
  5
2624
  8
SP
  2
_OPEN
 10
14091.309775227701
 20
25534.539666567631
 30
0.0
 41
80.0
 42
80.0
 43
80.0
  0
INSERT
  5
2625
  8
SP
  2
_OPEN
 10
11091.309775227701
 20
25534.539666567631
 30
0.0
 41
80.0
 42
80.0
 43
80.0
 50
180.0
  0
TEXT
  5
2626
  8
FUTO
 10
12366.661395110399
 20
25554.539666567631
 30
0.0
 40
120.0
  1
3000
 51
15.0
  0
POINT
  5
2627
  8
DEFPOINTS
 62
     0
 10
14091.309775227701
 20
26288.46159590656
 30
0.0
  0
POINT
  5
2628
  8
DEFPOINTS
 62
     0
 10
11091.309775227701
 20
26288.46159590656
 30
0.0
  0
POINT
  5
2629
  8
DEFPOINTS
 62
     0
 10
11091.309775227701
 20
25534.539666567631
 30
0.0
  0
ENDBLK
  5
1983
  8
0
  0
BLOCK
  8
0
  2
*D11
 70
     1
 10
0.0
 20
0.0
 30
0.0
  3
*D11
  1

  0
LINE
  5
26E9
  8
SP
 10
11091.309775227701
 20
26248.46159590656
 30
0.0
 11
11091.309775227701
 21
25813.25421718826
 31
0.0
  0
LINE
  5
26EA
  8
SP
 10
12951.309775227701
 20
25853.25421718826
 30
0.0
 11
11171.309775227701
 21
25853.25421718826
 31
0.0
  0
INSERT
  5
26EB
  8
SP
  2
_OPEN
 10
13031.309775227701
 20
25853.25421718826
 30
0.0
 41
80.0
 42
80.0
 43
80.0
  0
INSERT
  5
26EC
  8
SP
  2
_OPEN
 10
11091.309775227701
 20
25853.25421718826
 30
0.0
 41
80.0
 42
80.0
 43
80.0
 50
180.0
  0
TEXT
  8
0
  40
120
  5
2700
  72
0
  71
0
 10
11821.3
 20
25720.9
 30
0.000000
  1
1940
  0
POINT
  5
26EE
  8
DEFPOINTS
 62
     0
 10
13031.309775227701
 20
26207.807420896352
 30
0.0
  0
POINT
  5
26EF
  8
DEFPOINTS
 62
     0
 10
11091.309775227701
 20
26288.46159590656
 30
0.0
  0
POINT
  5
26F0
  8
DEFPOINTS
 62
     0
 10
11091.309775227701
 20
25853.25421718826
 30
0.0
  0
ENDBLK
  5
198E
  8
0
  0
BLOCK
  8
0
  2
*D12
 70
     1
 10
0.0
 20
0.0
 30
0.0
  3
*D12
  1

  0
LINE
  5
2656
  8
SP
 10
14091.309775227701
 20
26248.46159590656
 30
0.0
 11
14091.309775227701
 21
25813.25421718826
 31
0.0
  0
LINE
  5
2657
  8
SP
 10
13031.309775227701
 20
26167.807420896352
 30
0.0
 11
13031.309775227701
 21
25813.25421718826
 31
0.0
  0
LINE
  5
2658
  8
SP
 10
14011.309775227701
 20
25853.25421718826
 30
0.0
 11
13111.309775227701
 21
25853.25421718826
 31
0.0
  0
INSERT
  5
2659
  8
SP
  2
_OPEN
 10
14091.309775227701
 20
25853.25421718826
 30
0.0
 41
80.0
 42
80.0
 43
80.0
  0
INSERT
  5
265A
  8
SP
  2
_OPEN
 10
13031.309775227701
 20
25853.25421718826
 30
0.0
 41
80.0
 42
80.0
 43
80.0
 50
180.0
  0
TEXT
  5
265B
  8
FUTO
 10
13338.13756796296
 20
25873.25421718826
 30
0.0
 40
120.0
  1
1060
 51
15.0
  0
POINT
  5
265C
  8
DEFPOINTS
 62
     0
 10
14091.309775227701
 20
26288.46159590656
 30
0.0
  0
POINT
  5
265D
  8
DEFPOINTS
 62
     0
 10
13031.309775227701
 20
26207.807420896352
 30
0.0
  0
POINT
  5
265E
  8
DEFPOINTS
 62
     0
 10
13031.309775227701
 20
25853.25421718826
 30
0.0
  0
ENDBLK
  5
199A
  8
0
  0
BLOCK
  8
0
  2
*D13
 70
     1
 10
0.0
 20
0.0
 30
0.0
  3
*D13
  1

  0
LINE
  5
2684
  8
SP
 10
16105.272692163489
 20
26248.46157930058
 30
0.0
 11
16105.272692163489
 21
25508.943421571352
 31
0.0
  0
LINE
  5
2685
  8
SP
 10
18955.272692163489
 20
26248.46157930058
 30
0.0
 11
18955.272692163489
 21
25508.943421571352
 31
0.0
  0
LINE
  5
2686
  8
SP
 10
16185.272692163489
 20
25548.943421571352
 30
0.0
 11
18875.272692163489
 21
25548.943421571352
 31
0.0
  0
INSERT
  5
2687
  8
SP
  2
_OPEN
 10
16105.272692163489
 20
25548.943421571352
 30
0.0
 41
80.0
 42
80.0
 43
80.0
 50
180.0
  0
INSERT
  5
2688
  8
SP
  2
_OPEN
 10
18955.272692163489
 20
25548.943421571352
 30
0.0
 41
80.0
 42
80.0
 43
80.0
  0
TEXT
  5
2689
  8
FUTO
 10
17308.68658853112
 20
25568.943421571341
 30
0.0
 40
120.0
  1
2850
 51
15.0
  0
POINT
  5
268A
  8
DEFPOINTS
 62
     0
 10
16105.272692163489
 20
26288.46157930058
 30
0.0
  0
POINT
  5
268B
  8
DEFPOINTS
 62
     0
 10
18955.272692163489
 20
26288.46157930058
 30
0.0
  0
POINT
  5
268C
  8
DEFPOINTS
 62
     0
 10
18955.272692163489
 20
25548.943421571352
 30
0.0
  0
ENDBLK
  5
1A49
  8
0
  0
BLOCK
  8
0
  2
*D14
 70
     1
 10
0.0
 20
0.0
 30
0.0
  3
*D14
  1

  0
LINE
  5
26A7
  8
SP
 10
16105.272692163489
 20
26248.46157930058
 30
0.0
 11
16105.272692163489
 21
25808.98096653627
 31
0.0
  0
LINE
  5
26A8
  8
SP
 10
18216.272692163489
 20
26227.534527306641
 30
0.0
 11
18216.272692163489
 21
25808.98096653627
 31
0.0
  0
LINE
  5
26A9
  8
SP
 10
16185.272692163489
 20
25848.98096653627
 30
0.0
 11
18136.272692163489
 21
25848.98096653627
 31
0.0
  0
INSERT
  5
26AA
  8
SP
  2
_OPEN
 10
16105.272692163489
 20
25848.98096653627
 30
0.0
 41
80.0
 42
80.0
 43
80.0
 50
180.0
  0
INSERT
  5
26AB
  8
SP
  2
_OPEN
 10
18216.272692163489
 20
25848.98096653627
 30
0.0
 41
80.0
 42
80.0
 43
80.0
  0
TEXT
  5
26AC
  8
FUTO
 10
16981.838597760481
 20
25868.98096653627
 30
0.0
 40
120.0
  1
2111
 51
15.0
  0
POINT
  5
26AD
  8
DEFPOINTS
 62
     0
 10
16105.272692163489
 20
26288.46157930058
 30
0.0
  0
POINT
  5
26AE
  8
DEFPOINTS
 62
     0
 10
18216.272692163489
 20
26267.534527306641
 30
0.0
  0
POINT
  5
26AF
  8
DEFPOINTS
 62
     0
 10
18216.272692163489
 20
25848.98096653627
 30
0.0
  0
ENDBLK
  5
1A55
  8
0
  0
BLOCK
  8
0
  2
*D15
 70
     1
 10
0.0
 20
0.0
 30
0.0
  3
*D15
  1

  0
LINE
  5
26F1
  8
SP
 10
18955.272692163489
 20
26248.46157930058
 30
0.0
 11
18955.272692163489
 21
25808.98096653627
 31
0.0
  0
LINE
  5
26F2
  8
SP
 10
18296.272692163489
 20
25848.98096653627
 30
0.0
 11
18875.272692163489
 21
25848.98096653627
 31
0.0
  0
INSERT
  5
26F3
  8
SP
  2
_OPEN
 10
18216.272692163489
 20
25848.98096653627
 30
0.0
 41
80.0
 42
80.0
 43
80.0
 50
180.0
  0
INSERT
  5
26F4
  8
SP
  2
_OPEN
 10
18955.272692163489
 20
25848.98096653627
 30
0.0
 41
80.0
 42
80.0
 43
80.0
  0
TEXT
  8
0
  40
120
  5
2701
  72
0
  71
0
 10
18345.8
 20
25716.6
 30
0.000000
  1
739
  0
POINT
  5
26F6
  8
DEFPOINTS
 62
     0
 10
18216.272692163489
 20
26267.534527306641
 30
0.0
  0
POINT
  5
26F7
  8
DEFPOINTS
 62
     0
 10
18955.272692163489
 20
26288.46157930058
 30
0.0
  0
POINT
  5
26F8
  8
DEFPOINTS
 62
     0
 10
18955.272692163489
 20
25848.98096653627
 30
0.0
  0
ENDBLK
  5
1A60
  8
0
  0
BLOCK
  8
0
  2
*D16
 70
     1
 10
0.0
 20
0.0
 30
0.0
  3
*D16
  1

  0
LINE
  5
268D
  8
SP
 10
18216.272692163489
 20
29671.955788579551
 30
0.0
 11
18216.272692163489
 21
29640.01344921517
 31
0.0
  0
LINE
  5
268E
  8
SP
 10
19011.272692163489
 20
29171.835395906572
 30
0.0
 11
19011.272692163489
 21
29720.01344921517
 31
0.0
  0
LINE
  5
268F
  8
SP
 10
18296.272692163489
 20
29680.01344921517
 30
0.0
 11
18931.272692163489
 21
29680.01344921517
 31
0.0
  0
INSERT
  5
2690
  8
SP
  2
_OPEN
 10
18216.272692163489
 20
29680.01344921517
 30
0.0
 41
80.0
 42
80.0
 43
80.0
 50
180.0
  0
INSERT
  5
2691
  8
SP
  2
_OPEN
 10
19011.272692163489
 20
29680.01344921517
 30
0.0
 41
80.0
 42
80.0
 43
80.0
  0
TEXT
  5
2692
  8
FUTO
 10
18369.05811566173
 20
29700.01344921517
 30
0.0
 40
120.0
  1
795
 51
15.0
  0
POINT
  5
2693
  8
DEFPOINTS
 62
     0
 10
18216.272692163489
 20
29711.955788579558
 30
0.0
  0
POINT
  5
2694
  8
DEFPOINTS
 62
     0
 10
19011.272692163489
 20
29131.835395906572
 30
0.0
  0
POINT
  5
2695
  8
DEFPOINTS
 62
     0
 10
19011.272692163489
 20
29680.01344921517
 30
0.0
  0
ENDBLK
  5
1B13
  8
0
  0
BLOCK
  8
0
  2
*D17
 70
     1
 10
0.0
 20
0.0
 30
0.0
  3
*D17
  1

  0
LINE
  5
265F
  8
SP
 10
14131.309775227701
 20
26578.46159590656
 30
0.0
 11
14780.718864433289
 21
26578.46159590656
 31
0.0
  0
LINE
  5
2660
  8
SP
 10
14616.663774271799
 20
28168.46159590656
 30
0.0
 11
14780.718864433289
 21
28168.46159590656
 31
0.0
  0
LINE
  5
2661
  8
SP
 10
14740.718864433289
 20
26658.46159590656
 30
0.0
 11
14740.718864433289
 21
28088.46159590656
 31
0.0
  0
INSERT
  5
2662
  8
SP
  2
_OPEN
 10
14740.718864433289
 20
26578.46159590656
 30
0.0
 41
80.0
 42
80.0
 43
80.0
 50
270.0
  0
INSERT
  5
2663
  8
SP
  2
_OPEN
 10
14740.718864433289
 20
28168.46159590656
 30
0.0
 41
80.0
 42
80.0
 43
80.0
 50
90.0
  0
TEXT
  5
2664
  8
FUTO
 10
14720.718864433289
 20
27150.289388641831
 30
0.0
 40
120.0
  1
1590
 50
90.0
 51
15.0
  0
POINT
  5
2665
  8
DEFPOINTS
 62
     0
 10
14091.309775227701
 20
26578.46159590656
 30
0.0
  0
POINT
  5
2666
  8
DEFPOINTS
 62
     0
 10
14576.663774271799
 20
28168.46159590656
 30
0.0
  0
POINT
  5
2667
  8
DEFPOINTS
 62
     0
 10
14740.718864433289
 20
28168.46159590656
 30
0.0
  0
ENDBLK
  5
1B77
  8
0
  0
BLOCK
  8
0
  2
*D18
 70
     1
 10
0.0
 20
0.0
 30
0.0
  3
*D18
  1

  0
LINE
  5
264D
  8
SP
 10
14616.663774271799
 20
28168.46159590656
 30
0.0
 11
14780.718864433289
 21
28168.46159590656
 31
0.0
  0
LINE
  5
264E
  8
SP
 10
13069.309775227701
 20
29333.46159590657
 30
0.0
 11
14780.718864433289
 21
29333.46159590657
 31
0.0
  0
LINE
  5
264F
  8
SP
 10
14740.718864433289
 20
28248.46159590656
 30
0.0
 11
14740.718864433289
 21
29253.46159590657
 31
0.0
  0
INSERT
  5
2650
  8
SP
  2
_OPEN
 10
14740.718864433289
 20
28168.46159590656
 30
0.0
 41
80.0
 42
80.0
 43
80.0
 50
270.0
  0
INSERT
  5
2651
  8
SP
  2
_OPEN
 10
14740.718864433289
 20
29333.46159590657
 30
0.0
 41
80.0
 42
80.0
 43
80.0
 50
90.0
  0
TEXT
  5
2652
  8
FUTO
 10
14720.71886443328
 20
28539.01282644262
 30
0.0
 40
120.0
  1
1165
 50
90.0
 51
15.0
  0
POINT
  5
2653
  8
DEFPOINTS
 62
     0
 10
14576.663774271799
 20
28168.46159590656
 30
0.0
  0
POINT
  5
2654
  8
DEFPOINTS
 62
     0
 10
13029.309775227701
 20
29333.46159590657
 30
0.0
  0
POINT
  5
2655
  8
DEFPOINTS
 62
     0
 10
14740.718864433289
 20
29333.46159590657
 30
0.0
  0
ENDBLK
  5
1B84
  8
0
  0
BLOCK
  8
0
  2
*D19
 70
     1
 10
0.0
 20
0.0
 30
0.0
  3
*D19
  1

  0
LINE
  5
2672
  8
SP
 10
13031.309775227701
 20
33795.694413701662
 30
0.0
 11
13031.309775227701
 21
34068.68674845856
 31
0.0
  0
LINE
  5
2673
  8
SP
 10
14373.309775227701
 20
33515.699110529422
 30
0.0
 11
14373.309775227701
 21
34068.68674845856
 31
0.0
  0
LINE
  5
2674
  8
SP
 10
13111.309775227701
 20
34028.68674845856
 30
0.0
 11
14293.309775227701
 21
34028.68674845856
 31
0.0
  0
INSERT
  5
2675
  8
SP
  2
_OPEN
 10
13031.309775227701
 20
34028.68674845856
 30
0.0
 41
80.0
 42
80.0
 43
80.0
 50
180.0
  0
INSERT
  5
2676
  8
SP
  2
_OPEN
 10
14373.309775227701
 20
34028.68674845856
 30
0.0
 41
80.0
 42
80.0
 43
80.0
  0
TEXT
  5
2677
  8
FUTO
 10
13479.13756796296
 20
34048.68674845856
 30
0.0
 40
120.0
  1
1342
 51
15.0
  0
POINT
  5
2678
  8
DEFPOINTS
 62
     0
 10
13031.309775227701
 20
33755.694413701662
 30
0.0
  0
POINT
  5
2679
  8
DEFPOINTS
 62
     0
 10
14373.309775227701
 20
33475.699110529422
 30
0.0
  0
POINT
  5
267A
  8
DEFPOINTS
 62
     0
 10
14373.309775227701
 20
34028.68674845856
 30
0.0
  0
ENDBLK
  5
1BB5
  8
0
  0
BLOCK
  8
0
  2
*D20
 70
     1
 10
0.0
 20
0.0
 30
0.0
  3
*D20
  1

  0
LINE
  5
262A
  8
SP
 10
13031.309775227701
 20
33795.694413701662
 30
0.0
 11
13031.309775227701
 21
34068.68674845856
 31
0.0
  0
LINE
  5
262B
  8
SP
 10
11041.309775227701
 20
33530.699110529422
 30
0.0
 11
11041.309775227701
 21
34068.68674845856
 31
0.0
  0
LINE
  5
262C
  8
SP
 10
12951.309775227701
 20
34028.68674845856
 30
0.0
 11
11121.309775227701
 21
34028.68674845856
 31
0.0
  0
INSERT
  5
262D
  8
SP
  2
_OPEN
 10
13031.309775227701
 20
34028.68674845856
 30
0.0
 41
80.0
 42
80.0
 43
80.0
  0
INSERT
  5
262E
  8
SP
  2
_OPEN
 10
11041.309775227701
 20
34028.68674845856
 30
0.0
 41
80.0
 42
80.0
 43
80.0
 50
180.0
  0
TEXT
  5
262F
  8
FUTO
 10
11813.13756796296
 20
34048.68674845856
 30
0.0
 40
120.0
  1
1990
 51
15.0
  0
POINT
  5
2630
  8
DEFPOINTS
 62
     0
 10
13031.309775227701
 20
33755.694413701662
 30
0.0
  0
POINT
  5
2631
  8
DEFPOINTS
 62
     0
 10
11041.309775227701
 20
33490.699110529422
 30
0.0
  0
POINT
  5
2632
  8
DEFPOINTS
 62
     0
 10
11041.309775227701
 20
34028.68674845856
 30
0.0
  0
ENDBLK
  5
1BC2
  8
0
  0
BLOCK
  8
0
  2
*D21
 70
     1
 10
0.0
 20
0.0
 30
0.0
  3
*D21
  1

  0
LINE
  5
26B0
  8
SP
 10
19051.272692163489
 20
29066.835395906561
 30
0.0
 11
19631.280834375219
 21
29066.835395906561
 31
0.0
  0
LINE
  5
26B1
  8
SP
 10
19051.272692163489
 20
27266.835395906572
 30
0.0
 11
19631.280834375219
 21
27266.835395906572
 31
0.0
  0
LINE
  5
26B2
  8
SP
 10
19591.280834375219
 20
28986.835395906561
 30
0.0
 11
19591.280834375219
 21
27346.835395906572
 31
0.0
  0
INSERT
  5
26B3
  8
SP
  2
_OPEN
 10
19591.280834375219
 20
29066.835395906561
 30
0.0
 41
80.0
 42
80.0
 43
80.0
 50
90.0
  0
INSERT
  5
26B4
  8
SP
  2
_OPEN
 10
19591.280834375219
 20
27266.835395906572
 30
0.0
 41
80.0
 42
80.0
 43
80.0
 50
270.0
  0
INSERT
  5
26B5
  8
FUTO
  2
*U22
 10
0.0
 20
0.0
 30
0.0
  0
POINT
  5
26B6
  8
DEFPOINTS
 62
     0
 10
19011.272692163489
 20
29066.835395906561
 30
0.0
  0
POINT
  5
26B7
  8
DEFPOINTS
 62
     0
 10
19011.272692163489
 20
27266.835395906572
 30
0.0
  0
POINT
  5
26B8
  8
DEFPOINTS
 62
     0
 10
19591.280834375219
 20
27266.835395906572
 30
0.0
  0
ENDBLK
  5
1C45
  8
0
  0
BLOCK
  8
0
  2
*U22
 70
     1
 10
0.0
 20
0.0
 30
0.0
  3
*U22
  1

  0
TEXT
  5
26FA
  8
FUTO
 10
19571.280834375211
 20
27869.82797906976
 30
0.0
 40
120.0
  1
\U+2205
 50
90.0
 51
15.0
  0
TEXT
  5
26FB
  8
FUTO
 10
19571.280834375211
 20
27978.39940764118
 30
0.0
 40
120.0
  1
1800
 50
90.0
 51
15.0
  0
ENDBLK
  5
26FD
  8
0
  0
ENDSEC
  0
SECTION
  2
ENTITIES
  0
INSERT
  5
89
  8
FUTO
  2
まっすぐの矢印
 10
11464.867478567359
 20
29619.123206571709
 30
0.0
 41
-2.0
 42
2.0
 43
2.0
  0
LINE
  5
B2
  8
CT
 10
14576.663774271799
 20
28168.46159590656
 30
0.0
 11
11116.6816687176
 21
28168.46159590656
 31
0.0
  0
DIMENSION
  5
CF
  8
SP
  2
*D4
 10
14740.718864433289
 20
26438.46159590656
 30
0.0
 11
15157.228486024571
 21
26589.537632878739
 31
0.0
 70
   128
  1
(<>)
 13
14056.42298756018
 23
26578.46159590656
 33
0.0
 14
14091.309775227701
 24
26438.46159590656
 34
0.0
 50
90.0
1001
ACAD
1000
DSTYLE
1002
{
1070
   287
1070
     4
1070
    40
1040
40.0
1070
    75
1070
     1
1070
   279
1070
     1
1070
   289
1070
     3
1070
     7
1000
DOT
1002
}
  0
DIMENSION
  5
E7
  8
SP
  2
*D7
 10
14740.718864433289
 20
26288.46159590656
 30
0.0
 11
14660.718864433289
 21
25968.46159590657
 31
0.0
 70
     0
 13
14091.309775227701
 23
26438.46159590656
 33
0.0
 14
14091.309775227701
 24
26288.46159590656
 34
0.0
 50
90.0
1001
ACAD
1000
DSTYLE
1002
{
1070
   287
1070
     1
1070
    40
1040
40.0
1070
    75
1070
     1
1070
   289
1070
     1
1070
     6
1000
DOT
1002
}
  0
LINE
  5
104
  8
CT
 10
13031.309775227701
 20
29489.57001001812
 30
0.0
 11
13031.309775227701
 21
26175.554036122699
 31
0.0
  0
ARC
  5
10E
  8
FUTO
 10
11531.309775227701
 20
27078.46159590656
 30
0.0
 40
280.0
 50
132.19677141018849
 51
299.81253858245282
  0
ARC
  5
111
  8
FUTO
 10
11531.309775227701
 20
27078.46159590656
 30
0.0
 40
310.0
 50
300.10230806831191
 51
239.897691931688
  0
LINE
  5
112
  8
CT
 10
11531.309775227701
 20
27743.227481832881
 30
0.0
 11
11531.309775227701
 21
26756.170279645419
 31
0.0
  0
LINE
  5
113
  8
FUTO
 10
11972.309775227701
 20
28159.46159590657
 30
0.0
 11
11972.309775227701
 21
27856.238805142111
 31
0.0
  0
LINE
  5
115
  8
FUTO
 10
14072.309775227701
 20
28159.46159590657
 30
0.0
 11
14072.309775227701
 21
26728.46159590656
 31
0.0
  0
LINE
  5
116
  8
FUTO
 10
14081.309775227701
 20
28159.46159590657
 30
0.0
 11
14081.309775227701
 21
26728.46159590656
 31
0.0
  0
LINE
  5
117
  8
FUTO
 10
11981.309775227701
 20
28177.46159590656
 30
0.0
 11
11981.309775227701
 21
27864.398582742699
 31
0.0
  0
LINE
  5
118
  8
FUTO
 10
11990.309775227701
 20
28177.46159590656
 30
0.0
 11
11990.309775227701
 21
27872.558360343312
 31
0.0
  0
LINE
  5
119
  8
CT
 10
11531.309775227701
 20
26791.960332906569
 30
0.0
 11
11531.309775227701
 21
27376.232011906559
 31
0.0
  0
ARC
  5
122
  8
FUTO
 10
13141.809775227701
 20
28057.96159590657
 30
0.0
 40
1201.5
 50
5.2768562869262041
 51
97.724811710340802
  0
ARC
  5
123
  8
KL
 10
13141.809775227701
 20
28057.96159590657
 30
0.0
 40
1181.4999999999991
 50
359.00582105632787
 51
90.000000000000028
  0
ARC
  5
124
  8
KL
 10
12900.309775227701
 20
28037.46159590657
 30
0.0
 40
1423.0
 50
275.26336540589648
 51
0.000000000000007
  0
DIMENSION
  5
13A
  8
SP
  2
*D11
 10
11091.309775227701
 20
25853.25421718826
 30
0.0
 11
12061.309775227701
 21
25933.25421718826
 31
0.0
 70
     0
 13
13031.309775227701
 23
26207.807420896352
 33
0.0
 14
11091.309775227701
 24
26288.46159590656
 34
0.0
1001
ACAD
1000
DSTYLE
1002
{
1070
   287
1070
     4
1070
    40
1040
40.0
1070
    75
1070
     1
1070
   279
1070
     1
1070
   289
1070
     3
1002
}
  0
LINE
  5
146
  8
FUTO
 10
14091.309775227701
 20
26438.46159590656
 30
0.0
 11
11091.309775227701
 21
26438.46159590656
 31
0.0
1001
ACAD
1000
ASC_BOUNDS
1002
{
1070
    19
1005
0
1002
}
  0
LINE
  5
147
  8
FUTO
 10
14091.309775227701
 20
26426.46159590656
 30
0.0
 11
11091.309775227701
 21
26426.46159590656
 31
0.0
  0
LINE
  5
148
  8
FUTO
 10
14091.309775227701
 20
26300.46159590656
 30
0.0
 11
11091.309775227701
 21
26300.46159590656
 31
0.0
  0
LINE
  5
149
  8
FUTO
 10
14091.309775227701
 20
26288.46159590656
 30
0.0
 11
11091.309775227701
 21
26288.46159590656
 31
0.0
  0
DIMENSION
  5
14A
  8
SP
  2
*D10
 10
11091.309775227701
 20
25534.539666567631
 30
0.0
 11
12591.309775227701
 21
25614.539666567631
 31
0.0
 70
     0
 13
14091.309775227701
 23
26288.46159590656
 33
0.0
 14
11091.309775227701
 24
26288.46159590656
 34
0.0
1001
ACAD
1000
DSTYLE
1002
{
1070
    40
1040
40.0
1002
}
  0
LINE
  5
157
  8
FUTO
 10
14091.309775227701
 20
26716.46159590656
 30
0.0
 11
11091.309775227701
 21
26716.46159590656
 31
0.0
  0
LINE
  5
158
  8
FUTO
 10
14091.309775227701
 20
26590.46159590656
 30
0.0
 11
11091.309775227701
 21
26590.46159590656
 31
0.0
  0
LINE
  5
159
  8
FUTO
 10
14091.309775227701
 20
26728.46159590656
 30
0.0
 11
11091.309775227701
 21
26728.46159590656
 31
0.0
  0
LINE
  5
15A
  8
FUTO
 10
14091.309775227701
 20
26578.46159590656
 30
0.0
 11
11091.309775227701
 21
26578.46159590656
 31
0.0
1001
ACAD
1000
ASC_BOUNDS
1002
{
1070
    19
1005
0
1002
}
  0
LINE
  5
15B
  8
FUTO
 10
11811.309775227701
 20
26828.46159590656
 30
0.0
 11
11714.61280302593
 21
26828.46159590656
 31
0.0
  0
LINE
  5
15C
  8
FUTO
 10
11811.309775227701
 20
26798.46159590656
 30
0.0
 11
11701.309775227701
 21
26798.46159590656
 31
0.0
  0
LINE
  5
15D
  8
FUTO
 10
11631.309775227701
 20
26798.46159590656
 30
0.0
 11
11846.309775227701
 21
26798.46159590656
 31
0.0
  0
LINE
  5
15E
  8
FUTO
 10
11856.309775227701
 20
26728.46159590656
 30
0.0
 11
11631.309775227701
 21
26728.46159590656
 31
0.0
  0
LINE
  5
15F
  8
CT
 10
11868.768739417461
 20
27078.46159590656
 30
0.0
 11
11188.032553034671
 21
27078.46159590656
 31
0.0
  0
LINE
  5
160
  8
CT
 10
11483.20670771981
 20
26641.599415967219
 30
0.0
 11
11483.20670771981
 21
26376.858911332562
 31
0.0
  0
LINE
  5
161
  8
FUTO
 10
11339.35348572076
 20
26578.46159590656
 30
0.0
 11
11339.35348572076
 21
26567.46159590656
 31
0.0
  0
LINE
  5
162
  8
FUTO
 10
11267.35348572076
 20
26578.46159590656
 30
0.0
 11
11267.35348572076
 21
26567.46159590656
 31
0.0
  0
LINE
  5
163
  8
CT
 10
11303.35348572076
 20
26592.989579113779
 30
0.0
 11
11303.35348572076
 21
26418.78280420963
 31
0.0
  0
ARC
  5
164
  8
FUTO
 10
11359.85348572076
 20
26558.46159590656
 30
0.0
 40
9.0
 50
0.000000000000007
 51
90.0
  0
LINE
  5
165
  8
FUTO
 10
11237.85348572076
 20
26482.46159590657
 30
0.0
 11
11368.85348572076
 21
26482.46159590657
 31
0.0
  0
LINE
  5
166
  8
FUTO
 10
11091.309775227701
 20
26438.46159590656
 30
0.0
 11
11091.309775227701
 21
26288.46159590656
 31
0.0
  0
LINE
  5
167
  8
FUTO
 10
11267.35348572076
 20
26573.46159590656
 30
0.0
 11
11339.35348572076
 21
26573.46159590656
 31
0.0
  0
ARC
  5
168
  8
FUTO
 10
11246.85348572076
 20
26558.46159590656
 30
0.0
 40
9.0
 50
89.999999999999915
 51
180.0
  0
LINE
  5
169
  8
FUTO
 10
11237.85348572076
 20
26558.46159590656
 30
0.0
 11
11237.85348572076
 21
26482.46159590657
 31
0.0
  0
LINE
  5
16A
  8
FUTO
 10
11267.35348572076
 20
26438.46159590656
 30
0.0
 11
11339.35348572076
 21
26438.46159590656
 31
0.0
  0
LINE
  5
16B
  8
FUTO
 10
11339.35348572076
 20
26449.46159590656
 30
0.0
 11
11339.35348572076
 21
26438.46159590656
 31
0.0
  0
LINE
  5
16C
  8
FUTO
 10
11267.35348572076
 20
26449.46159590656
 30
0.0
 11
11267.35348572076
 21
26438.46159590656
 31
0.0
  0
LINE
  5
16D
  8
FUTO
 10
11352.35348572076
 20
26482.46159590657
 30
0.0
 11
11352.35348572076
 21
26456.46159590656
 31
0.0
  0
ARC
  5
16E
  8
FUTO
 10
11345.35348572076
 20
26456.46159590656
 30
0.0
 40
7.0
 50
270.00000000000011
 51
0.0000000000000325
  0
LINE
  5
16F
  8
FUTO
 10
11261.35348572076
 20
26449.46159590656
 30
0.0
 11
11345.35348572076
 21
26449.46159590656
 31
0.0
  0
LINE
  5
170
  8
FUTO
 10
11254.35348572076
 20
26482.46159590657
 30
0.0
 11
11254.35348572076
 21
26456.46159590656
 31
0.0
  0
ARC
  5
171
  8
FUTO
 10
11261.35348572076
 20
26456.46159590656
 30
0.0
 40
7.0
 50
179.99999999999989
 51
269.99999999999977
  0
LINE
  5
172
  8
FUTO
 10
11267.35348572076
 20
26443.46159590656
 30
0.0
 11
11339.35348572076
 21
26443.46159590656
 31
0.0
  0
LINE
  5
173
  8
FUTO
 10
11246.85348572076
 20
26567.46159590656
 30
0.0
 11
11359.85348572076
 21
26567.46159590656
 31
0.0
  0
LINE
  5
174
  8
FUTO
 10
11368.85348572076
 20
26558.46159590656
 30
0.0
 11
11368.85348572076
 21
26482.46159590657
 31
0.0
  0
LINE
  5
175
  8
FUTO
 10
11216.309775227701
 20
26798.46159590656
 30
0.0
 11
11431.309775227701
 21
26798.46159590656
 31
0.0
  0
LINE
  5
176
  8
FUTO
 10
11431.309775227701
 20
26728.46159590656
 30
0.0
 11
11206.309775227701
 21
26728.46159590656
 31
0.0
  0
CIRCLE
  5
177
  8
SL
 10
11531.309775227701
 20
27078.46159590656
 30
0.0
 40
200.0
  0
LINE
  5
178
  8
FUTO
 10
11251.309775227701
 20
26945.42024895002
 30
0.0
 11
11251.309775227701
 21
26798.46159590656
 31
0.0
  0
LINE
  5
179
  8
FUTO
 10
11091.309775227701
 20
26728.46159590656
 30
0.0
 11
11091.309775227701
 21
26578.46159590656
 31
0.0
  0
LINE
  5
17A
  8
FUTO
 10
11267.35348572076
 20
26578.46159590656
 30
0.0
 11
11339.35348572076
 21
26578.46159590656
 31
0.0
  0
LINE
  5
17B
  8
CT
 10
11302.809775227701
 20
26843.63104439621
 30
0.0
 11
11302.809775227701
 21
26756.170279645419
 31
0.0
  0
LINE
  5
17C
  8
FUTO
 10
11348.00674742947
 20
26828.46159590656
 30
0.0
 11
11251.309775227701
 21
26828.46159590656
 31
0.0
  0
LINE
  5
17D
  8
FUTO
 10
11361.309775227701
 20
26819.231967970249
 30
0.0
 11
11361.309775227701
 21
26798.46159590656
 31
0.0
  0
LINE
  5
17E
  8
FUTO
 10
11361.309775227701
 20
26798.46159590656
 30
0.0
 11
11251.309775227701
 21
26798.46159590656
 31
0.0
  0
LINE
  5
17F
  8
FUTO
 10
11206.309775227701
 20
26728.46159590656
 30
0.0
 11
11216.309775227701
 21
26798.46159590656
 31
0.0
  0
LINE
  5
180
  8
CT
 10
11531.309775227701
 20
26587.043210718111
 30
0.0
 11
11531.309775227701
 21
27252.55961010317
 31
0.0
  0
LINE
  5
181
  8
FUTO
 10
11686.7889075033
 20
26810.270918539089
 30
0.0
 11
11375.830642952091
 21
26810.270918539089
 31
0.0
  0
LINE
  5
182
  8
FUTO
 10
11431.309775227701
 20
26788.46159590656
 30
0.0
 11
11631.309775227701
 21
26788.46159590656
 31
0.0
  0
LINE
  5
183
  8
FUTO
 10
11431.309775227701
 20
26738.46159590656
 30
0.0
 11
11631.309775227701
 21
26738.46159590656
 31
0.0
  0
LINE
  5
184
  8
FUTO
 10
11431.309775227701
 20
26788.46159590656
 30
0.0
 11
11431.309775227701
 21
26798.46159590656
 31
0.0
  0
LINE
  5
185
  8
FUTO
 10
11431.309775227701
 20
26728.46159590656
 30
0.0
 11
11431.309775227701
 21
26738.46159590656
 31
0.0
  0
LINE
  5
186
  8
CT
 10
11759.809775227701
 20
26843.63104439621
 30
0.0
 11
11759.809775227701
 21
26752.005481323959
 31
0.0
  0
LINE
  5
187
  8
FUTO
 10
11701.309775227701
 20
26819.231967970249
 30
0.0
 11
11701.309775227701
 21
26798.46159590656
 31
0.0
  0
LINE
  5
188
  8
FUTO
 10
11631.309775227701
 20
26788.46159590656
 30
0.0
 11
11631.309775227701
 21
26798.46159590656
 31
0.0
  0
LINE
  5
189
  8
FUTO
 10
11774.309775227701
 20
26798.46159590656
 30
0.0
 11
11674.309775227701
 21
26798.46159590656
 31
0.0
  0
LINE
  5
18A
  8
FUTO
 10
11631.309775227701
 20
26728.46159590656
 30
0.0
 11
11631.309775227701
 21
26738.46159590656
 31
0.0
  0
LINE
  5
18B
  8
CT
 10
12081.213381117939
 20
26592.989579113779
 30
0.0
 11
12081.213381117939
 21
26418.78280420963
 31
0.0
  0
LINE
  5
18C
  8
FUTO
 10
12045.213381117939
 20
26578.46159590656
 30
0.0
 11
12045.213381117939
 21
26567.46159590656
 31
0.0
  0
LINE
  5
18D
  8
FUTO
 10
12117.213381117939
 20
26578.46159590656
 30
0.0
 11
12117.213381117939
 21
26567.46159590656
 31
0.0
  0
LINE
  5
18E
  8
FUTO
 10
12146.713381117939
 20
26558.46159590656
 30
0.0
 11
12146.713381117939
 21
26482.46159590657
 31
0.0
  0
LINE
  5
18F
  8
FUTO
 10
12024.713381117939
 20
26567.46159590656
 30
0.0
 11
12137.713381117939
 21
26567.46159590656
 31
0.0
  0
LINE
  5
190
  8
FUTO
 10
12045.213381117939
 20
26443.46159590656
 30
0.0
 11
12117.213381117939
 21
26443.46159590656
 31
0.0
  0
ARC
  5
191
  8
FUTO
 10
12039.213381117939
 20
26456.46159590656
 30
0.0
 40
7.0
 50
179.99999999999989
 51
269.99999999999977
  0
LINE
  5
192
  8
FUTO
 10
12032.213381117939
 20
26482.46159590657
 30
0.0
 11
12032.213381117939
 21
26456.46159590656
 31
0.0
  0
LINE
  5
193
  8
FUTO
 10
12039.213381117939
 20
26449.46159590656
 30
0.0
 11
12123.213381117939
 21
26449.46159590656
 31
0.0
  0
ARC
  5
194
  8
FUTO
 10
12123.213381117939
 20
26456.46159590656
 30
0.0
 40
7.0
 50
270.00000000000011
 51
0.0000000000000325
  0
LINE
  5
195
  8
FUTO
 10
12130.213381117939
 20
26482.46159590657
 30
0.0
 11
12130.213381117939
 21
26456.46159590656
 31
0.0
  0
LINE
  5
196
  8
FUTO
 10
12045.213381117939
 20
26449.46159590656
 30
0.0
 11
12045.213381117939
 21
26438.46159590656
 31
0.0
  0
LINE
  5
197
  8
FUTO
 10
12117.213381117939
 20
26449.46159590656
 30
0.0
 11
12117.213381117939
 21
26438.46159590656
 31
0.0
  0
LINE
  5
198
  8
FUTO
 10
12045.213381117939
 20
26438.46159590656
 30
0.0
 11
12117.213381117939
 21
26438.46159590656
 31
0.0
  0
LINE
  5
199
  8
FUTO
 10
12015.713381117939
 20
26558.46159590656
 30
0.0
 11
12015.713381117939
 21
26482.46159590657
 31
0.0
  0
ARC
  5
19A
  8
FUTO
 10
12024.713381117939
 20
26558.46159590656
 30
0.0
 40
9.0
 50
89.999999999999915
 51
180.0
  0
LINE
  5
19B
  8
FUTO
 10
12045.213381117939
 20
26573.46159590656
 30
0.0
 11
12117.213381117939
 21
26573.46159590656
 31
0.0
  0
LINE
  5
19C
  8
FUTO
 10
12015.713381117939
 20
26482.46159590657
 30
0.0
 11
12146.713381117939
 21
26482.46159590657
 31
0.0
  0
ARC
  5
19D
  8
FUTO
 10
12137.713381117939
 20
26558.46159590656
 30
0.0
 40
9.0
 50
0.000000000000007
 51
90.0
  0
LINE
  5
1A1
  8
FUTO
 10
12331.309775227701
 20
26438.46159590656
 30
0.0
 11
12331.309775227701
 21
26288.46159590656
 31
0.0
  0
LINE
  5
1A2
  8
FUTO
 10
12322.309775227701
 20
26438.46159590656
 30
0.0
 11
12322.309775227701
 21
26288.46159590656
 31
0.0
  0
LINE
  5
1A3
  8
FUTO
 10
12340.309775227701
 20
26438.46159590656
 30
0.0
 11
12340.309775227701
 21
26288.46159590656
 31
0.0
  0
ARC
  5
1A4
  8
FUTO
 10
12900.309775227701
 20
28037.46159590657
 30
0.0
 40
1443.0
 50
303.73616723022678
 51
5.2086593189542461
  0
LINE
  5
1A7
  8
FUTO
 10
11811.309775227701
 20
26945.420248950039
 30
0.0
 11
11811.309775227701
 21
26798.46159590656
 31
0.0
  0
LINE
  5
1A8
  8
FUTO
 10
11988.199573339751
 20
26881.34521613472
 30
0.0
 11
11946.20297747282
 21
26831.696583602072
 31
0.0
  0
LINE
  5
1A9
  8
FUTO
 10
11974.4567387722
 20
26892.96995260696
 30
0.0
 11
11932.460142905269
 21
26843.321320074308
 31
0.0
  0
LINE
  5
1AA
  8
FUTO
 10
11981.309775227701
 20
26887.135854443211
 30
0.0
 11
11939.33156018905
 21
26837.508951838179
 31
0.0
  0
LINE
  5
1AB
  8
FUTO
 10
11846.309775227701
 20
26798.46159590656
 30
0.0
 11
11856.309775227701
 21
26728.46159590656
 31
0.0
  0
LINE
  5
1AC
  8
FUTO
 10
11946.202977472831
 20
26831.696583602061
 30
0.0
 11
11932.46014290528
 21
26843.321320074308
 31
0.0
  0
LINE
  5
1AD
  8
FUTO
 10
12045.213381117939
 20
26578.46159590656
 30
0.0
 11
12117.213381117939
 21
26578.46159590656
 31
0.0
  0
LINE
  5
1AE
  8
KL
 10
12406.309775227701
 20
26728.46159590656
 30
0.0
 11
12406.309775227701
 21
26578.46159590656
 31
0.0
  0
LINE
  5
1AF
  8
FUTO
 10
12340.309775227701
 20
26728.46159590656
 30
0.0
 11
12340.309775227701
 21
26578.46159590656
 31
0.0
  0
LINE
  5
1B0
  8
FUTO
 10
12322.309775227701
 20
26728.46159590656
 30
0.0
 11
12322.309775227701
 21
26578.46159590656
 31
0.0
  0
LINE
  5
1B1
  8
FUTO
 10
12331.309775227701
 20
26728.46159590656
 30
0.0
 11
12331.309775227701
 21
26578.46159590656
 31
0.0
  0
LINE
  5
1B2
  8
KL
 10
12331.309775227701
 20
26742.626490444982
 30
0.0
 11
12331.309775227701
 21
26578.46159590656
 31
0.0
  0
DIMENSION
  5
1B3
  8
SP
  2
*D12
 10
13031.309775227701
 20
25853.25421718826
 30
0.0
 11
13561.309775227701
 21
25933.25421718826
 31
0.0
 70
     0
 13
14091.309775227701
 23
26288.46159590656
 33
0.0
 14
13031.309775227701
 24
26207.807420896352
 34
0.0
1001
ACAD
1000
DSTYLE
1002
{
1070
    40
1040
40.0
1002
}
  0
LINE
  5
1C0
  8
FUTO
 10
12907.79153633736
 20
26578.46159590656
 30
0.0
 11
12907.79153633736
 21
26567.46159590656
 31
0.0
  0
LINE
  5
1C1
  8
FUTO
 10
12835.79153633736
 20
26578.46159590656
 30
0.0
 11
12835.79153633736
 21
26567.46159590656
 31
0.0
  0
LINE
  5
1C2
  8
CT
 10
12871.79153633736
 20
26592.989579113779
 30
0.0
 11
12871.79153633736
 21
26418.78280420963
 31
0.0
  0
LINE
  5
1C3
  8
FUTO
 10
12806.29153633736
 20
26482.46159590657
 30
0.0
 11
12937.29153633736
 21
26482.46159590657
 31
0.0
  0
LINE
  5
1C4
  8
FUTO
 10
12835.79153633736
 20
26573.46159590656
 30
0.0
 11
12907.79153633736
 21
26573.46159590656
 31
0.0
  0
LINE
  5
1C5
  8
FUTO
 10
12835.79153633736
 20
26438.46159590656
 30
0.0
 11
12907.79153633736
 21
26438.46159590656
 31
0.0
  0
LINE
  5
1C6
  8
FUTO
 10
12829.79153633736
 20
26449.46159590656
 30
0.0
 11
12913.79153633736
 21
26449.46159590656
 31
0.0
  0
LINE
  5
1C7
  8
FUTO
 10
12835.79153633736
 20
26443.46159590656
 30
0.0
 11
12907.79153633736
 21
26443.46159590656
 31
0.0
  0
LINE
  5
1C8
  8
FUTO
 10
12815.29153633736
 20
26567.46159590656
 30
0.0
 11
12928.29153633736
 21
26567.46159590656
 31
0.0
  0
ARC
  5
1C9
  8
FUTO
 10
12815.29153633736
 20
26558.46159590656
 30
0.0
 40
9.0
 50
89.999999999999915
 51
180.0
  0
LINE
  5
1CA
  8
FUTO
 10
12806.29153633736
 20
26558.46159590656
 30
0.0
 11
12806.29153633736
 21
26482.46159590657
 31
0.0
  0
LINE
  5
1CB
  8
FUTO
 10
12835.79153633736
 20
26449.46159590656
 30
0.0
 11
12835.79153633736
 21
26438.46159590656
 31
0.0
  0
LINE
  5
1CC
  8
FUTO
 10
12822.79153633737
 20
26482.46159590657
 30
0.0
 11
12822.79153633737
 21
26456.46159590656
 31
0.0
  0
ARC
  5
1CD
  8
FUTO
 10
12829.79153633736
 20
26456.46159590656
 30
0.0
 40
7.0
 50
179.99999999999989
 51
269.99999999999977
  0
ARC
  5
1CE
  8
FUTO
 10
12928.29153633736
 20
26558.46159590656
 30
0.0
 40
9.0
 50
0.000000000000007
 51
90.0
  0
LINE
  5
1CF
  8
FUTO
 10
12907.79153633736
 20
26449.46159590656
 30
0.0
 11
12907.79153633736
 21
26438.46159590656
 31
0.0
  0
LINE
  5
1D0
  8
FUTO
 10
12920.79153633736
 20
26482.46159590657
 30
0.0
 11
12920.79153633736
 21
26456.46159590656
 31
0.0
  0
ARC
  5
1D1
  8
FUTO
 10
12913.79153633736
 20
26456.46159590656
 30
0.0
 40
7.0
 50
270.00000000000011
 51
0.0000000000000325
  0
LINE
  5
1D2
  8
FUTO
 10
12937.29153633736
 20
26558.46159590656
 30
0.0
 11
12937.29153633736
 21
26482.46159590657
 31
0.0
  0
LINE
  5
1D3
  8
FUTO
 10
12835.79153633736
 20
26578.46159590656
 30
0.0
 11
12907.79153633736
 21
26578.46159590656
 31
0.0
  0
LINE
  5
1D4
  8
CT
 10
13909.42535845111
 20
26592.989579113779
 30
0.0
 11
13909.42535845111
 21
26418.78280420963
 31
0.0
  0
LINE
  5
1D5
  8
FUTO
 10
13945.42535845111
 20
26578.46159590656
 30
0.0
 11
13945.42535845111
 21
26567.46159590656
 31
0.0
  0
LINE
  5
1D6
  8
FUTO
 10
13873.42535845111
 20
26578.46159590656
 30
0.0
 11
13873.42535845111
 21
26567.46159590656
 31
0.0
  0
LINE
  5
1D7
  8
FUTO
 10
13852.92535845111
 20
26567.46159590656
 30
0.0
 11
13965.92535845111
 21
26567.46159590656
 31
0.0
  0
LINE
  5
1D8
  8
FUTO
 10
13873.42535845111
 20
26443.46159590656
 30
0.0
 11
13945.42535845111
 21
26443.46159590656
 31
0.0
  0
LINE
  5
1D9
  8
FUTO
 10
13867.42535845111
 20
26449.46159590656
 30
0.0
 11
13951.42535845111
 21
26449.46159590656
 31
0.0
  0
LINE
  5
1DA
  8
FUTO
 10
13873.42535845111
 20
26438.46159590656
 30
0.0
 11
13945.42535845111
 21
26438.46159590656
 31
0.0
  0
LINE
  5
1DB
  8
FUTO
 10
13873.42535845111
 20
26573.46159590656
 30
0.0
 11
13945.42535845111
 21
26573.46159590656
 31
0.0
  0
LINE
  5
1DC
  8
FUTO
 10
13843.92535845111
 20
26482.46159590657
 30
0.0
 11
13974.92535845111
 21
26482.46159590657
 31
0.0
  0
ARC
  5
1DD
  8
FUTO
 10
13867.42535845111
 20
26456.46159590656
 30
0.0
 40
7.0
 50
179.99999999999989
 51
269.99999999999977
  0
LINE
  5
1DE
  8
FUTO
 10
13860.425358451101
 20
26482.46159590657
 30
0.0
 11
13860.425358451101
 21
26456.46159590656
 31
0.0
  0
LINE
  5
1DF
  8
FUTO
 10
13873.42535845111
 20
26449.46159590656
 30
0.0
 11
13873.42535845111
 21
26438.46159590656
 31
0.0
  0
LINE
  5
1E0
  8
FUTO
 10
13843.92535845111
 20
26558.46159590656
 30
0.0
 11
13843.92535845111
 21
26482.46159590657
 31
0.0
  0
ARC
  5
1E1
  8
FUTO
 10
13852.92535845111
 20
26558.46159590656
 30
0.0
 40
9.0
 50
89.999999999999915
 51
180.0
  0
LINE
  5
1E2
  8
FUTO
 10
13731.309775227701
 20
26438.46159590656
 30
0.0
 11
13731.309775227701
 21
26288.46159590656
 31
0.0
  0
LINE
  5
1E3
  8
FUTO
 10
13974.92535845111
 20
26558.46159590656
 30
0.0
 11
13974.92535845111
 21
26482.46159590657
 31
0.0
  0
ARC
  5
1E4
  8
FUTO
 10
13951.42535845111
 20
26456.46159590656
 30
0.0
 40
7.0
 50
270.00000000000011
 51
0.0000000000000325
  0
LINE
  5
1E5
  8
FUTO
 10
13958.425358451101
 20
26482.46159590657
 30
0.0
 11
13958.425358451101
 21
26456.46159590656
 31
0.0
  0
LINE
  5
1E6
  8
FUTO
 10
13945.42535845111
 20
26449.46159590656
 30
0.0
 11
13945.42535845111
 21
26438.46159590656
 31
0.0
  0
ARC
  5
1E7
  8
FUTO
 10
13965.92535845111
 20
26558.46159590656
 30
0.0
 40
9.0
 50
0.000000000000007
 51
90.0
  0
LINE
  5
1E8
  8
FUTO
 10
14091.309775227701
 20
26438.46159590656
 30
0.0
 11
14091.309775227701
 21
26288.46159590656
 31
0.0
  0
LINE
  5
1E9
  8
FUTO
 10
13873.42535845111
 20
26578.46159590656
 30
0.0
 11
13945.42535845111
 21
26578.46159590656
 31
0.0
  0
LINE
  5
1EC
  8
KL
 10
13656.309775227701
 20
26728.46159590656
 30
0.0
 11
13656.309775227701
 21
26578.46159590656
 31
0.0
  0
LINE
  5
1ED
  8
FUTO
 10
13731.309775227701
 20
26728.46159590656
 30
0.0
 11
13731.309775227701
 21
26578.46159590656
 31
0.0
  0
LINE
  5
1EE
  8
KL
 10
13731.309775227701
 20
26742.626490444982
 30
0.0
 11
13731.309775227701
 21
26578.46159590656
 31
0.0
  0
LINE
  5
1EF
  8
FUTO
 10
14091.309775227701
 20
26728.46159590656
 30
0.0
 11
14091.309775227701
 21
26578.46159590656
 31
0.0
  0
LINE
  5
1F0
  8
FUTO
 10
11342.42986078286
 20
32022.69911052944
 30
0.0
 11
11342.42986078286
 21
31870.699110529429
 31
0.0
  0
LINE
  5
1F1
  8
FUTO
 10
11091.309775227701
 20
32032.699110529429
 30
0.0
 11
11091.309775227701
 21
32022.69911052944
 31
0.0
  0
LINE
  5
1F2
  8
CT
 10
11531.309775227701
 20
31948.070999087551
 30
0.0
 11
11531.309775227701
 21
30404.60428748278
 31
0.0
  0
LINE
  5
1F3
  8
FUTO
 10
12331.309775227701
 20
32022.699110529429
 30
0.0
 11
12331.309775227701
 21
30650.699110529429
 31
0.0
  0
LINE
  5
1F4
  8
FUTO
 10
12406.309775227701
 20
32022.699110529429
 30
0.0
 11
12406.309775227701
 21
30725.699110529429
 31
0.0
  0
LINE
  5
1F5
  8
FUTO
 10
13656.309775227701
 20
32022.699110529429
 30
0.0
 11
13656.309775227701
 21
30725.699110529429
 31
0.0
  0
LINE
  5
1F6
  8
FUTO
 10
13731.309775227701
 20
32022.699110529429
 30
0.0
 11
13731.309775227701
 21
30650.699110529429
 31
0.0
  0
ARC
  5
263
  8
FUTO
 10
13031.309775227701
 20
28168.46159590656
 30
0.0
 40
480.0
 50
299.81253858245299
 51
132.1967714101884
  0
LINE
  5
267
  8
FUTO
 10
11137.36244523616
 20
28159.46159590657
 30
0.0
 11
12195.33757492356
 21
28159.46159590657
 31
0.0
  0
LINE
  5
268
  8
FUTO
 10
11137.36244523616
 20
28177.46159590656
 30
0.0
 11
12220.427085964669
 21
28177.46159590656
 31
0.0
  0
ARC
  5
269
  8
FUTO
 10
12900.309775227701
 20
28299.46159590657
 30
0.0
 40
1705.0
 50
232.5424727835202
 51
247.13274235252899
  0
ARC
  5
26A
  8
KL
 10
12900.309775227701
 20
28299.46159590657
 30
0.0
 40
1685.0
 50
185.38794086100319
 51
265.16337676580599
  0
LINE
  5
26D
  8
FUTO
 10
11990.309775227701
 20
29268.46159590656
 30
0.0
 11
11990.309775227701
 21
28168.46159590656
 31
0.0
  0
LINE
  5
26E
  8
FUTO
 10
11981.309775227701
 20
29268.46159590656
 30
0.0
 11
11981.309775227701
 21
28168.46159590656
 31
0.0
  0
LINE
  5
26F
  8
KL
 10
13030.847126204349
 20
26620.46159590657
 30
0.0
 11
12758.23937014627
 21
26620.46159590657
 31
0.0
  0
LINE
  5
272
  8
CT
 10
11429.603360603431
 20
27528.46159590656
 30
0.0
 11
11275.306423083741
 21
27528.46159590656
 31
0.0
  0
LINE
  5
273
  8
FUTO
 10
11741.309775227701
 20
27668.46159590656
 30
0.0
 11
11351.309775227701
 21
27668.46159590656
 31
0.0
  0
LINE
  5
274
  8
FUTO
 10
11741.309775227701
 20
27403.46159590656
 30
0.0
 11
11351.309775227701
 21
27403.46159590656
 31
0.0
  0
ARC
  5
275
  8
FUTO
 10
11351.309775227701
 20
27648.46159590656
 30
0.0
 40
20.0
 50
90.0
 51
180.0
  0
ARC
  5
276
  8
FUTO
 10
11351.309775227701
 20
27423.46159590656
 30
0.0
 40
20.0
 50
180.0
 51
270.0
  0
LINE
  5
277
  8
FUTO
 10
11331.309775227701
 20
27648.46159590656
 30
0.0
 11
11331.309775227701
 21
27423.46159590656
 31
0.0
  0
ARC
  5
279
  8
FUTO
 10
11741.309775227701
 20
27648.46159590656
 30
0.0
 40
20.0
 50
0.000000000000007
 51
90.0
  0
LINE
  5
27A
  8
FUTO
 10
11310.618029569399
 20
27671.376767553411
 30
0.0
 11
11274.30479160273
 21
27654.443626597149
 31
0.0
  0
LINE
  5
27B
  8
CT
 10
11373.65087622711
 20
27629.049901932649
 30
0.0
 11
11266.704592991049
 21
27579.180031048461
 31
0.0
  0
LINE
  5
27C
  8
FUTO
 10
11261.01553111495
 20
27659.280521850109
 30
0.0
 11
11324.40827037606
 21
27523.334353794609
 31
0.0
  0
LINE
  5
27D
  8
FUTO
 10
11274.30479160273
 20
27654.443626597149
 30
0.0
 11
11329.24516562902
 21
27536.62361428238
 31
0.0
  0
LINE
  5
27E
  8
FUTO
 10
11306.39184695199
 20
27680.439845423771
 30
0.0
 11
11261.015531114959
 21
27659.280521850109
 31
0.0
  0
LINE
  5
27F
  8
KL
 10
11369.7845862131
 20
27544.493677368278
 30
0.0
 11
11324.40827037606
 21
27523.334353794609
 31
0.0
  0
LINE
  5
280
  8
KL
 10
11365.558403595691
 20
27553.556755238649
 30
0.0
 11
11329.24516562902
 21
27536.62361428238
 31
0.0
  0
ARC
  5
281
  8
FUTO
 10
11741.309775227701
 20
27423.46159590656
 30
0.0
 40
20.0
 50
270.0
 51
0.000000000000007
  0
LINE
  5
282
  8
FUTO
 10
11761.309775227701
 20
27648.46159590656
 30
0.0
 11
11761.309775227701
 21
27423.46159590656
 31
0.0
  0
LINE
  5
283
  8
FUTO
 10
11137.36244523616
 20
28177.46159590656
 30
0.0
 11
11137.36244523616
 21
28159.46159590657
 31
0.0
  0
LINE
  5
285
  8
FUTO
 10
13029.309775227701
 20
29268.46159590656
 30
0.0
 11
11041.309775227701
 21
29268.46159590656
 31
0.0
  0
LINE
  5
286
  8
FUTO
 10
12816.75000319536
 20
29333.46159590657
 30
0.0
 11
11789.347834450569
 21
29333.46159590657
 31
0.0
  0
LINE
  5
287
  8
FUTO
 10
12816.75000319536
 20
29333.46159590657
 30
0.0
 11
11041.309775227701
 21
29333.46159590657
 31
0.0
  0
LINE
  5
288
  8
FUTO
 10
12817.807965079621
 20
29327.46159590656
 30
0.0
 11
11783.347834450569
 21
29327.46159590656
 31
0.0
  0
CIRCLE
  5
295
  8
SL
 10
13031.309775227701
 20
28168.46159590656
 30
0.0
 40
355.0
  0
ARC
  5
296
  8
FUTO
 10
13083.309775227701
 20
28258.528237900151
 30
0.0
 40
15.000000000000099
 50
325.86450299682889
 51
154.1354970031779
  0
ARC
  5
297
  8
FUTO
 10
13031.309775227701
 20
28168.46159590656
 30
0.0
 40
103.9999999999995
 50
68.270994006339905
 51
111.72900599366061
  0
LINE
  5
298
  8
CT
 10
13031.309775227701
 20
28292.230355071271
 30
0.0
 11
13031.309775227701
 21
28038.637872004441
 31
0.0
  0
ARC
  5
299
  8
FUTO
 10
12979.309775227701
 20
28258.528237900151
 30
0.0
 40
15.000000000000201
 50
25.864502996822338
 51
214.13549700317051
  0
ARC
  5
29E
  8
FUTO
 10
13083.309775227701
 20
28078.394953912979
 30
0.0
 40
14.99999999999998
 50
205.8645029968221
 51
34.135497003171601
  0
CIRCLE
  5
29F
  8
FUTO
 10
13031.309775227701
 20
28168.46159590656
 30
0.0
 40
41.5
  0
LINE
  5
2A0
  8
FUTO
 10
12946.309775227701
 20
28061.46159590656
 30
0.0
 11
13116.309775227701
 21
28061.46159590656
 31
0.0
  0
LINE
  5
2A2
  8
KL
 10
13373.35820105174
 20
28046.46159590656
 30
0.0
 11
13031.309775227701
 21
28046.46159590656
 31
0.0
  0
LINE
  5
2A4
  8
FUTO
 10
12907.309775227701
 20
28092.46159590656
 30
0.0
 11
12839.309775227701
 21
28092.46159590656
 31
0.0
  0
LINE
  5
2A5
  8
FUTO
 10
12826.309775227701
 20
28056.46159590656
 30
0.0
 11
12946.309775227701
 21
28056.46159590656
 31
0.0
  0
LINE
  5
2A6
  8
KL
 10
12689.26134940365
 20
28046.46159590656
 30
0.0
 11
13031.309775227701
 21
28046.46159590656
 31
0.0
  0
LINE
  5
2A7
  8
FUTO
 10
12826.309775227701
 20
28056.46159590656
 30
0.0
 11
12826.309775227701
 21
28046.46159590656
 31
0.0
  0
ARC
  5
2A8
  8
FUTO
 10
12839.309775227701
 20
28089.46159590656
 30
0.0
 40
3.0
 50
90.0
 51
180.0
  0
LINE
  5
2A9
  8
FUTO
 10
12836.309775227701
 20
28089.46159590656
 30
0.0
 11
12836.309775227701
 21
28056.46159590656
 31
0.0
  0
LINE
  5
2AA
  8
KL
 10
12831.309775227701
 20
28177.46159590656
 30
0.0
 11
12831.309775227701
 21
28159.46159590657
 31
0.0
  0
ARC
  5
2AD
  8
FUTO
 10
13031.309775227701
 20
28168.46159590657
 30
0.0
 40
104.0000000000007
 50
248.2709940063402
 51
291.72900599366039
  0
ARC
  5
2AE
  8
FUTO
 10
12927.309775227701
 20
28168.46159590656
 30
0.0
 40
15.0
 50
85.864502996829515
 51
274.13549700317049
  0
ARC
  5
2AF
  8
FUTO
 10
12907.309775227701
 20
28112.46159590656
 30
0.0
 40
20.0
 50
270.0
 51
0.000000000000007
  0
LINE
  5
2B0
  8
FUTO
 10
12946.309775227701
 20
28056.46159590656
 30
0.0
 11
12946.309775227701
 21
28061.46159590656
 31
0.0
  0
LINE
  5
2B1
  8
CT
 10
12871.309775227701
 20
28046.46159590656
 30
0.0
 11
12871.309775227701
 21
28102.46159590656
 31
0.0
  0
LINE
  5
2B2
  8
FUTO
 10
12927.309775227701
 20
28153.46159590656
 30
0.0
 11
12927.309775227701
 21
28112.46159590656
 31
0.0
  0
ARC
  5
2B3
  8
FUTO
 10
12979.309775227701
 20
28078.394953912979
 30
0.0
 40
14.999999999999719
 50
145.86450299682909
 51
334.13549700317708
  0
ARC
  5
2B4
  8
FUTO
 10
13031.309775227701
 20
28168.46159590657
 30
0.0
 40
104.0000000000002
 50
188.27099400634009
 51
231.72900599366079
  0
ARC
  5
2B5
  8
FUTO
 10
13031.309775227701
 20
28168.46159590656
 30
0.0
 40
103.9999999999998
 50
128.27099400633969
 51
171.72900599366039
  0
LINE
  5
2B7
  8
FUTO
 10
13236.309775227701
 20
28046.46159590656
 30
0.0
 11
13236.309775227701
 21
28056.46159590656
 31
0.0
  0
ARC
  5
2B8
  8
FUTO
 10
13223.309775227701
 20
28089.46159590656
 30
0.0
 40
3.0
 50
0.000000000000007
 51
90.0
  0
LINE
  5
2B9
  8
FUTO
 10
13226.309775227701
 20
28056.46159590656
 30
0.0
 11
13226.309775227701
 21
28089.46159590656
 31
0.0
  0
LINE
  5
2BA
  8
CT
 10
13191.309775227701
 20
28046.46159590656
 30
0.0
 11
13191.309775227701
 21
28102.46159590656
 31
0.0
  0
LINE
  5
2BB
  8
FUTO
 10
13223.309775227701
 20
28092.46159590656
 30
0.0
 11
13155.309775227701
 21
28092.46159590656
 31
0.0
  0
LINE
  5
2BC
  8
FUTO
 10
13135.309775227701
 20
28112.46159590656
 30
0.0
 11
13135.309775227701
 21
28153.46159590656
 31
0.0
  0
ARC
  5
2BD
  8
FUTO
 10
13155.309775227701
 20
28112.46159590656
 30
0.0
 40
20.0
 50
180.0
 51
270.0
  0
LINE
  5
2BE
  8
FUTO
 10
13116.309775227701
 20
28061.46159590656
 30
0.0
 11
13116.309775227701
 21
28056.46159590656
 31
0.0
  0
LINE
  5
2BF
  8
FUTO
 10
13116.309775227701
 20
28056.46159590656
 30
0.0
 11
13236.309775227701
 21
28056.46159590656
 31
0.0
  0
ARC
  5
2C0
  8
FUTO
 10
13135.309775227701
 20
28168.46159590656
 30
0.0
 40
15.0
 50
270.0
 51
94.135497003170499
  0
ARC
  5
2C1
  8
FUTO
 10
13031.309775227701
 20
28168.46159590656
 30
0.0
 40
103.9999999999998
 50
308.27099400633961
 51
351.72900599366039
  0
ARC
  5
2C2
  8
FUTO
 10
13031.309775227701
 20
28168.46159590656
 30
0.0
 40
103.9999999999994
 50
8.2709940063397234
 51
51.729005993660351
  0
INSERT
  5
2C5
  8
FUTO
  2
左回転矢印
 10
13218.744381779939
 20
28866.900669255509
 30
0.0
 41
-2.0
 42
2.0
 43
2.0
  0
LINE
  5
2D0
  8
FUTO
 10
13058.3642777448
 20
28268.880985934349
 30
0.0
 11
13058.3642777448
 21
28272.46159590656
 31
0.0
  0
LINE
  5
2D1
  8
FUTO
 10
13004.25527271059
 20
28268.880985934349
 30
0.0
 11
13004.25527271059
 21
28272.46159590656
 31
0.0
  0
LINE
  5
2D2
  8
FUTO
 10
13004.25527271059
 20
28272.46159590656
 30
0.0
 11
13058.3642777448
 21
28272.46159590656
 31
0.0
  0
LINE
  5
2D3
  8
FUTO
 10
13029.309775227701
 20
29327.46159590656
 30
0.0
 11
12781.96138428757
 21
29327.46159590656
 31
0.0
  0
LINE
  5
2D4
  8
FUTO
 10
13029.309775227701
 20
29333.46159590657
 30
0.0
 11
12780.622801128609
 21
29333.46159590657
 31
0.0
  0
LINE
  5
2D5
  8
FUTO
 10
13029.309775227701
 20
29333.46159590657
 30
0.0
 11
12835.027682209309
 21
29333.46159590657
 31
0.0
  0
ARC
  5
2D6
  8
KL
 10
13141.809775227701
 20
28278.96159590657
 30
0.0
 40
960.5
 50
90.000000000000028
 51
125.7006366044336
  0
LINE
  5
2D8
  8
FUTO
 10
12980.309775227701
 20
29248.558085066521
 30
0.0
 11
12980.309775227701
 21
29333.46159590657
 31
0.0
  0
LINE
  5
2D9
  8
FUTO
 10
13029.309775227701
 20
29268.46159590656
 30
0.0
 11
13029.309775227701
 21
29333.46159590657
 31
0.0
  0
LINE
  5
2DA
  8
FUTO
 10
13029.309775227701
 20
29268.46159590656
 30
0.0
 11
13029.309775227701
 21
29333.46159590657
 31
0.0
  0
LINE
  5
2DB
  8
KL
 10
12960.309775227701
 20
29222.15722778788
 30
0.0
 11
12960.309775227701
 21
29333.46159590657
 31
0.0
  0
LINE
  5
2DD
  8
FUTO
 10
11090.2210180701
 20
29333.46159590657
 30
0.0
 11
11202.842892011509
 21
28139.364186857259
 31
0.0
  0
LINE
  5
2DE
  8
KL
 10
11110.309775227701
 20
29333.46159590657
 30
0.0
 11
11222.75452700524
 21
28141.242162329971
 31
0.0
  0
LINE
  5
2E3
  8
FUTO
 10
11783.347834450569
 20
29327.46159590656
 30
0.0
 11
11041.309775227701
 21
29327.46159590656
 31
0.0
  0
LINE
  5
2E4
  8
FUTO
 10
11041.309775227701
 20
29268.46159590656
 30
0.0
 11
11041.309775227701
 21
29333.46159590657
 31
0.0
  0
LINE
  5
2FF
  8
FUTO
 10
11091.309775227701
 20
30725.699110529429
 30
0.0
 11
13731.309775227701
 21
30725.699110529429
 31
0.0
  0
LINE
  5
300
  8
FUTO
 10
11091.309775227701
 20
30650.699110529429
 30
0.0
 11
13731.309775227701
 21
30650.699110529429
 31
0.0
  0
LINE
  5
3C8
  8
FUTO
 10
11106.309775227701
 20
33425.699110529422
 30
0.0
 11
14323.309775227701
 21
33425.699110529429
 31
0.0
  0
LINE
  5
3C9
  8
FUTO
 10
11971.309775227701
 20
32097.699110529429
 30
0.0
 11
14323.309775227701
 21
32097.699110529418
 31
0.0
  0
LINE
  5
3CA
  8
FUTO
 10
11971.309775227701
 20
32022.69911052944
 30
0.0
 11
14091.309775227701
 21
32022.699110529429
 31
0.0
  0
LINE
  5
3CB
  8
FUTO
 10
11971.309775227701
 20
33500.699110529429
 30
0.0
 11
14091.309775227701
 21
33500.699110529429
 31
0.0
  0
LINE
  5
3DA
  8
FUTO
 10
11091.309775227701
 20
32022.69911052944
 30
0.0
 11
12331.309775227701
 21
32022.69911052944
 31
0.0
  0
LINE
  5
3DB
  8
FUTO
 10
11106.309775227701
 20
32097.699110529429
 30
0.0
 11
11427.309775227701
 21
32097.699110529429
 31
0.0
  0
LINE
  5
406
  8
FUTO
 10
14091.309775227701
 20
32022.699110529429
 30
0.0
 11
14091.309775227701
 21
32047.699110529429
 31
0.0
  0
LINE
  5
438
  8
SL
 10
16086.272692163489
 20
28446.835395906561
 30
0.0
 11
16086.272692163489
 21
27216.835395906572
 31
0.0
  0
LINE
  5
439
  8
SL
 10
15916.272692163489
 20
28446.835395906561
 30
0.0
 11
15916.2726921635
 21
27216.835395906572
 31
0.0
  0
LINE
  5
43A
  8
CT
 10
18216.272692163489
 20
29411.006238842208
 30
0.0
 11
18216.272692163489
 21
26219.247382138408
 31
0.0
  0
LINE
  5
43C
  8
FUTO
 10
18879.47269216349
 20
26728.46157930058
 30
0.0
 11
18879.47269216349
 21
28235.535395906569
 31
0.0
  0
LINE
  5
43D
  8
FUTO
 10
18876.2726921635
 20
26728.46157930058
 30
0.0
 11
18876.272692163489
 21
28235.535395906569
 31
0.0
  0
LINE
  5
43E
  8
FUTO
 10
17556.272692163489
 20
26728.46157930058
 30
0.0
 11
17556.272692163489
 21
28235.535395906569
 31
0.0
  0
LINE
  5
43F
  8
FUTO
 10
17553.0726921635
 20
26728.46157930058
 30
0.0
 11
17553.072692163489
 21
28235.535395906569
 31
0.0
  0
LINE
  5
441
  8
FUTO
 10
16116.272692163489
 20
28546.835395906572
 30
0.0
 11
16116.272692163489
 21
26826.835395906561
 31
0.0
  0
LINE
  5
442
  8
FUTO
 10
15766.272692163489
 20
28546.835395906572
 30
0.0
 11
15766.272692163489
 21
26826.835395906561
 31
0.0
  0
LINE
  5
445
  8
FUTO
 10
17166.272692163489
 20
28016.835395906561
 30
0.0
 11
17166.272692163489
 21
28006.835395906572
 31
0.0
  0
LINE
  5
446
  8
FUTO
 10
17346.272692163489
 20
28016.835395906561
 30
0.0
 11
17346.272692163489
 21
26728.46157930058
 31
0.0
  0
LINE
  5
449
  8
FUTO
 10
16345.272692163489
 20
28044.835395906572
 30
0.0
 11
16345.272692163489
 21
28006.835395906572
 31
0.0
  0
LINE
  5
44A
  8
FUTO
 10
16165.272692163489
 20
28044.835395906561
 30
0.0
 11
16165.272692163489
 21
27386.835395906561
 31
0.0
  0
DIMENSION
  5
44B
  8
SP
  2
*D21
 10
19591.280834375219
 20
27266.835395906572
 30
0.0
 11
19511.280834375219
 21
28166.835395906572
 31
0.0
 70
     0
  1
%%C<>
 13
19011.272692163489
 23
29066.835395906561
 33
0.0
 14
19011.272692163489
 24
27266.835395906572
 34
0.0
 50
90.0
1001
ACAD
1000
DSTYLE
1002
{
1070
    40
1040
40.0
1002
}
  0
LINE
  5
461
  8
KL
 10
18885.47269216349
 20
29131.835395906572
 30
0.0
 11
18885.47269216349
 21
27201.835395906572
 31
0.0
  0
LINE
  5
462
  8
FUTO
 10
19005.272692163489
 20
29131.835395906572
 30
0.0
 11
19005.272692163489
 21
27201.835395906572
 31
0.0
  0
LINE
  5
463
  8
FUTO
 10
19011.272692163489
 20
29131.835395906572
 30
0.0
 11
19011.272692163489
 21
27201.835395906572
 31
0.0
  0
LINE
  5
464
  8
FUTO
 10
17463.072692163489
 20
28141.81624060082
 30
0.0
 11
17463.072692163489
 21
26728.46157930058
 31
0.0
  0
LINE
  5
465
  8
FUTO
 10
18969.47269216349
 20
28141.81624060082
 30
0.0
 11
18969.47269216349
 21
26728.46157930058
 31
0.0
  0
LINE
  5
46B
  8
FUTO
 10
17477.272692163489
 20
26426.46157930058
 30
0.0
 11
18880.268692163489
 21
26426.46157930058
 31
0.0
  0
LINE
  5
46C
  8
FUTO
 10
17477.272692163489
 20
26300.46157930058
 30
0.0
 11
18880.268692163489
 21
26300.46157930058
 31
0.0
  0
LINE
  5
46D
  8
FUTO
 10
17477.272692163489
 20
26590.46157930058
 30
0.0
 11
18880.268692163489
 21
26590.46157930058
 31
0.0
  0
LINE
  5
46E
  8
FUTO
 10
17477.272692163489
 20
26716.46157930058
 30
0.0
 11
18880.268692163489
 21
26716.46157930058
 31
0.0
  0
LINE
  5
46F
  8
KL
 10
17556.272692163489
 20
26614.835395906572
 30
0.0
 11
18876.2726921635
 21
26614.835395906572
 31
0.0
  0
LINE
  5
470
  8
FUTO
 10
16105.27669216349
 20
26438.46157930058
 30
0.0
 11
18960.272692163489
 21
26438.46157930058
 31
0.0
1001
ACAD
1000
ASC_BOUNDS
1002
{
1070
    19
1002
}
  0
LINE
  5
471
  8
FUTO
 10
16105.272692163489
 20
26578.46157930058
 30
0.0
 11
18955.272692163489
 21
26578.46157930058
 31
0.0
1001
ACAD
1000
ASC_BOUNDS
1002
{
1070
    19
1005
0
1005
0
1005
0
1002
}
  0
DIMENSION
  5
472
  8
SP
  2
*D14
 10
18216.272692163489
 20
25848.98096653627
 30
0.0
 11
17160.772692163489
 21
25928.98096653627
 31
0.0
 70
     0
 13
16105.272692163489
 23
26288.46157930058
 33
0.0
 14
18216.272692163489
 24
26267.534527306641
 34
0.0
1001
ACAD
1000
DSTYLE
1002
{
1070
    40
1040
40.0
1002
}
  0
DIMENSION
  5
47F
  8
SP
  2
*D13
 10
18955.272692163489
 20
25548.943421571352
 30
0.0
 11
17530.272692163489
 21
25628.943421571352
 31
0.0
 70
     0
 13
16105.272692163489
 23
26288.46157930058
 33
0.0
 14
18955.272692163489
 24
26288.46157930058
 34
0.0
1001
ACAD
1000
DSTYLE
1002
{
1070
    40
1040
40.0
1002
}
  0
LINE
  5
48C
  8
FUTO
 10
16105.272692163489
 20
26288.46157930058
 30
0.0
 11
18955.268692163489
 21
26288.46157930058
 31
0.0
  0
LINE
  5
48D
  8
FUTO
 10
16105.272692163489
 20
26728.46157930058
 30
0.0
 11
18969.47269216349
 21
26728.46157930058
 31
0.0
  0
LINE
  5
48E
  8
CT
 10
15707.96342061458
 20
27336.835395906572
 30
0.0
 11
16288.465953470701
 21
27336.835395906572
 31
0.0
  0
LINE
  5
48F
  8
FUTO
 10
16074.77669216349
 20
26480.835395906561
 30
0.0
 11
16205.77669216349
 21
26480.835395906561
 31
0.0
  0
ARC
  5
490
  8
FUTO
 10
16196.77669216349
 20
26556.835395906561
 30
0.0
 40
9.0
 50
0.0
 51
90.0
  0
LINE
  5
491
  8
FUTO
 10
16180.27669216349
 20
26300.46157930058
 30
0.0
 11
17459.382796769001
 21
26300.46157930058
 31
0.0
  0
LINE
  5
492
  8
FUTO
 10
16180.27669216349
 20
26426.46157930058
 30
0.0
 11
17459.382796769009
 21
26426.46157930058
 31
0.0
  0
LINE
  5
493
  8
FUTO
 10
16180.27669216349
 20
26716.46157930058
 30
0.0
 11
17459.382796769009
 21
26716.46157930058
 31
0.0
  0
LINE
  5
494
  8
FUTO
 10
16180.27669216349
 20
26590.46157930058
 30
0.0
 11
17459.382796769009
 21
26590.46157930058
 31
0.0
  0
LINE
  5
495
  8
CT
 10
16140.27669216349
 20
26591.36337911378
 30
0.0
 11
16140.27669216349
 21
26417.156604209631
 31
0.0
  0
LINE
  5
496
  8
FUTO
 10
16183.77669216349
 20
26576.835395906572
 30
0.0
 11
16183.77669216349
 21
26565.835395906561
 31
0.0
  0
LINE
  5
497
  8
FUTO
 10
16178.77669216349
 20
26576.835395906572
 30
0.0
 11
16178.77669216349
 21
26571.835395906561
 31
0.0
  0
LINE
  5
498
  8
FUTO
 10
16096.77669216349
 20
26576.835395906572
 30
0.0
 11
16096.77669216349
 21
26565.835395906561
 31
0.0
  0
LINE
  5
499
  8
FUTO
 10
16101.77669216349
 20
26576.835395906572
 30
0.0
 11
16101.77669216349
 21
26571.835395906561
 31
0.0
  0
LINE
  5
49A
  8
FUTO
 10
16083.77669216349
 20
26565.835395906561
 30
0.0
 11
16196.77669216349
 21
26565.835395906561
 31
0.0
  0
LINE
  5
49B
  8
FUTO
 10
16101.77669216349
 20
26441.835395906561
 30
0.0
 11
16101.77669216349
 21
26436.835395906561
 31
0.0
  0
LINE
  5
49C
  8
FUTO
 10
16096.77669216349
 20
26447.997998740972
 30
0.0
 11
16096.77669216349
 21
26436.835395906561
 31
0.0
  0
LINE
  5
49D
  8
FUTO
 10
16096.77669216349
 20
26436.835395906561
 30
0.0
 11
16101.77669216349
 21
26436.835395906561
 31
0.0
  0
LINE
  5
49E
  8
FUTO
 10
16178.77669216349
 20
26441.835395906561
 30
0.0
 11
16178.77669216349
 21
26436.835395906561
 31
0.0
  0
LINE
  5
49F
  8
FUTO
 10
16178.77669216349
 20
26436.835395906561
 30
0.0
 11
16183.77669216349
 21
26436.835395906561
 31
0.0
  0
LINE
  5
4A0
  8
FUTO
 10
16183.77669216349
 20
26447.997998740972
 30
0.0
 11
16183.77669216349
 21
26436.835395906561
 31
0.0
  0
LINE
  5
4A1
  8
FUTO
 10
16101.77669216349
 20
26441.835395906561
 30
0.0
 11
16178.77669216349
 21
26441.835395906561
 31
0.0
  0
LINE
  5
4A2
  8
FUTO
 10
16189.27669216349
 20
26480.835395906561
 30
0.0
 11
16189.27669216349
 21
26454.835395906561
 31
0.0
  0
ARC
  5
4A3
  8
FUTO
 10
16182.27669216349
 20
26454.835395906561
 30
0.0
 40
7.0
 50
270.00000000000011
 51
0.0000000000000254
  0
LINE
  5
4A4
  8
FUTO
 10
16098.27669216349
 20
26447.835395906561
 30
0.0
 11
16182.27669216349
 21
26447.835395906561
 31
0.0
  0
LINE
  5
4A5
  8
FUTO
 10
16091.27669216349
 20
26480.835395906561
 30
0.0
 11
16091.27669216349
 21
26454.835395906561
 31
0.0
  0
ARC
  5
4A6
  8
FUTO
 10
16098.27669216349
 20
26454.835395906561
 30
0.0
 40
7.0
 50
179.99999999999989
 51
269.99999999999977
  0
ARC
  5
4A7
  8
FUTO
 10
16083.77669216349
 20
26556.835395906561
 30
0.0
 40
9.0
 50
89.999999999999915
 51
180.0
  0
LINE
  5
4A8
  8
FUTO
 10
16074.77669216349
 20
26556.835395906561
 30
0.0
 11
16074.77669216349
 21
26480.835395906561
 31
0.0
  0
LINE
  5
4A9
  8
FUTO
 10
16101.77669216349
 20
26571.835395906561
 30
0.0
 11
16178.77669216349
 21
26571.835395906561
 31
0.0
  0
LINE
  5
4AA
  8
FUTO
 10
16180.27669216349
 20
26438.46157930058
 30
0.0
 11
16180.27669216349
 21
26288.46157930058
 31
0.0
  0
LINE
  5
4AB
  8
FUTO
 10
16180.27669216349
 20
26288.46157930058
 30
0.0
 11
16105.27669216349
 21
26288.46157930058
 31
0.0
  0
LINE
  5
4AC
  8
FUTO
 10
16170.125315134481
 20
26301.138611930051
 30
0.0
 11
16108.9280691925
 21
26295.784546671111
 31
0.0
  0
LINE
  5
4AD
  8
FUTO
 10
16180.27669216349
 20
26438.46157930058
 30
0.0
 11
16105.27669216349
 21
26438.46157930058
 31
0.0
1001
ACAD
1000
ASC_BOUNDS
1002
{
1070
    19
1002
}
  0
LINE
  5
4AE
  8
FUTO
 10
16170.125315134481
 20
26425.784546671111
 30
0.0
 11
16108.9280691925
 21
26431.13861193004
 31
0.0
  0
LINE
  5
4AF
  8
FUTO
 10
16173.77669216349
 20
26421.799767878751
 30
0.0
 11
16173.77669216349
 21
26305.123390722409
 31
0.0
  0
ARC
  5
4B0
  8
FUTO
 10
16169.77669216349
 20
26305.123390722409
 30
0.0
 40
4.0
 50
274.99999999999972
 51
0.0
  0
LINE
  5
4B1
  8
FUTO
 10
16180.27669216349
 20
26438.46157930058
 30
0.0
 11
16180.27669216349
 21
26288.46157930058
 31
0.0
  0
ARC
  5
4B2
  8
FUTO
 10
16169.77669216349
 20
26421.799767878751
 30
0.0
 40
4.0
 50
0.0
 51
85.000000000000256
  0
ARC
  5
4B3
  8
FUTO
 10
16109.27669216349
 20
26291.799767878751
 30
0.0
 40
4.0
 50
95.000000000000185
 51
180.0
  0
LINE
  5
4B4
  8
FUTO
 10
16105.27669216349
 20
26288.46157930058
 30
0.0
 11
16105.27669216349
 21
26291.799767878751
 31
0.0
  0
LINE
  5
4B5
  8
FUTO
 10
16105.27669216349
 20
26438.46157930058
 30
0.0
 11
16105.27669216349
 21
26435.123390722409
 31
0.0
  0
ARC
  5
4B6
  8
FUTO
 10
16109.27669216349
 20
26435.123390722409
 30
0.0
 40
4.0
 50
180.0
 51
264.99999999999977
  0
ARC
  5
4B7
  8
FUTO
 10
16110.272692163489
 20
26290.883579300578
 30
0.0
 40
5.0
 50
95.001000000000005
 51
180.00099999999989
  0
LINE
  5
4B8
  8
FUTO
 10
16109.83969216349
 20
26295.864579300582
 30
0.0
 11
16164.64369216349
 21
26300.66157930058
 31
0.0
  0
LINE
  5
4B9
  8
FUTO
 10
16105.272692163489
 20
26288.46157930058
 30
0.0
 11
16105.272692163489
 21
26290.883579300578
 31
0.0
  0
LINE
  5
4BA
  8
FUTO
 10
16105.272692163489
 20
26288.46157930058
 30
0.0
 11
16180.272692163489
 21
26288.46157930058
 31
0.0
  0
LINE
  5
4BB
  8
SL
 10
16086.272692163489
 20
27216.835395906572
 30
0.0
 11
16086.272692163489
 21
26936.835395906572
 31
0.0
  0
LINE
  5
4BC
  8
SL
 10
15916.272692163489
 20
27216.835395906572
 30
0.0
 11
15916.272692163489
 21
26936.835395906572
 31
0.0
  0
LINE
  5
4BD
  8
SL
 10
15916.272692163489
 20
26936.835395906572
 30
0.0
 11
16086.272692163489
 21
26936.835395906572
 31
0.0
  0
LINE
  5
4BE
  8
FUTO
 10
15766.272692163489
 20
26826.835395906561
 30
0.0
 11
16116.272692163489
 21
26826.835395906561
 31
0.0
  0
LINE
  5
4BF
  8
FUTO
 10
16178.77669216349
 20
26576.835395906572
 30
0.0
 11
16183.77669216349
 21
26576.835395906572
 31
0.0
  0
LINE
  5
4C0
  8
FUTO
 10
16096.77669216349
 20
26576.835395906572
 30
0.0
 11
16101.77669216349
 21
26576.835395906572
 31
0.0
  0
LINE
  5
4C1
  8
FUTO
 10
16105.272692163489
 20
26578.46157930058
 30
0.0
 11
16180.272692163489
 21
26578.46157930058
 31
0.0
  0
LINE
  5
4C2
  8
FUTO
 10
16105.272692163489
 20
26578.46157930058
 30
0.0
 11
16105.272692163489
 21
26580.883579300578
 31
0.0
  0
LINE
  5
4C3
  8
FUTO
 10
16109.83969216349
 20
26585.864579300582
 30
0.0
 11
16164.64369216349
 21
26590.66157930058
 31
0.0
  0
ARC
  5
4C4
  8
FUTO
 10
16109.27669216349
 20
26725.123390722409
 30
0.0
 40
4.0
 50
180.0
 51
264.99999999999977
  0
LINE
  5
4C5
  8
FUTO
 10
16105.27669216349
 20
26728.46157930058
 30
0.0
 11
16105.27669216349
 21
26725.123390722409
 31
0.0
  0
LINE
  5
4C6
  8
FUTO
 10
16105.27669216349
 20
26578.46157930058
 30
0.0
 11
16105.27669216349
 21
26581.799767878751
 31
0.0
  0
ARC
  5
4C7
  8
FUTO
 10
16109.27669216349
 20
26581.799767878751
 30
0.0
 40
4.0
 50
95.000000000000185
 51
180.0
  0
ARC
  5
4C8
  8
FUTO
 10
16169.77669216349
 20
26711.79976787874
 30
0.0
 40
4.0
 50
0.0
 51
85.000000000000256
  0
LINE
  5
4C9
  8
FUTO
 10
16180.27669216349
 20
26728.46157930058
 30
0.0
 11
16180.27669216349
 21
26578.46157930058
 31
0.0
  0
ARC
  5
4CA
  8
FUTO
 10
16169.77669216349
 20
26595.123390722409
 30
0.0
 40
4.0
 50
274.99999999999972
 51
0.0
  0
LINE
  5
4CB
  8
FUTO
 10
16173.77669216349
 20
26711.79976787874
 30
0.0
 11
16173.77669216349
 21
26595.123390722409
 31
0.0
  0
LINE
  5
4CC
  8
FUTO
 10
16170.125315134481
 20
26715.784546671111
 30
0.0
 11
16108.9280691925
 21
26721.138611930051
 31
0.0
  0
LINE
  5
4CD
  8
FUTO
 10
16180.27669216349
 20
26728.46157930058
 30
0.0
 11
16105.27669216349
 21
26728.46157930058
 31
0.0
  0
LINE
  5
4CE
  8
FUTO
 10
16170.125315134481
 20
26591.138611930051
 30
0.0
 11
16108.9280691925
 21
26585.784546671111
 31
0.0
  0
LINE
  5
4CF
  8
FUTO
 10
16180.27669216349
 20
26578.46157930058
 30
0.0
 11
16105.27669216349
 21
26578.46157930058
 31
0.0
  0
LINE
  5
4D0
  8
FUTO
 10
16180.27669216349
 20
26728.46157930058
 30
0.0
 11
16180.27669216349
 21
26578.46157930058
 31
0.0
  0
LINE
  5
4D1
  8
SL
 10
15916.272692163489
 20
27216.835395906572
 30
0.0
 11
16086.272692163489
 21
27216.835395906572
 31
0.0
  0
LINE
  5
4D4
  8
FUTO
 10
16205.77669216349
 20
26556.835395906561
 30
0.0
 11
16205.77669216349
 21
26480.835395906561
 31
0.0
  0
LINE
  5
4D5
  8
CT
 10
17437.272692163489
 20
26591.36337911378
 30
0.0
 11
17437.272692163489
 21
26417.156604209631
 31
0.0
  0
LINE
  5
4D6
  8
FUTO
 10
17480.772692163489
 20
26576.835395906572
 30
0.0
 11
17480.772692163489
 21
26565.835395906561
 31
0.0
  0
LINE
  5
4D7
  8
FUTO
 10
17475.772692163489
 20
26576.835395906572
 30
0.0
 11
17475.772692163489
 21
26571.835395906561
 31
0.0
  0
LINE
  5
4D8
  8
FUTO
 10
17393.772692163489
 20
26576.835395906572
 30
0.0
 11
17393.772692163489
 21
26565.835395906561
 31
0.0
  0
LINE
  5
4D9
  8
FUTO
 10
17398.772692163489
 20
26576.835395906572
 30
0.0
 11
17398.772692163489
 21
26571.835395906561
 31
0.0
  0
LINE
  5
4DA
  8
FUTO
 10
17475.772692163489
 20
26436.835395906561
 30
0.0
 11
17480.772692163489
 21
26436.835395906561
 31
0.0
  0
LINE
  5
4DB
  8
FUTO
 10
17395.272692163489
 20
26447.835395906561
 30
0.0
 11
17479.272692163489
 21
26447.835395906561
 31
0.0
  0
LINE
  5
4DC
  8
1
 10
17403.073692163489
 20
26288.46157930058
 30
0.0
 11
17478.073692163489
 21
26288.46157930058
 31
0.0
  0
LINE
  5
4DD
  8
FUTO
 10
17380.772692163489
 20
26565.835395906561
 30
0.0
 11
17493.772692163489
 21
26565.835395906561
 31
0.0
  0
LINE
  5
4DE
  8
FUTO
 10
17371.772692163489
 20
26480.835395906561
 30
0.0
 11
17502.772692163489
 21
26480.835395906561
 31
0.0
  0
LINE
  5
4DF
  8
FUTO
 10
17398.772692163489
 20
26441.835395906561
 30
0.0
 11
17398.772692163489
 21
26436.835395906561
 31
0.0
  0
LINE
  5
4E0
  8
FUTO
 10
17393.772692163489
 20
26447.997998740972
 30
0.0
 11
17393.772692163489
 21
26436.835395906561
 31
0.0
  0
LINE
  5
4E1
  8
FUTO
 10
17393.772692163489
 20
26436.835395906561
 30
0.0
 11
17398.772692163489
 21
26436.835395906561
 31
0.0
  0
LINE
  5
4E2
  8
FUTO
 10
17475.772692163489
 20
26441.835395906561
 30
0.0
 11
17475.772692163489
 21
26436.835395906561
 31
0.0
  0
LINE
  5
4E3
  8
FUTO
 10
17398.772692163489
 20
26441.835395906561
 30
0.0
 11
17475.772692163489
 21
26441.835395906561
 31
0.0
  0
LINE
  5
4E4
  8
FUTO
 10
17388.272692163489
 20
26480.835395906561
 30
0.0
 11
17388.272692163489
 21
26454.835395906561
 31
0.0
  0
ARC
  5
4E5
  8
FUTO
 10
17395.272692163489
 20
26454.835395906561
 30
0.0
 40
7.0
 50
179.99999999999989
 51
269.99999999999977
  0
ARC
  5
4E6
  8
FUTO
 10
17380.772692163489
 20
26556.835395906561
 30
0.0
 40
9.0
 50
89.999999999999915
 51
180.0
  0
LINE
  5
4E7
  8
FUTO
 10
17371.772692163489
 20
26556.835395906561
 30
0.0
 11
17371.772692163489
 21
26480.835395906561
 31
0.0
  0
LINE
  5
4E8
  8
FUTO
 10
17398.772692163489
 20
26571.835395906561
 30
0.0
 11
17475.772692163489
 21
26571.835395906561
 31
0.0
  0
LINE
  5
4E9
  8
FUTO
 10
17477.272692163489
 20
26288.46157930058
 30
0.0
 11
17402.272692163489
 21
26288.46157930058
 31
0.0
  0
LINE
  5
4EA
  8
FUTO
 10
17467.121315134478
 20
26301.138611930051
 30
0.0
 11
17405.924069192501
 21
26295.784546671111
 31
0.0
  0
LINE
  5
4EB
  8
FUTO
 10
17402.268692163489
 20
26288.46157930058
 30
0.0
 11
17477.268692163489
 21
26288.46157930058
 31
0.0
  0
LINE
  5
4EC
  8
FUTO
 10
17477.272692163489
 20
26438.46157930058
 30
0.0
 11
17402.272692163489
 21
26438.46157930058
 31
0.0
  0
LINE
  5
4ED
  8
FUTO
 10
17467.121315134478
 20
26425.784546671111
 30
0.0
 11
17405.924069192501
 21
26431.13861193004
 31
0.0
  0
ARC
  5
4EE
  8
FUTO
 10
17406.272692163489
 20
26291.799767878751
 30
0.0
 40
4.0
 50
95.000000000000185
 51
180.0
  0
LINE
  5
4EF
  8
FUTO
 10
17402.272692163489
 20
26288.46157930058
 30
0.0
 11
17402.272692163489
 21
26291.799767878751
 31
0.0
  0
LINE
  5
4F0
  8
FUTO
 10
17402.268692163489
 20
26288.46157930058
 30
0.0
 11
17402.268692163489
 21
26290.883579300578
 31
0.0
  0
LINE
  5
4F1
  8
FUTO
 10
17402.272692163489
 20
26438.46157930058
 30
0.0
 11
17402.272692163489
 21
26435.123390722409
 31
0.0
  0
ARC
  5
4F2
  8
FUTO
 10
17406.272692163489
 20
26435.123390722409
 30
0.0
 40
4.0
 50
180.0
 51
264.99999999999972
  0
LINE
  5
4F3
  8
FUTO
 10
17406.835692163491
 20
26295.864579300582
 30
0.0
 11
17461.639692163491
 21
26300.66157930058
 31
0.0
  0
LINE
  5
4F4
  8
FUTO
 10
17477.272692163489
 20
26438.46157930058
 30
0.0
 11
17477.272692163489
 21
26288.46157930058
 31
0.0
  0
LINE
  5
4F5
  8
FUTO
 10
17470.772692163489
 20
26421.799767878751
 30
0.0
 11
17470.772692163489
 21
26305.123390722409
 31
0.0
  0
LINE
  5
4F6
  8
FUTO
 10
17477.272692163489
 20
26438.46157930058
 30
0.0
 11
17477.272692163489
 21
26288.46157930058
 31
0.0
  0
ARC
  5
4F7
  8
FUTO
 10
17466.772692163489
 20
26305.123390722409
 30
0.0
 40
4.0
 50
275.0
 51
0.0
  0
ARC
  5
4F8
  8
FUTO
 10
17466.772692163489
 20
26421.799767878751
 30
0.0
 40
4.0
 50
0.0
 51
84.999999999999957
  0
ARC
  5
4F9
  8
FUTO
 10
17493.772692163489
 20
26556.835395906561
 30
0.0
 40
9.0
 50
0.0
 51
90.0
  0
LINE
  5
4FA
  8
FUTO
 10
17502.772692163489
 20
26556.835395906561
 30
0.0
 11
17502.772692163489
 21
26480.835395906561
 31
0.0
  0
LINE
  5
4FB
  8
FUTO
 10
17480.772692163489
 20
26447.997998740972
 30
0.0
 11
17480.772692163489
 21
26436.835395906561
 31
0.0
  0
LINE
  5
4FC
  8
FUTO
 10
17486.272692163489
 20
26480.835395906561
 30
0.0
 11
17486.272692163489
 21
26454.835395906561
 31
0.0
  0
ARC
  5
4FD
  8
FUTO
 10
17479.272692163489
 20
26454.835395906561
 30
0.0
 40
7.0
 50
270.00000000000011
 51
0.0000000000000254
  0
LINE
  5
4FE
  8
FUTO
 10
17475.772692163489
 20
26576.835395906572
 30
0.0
 11
17480.772692163489
 21
26576.835395906572
 31
0.0
  0
LINE
  5
4FF
  8
1
 10
17403.073692163489
 20
26578.46157930058
 30
0.0
 11
17478.073692163489
 21
26578.46157930058
 31
0.0
  0
LINE
  5
500
  8
FUTO
 10
17393.772692163489
 20
26576.835395906572
 30
0.0
 11
17398.772692163489
 21
26576.835395906572
 31
0.0
  0
LINE
  5
501
  8
FUTO
 10
17477.272692163489
 20
26728.46157930058
 30
0.0
 11
17402.272692163489
 21
26728.46157930058
 31
0.0
  0
LINE
  5
502
  8
FUTO
 10
17467.121315134478
 20
26715.784546671111
 30
0.0
 11
17405.924069192501
 21
26721.138611930051
 31
0.0
  0
ARC
  5
503
  8
FUTO
 10
17466.772692163489
 20
26711.79976787874
 30
0.0
 40
4.0
 50
0.0
 51
84.999999999999957
  0
LINE
  5
504
  8
FUTO
 10
17402.272692163489
 20
26728.46157930058
 30
0.0
 11
17402.272692163489
 21
26725.123390722409
 31
0.0
  0
ARC
  5
505
  8
FUTO
 10
17406.272692163489
 20
26725.123390722409
 30
0.0
 40
4.0
 50
180.0
 51
264.99999999999972
  0
LINE
  5
506
  8
FUTO
 10
17477.272692163489
 20
26578.46157930058
 30
0.0
 11
17402.272692163489
 21
26578.46157930058
 31
0.0
  0
LINE
  5
507
  8
FUTO
 10
17467.121315134478
 20
26591.138611930051
 30
0.0
 11
17405.924069192501
 21
26585.784546671111
 31
0.0
  0
ARC
  5
508
  8
FUTO
 10
17466.772692163489
 20
26595.123390722409
 30
0.0
 40
4.0
 50
275.0
 51
0.0
  0
ARC
  5
509
  8
FUTO
 10
17406.272692163489
 20
26581.799767878751
 30
0.0
 40
4.0
 50
95.000000000000185
 51
180.0
  0
LINE
  5
50A
  8
FUTO
 10
17402.272692163489
 20
26578.46157930058
 30
0.0
 11
17402.272692163489
 21
26581.799767878751
 31
0.0
  0
LINE
  5
50B
  8
FUTO
 10
17402.268692163489
 20
26578.46157930058
 30
0.0
 11
17402.268692163489
 21
26580.883579300578
 31
0.0
  0
LINE
  5
50C
  8
FUTO
 10
17406.835692163491
 20
26585.864579300582
 30
0.0
 11
17461.639692163491
 21
26590.66157930058
 31
0.0
  0
LINE
  5
50D
  8
FUTO
 10
17402.268692163489
 20
26578.46157930058
 30
0.0
 11
17477.268692163489
 21
26578.46157930058
 31
0.0
  0
LINE
  5
50E
  8
FUTO
 10
17477.272692163489
 20
26728.46157930058
 30
0.0
 11
17477.272692163489
 21
26578.46157930058
 31
0.0
  0
LINE
  5
50F
  8
FUTO
 10
17470.772692163489
 20
26711.79976787874
 30
0.0
 11
17470.772692163489
 21
26595.123390722409
 31
0.0
  0
LINE
  5
510
  8
FUTO
 10
17477.272692163489
 20
26728.46157930058
 30
0.0
 11
17477.272692163489
 21
26578.46157930058
 31
0.0
  0
LINE
  5
511
  8
FUTO
 10
17553.0726921635
 20
26599.835395906572
 30
0.0
 11
17556.2726921635
 21
26599.835395906572
 31
0.0
  0
LINE
  5
512
  8
KL
 10
17553.0726921635
 20
26599.835395906572
 30
0.0
 11
17553.0726921635
 21
26728.46157930058
 31
0.0
  0
LINE
  5
513
  8
KL
 10
17556.272692163489
 20
26599.835395906572
 30
0.0
 11
17556.272692163489
 21
26728.46157930058
 31
0.0
  0
DIMENSION
  5
517
  8
SP
  2
*D15
 10
18955.272692163489
 20
25848.98096653627
 30
0.0
 11
18585.772692163489
 21
25928.98096653627
 31
0.0
 70
     0
 13
18216.272692163489
 23
26267.534527306641
 33
0.0
 14
18955.272692163489
 24
26288.46157930058
 34
0.0
1001
ACAD
1000
DSTYLE
1002
{
1070
   287
1070
     4
1070
    40
1040
40.0
1070
    75
1070
     1
1070
   279
1070
     1
1070
   289
1070
     3
1002
}
  0
LINE
  5
525
  8
FUTO
 10
18881.772692163489
 20
26576.835395906572
 30
0.0
 11
18881.772692163489
 21
26571.835395906561
 31
0.0
  0
LINE
  5
526
  8
FUTO
 10
18876.772692163489
 20
26576.835395906572
 30
0.0
 11
18876.772692163489
 21
26565.835395906561
 31
0.0
  0
LINE
  5
527
  8
FUTO
 10
18958.772692163489
 20
26576.835395906572
 30
0.0
 11
18958.772692163489
 21
26571.835395906561
 31
0.0
  0
LINE
  5
528
  8
FUTO
 10
18963.772692163489
 20
26576.835395906572
 30
0.0
 11
18963.772692163489
 21
26565.835395906561
 31
0.0
  0
LINE
  5
529
  8
CT
 10
18920.272692163489
 20
26591.36337911378
 30
0.0
 11
18920.272692163489
 21
26417.156604209631
 31
0.0
  0
ARC
  5
52A
  8
FUTO
 10
18962.272692163489
 20
26454.835395906561
 30
0.0
 40
7.0
 50
270.00000000000011
 51
0.0000000000000254
  0
LINE
  5
52B
  8
FUTO
 10
18854.772692163489
 20
26480.835395906561
 30
0.0
 11
18985.772692163489
 21
26480.835395906561
 31
0.0
  0
LINE
  5
52C
  8
FUTO
 10
18863.772692163489
 20
26565.835395906561
 30
0.0
 11
18976.772692163489
 21
26565.835395906561
 31
0.0
  0
LINE
  5
52D
  8
FUTO
 10
18881.772692163489
 20
26571.835395906561
 30
0.0
 11
18958.772692163489
 21
26571.835395906561
 31
0.0
  0
LINE
  5
52E
  8
FUTO
 10
18854.772692163489
 20
26556.835395906561
 30
0.0
 11
18854.772692163489
 21
26480.835395906561
 31
0.0
  0
ARC
  5
52F
  8
FUTO
 10
18863.772692163489
 20
26556.835395906561
 30
0.0
 40
9.0
 50
89.999999999999915
 51
180.0
  0
ARC
  5
530
  8
FUTO
 10
18878.272692163489
 20
26454.835395906561
 30
0.0
 40
7.0
 50
179.99999999999989
 51
269.99999999999977
  0
LINE
  5
531
  8
FUTO
 10
18871.272692163489
 20
26480.835395906561
 30
0.0
 11
18871.272692163489
 21
26454.835395906561
 31
0.0
  0
LINE
  5
532
  8
FUTO
 10
18878.272692163489
 20
26447.835395906561
 30
0.0
 11
18962.272692163489
 21
26447.835395906561
 31
0.0
  0
LINE
  5
533
  8
FUTO
 10
18881.772692163489
 20
26441.835395906561
 30
0.0
 11
18958.772692163489
 21
26441.835395906561
 31
0.0
  0
LINE
  5
534
  8
FUTO
 10
18963.772692163489
 20
26447.997998740972
 30
0.0
 11
18963.772692163489
 21
26436.835395906561
 31
0.0
  0
LINE
  5
535
  8
FUTO
 10
18958.772692163489
 20
26436.835395906561
 30
0.0
 11
18963.772692163489
 21
26436.835395906561
 31
0.0
  0
LINE
  5
536
  8
FUTO
 10
18958.772692163489
 20
26441.835395906561
 30
0.0
 11
18958.772692163489
 21
26436.835395906561
 31
0.0
  0
LINE
  5
537
  8
FUTO
 10
18876.772692163489
 20
26436.835395906561
 30
0.0
 11
18881.772692163489
 21
26436.835395906561
 31
0.0
  0
LINE
  5
538
  8
FUTO
 10
18876.772692163489
 20
26447.997998740972
 30
0.0
 11
18876.772692163489
 21
26436.835395906561
 31
0.0
  0
LINE
  5
539
  8
FUTO
 10
18881.772692163489
 20
26441.835395906561
 30
0.0
 11
18881.772692163489
 21
26436.835395906561
 31
0.0
  0
LINE
  5
53A
  8
FUTO
 10
18955.272692163489
 20
26288.46157930058
 30
0.0
 11
18880.272692163489
 21
26288.46157930058
 31
0.0
  0
LINE
  5
53B
  8
FUTO
 10
18950.70569216349
 20
26295.864579300582
 30
0.0
 11
18895.90169216349
 21
26300.66157930058
 31
0.0
  0
LINE
  5
53C
  8
1
 10
18954.467692163489
 20
26288.46157930058
 30
0.0
 11
18879.467692163489
 21
26288.46157930058
 31
0.0
  0
LINE
  5
53D
  8
FUTO
 10
18890.4200691925
 20
26301.138611930051
 30
0.0
 11
18951.617315134481
 21
26295.784546671111
 31
0.0
  0
LINE
  5
53E
  8
FUTO
 10
18880.268692163489
 20
26288.46157930058
 30
0.0
 11
18955.268692163489
 21
26288.46157930058
 31
0.0
  0
LINE
  5
53F
  8
FUTO
 10
18890.4200691925
 20
26425.784546671111
 30
0.0
 11
18951.617315134481
 21
26431.13861193004
 31
0.0
  0
LINE
  5
540
  8
FUTO
 10
18880.268692163489
 20
26438.46157930058
 30
0.0
 11
18955.268692163489
 21
26438.46157930058
 31
0.0
1001
ACAD
1000
ASC_BOUNDS
1002
{
1070
    19
1005
0
1002
}
  0
LINE
  5
541
  8
FUTO
 10
18880.268692163489
 20
26438.46157930058
 30
0.0
 11
18880.268692163489
 21
26288.46157930058
 31
0.0
  0
LINE
  5
542
  8
FUTO
 10
18886.768692163489
 20
26421.799767878751
 30
0.0
 11
18886.768692163489
 21
26305.123390722409
 31
0.0
  0
LINE
  5
543
  8
FUTO
 10
18880.268692163489
 20
26438.46157930058
 30
0.0
 11
18880.268692163489
 21
26288.46157930058
 31
0.0
  0
ARC
  5
544
  8
FUTO
 10
18890.768692163489
 20
26305.123390722409
 30
0.0
 40
4.0
 50
180.0
 51
264.99999999999989
  0
ARC
  5
545
  8
FUTO
 10
18890.768692163489
 20
26421.799767878751
 30
0.0
 40
4.0
 50
95.000000000000057
 51
180.0
  0
LINE
  5
546
  8
FUTO
 10
18955.272692163489
 20
26288.46157930058
 30
0.0
 11
18955.272692163489
 21
26290.883579300578
 31
0.0
  0
LINE
  5
547
  8
FUTO
 10
18955.268692163489
 20
26288.46157930058
 30
0.0
 11
18955.268692163489
 21
26291.799767878751
 31
0.0
  0
ARC
  5
548
  8
FUTO
 10
18951.268692163489
 20
26291.799767878751
 30
0.0
 40
4.0
 50
0.0
 51
84.999999999999801
  0
ARC
  5
549
  8
FUTO
 10
18951.268692163489
 20
26435.123390722409
 30
0.0
 40
4.0
 50
275.00000000000011
 51
0.0
  0
LINE
  5
54A
  8
FUTO
 10
18955.268692163489
 20
26438.46157930058
 30
0.0
 11
18955.268692163489
 21
26435.123390722409
 31
0.0
  0
LINE
  5
54B
  8
FUTO
 10
18985.772692163489
 20
26556.835395906561
 30
0.0
 11
18985.772692163489
 21
26480.835395906561
 31
0.0
  0
ARC
  5
54C
  8
FUTO
 10
18976.772692163489
 20
26556.835395906561
 30
0.0
 40
9.0
 50
0.0
 51
90.0
  0
LINE
  5
54D
  8
FUTO
 10
18969.272692163489
 20
26480.835395906561
 30
0.0
 11
18969.272692163489
 21
26454.835395906561
 31
0.0
  0
LINE
  5
54E
  8
FUTO
 10
18876.2726921635
 20
26614.835395906572
 30
0.0
 11
19026.2726921635
 21
26614.835395906572
 31
0.0
  0
LINE
  5
54F
  8
FUTO
 10
19026.2726921635
 20
26648.835395906572
 30
0.0
 11
18876.2726921635
 21
26648.835395906572
 31
0.0
  0
LINE
  5
550
  8
CT
 10
18841.360006680428
 20
26631.835395906572
 30
0.0
 11
19077.85818515762
 21
26631.835395906572
 31
0.0
  0
LINE
  5
551
  8
FUTO
 10
18876.772692163489
 20
26576.835395906572
 30
0.0
 11
18881.772692163489
 21
26576.835395906572
 31
0.0
  0
LINE
  5
552
  8
FUTO
 10
18958.772692163489
 20
26576.835395906572
 30
0.0
 11
18963.772692163489
 21
26576.835395906572
 31
0.0
  0
LINE
  5
553
  8
KL
 10
18876.2726921635
 20
26599.835395906572
 30
0.0
 11
18879.47269216349
 21
26599.835395906572
 31
0.0
  0
LINE
  5
554
  8
FUTO
 10
18955.272692163489
 20
26578.46157930058
 30
0.0
 11
18880.272692163489
 21
26578.46157930058
 31
0.0
  0
LINE
  5
555
  8
FUTO
 10
18950.70569216349
 20
26585.864579300582
 30
0.0
 11
18895.90169216349
 21
26590.66157930058
 31
0.0
  0
LINE
  5
556
  8
FUTO
 10
18955.272692163489
 20
26578.46157930058
 30
0.0
 11
18955.272692163489
 21
26580.883579300578
 31
0.0
  0
LINE
  5
557
  8
1
 10
18954.467692163489
 20
26578.46157930058
 30
0.0
 11
18879.467692163489
 21
26578.46157930058
 31
0.0
  0
ARC
  5
558
  8
FUTO
 10
18951.268692163489
 20
26725.123390722409
 30
0.0
 40
4.0
 50
275.00000000000011
 51
0.0
  0
LINE
  5
559
  8
FUTO
 10
18955.268692163489
 20
26728.46157930058
 30
0.0
 11
18955.268692163489
 21
26725.123390722409
 31
0.0
  0
LINE
  5
55A
  8
FUTO
 10
18955.268692163489
 20
26578.46157930058
 30
0.0
 11
18955.268692163489
 21
26581.799767878751
 31
0.0
  0
ARC
  5
55B
  8
FUTO
 10
18951.268692163489
 20
26581.799767878751
 30
0.0
 40
4.0
 50
0.0
 51
84.999999999999801
  0
ARC
  5
55C
  8
FUTO
 10
18890.768692163489
 20
26711.79976787874
 30
0.0
 40
4.0
 50
95.000000000000057
 51
180.0
  0
LINE
  5
55D
  8
FUTO
 10
18880.268692163489
 20
26728.46157930058
 30
0.0
 11
18880.268692163489
 21
26578.46157930058
 31
0.0
  0
ARC
  5
55E
  8
FUTO
 10
18890.768692163489
 20
26595.123390722409
 30
0.0
 40
4.0
 50
180.0
 51
264.99999999999989
  0
LINE
  5
55F
  8
FUTO
 10
18886.768692163489
 20
26711.79976787874
 30
0.0
 11
18886.768692163489
 21
26595.123390722409
 31
0.0
  0
LINE
  5
560
  8
FUTO
 10
18890.4200691925
 20
26715.784546671111
 30
0.0
 11
18951.617315134481
 21
26721.138611930051
 31
0.0
  0
LINE
  5
561
  8
FUTO
 10
18880.268692163489
 20
26728.46157930058
 30
0.0
 11
18955.268692163489
 21
26728.46157930058
 31
0.0
  0
LINE
  5
562
  8
FUTO
 10
18890.4200691925
 20
26591.138611930051
 30
0.0
 11
18951.617315134481
 21
26585.784546671111
 31
0.0
  0
LINE
  5
563
  8
FUTO
 10
18880.268692163489
 20
26578.46157930058
 30
0.0
 11
18955.268692163489
 21
26578.46157930058
 31
0.0
  0
LINE
  5
564
  8
FUTO
 10
18880.268692163489
 20
26728.46157930058
 30
0.0
 11
18880.268692163489
 21
26578.46157930058
 31
0.0
  0
LINE
  5
565
  8
KL
 10
18879.47269216349
 20
26599.835395906572
 30
0.0
 11
18879.47269216349
 21
26728.46157930058
 31
0.0
  0
LINE
  5
566
  8
KL
 10
18876.2726921635
 20
26599.835395906572
 30
0.0
 11
18876.2726921635
 21
26728.46157930058
 31
0.0
  0
LINE
  5
567
  8
FUTO
 10
19067.376857309038
 20
26611.007179232729
 30
0.0
 11
19067.376857309038
 21
26652.6636125804
 31
0.0
  0
LINE
  5
568
  8
FUTO
 10
19026.272692163489
 20
26611.007179232729
 30
0.0
 11
19026.272692163489
 21
26652.6636125804
 31
0.0
  0
LINE
  5
569
  8
FUTO
 10
19026.2726921635
 20
26611.007179232729
 30
0.0
 11
19067.376857309038
 21
26611.007179232729
 31
0.0
  0
LINE
  5
56A
  8
FUTO
 10
19026.2726921635
 20
26652.6636125804
 30
0.0
 11
19067.376857309038
 21
26652.6636125804
 31
0.0
  0
LINE
  5
56B
  8
KL
 10
18879.47269216349
 20
27260.835395906572
 30
0.0
 11
18969.47269216349
 21
27260.835395906572
 31
0.0
  0
LINE
  5
56C
  8
KL
 10
18879.47269216349
 20
27266.835395906572
 30
0.0
 11
19011.272692163489
 21
27266.835395906572
 31
0.0
  0
LINE
  5
56D
  8
HOSO
 10
18836.938682552569
 20
27226.835395906572
 30
0.0
 11
18911.046297700839
 21
27226.835395906572
 31
0.0
  0
LINE
  5
56E
  8
KL
 10
18879.47269216349
 20
27201.835395906572
 30
0.0
 11
18885.47269216349
 21
27201.835395906572
 31
0.0
  0
LINE
  5
56F
  8
FUTO
 10
18969.47269216349
 20
27260.835395906572
 30
0.0
 11
19011.272692163489
 21
27260.835395906572
 31
0.0
  0
LINE
  5
570
  8
FUTO
 10
19005.272692163489
 20
27201.835395906572
 30
0.0
 11
19011.272692163489
 21
27201.835395906572
 31
0.0
  0
LINE
  5
571
  8
HOSO
 10
18977.790145977469
 20
27226.835395906572
 30
0.0
 11
19051.897761125729
 21
27226.835395906572
 31
0.0
  0
LINE
  5
600
  8
FUTO
 10
17488.072692163489
 20
28157.835395906561
 30
0.0
 11
18944.47269216349
 21
28157.835395906561
 31
0.0
  0
LINE
  5
601
  8
FUTO
 10
17488.072692163489
 20
28175.835395906572
 30
0.0
 11
18944.47269216349
 21
28175.835395906572
 31
0.0
  0
LINE
  5
61E
  8
CT
 10
15714.34657047871
 20
28166.835395906561
 30
0.0
 11
19210.267995335718
 21
28166.835395906561
 31
0.0
  0
LINE
  5
623
  8
FUTO
 10
16321.772692163489
 20
28270.835395906561
 30
0.0
 11
16188.772692163489
 21
28270.835395906561
 31
0.0
  0
LINE
  5
624
  8
FUTO
 10
16188.772692163489
 20
28062.835395906572
 30
0.0
 11
16200.272692163489
 21
28062.835395906572
 31
0.0
  0
ARC
  5
625
  8
FUTO
 10
16206.272692163489
 20
28084.835395906561
 30
0.0
 40
6.0
 50
90.0
 51
180.0
  0
LINE
  5
626
  8
FUTO
 10
16165.272692163489
 20
28044.835395906561
 30
0.0
 11
16345.272692163489
 21
28044.835395906572
 31
0.0
  0
ARC
  5
628
  8
FUTO
 10
16188.772692163489
 20
28264.835395906572
 30
0.0
 40
6.0
 50
90.0
 51
180.0
  0
LINE
  5
629
  8
SL
 10
15916.272692163489
 20
27886.835395906561
 30
0.0
 11
16086.272692163489
 21
27886.835395906561
 31
0.0
  0
LINE
  5
62A
  8
FUTO
 10
16182.772692163489
 20
28256.835395906561
 30
0.0
 11
16177.772692163489
 21
28256.835395906561
 31
0.0
  0
ARC
  5
62B
  8
FUTO
 10
16188.772692163489
 20
28068.835395906572
 30
0.0
 40
6.0
 50
180.0
 51
270.0
  0
LINE
  5
62C
  8
FUTO
 10
16177.772692163489
 20
28076.835395906572
 30
0.0
 11
16182.772692163489
 21
28076.835395906572
 31
0.0
  0
LINE
  5
62D
  8
FUTO
 10
16182.772692163489
 20
28264.835395906572
 30
0.0
 11
16182.772692163489
 21
28068.835395906572
 31
0.0
  0
LINE
  5
62E
  8
FUTO
 10
16177.772692163489
 20
28256.835395906561
 30
0.0
 11
16177.772692163489
 21
28076.835395906572
 31
0.0
  0
LINE
  5
62F
  8
FUTO
 10
16086.272692163489
 20
28119.335395906561
 30
0.0
 11
16177.772692163489
 21
28119.335395906561
 31
0.0
  0
LINE
  5
630
  8
FUTO
 10
16086.272692163489
 20
28214.335395906561
 30
0.0
 11
16177.772692163489
 21
28214.335395906561
 31
0.0
  0
LINE
  5
631
  8
SL
 10
15916.272692163489
 20
28446.835395906561
 30
0.0
 11
16086.272692163489
 21
28446.835395906561
 31
0.0
  0
LINE
  5
632
  8
FUTO
 10
15766.272692163489
 20
28546.835395906572
 30
0.0
 11
16116.272692163489
 21
28546.835395906572
 31
0.0
  0
LINE
  5
636
  8
FUTO
 10
17553.072692163489
 20
28235.535395906569
 30
0.0
 11
17553.0726921635
 21
29331.835395906572
 31
0.0
  0
LINE
  5
637
  8
FUTO
 10
17556.272692163489
 20
28235.535395906569
 30
0.0
 11
17556.272692163489
 21
29331.835395906572
 31
0.0
  0
LINE
  5
638
  8
FUTO
 10
17488.072692163489
 20
29331.835395906572
 30
0.0
 11
17488.072692163489
 21
28157.835395906561
 31
0.0
  0
LINE
  5
63B
  8
SL
 10
17135.78431348957
 20
28382.91006571682
 30
0.0
 11
16370.406356691879
 21
28382.91006571682
 31
0.0
  0
LINE
  5
63D
  8
FUTO
 10
17166.272692163489
 20
28006.835395906572
 30
0.0
 11
16345.272692163489
 21
28006.835395906572
 31
0.0
  0
LINE
  5
63E
  8
FUTO
 10
16332.772692163489
 20
28114.335395906572
 30
0.0
 11
17162.772692163489
 21
28114.335395906572
 31
0.0
  0
LINE
  5
63F
  8
FUTO
 10
16332.772692163489
 20
28219.335395906572
 30
0.0
 11
17162.772692163489
 21
28219.335395906572
 31
0.0
  0
LINE
  5
640
  8
SL
 10
16370.406356691879
 20
28382.91006571682
 30
0.0
 11
16370.406356691879
 21
28006.835395906572
 31
0.0
  0
LINE
  5
641
  8
CT
 10
16255.272692163489
 20
28347.90131032619
 30
0.0
 11
16255.272692163489
 21
27957.901142380771
 31
0.0
  0
ARC
  5
642
  8
FUTO
 10
16321.772692163489
 20
28264.835395906572
 30
0.0
 40
6.0
 50
0.0
 51
90.0
  0
LINE
  5
643
  8
FUTO
 10
16310.272692163489
 20
28270.835395906561
 30
0.0
 11
16310.272692163489
 21
28044.835395906561
 31
0.0
  0
LINE
  5
644
  8
FUTO
 10
16200.272692163489
 20
28270.835395906561
 30
0.0
 11
16200.272692163489
 21
28044.835395906561
 31
0.0
  0
LINE
  5
645
  8
CT
 10
16255.272692163489
 20
28290.604155071269
 30
0.0
 11
16255.272692163489
 21
28037.011672004439
 31
0.0
  0
LINE
  5
646
  8
FUTO
 10
16327.772692163489
 20
28256.835395906561
 30
0.0
 11
16332.772692163489
 21
28256.835395906561
 31
0.0
  0
LINE
  5
647
  8
FUTO
 10
16332.772692163489
 20
28076.835395906572
 30
0.0
 11
16327.772692163489
 21
28076.835395906572
 31
0.0
  0
ARC
  5
648
  8
FUTO
 10
16321.772692163489
 20
28068.835395906572
 30
0.0
 40
6.0
 50
270.0
 51
0.0
  0
LINE
  5
649
  8
FUTO
 10
16321.772692163489
 20
28062.835395906572
 30
0.0
 11
16310.272692163489
 21
28062.835395906572
 31
0.0
  0
ARC
  5
64A
  8
FUTO
 10
16304.272692163489
 20
28084.835395906561
 30
0.0
 40
6.0
 50
0.0
 51
90.0
  0
LINE
  5
64B
  8
FUTO
 10
16332.772692163489
 20
28256.835395906561
 30
0.0
 11
16332.772692163489
 21
28076.835395906572
 31
0.0
  0
LINE
  5
64C
  8
FUTO
 10
16327.772692163489
 20
28264.835395906572
 30
0.0
 11
16327.772692163489
 21
28068.835395906572
 31
0.0
  0
LINE
  5
64D
  8
FUTO
 10
16200.272692163489
 20
28054.835395906561
 30
0.0
 11
16310.272692163489
 21
28054.835395906561
 31
0.0
  0
LINE
  5
64E
  8
FUTO
 10
16304.272692163489
 20
28090.835395906561
 30
0.0
 11
16206.272692163489
 21
28090.835395906561
 31
0.0
  0
LINE
  5
653
  8
SL
 10
17135.78431348957
 20
28382.91006571682
 30
0.0
 11
17135.78431348957
 21
28006.835395906572
 31
0.0
  0
LINE
  5
654
  8
CT
 10
17256.272692163489
 20
28375.606223986801
 30
0.0
 11
17256.272692163489
 21
27925.93392021921
 31
0.0
  0
LINE
  5
655
  8
FUTO
 10
17334.772692163489
 20
28274.335395906572
 30
0.0
 11
17349.772692163489
 21
28250.835395906561
 31
0.0
  0
LINE
  5
656
  8
FUTO
 10
17322.772692163489
 20
28296.835395906561
 30
0.0
 11
17322.772692163489
 21
28081.835395906572
 31
0.0
  0
LINE
  5
657
  8
FUTO
 10
17322.772692163489
 20
28071.835395906561
 30
0.0
 11
17322.772692163489
 21
28296.83533271218
 31
0.0
  0
LINE
  5
658
  8
FUTO
 10
17334.772692163489
 20
28036.835395906561
 30
0.0
 11
17334.772692163489
 21
28296.835395906561
 31
0.0
  0
LINE
  5
659
  8
FUTO
 10
17162.772692163489
 20
28250.835395906561
 30
0.0
 11
17177.772692163489
 21
28274.335395906572
 31
0.0
  0
LINE
  5
65A
  8
FUTO
 10
17189.772692163489
 20
28296.835395906561
 30
0.0
 11
17189.772692163489
 21
28081.835395906572
 31
0.0
  0
LINE
  5
65B
  8
CT
 10
17256.272692163489
 20
28330.99697557278
 30
0.0
 11
17256.272692163489
 21
27989.127352728679
 31
0.0
  0
LINE
  5
65C
  8
FUTO
 10
17177.772692163489
 20
28296.835395906561
 30
0.0
 11
17177.772692163489
 21
28036.835395906561
 31
0.0
  0
LINE
  5
662
  8
FUTO
 10
17488.072692163489
 20
28157.835395906561
 30
0.0
 11
17463.072692163489
 21
28141.81624060082
 31
0.0
  0
LINE
  5
664
  8
FUTO
 10
17346.272692163489
 20
28016.835395906561
 30
0.0
 11
17166.272692163489
 21
28016.835395906572
 31
0.0
  0
LINE
  5
665
  8
FUTO
 10
17331.272692163489
 20
28026.835395906561
 30
0.0
 11
17181.272692163489
 21
28026.835395906561
 31
0.0
  0
LINE
  5
666
  8
FUTO
 10
17181.272692163489
 20
28081.835395906572
 30
0.0
 11
17331.272692163489
 21
28081.835395906572
 31
0.0
  0
LINE
  5
667
  8
FUTO
 10
17162.772692163489
 20
28082.835395906561
 30
0.0
 11
17162.772692163489
 21
28250.835395906561
 31
0.0
  0
LINE
  5
668
  8
FUTO
 10
17177.772692163489
 20
28036.835395906561
 30
0.0
 11
17181.272692163489
 21
28036.835395906561
 31
0.0
  0
LINE
  5
669
  8
CT
 10
17206.272692163489
 20
27991.880303555321
 30
0.0
 11
17206.272692163489
 21
28112.652828677081
 31
0.0
  0
LINE
  5
66A
  8
FUTO
 10
17181.272692163489
 20
28016.835395906561
 30
0.0
 11
17181.272692163489
 21
28081.835395906572
 31
0.0
  0
LINE
  5
66B
  8
FUTO
 10
17177.772692163489
 20
28059.335395906572
 30
0.0
 11
17162.772692163489
 21
28082.835395906561
 31
0.0
  0
LINE
  5
66C
  8
FUTO
 10
17349.772692163489
 20
28219.335395906572
 30
0.0
 11
17488.072692163489
 21
28219.335395906572
 31
0.0
  0
LINE
  5
66E
  8
FUTO
 10
17349.772692163489
 20
28114.335395906572
 30
0.0
 11
17463.072692163489
 21
28114.335395906572
 31
0.0
  0
LINE
  5
67F
  8
CT
 10
17367.663030399821
 20
28166.835395906561
 30
0.0
 11
17477.00565227573
 21
28166.835395906561
 31
0.0
  0
LINE
  5
69D
  8
FUTO
 10
17349.772692163489
 20
28250.835395906561
 30
0.0
 11
17349.772692163489
 21
28082.835395906561
 31
0.0
  0
LINE
  5
69E
  8
FUTO
 10
17331.272692163489
 20
28036.835395906561
 30
0.0
 11
17334.772692163489
 21
28036.835395906561
 31
0.0
  0
LINE
  5
69F
  8
FUTO
 10
17331.272692163489
 20
28081.835395906572
 30
0.0
 11
17331.272692163489
 21
28016.835395906561
 31
0.0
  0
LINE
  5
6A0
  8
FUTO
 10
17349.772692163489
 20
28082.835395906561
 30
0.0
 11
17334.772692163489
 21
28059.335395906572
 31
0.0
  0
LINE
  5
6A1
  8
CT
 10
17306.272692163489
 20
27991.880303555321
 30
0.0
 11
17306.272692163489
 21
28112.652828677081
 31
0.0
  0
LINE
  5
6AC
  8
FUTO
 10
17317.772692163489
 20
28314.835395906572
 30
0.0
 11
17194.772692163489
 21
28314.835395906572
 31
0.0
  0
LINE
  5
6AD
  8
FUTO
 10
17194.772692163489
 20
28314.835395906572
 30
0.0
 11
17194.772692163489
 21
28296.835395906561
 31
0.0
  0
LINE
  5
6AE
  8
FUTO
 10
17194.772692163489
 20
28296.835395906561
 30
0.0
 11
17177.772692163489
 21
28296.835395906561
 31
0.0
  0
LINE
  5
6B7
  8
FUTO
 10
17334.772692163489
 20
28296.835395906561
 30
0.0
 11
17317.772692163489
 21
28296.835395906561
 31
0.0
  0
LINE
  5
6B8
  8
FUTO
 10
17317.772692163489
 20
28296.835395906561
 30
0.0
 11
17317.772692163489
 21
28314.835395906572
 31
0.0
  0
LINE
  5
6BC
  8
FUTO
 10
17553.072692163489
 20
29112.035395906569
 30
0.0
 11
17553.072692163489
 21
29331.835395906572
 31
0.0
  0
DIMENSION
  5
6CD
  8
SP
  2
*D16
 10
19011.272692163489
 20
29680.01344921517
 30
0.0
 11
18545.135067207601
 21
29680.01344921517
 31
0.0
 70
   128
 13
18216.272692163489
 23
29711.955788579558
 33
0.0
 14
19011.272692163489
 24
29131.835395906572
 34
0.0
1001
ACAD
1000
DSTYLE
1002
{
1070
    40
1040
40.0
1002
}
  0
LINE
  5
6E1
  8
FUTO
 10
18876.272692163489
 20
28235.535395906569
 30
0.0
 11
18876.272692163489
 21
29331.835395906572
 31
0.0
  0
LINE
  5
6E2
  8
FUTO
 10
18879.47269216349
 20
28235.535395906569
 30
0.0
 11
18879.47269216349
 21
29331.835395906572
 31
0.0
  0
LINE
  5
6E3
  8
FUTO
 10
18944.47269216389
 20
29331.835395906572
 30
0.0
 11
18944.47269216349
 21
28157.835395906572
 31
0.0
  0
LINE
  5
701
  8
FUTO
 10
18944.47269216353
 20
28157.835395906539
 30
0.0
 11
18969.47269216353
 21
28141.816240600801
 31
0.0
  0
INSERT
  5
702
  8
FUTO
  2
まっすぐの矢印
 10
19206.745844734
 20
28652.381698755671
 30
0.0
 41
2.0
 42
2.0
 43
2.0
 50
90.0
  0
LINE
  5
704
  8
FUTO
 10
18944.47269216349
 20
29072.835395906572
 30
0.0
 11
19011.272692163489
 21
29072.835395906572
 31
0.0
  0
LINE
  5
705
  8
KL
 10
18879.47269216349
 20
29066.835395906561
 30
0.0
 11
19011.272692163489
 21
29066.835395906561
 31
0.0
  0
LINE
  5
706
  8
HOSO
 10
18850.5347223555
 20
29106.835395906561
 30
0.0
 11
18910.36507118557
 21
29106.835395906561
 31
0.0
  0
LINE
  5
707
  8
KL
 10
18885.47269216349
 20
29131.835395906572
 30
0.0
 11
18879.47269216349
 21
29131.835395906572
 31
0.0
  0
LINE
  5
708
  8
KL
 10
18879.47269216349
 20
29072.835395906572
 30
0.0
 11
18944.47269216349
 21
29072.835395906572
 31
0.0
  0
LINE
  5
709
  8
FUTO
 10
19005.272692163489
 20
29131.835395906572
 30
0.0
 11
19011.272692163489
 21
29131.835395906572
 31
0.0
  0
LINE
  5
70A
  8
HOSO
 10
18978.60491560381
 20
29106.835395906561
 30
0.0
 11
19038.43526443388
 21
29106.835395906561
 31
0.0
  0
LINE
  5
88D
  8
CT
 10
10895.98468375204
 20
32761.69911052944
 30
0.0
 11
14683.54421893662
 21
32761.699110529429
 31
0.0
  0
LINE
  5
88E
  8
FUTO
 10
11106.309775227701
 20
32097.69911052944
 30
0.0
 11
11106.309775227701
 21
33425.699110529422
 31
0.0
  0
LINE
  5
89C
  8
FUTO
 10
11041.309775227701
 20
32032.699110529429
 30
0.0
 11
13029.309775227701
 21
32032.699110529429
 31
0.0
  0
LINE
  5
89D
  8
FUTO
 10
11041.309775227701
 20
32032.699110529429
 30
0.0
 11
11041.309775227701
 21
33490.699110529422
 31
0.0
  0
LINE
  5
89E
  8
FUTO
 10
11041.309775227701
 20
33490.699110529422
 30
0.0
 11
13029.309775227701
 21
33490.699110529422
 31
0.0
  0
LINE
  5
89F
  8
FUTO
 10
14373.309775227701
 20
33475.699110529422
 30
0.0
 11
14373.309775227701
 21
32047.699110529429
 31
0.0
  0
LINE
  5
8A0
  8
FUTO
 10
13029.309775227701
 20
33475.699110529422
 30
0.0
 11
14373.309775227701
 21
33475.699110529422
 31
0.0
  0
LINE
  5
8A1
  8
FUTO
 10
14323.309775227701
 20
33425.699110529429
 30
0.0
 11
14323.309775227701
 21
32097.699110529418
 31
0.0
  0
LINE
  5
8A2
  8
FUTO
 10
13029.309775227701
 20
32047.699110529429
 30
0.0
 11
14373.309775227701
 21
32047.699110529429
 31
0.0
  0
LINE
  5
8A3
  8
FUTO
 10
11106.309775227701
 20
32097.69911052944
 30
0.0
 11
12331.309775227701
 21
32097.699110529429
 31
0.0
  0
LINE
  5
8A4
  8
FUTO
 10
11971.309775227701
 20
33475.699110529422
 30
0.0
 11
11971.309775227701
 21
33500.699110529436
 31
0.0
  0
LINE
  5
8A5
  8
FUTO
 10
14091.309775227701
 20
33475.699110529422
 30
0.0
 11
14091.309775227701
 21
33500.699110529429
 31
0.0
  0
LINE
  5
132F
  8
FUTO
 10
13411.309775227701
 20
30311.699110529429
 30
0.0
 11
11251.309775227701
 21
30311.699110529429
 31
0.0
  0
LINE
  5
1330
  8
FUTO
 10
13411.309775227701
 20
30661.699110529429
 30
0.0
 11
11251.309775227701
 21
30661.699110529429
 31
0.0
  0
LINE
  5
1336
  8
SL
 10
13311.309775227701
 20
30461.699110529429
 30
0.0
 11
11331.309775227701
 21
30461.699110529429
 31
0.0
  0
LINE
  5
1337
  8
SL
 10
13311.309775227701
 20
30631.69911052944
 30
0.0
 11
11331.309775227701
 21
30631.69911052944
 31
0.0
  0
LINE
  5
1338
  8
CT
 10
13031.309775227701
 20
30259.772988844648
 30
0.0
 11
13031.309775227701
 21
33755.694413701662
 31
0.0
  0
LINE
  5
1342
  8
FUTO
 10
13135.309775227701
 20
30734.199110529429
 30
0.0
 11
13135.309775227701
 21
30745.699110529429
 31
0.0
  0
LINE
  5
1343
  8
FUTO
 10
12927.309775227701
 20
30867.199110529429
 30
0.0
 11
12927.309775227701
 21
30734.199110529429
 31
0.0
  0
ARC
  5
1344
  8
FUTO
 10
12933.309775227701
 20
30734.199110529429
 30
0.0
 40
6.0
 50
180.0
 51
270.0
  0
LINE
  5
1345
  8
SL
 10
12751.309775227701
 20
30461.699110529429
 30
0.0
 11
12751.309775227701
 21
30631.69911052944
 31
0.0
  0
LINE
  5
1346
  8
FUTO
 10
12983.809775227701
 20
30631.69911052944
 30
0.0
 11
12983.809775227701
 21
30723.199110529429
 31
0.0
  0
LINE
  5
1347
  8
FUTO
 10
13078.809775227701
 20
30631.69911052944
 30
0.0
 11
13078.809775227701
 21
30723.199110529429
 31
0.0
  0
LINE
  5
1348
  8
FUTO
 10
12941.309775227701
 20
30723.199110529429
 30
0.0
 11
13121.309775227701
 21
30723.199110529429
 31
0.0
  0
LINE
  5
1349
  8
FUTO
 10
12933.309775227701
 20
30728.199110529429
 30
0.0
 11
13129.309775227701
 21
30728.199110529429
 31
0.0
  0
LINE
  5
134A
  8
FUTO
 10
13121.309775227701
 20
30723.199110529429
 30
0.0
 11
13121.309775227701
 21
30728.199110529429
 31
0.0
  0
ARC
  5
134B
  8
FUTO
 10
13129.309775227701
 20
30734.199110529429
 30
0.0
 40
6.0
 50
270.0
 51
0.000000000000007
  0
LINE
  5
134C
  8
FUTO
 10
12941.309775227701
 20
30728.199110529429
 30
0.0
 11
12941.309775227701
 21
30723.199110529429
 31
0.0
  0
LINE
  5
1353
  8
FUTO
 10
12978.809775227701
 20
30878.199110529429
 30
0.0
 11
12978.809775227701
 21
31708.199110529429
 31
0.0
  0
LINE
  5
1354
  8
FUTO
 10
13083.809775227701
 20
30878.199110529429
 30
0.0
 11
13083.809775227701
 21
31708.199110529429
 31
0.0
  0
LINE
  5
1357
  8
CT
 10
12907.541016062991
 20
30800.699110529429
 30
0.0
 11
13161.133499129821
 21
30800.699110529429
 31
0.0
  0
LINE
  5
1358
  8
FUTO
 10
12927.309775227701
 20
30745.699110529429
 30
0.0
 11
13135.309775227701
 21
30745.699110529429
 31
0.0
  0
LINE
  5
1359
  8
FUTO
 10
12927.309775227701
 20
30855.699110529429
 30
0.0
 11
13135.309775227701
 21
30855.699110529429
 31
0.0
  0
ARC
  5
135A
  8
FUTO
 10
12933.309775227701
 20
30867.199110529429
 30
0.0
 40
6.0
 50
90.0
 51
180.0
  0
LINE
  5
135B
  8
CT
 10
12850.24386080807
 20
30800.699110529429
 30
0.0
 11
13240.24402875349
 21
30800.699110529429
 31
0.0
  0
LINE
  5
135F
  8
FUTO
 10
12933.309775227701
 20
30873.199110529429
 30
0.0
 11
13129.309775227701
 21
30873.199110529429
 31
0.0
  0
LINE
  5
1360
  8
FUTO
 10
12941.309775227701
 20
30878.199110529429
 30
0.0
 11
13121.309775227701
 21
30878.199110529429
 31
0.0
  0
LINE
  5
1362
  8
FUTO
 10
13135.309775227701
 20
30867.199110529429
 30
0.0
 11
13135.309775227701
 21
30855.699110529429
 31
0.0
  0
ARC
  5
1363
  8
FUTO
 10
13129.309775227701
 20
30867.199110529429
 30
0.0
 40
6.0
 50
0.000000000000007
 51
90.0
  0
LINE
  5
1364
  8
FUTO
 10
13121.309775227701
 20
30878.199110529429
 30
0.0
 11
13121.309775227701
 21
30873.199110529429
 31
0.0
  0
LINE
  5
1365
  8
FUTO
 10
12941.309775227701
 20
30873.199110529429
 30
0.0
 11
12941.309775227701
 21
30878.199110529429
 31
0.0
  0
LINE
  5
136A
  8
FUTO
 10
12901.309775227701
 20
31723.199110529429
 30
0.0
 11
13161.309775227701
 21
31723.199110529429
 31
0.0
  0
LINE
  5
136B
  8
CT
 10
12867.148195561491
 20
31801.699110529429
 30
0.0
 11
13209.017818405589
 21
31801.699110529429
 31
0.0
  0
LINE
  5
136C
  8
FUTO
 10
12901.309775227701
 20
31735.199110529429
 30
0.0
 11
13161.309775227701
 21
31735.199110529429
 31
0.0
  0
LINE
  5
136D
  8
FUTO
 10
12947.309775227701
 20
31708.199110529429
 30
0.0
 11
12923.809775227701
 21
31723.199110529429
 31
0.0
  0
LINE
  5
136E
  8
FUTO
 10
13161.309775227701
 20
31880.199110529429
 30
0.0
 11
12901.309775227701
 21
31880.199110529429
 31
0.0
  0
LINE
  5
136F
  8
FUTO
 10
13161.309775227701
 20
31868.199110529429
 30
0.0
 11
12901.309838422079
 21
31868.199110529429
 31
0.0
  0
LINE
  5
1370
  8
FUTO
 10
12901.309775227701
 20
31868.199110529429
 30
0.0
 11
13116.309775227701
 21
31868.199110529429
 31
0.0
  0
LINE
  5
1371
  8
FUTO
 10
12923.809775227701
 20
31880.199110529429
 30
0.0
 11
12947.309775227701
 21
31895.199110529429
 31
0.0
  0
LINE
  5
1372
  8
CT
 10
12822.538947147459
 20
31801.699110529429
 30
0.0
 11
13272.21125091505
 21
31801.699110529429
 31
0.0
  0
LINE
  5
137E
  8
FUTO
 10
13138.809775227701
 20
31723.199110529429
 30
0.0
 11
13115.309775227701
 21
31708.199110529429
 31
0.0
  0
LINE
  5
1381
  8
FUTO
 10
13161.309775227701
 20
31723.199110529429
 30
0.0
 11
13161.309775227701
 21
31726.699110529429
 31
0.0
  0
LINE
  5
1382
  8
FUTO
 10
13115.309775227701
 20
31708.199110529429
 30
0.0
 11
12947.309775227701
 21
31708.199110529429
 31
0.0
  0
LINE
  5
1384
  8
FUTO
 10
13115.309775227701
 20
31895.199110529429
 30
0.0
 11
13138.809775227701
 21
31880.199110529429
 31
0.0
  0
LINE
  5
1386
  8
FUTO
 10
13161.309775227701
 20
31876.699110529429
 30
0.0
 11
13161.309775227701
 21
31880.199110529429
 31
0.0
  0
LINE
  5
1387
  8
FUTO
 10
12947.309775227701
 20
31895.199110529429
 30
0.0
 11
13115.309775227701
 21
31895.199110529429
 31
0.0
  0
LINE
  5
13A3
  8
CT
 10
13031.309775227701
 20
31913.089448765761
 30
0.0
 11
13031.309775227701
 21
32022.432070641669
 31
0.0
  0
LINE
  5
13B2
  8
FUTO
 10
13083.809775227701
 20
31895.199110529429
 30
0.0
 11
13083.809775227701
 21
32047.699110529429
 31
0.0
  0
LINE
  5
13B4
  8
FUTO
 10
12978.809775227701
 20
31895.199110529429
 30
0.0
 11
12978.809775227701
 21
32047.699110529429
 31
0.0
  0
LINE
  5
13BE
  8
FUTO
 10
12883.309775227701
 20
31863.199110529429
 30
0.0
 11
12883.309775227701
 21
31740.199110529429
 31
0.0
  0
LINE
  5
13BF
  8
FUTO
 10
12901.309775227701
 20
31740.199110529429
 30
0.0
 11
12901.309775227701
 21
31723.199110529429
 31
0.0
  0
LINE
  5
13C0
  8
FUTO
 10
12883.309775227701
 20
31740.199110529429
 30
0.0
 11
12901.309775227701
 21
31740.199110529429
 31
0.0
  0
LINE
  5
13C1
  8
FUTO
 10
12901.309775227701
 20
31863.199110529429
 30
0.0
 11
12883.309775227701
 21
31863.199110529429
 31
0.0
  0
LINE
  5
13C2
  8
FUTO
 10
12901.309775227701
 20
31880.199110529429
 30
0.0
 11
12901.309775227701
 21
31863.199110529429
 31
0.0
  0
LINE
  5
13E1
  8
FUTO
 10
13411.309775227701
 20
30311.699110529429
 30
0.0
 11
13411.309775227701
 21
30661.699110529429
 31
0.0
  0
LINE
  5
13E2
  8
SL
 10
13311.309775227701
 20
30461.699110529429
 30
0.0
 11
13311.309775227701
 21
30631.69911052944
 31
0.0
  0
DIMENSION
  5
1417
  8
SP
  2
*D5
 10
18216.272692163489
 20
29680.01344921517
 30
0.0
 11
16991.272692163489
 21
29791.442020643739
 31
0.0
 70
     0
  1
(<>)
 13
15766.272692163489
 23
28546.835395906572
 33
0.0
 14
18216.272692163489
 24
29400.05727039255
 34
0.0
1001
ACAD
1000
DSTYLE
1002
{
1070
    40
1040
40.0
1002
}
  0
LINE
  5
1453
  8
FUTO
 10
13135.309775227701
 20
30867.199110529429
 30
0.0
 11
13135.309775227701
 21
30734.199110529429
 31
0.0
  0
LINE
  5
1454
  8
FUTO
 10
13179.309775227701
 20
31863.199110529429
 30
0.0
 11
13179.309775227701
 21
31740.199110529429
 31
0.0
  0
LINE
  5
1455
  8
FUTO
 10
13179.309775227701
 20
31740.199110529429
 30
0.0
 11
13161.309775227701
 21
31740.199110529429
 31
0.0
  0
LINE
  5
1456
  8
FUTO
 10
13161.309775227701
 20
31740.199110529429
 30
0.0
 11
13161.309775227701
 21
31723.199110529429
 31
0.0
  0
LINE
  5
1457
  8
FUTO
 10
13161.309775227701
 20
31880.199110529429
 30
0.0
 11
13161.309775227701
 21
31863.199110529429
 31
0.0
  0
LINE
  5
1458
  8
FUTO
 10
13161.309775227701
 20
31863.199110529429
 30
0.0
 11
13179.309775227701
 21
31863.199110529429
 31
0.0
  0
LINE
  5
1698
  8
KL
 10
16154.7726921635
 20
26796.835395906572
 30
0.0
 11
16154.772692163489
 21
26726.835395908431
 31
0.0
  0
LINE
  5
1699
  8
KL
 10
16854.7726921635
 20
26796.835395906572
 30
0.0
 11
16854.772692163489
 21
26726.83539590846
 31
0.0
  0
LINE
  5
169A
  8
KL
 10
16649.772692163489
 20
26796.835395906572
 30
0.0
 11
16154.7726921635
 21
26796.835395906572
 31
0.0
  0
LINE
  5
169B
  8
KL
 10
16154.772692163489
 20
26796.835395906572
 30
0.0
 11
16854.7726921635
 21
26796.835395906572
 31
0.0
  0
LINE
  5
16AB
  8
FUTO
 10
16091.272692163489
 20
27176.835395906572
 30
0.0
 11
16091.272692163489
 21
26976.835395906572
 31
0.0
  0
LINE
  5
16AC
  8
KL
 10
17325.272692163489
 20
27336.835395906572
 30
0.0
 11
17325.272692163489
 21
26858.686457824479
 31
0.0
  0
LINE
  5
16AD
  8
FUTO
 10
16111.272692163489
 20
27386.835395906572
 30
0.0
 11
16111.272692163489
 21
26810.608672434391
 31
0.0
  0
LINE
  5
16AE
  8
KL
 10
16190.272692163489
 20
27386.835395906572
 30
0.0
 11
16190.272692163489
 21
26810.608672434391
 31
0.0
  0
LINE
  5
16AF
  8
KL
 10
17075.272692163489
 20
27386.835395906572
 30
0.0
 11
17075.272692163489
 21
26808.686457824479
 31
0.0
  0
LINE
  5
16B0
  8
CT
 10
16504.772692163489
 20
27423.474763893199
 30
0.0
 11
16504.772692163489
 21
26704.88686888948
 31
0.0
  0
LINE
  5
16B1
  8
KL
 10
16649.772692163489
 20
26796.835395906572
 30
0.0
 11
16769.772692163489
 21
26796.835395906561
 31
0.0
  0
LINE
  5
16B2
  8
KL
 10
16239.772692163489
 20
26826.835395906572
 30
0.0
 11
16769.772692163489
 21
26826.835395906561
 31
0.0
  0
LINE
  5
16B3
  8
KL
 10
17075.272692163489
 20
26808.686457824479
 30
0.0
 11
17275.272692163489
 21
26808.686457824479
 31
0.0
  0
ARC
  5
16B4
  8
KL
 10
17275.272692163489
 20
26858.686457824479
 30
0.0
 40
50.0
 50
270.0
 51
0.0
  0
LINE
  5
16B5
  8
KL
 10
16769.772692163489
 20
26808.686457824479
 30
0.0
 11
17054.947474165328
 21
26808.686457824479
 31
0.0
  0
LINE
  5
16B6
  8
KL
 10
17075.272692163489
 20
26820.21974548393
 30
0.0
 11
17054.947474165339
 21
26808.686457824479
 31
0.0
  0
LINE
  5
16B7
  8
CT
 10
16733.272692163489
 20
26850.826147665499
 30
0.0
 11
16733.272692163489
 21
26780.353105583032
 31
0.0
  0
LINE
  5
16B8
  8
KL
 10
16769.772692163489
 20
26826.835395906561
 30
0.0
 11
16769.772692163489
 21
26796.835395906561
 31
0.0
  0
LINE
  5
16B9
  8
KL
 10
16649.772692163489
 20
26808.686457824479
 30
0.0
 11
16359.772692163489
 21
26808.686457824479
 31
0.0
  0
LINE
  5
16BA
  8
KL
 10
16649.772692163489
 20
26808.686457824479
 30
0.0
 11
16649.772692163489
 21
26796.835395906561
 31
0.0
  0
LINE
  5
16BB
  8
KL
 10
16239.772692163489
 20
26826.835395906561
 30
0.0
 11
16239.772692163489
 21
26796.835395906561
 31
0.0
  0
LINE
  5
16BC
  8
CT
 10
16276.272692163489
 20
26850.826147665499
 30
0.0
 11
16276.272692163489
 21
26780.353105583032
 31
0.0
  0
LINE
  5
16BD
  8
KL
 10
16239.772692163489
 20
26810.608672434391
 30
0.0
 11
16111.272692163489
 21
26810.608672434391
 31
0.0
  0
LINE
  5
16BE
  8
KL
 10
16359.772692163489
 20
26808.686457824479
 30
0.0
 11
16359.772692163489
 21
26796.835395906561
 31
0.0
  0
LINE
  5
16BF
  8
KL
 10
16239.772692163489
 20
26796.835395906572
 30
0.0
 11
16359.772692163489
 21
26796.835395906572
 31
0.0
  0
LINE
  5
16C0
  8
FUTO
 10
16111.272692163489
 20
26976.835395906572
 30
0.0
 11
16091.272692163489
 21
26976.835395906572
 31
0.0
  0
LINE
  5
16C1
  8
KL
 10
17053.877865997929
 20
27386.835395906572
 30
0.0
 11
16111.272692163489
 21
27386.835395906572
 31
0.0
  0
LINE
  5
16C2
  8
CT
 10
17361.915457627929
 20
27076.835395906561
 30
0.0
 11
15890.1238613241
 21
27076.835395906561
 31
0.0
  0
LINE
  5
16C3
  8
KL
 10
17275.272692163489
 20
27386.835395906572
 30
0.0
 11
17075.272692163489
 21
27386.835395906572
 31
0.0
  0
ARC
  5
16C4
  8
KL
 10
17275.272692163489
 20
27336.835395906572
 30
0.0
 40
50.0
 50
0.0
 51
90.0
  0
LINE
  5
16C5
  8
KL
 10
17075.272692163489
 20
27362.284265477821
 30
0.0
 11
17053.877865997929
 21
27386.835395906572
 31
0.0
  0
LINE
  5
16C6
  8
FUTO
 10
16091.272692163489
 20
27119.335395906561
 30
0.0
 11
15916.272692163489
 21
27119.335395906561
 31
0.0
  0
LINE
  5
16C7
  8
FUTO
 10
16091.272692163489
 20
27034.335395906572
 30
0.0
 11
15916.272692163489
 21
27034.335395906572
 31
0.0
  0
LINE
  5
16C8
  8
CT
 10
16300.272692163489
 20
27710.205109871062
 30
0.0
 11
16300.272692163489
 21
27311.345578315271
 31
0.0
  0
LINE
  5
16C9
  8
FUTO
 10
16111.272692163489
 20
27176.835395906572
 30
0.0
 11
16091.272692163489
 21
27176.835395906572
 31
0.0
  0
LINE
  5
16CA
  8
KL
 10
16400.272692163489
 20
27666.835395906572
 30
0.0
 11
16200.272692163489
 21
27666.835395906572
 31
0.0
  0
LINE
  5
16CB
  8
KL
 10
16400.272692163489
 20
27401.835395906572
 30
0.0
 11
16200.272692163489
 21
27401.835395906572
 31
0.0
  0
LINE
  5
16CC
  8
CT
 10
16464.138619349869
 20
27526.835395906561
 30
0.0
 11
16162.00242996536
 21
27526.835395906561
 31
0.0
  0
LINE
  5
16CD
  8
KL
 10
16420.272692163489
 20
27646.835395906561
 30
0.0
 11
16420.272692163489
 21
27421.835395906561
 31
0.0
  0
ARC
  5
16CE
  8
KL
 10
16400.272692163489
 20
27421.835395906561
 30
0.0
 40
20.0
 50
270.0
 51
0.0
  0
ARC
  5
16CF
  8
KL
 10
16400.272692163489
 20
27646.835395906561
 30
0.0
 40
20.0
 50
0.0
 51
90.0
  0
LINE
  5
16D0
  8
KL
 10
16180.272692163489
 20
27646.835395906561
 30
0.0
 11
16180.272692163489
 21
27421.835395906561
 31
0.0
  0
ARC
  5
16D1
  8
KL
 10
16200.272692163489
 20
27421.835395906561
 30
0.0
 40
20.0
 50
180.0
 51
270.0
  0
ARC
  5
16D2
  8
KL
 10
16200.272692163489
 20
27646.835395906561
 30
0.0
 40
20.0
 50
90.0
 51
180.0
  0
LINE
  5
16D3
  8
FUTO
 10
16086.272692163489
 20
27119.335395906561
 30
0.0
 11
16086.272692163489
 21
27034.335395906572
 31
0.0
  0
LINE
  5
16D4
  8
FUTO
 10
15916.272692163489
 20
27119.335395906561
 30
0.0
 11
15916.272692163489
 21
27034.335395906572
 31
0.0
  0
LINE
  5
17EE
  8
FUTO
 10
11841.30977522765
 20
31599.30428436388
 30
0.0
 11
11841.30977522769
 21
30656.699110529451
 31
0.0
  0
LINE
  5
17EF
  8
CT
 10
11531.309775227641
 20
31907.341875993869
 30
0.0
 11
11531.309775227701
 21
30435.55027969004
 31
0.0
  0
LINE
  5
17F0
  8
FUTO
 10
11221.30977522765
 20
31599.30428436385
 30
0.0
 11
11221.30977522769
 21
30656.699110529429
 31
0.0
  0
LINE
  5
17F1
  8
FUTO
 10
11741.309775227681
 20
30725.699110529451
 30
0.0
 11
11351.309775227681
 21
30725.699110529429
 31
0.0
  0
LINE
  5
17F2
  8
CT
 10
11322.99691585037
 20
30845.699110529429
 30
0.0
 11
11785.979554864891
 21
30845.699110529451
 31
0.0
  0
LINE
  5
17F3
  8
CT
 10
11184.670407241039
 20
31050.199110529429
 30
0.0
 11
11903.25830224476
 21
31050.199110529451
 31
0.0
  0
LINE
  5
17F4
  8
FUTO
 10
11221.30977522769
 20
30656.699110529429
 30
0.0
 11
11841.30977522769
 21
30656.699110529451
 31
0.0
  0
LINE
  5
17F5
  8
FUTO
 10
11431.30977522769
 20
30636.699110529429
 30
0.0
 11
11631.30977522769
 21
30636.69911052944
 31
0.0
  0
LINE
  5
17F6
  8
FUTO
 10
11741.309775227681
 20
30965.699110529451
 30
0.0
 11
11351.309775227681
 21
30965.699110529429
 31
0.0
  0
LINE
  5
17F7
  8
FUTO
 10
11161.965386384771
 20
30700.199110529429
 30
0.0
 11
11161.965386384751
 21
31400.199110529418
 31
0.0
  0
LINE
  5
17F8
  8
FUTO
 10
11331.309775227681
 20
30945.699110529429
 30
0.0
 11
11331.309775227681
 21
30845.699110529429
 31
0.0
  0
LINE
  5
17F9
  8
CT
 10
11531.309775227781
 20
30290.248154359349
 30
0.0
 11
11531.30977522719
 21
31548.65455047553
 31
0.0
  0
LINE
  5
17FA
  8
FUTO
 10
11221.309775227681
 20
30700.199110529429
 30
0.0
 11
11161.965386384771
 21
30700.199110529429
 31
0.0
  0
LINE
  5
17FE
  8
FUTO
 10
11573.80977522769
 20
30636.69911052944
 30
0.0
 11
11573.809775227701
 21
30461.69911052944
 31
0.0
  0
LINE
  5
17FF
  8
FUTO
 10
11488.80977522769
 20
30636.699110529429
 30
0.0
 11
11488.809775227701
 21
30461.699110529429
 31
0.0
  0
LINE
  5
1802
  8
FUTO
 10
11488.809775227701
 20
30461.699110529429
 30
0.0
 11
11573.809775227701
 21
30461.69911052944
 31
0.0
  0
ARC
  5
1804
  8
FUTO
 10
11351.309775227681
 20
30745.699110529429
 30
0.0
 40
20.0
 50
180.0
 51
270.0
  0
LINE
  5
1805
  8
FUTO
 10
11331.309775227681
 20
30745.699110529429
 30
0.0
 11
11331.309775227681
 21
30845.699110529429
 31
0.0
  0
LINE
  5
1806
  8
FUTO
 10
11221.309775227681
 20
30735.699110529418
 30
0.0
 11
11333.989267151999
 21
30735.699110529418
 31
0.0
  0
LINE
  5
1807
  8
FUTO
 10
11488.80977522769
 20
30631.69911052944
 30
0.0
 11
11573.80977522769
 21
30631.69911052944
 31
0.0
  0
LINE
  5
1808
  8
FUTO
 10
11431.30977522769
 20
30656.699110529429
 30
0.0
 11
11431.30977522769
 21
30636.699110529429
 31
0.0
  0
LINE
  5
1809
  8
FUTO
 10
11221.309775227661
 20
31400.199110529418
 30
0.0
 11
11161.965386384751
 21
31400.199110529418
 31
0.0
  0
ARC
  5
180A
  8
FUTO
 10
11351.309775227681
 20
30945.699110529429
 30
0.0
 40
20.0
 50
90.0
 51
180.0
  0
LINE
  5
180B
  8
FUTO
 10
11900.654164070589
 20
30700.199110529451
 30
0.0
 11
11900.654164070569
 21
31400.199110529451
 31
0.0
  0
LINE
  5
180C
  8
FUTO
 10
11761.309775227681
 20
30945.699110529451
 30
0.0
 11
11761.30977522769
 21
30845.699110529451
 31
0.0
  0
LINE
  5
180F
  8
FUTO
 10
11758.63028330337
 20
30735.69911052944
 30
0.0
 11
11841.309775227681
 21
30735.699110529451
 31
0.0
  0
LINE
  5
1810
  8
CT
 10
11805.88133018189
 20
30821.699110529451
 30
0.0
 11
11876.354372264361
 21
30821.699110529451
 31
0.0
  0
ARC
  5
1811
  8
FUTO
 10
11741.309775227681
 20
30745.699110529451
 30
0.0
 40
20.0
 50
270.0
 51
0.000000000000007
  0
LINE
  5
1812
  8
FUTO
 10
11761.309775227681
 20
30745.699110529451
 30
0.0
 11
11761.30977522769
 21
30845.699110529451
 31
0.0
  0
LINE
  5
1813
  8
FUTO
 10
11631.30977522769
 20
30656.69911052944
 30
0.0
 11
11631.30977522769
 21
30636.69911052944
 31
0.0
  0
LINE
  5
1814
  8
FUTO
 10
11841.309775227681
 20
30700.199110529451
 30
0.0
 11
11900.654164070589
 21
30700.199110529451
 31
0.0
  0
ARC
  5
1815
  8
FUTO
 10
11741.309775227681
 20
30945.699110529451
 30
0.0
 40
20.0
 50
0.000000000000007
 51
90.0
  0
LINE
  5
1816
  8
CT
 10
11805.88133018187
 20
31278.699110529451
 30
0.0
 11
11876.354372264341
 21
31278.699110529451
 31
0.0
  0
LINE
  5
1817
  8
FUTO
 10
11841.309775227661
 20
31400.199110529451
 30
0.0
 11
11900.654164070569
 21
31400.199110529451
 31
0.0
  0
LINE
  5
181A
  8
FUTO
 10
11221.30977522765
 20
31620.699110529429
 30
0.0
 11
11841.30977522765
 21
31620.699110529451
 31
0.0
  0
LINE
  5
181B
  8
FUTO
 10
11271.309775227641
 20
31870.699110529429
 30
0.0
 11
11791.309775227641
 21
31870.699110529451
 31
0.0
  0
LINE
  5
181F
  8
FUTO
 10
11245.860905656409
 20
31620.699110529429
 30
0.0
 11
11221.30977522765
 21
31599.30428436385
 31
0.0
  0
ARC
  5
1820
  8
FUTO
 10
11271.30977522765
 20
31820.699110529429
 30
0.0
 40
50.0
 50
90.0
 51
180.0
  0
LINE
  5
1821
  8
FUTO
 10
11221.30977522765
 20
31820.699110529429
 30
0.0
 11
11221.30977522765
 21
31620.699110529429
 31
0.0
  0
ARC
  5
1824
  8
FUTO
 10
11791.30977522765
 20
31820.699110529451
 30
0.0
 40
50.0
 50
0.000000000000007
 51
90.0
  0
LINE
  5
1825
  8
FUTO
 10
11816.758644798911
 20
31620.699110529451
 30
0.0
 11
11841.30977522765
 21
31599.30428436388
 31
0.0
  0
LINE
  5
1826
  8
FUTO
 10
11841.30977522765
 20
31820.699110529451
 30
0.0
 11
11841.30977522765
 21
31620.699110529451
 31
0.0
  0
LINE
  5
1827
  8
FUTO
 10
11091.309775227701
 20
30725.699110529429
 30
0.0
 11
11091.309775227701
 21
30650.699110529429
 31
0.0
  0
LINE
  5
1828
  8
FUTO
 10
11267.42986078286
 20
32022.69911052944
 30
0.0
 11
11267.42986078286
 21
31870.54834586861
 31
0.0
  0
LINE
  5
1829
  8
FUTO
 10
11795.189689672359
 20
32022.699110529549
 30
0.0
 11
11795.18968967243
 21
31870.54834586873
 31
0.0
  0
LINE
  5
182A
  8
FUTO
 10
11720.189689672359
 20
32022.69911052952
 30
0.0
 11
11720.18968967243
 21
31870.69911052952
 31
0.0
  0
LINE
  5
182B
  8
SL
 10
11331.309775227701
 20
30461.699110529429
 30
0.0
 11
11331.309775227701
 21
30631.69911052944
 31
0.0
  0
LINE
  5
182D
  8
FUTO
 10
11251.309775227701
 20
30311.699110529429
 30
0.0
 11
11251.309775227701
 21
30661.699110529429
 31
0.0
  0
LINE
  5
182F
  8
FUTO
 10
13373.35820105174
 20
30725.699110529418
 30
0.0
 11
13373.35820105174
 21
32047.699110529429
 31
0.0
  0
LINE
  5
1830
  8
FUTO
 10
12689.26134940365
 20
30725.699110529418
 30
0.0
 11
12689.26134940365
 21
32047.699110529429
 31
0.0
  0
LINE
  5
1832
  8
FUTO
 10
12066.309775227701
 20
33556.699110529429
 30
0.0
 11
13996.309775227701
 21
33556.699110529429
 31
0.0
  0
LINE
  5
1833
  8
FUTO
 10
12066.309775227701
 20
33550.699110529429
 30
0.0
 11
13996.309775227701
 21
33550.699110529429
 31
0.0
  0
LINE
  5
1834
  8
KL
 10
12066.309775227701
 20
33430.899110529434
 30
0.0
 11
13996.309775227701
 21
33430.899110529441
 31
0.0
  0
LINE
  5
1839
  8
KL
 10
13931.309775227701
 20
33424.899110529441
 30
0.0
 11
13931.309775227701
 21
33556.699110529429
 31
0.0
  0
LINE
  5
183A
  8
KL
 10
13937.309775227701
 20
33424.899110529441
 30
0.0
 11
13937.309775227701
 21
33514.899110529441
 31
0.0
  0
LINE
  5
183B
  8
KL
 10
13996.309775227701
 20
33424.899110529441
 30
0.0
 11
13996.309775227701
 21
33430.899110529441
 31
0.0
  0
LINE
  5
183C
  8
HOSO
 10
13971.309775227701
 20
33382.36510091852
 30
0.0
 11
13971.309775227701
 21
33456.472716066783
 31
0.0
  0
LINE
  5
183D
  8
HOSO
 10
13971.309775227701
 20
33523.216564343413
 30
0.0
 11
13971.309775227701
 21
33597.324179491668
 31
0.0
  0
LINE
  5
183E
  8
FUTO
 10
13996.309775227701
 20
33550.699110529429
 30
0.0
 11
13996.309775227701
 21
33556.699110529429
 31
0.0
  0
LINE
  5
183F
  8
FUTO
 10
13937.309775227701
 20
33514.899110529441
 30
0.0
 11
13937.309775227701
 21
33556.699110529429
 31
0.0
  0
INSERT
  5
185B
  8
FUTO
  2
まっすぐの矢印
 10
12545.76347237859
 20
33752.172263099943
 30
0.0
 41
2.0
 42
2.0
 43
2.0
 50
180.0
  0
LINE
  5
185D
  8
KL
 10
12131.309775227701
 20
33424.899110529441
 30
0.0
 11
12131.309775227701
 21
33556.699110529429
 31
0.0
  0
LINE
  5
185E
  8
FUTO
 10
12125.309775227701
 20
33489.899110529441
 30
0.0
 11
12125.309775227701
 21
33556.699110529429
 31
0.0
  0
LINE
  5
185F
  8
KL
 10
12125.309775227701
 20
33424.899110529441
 30
0.0
 11
12125.309775227701
 21
33489.899110529441
 31
0.0
  0
LINE
  5
1860
  8
KL
 10
12066.309775227701
 20
33430.899110529434
 30
0.0
 11
12066.309775227701
 21
33424.899110529441
 31
0.0
  0
LINE
  5
1861
  8
HOSO
 10
12091.309775227701
 20
33395.961140721432
 30
0.0
 11
12091.309775227701
 21
33455.791489551513
 31
0.0
  0
LINE
  5
1862
  8
HOSO
 10
12091.309775227701
 20
33524.031333969753
 30
0.0
 11
12091.309775227701
 21
33583.861682799819
 31
0.0
  0
LINE
  5
1863
  8
FUTO
 10
12066.309775227701
 20
33550.699110529429
 30
0.0
 11
12066.309775227701
 21
33556.699110529429
 31
0.0
  0
LINE
  5
1891
  8
KL
 10
12220.427085964669
 20
28177.46159590656
 30
0.0
 11
12831.309775227701
 21
28177.46159590656
 31
0.0
  0
LINE
  5
1892
  8
KL
 10
12195.33757492356
 20
28159.46159590657
 30
0.0
 11
12831.309775227701
 21
28159.46159590657
 31
0.0
  0
LINE
  5
1893
  8
FUTO
 10
11981.309775227701
 20
27220.088757097441
 30
0.0
 11
11981.309775227701
 21
26728.46159590656
 31
0.0
  0
LINE
  5
1894
  8
FUTO
 10
11990.309775227701
 20
27223.772147078122
 30
0.0
 11
11990.309775227701
 21
26728.46159590656
 31
0.0
  0
LINE
  5
1895
  8
KL
 10
11972.309775227701
 20
27856.238805142111
 30
0.0
 11
11972.309775227701
 21
27008.444567666491
 31
0.0
  0
LINE
  5
1896
  8
KL
 10
11981.309775227701
 20
27864.39858274271
 30
0.0
 11
11981.309775227701
 21
27220.088757097441
 31
0.0
  0
LINE
  5
1897
  8
KL
 10
11990.309775227701
 20
27872.558360343312
 30
0.0
 11
11990.309775227701
 21
27223.772147078122
 31
0.0
  0
DIMENSION
  5
18AD
  8
SP
  2
*D6
 10
11041.309775227701
 20
29678.899938057741
 30
0.0
 11
12036.309775227701
 21
29758.899938057741
 31
0.0
 70
     0
 13
13031.309775227701
 23
29514.844847896249
 33
0.0
 14
11041.309775227701
 24
29333.46159590657
 34
0.0
 50
180.0
1001
ACAD
1000
DSTYLE
1002
{
1070
    40
1040
40.0
1002
}
  0
DIMENSION
  5
1923
  8
SP
  2
*D8
 10
14738.622532183501
 20
32761.699110529429
 30
0.0
 11
14738.622532183501
 21
33149.14899928325
 31
0.0
 70
   128
 13
13996.309775227701
 23
33556.699110529429
 33
0.0
 14
14683.54421893662
 24
32761.699110529429
 34
0.0
 50
90.0
1001
ACAD
1000
DSTYLE
1002
{
1070
    40
1040
40.0
1002
}
  0
DIMENSION
  5
1930
  8
SP
  2
*D9
 10
14738.622532183501
 20
30311.699110529429
 30
0.0
 11
14738.62253218349
 21
31459.28230450179
 31
0.0
 70
   128
 13
14616.296040717811
 23
32761.699110529429
 33
0.0
 14
13411.309775227701
 24
30311.699110529429
 34
0.0
 50
90.0
1001
ACAD
1000
DSTYLE
1002
{
1070
    40
1040
40.0
1002
}
  0
LINE
  5
19B8
  8
FUTO
 10
16165.272692163489
 20
27386.835395906572
 30
0.0
 11
16165.272692163489
 21
26728.46157930058
 31
0.0
  0
LINE
  5
1AEA
  8
FUTO
 10
14368.9418833617
 20
28177.46159590657
 30
0.0
 11
13511.22539281062
 21
28177.46159590656
 31
0.0
  0
LINE
  5
1AEB
  8
FUTO
 10
14368.9418833617
 20
28159.46159590657
 30
0.0
 11
13511.22539281062
 21
28159.46159590657
 31
0.0
  0
LINE
  5
1AEC
  8
KL
 10
13511.22539281062
 20
28177.46159590656
 30
0.0
 11
13231.309775227701
 21
28177.46159590656
 31
0.0
  0
LINE
  5
1AED
  8
KL
 10
13511.22539281062
 20
28159.46159590657
 30
0.0
 11
13231.309775227701
 21
28159.46159590657
 31
0.0
  0
LINE
  5
1AEE
  8
KL
 10
13231.309775227701
 20
28177.46159590656
 30
0.0
 11
13231.309775227701
 21
28159.46159590657
 31
0.0
  0
LINE
  5
1AF1
  8
FUTO
 10
14368.9418833617
 20
28159.46159590657
 30
0.0
 11
14368.9418833617
 21
28177.46159590657
 31
0.0
  0
LINE
  5
1AF2
  8
KL
 10
13373.35820105174
 20
28046.46159590656
 30
0.0
 11
13417.603918234439
 21
27883.546108298939
 31
0.0
  0
LINE
  5
1AF3
  8
KL
 10
12689.26134940365
 20
28046.46159590656
 30
0.0
 11
12487.52663099526
 21
27303.661792680759
 31
0.0
  0
LINE
  5
1AF4
  8
FUTO
 10
14072.309775227701
 20
28177.46159590656
 30
0.0
 11
14072.309775227701
 21
28818.07474537841
 31
0.0
  0
LINE
  5
1AF5
  8
FUTO
 10
14081.309775227701
 20
28177.46159590657
 30
0.0
 11
14081.309775227701
 21
28806.922209023171
 31
0.0
  0
LINE
  5
1AF6
  8
FUTO
 10
12708.903929977439
 20
28524.065970104159
 30
0.0
 11
11343.23969883171
 21
27285.897480855168
 31
0.0
  0
LINE
  5
1AF7
  8
SL
 10
11400.6261702582
 20
27229.861052286611
 30
0.0
 11
12799.346376406829
 21
28437.19563098115
 31
0.0
  0
LINE
  5
1AF8
  8
SL
 10
11634.94355616649
 20
26907.405934064191
 30
0.0
 11
13215.259736394049
 21
27864.837796136359
 31
0.0
  0
LINE
  5
1AF9
  8
FUTO
 10
13269.948423479609
 20
27751.986391890168
 30
0.0
 11
11670.51565337465
 21
26835.517726897
 31
0.0
  0
LINE
  5
1AFA
  8
FUTO
 10
11972.309775227701
 20
27008.444567666491
 30
0.0
 11
11972.309775227701
 21
26890.431799171391
 31
0.0
  0
LINE
  5
1AFC
  8
FUTO
 10
17488.072692163489
 20
29331.835395906572
 30
0.0
 11
18944.47269216389
 21
29331.835395906572
 31
0.0
  0
LINE
  5
1AFD
  8
FUTO
 10
17488.072692163489
 20
29266.835395906572
 30
0.0
 11
18944.472692163868
 21
29266.835395906561
 31
0.0
  0
LINE
  5
1AFE
  8
FUTO
 10
17488.072692163489
 20
29325.835395906572
 30
0.0
 11
18944.47269216389
 21
29325.835395906572
 31
0.0
  0
LINE
  5
1B50
  8
FUTO
 10
12960.309775227701
 20
32097.699110529429
 30
0.0
 11
12960.309775227701
 21
33430.899110529434
 31
0.0
  0
LINE
  5
1B51
  8
FUTO
 10
13029.309775227701
 20
32032.699110529429
 30
0.0
 11
13029.309775227701
 21
33490.699110529422
 31
0.0
  0
LINE
  5
1B53
  8
FUTO
 10
11106.309775227701
 20
32097.699110529429
 30
0.0
 11
11106.309775227701
 21
33425.699110529429
 31
0.0
  0
LINE
  5
1B5E
  8
FUTO
 10
13417.603918234439
 20
27883.546108298939
 30
0.0
 11
13731.309775227701
 21
26728.46159590656
 31
0.0
  0
LINE
  5
1B5F
  8
FUTO
 10
12487.52663099526
 20
27303.661792680759
 30
0.0
 11
12331.309775227701
 21
26728.46159590656
 31
0.0
  0
ARC
  5
1B60
  8
FUTO
 10
12900.309775227701
 20
28299.46159590657
 30
0.0
 40
1705.0
 50
184.40654050725689
 51
212.23466043811069
  0
DIMENSION
  5
1B6B
  8
SP
  2
*D17
 10
14740.718864433289
 20
28168.46159590656
 30
0.0
 11
14660.718864433289
 21
27373.46159590657
 31
0.0
 70
     0
 13
14091.309775227701
 23
26578.46159590656
 33
0.0
 14
14576.663774271799
 24
28168.46159590656
 34
0.0
 50
90.0
1001
ACAD
1000
DSTYLE
1002
{
1070
    40
1040
40.0
1002
}
  0
DIMENSION
  5
1B78
  8
SP
  2
*D18
 10
14740.718864433289
 20
29333.46159590657
 30
0.0
 11
14660.71886443328
 21
28750.96159590657
 31
0.0
 70
     0
 13
14576.663774271799
 23
28168.46159590656
 33
0.0
 14
13029.309775227701
 24
29333.46159590657
 34
0.0
 50
90.0
1001
ACAD
1000
DSTYLE
1002
{
1070
    40
1040
40.0
1002
}
  0
DIMENSION
  5
1BA9
  8
SP
  2
*D19
 10
14373.309775227701
 20
34028.68674845856
 30
0.0
 11
13702.309775227701
 21
34108.68674845856
 31
0.0
 70
     0
 13
13031.309775227701
 23
33755.694413701662
 33
0.0
 14
14373.309775227701
 24
33475.699110529422
 34
0.0
 50
180.0
1001
ACAD
1000
DSTYLE
1002
{
1070
    40
1040
40.0
1002
}
  0
DIMENSION
  5
1BB6
  8
SP
  2
*D20
 10
11041.309775227701
 20
34028.68674845856
 30
0.0
 11
12036.309775227701
 21
34108.68674845856
 31
0.0
 70
     0
 13
13031.309775227701
 23
33755.694413701662
 33
0.0
 14
11041.309775227701
 24
33490.699110529422
 34
0.0
 50
180.0
1001
ACAD
1000
DSTYLE
1002
{
1070
    40
1040
40.0
1002
}
  0
LINE
  5
1BD5
  8
SL
 10
12960.309775227701
 20
33425.699110529429
 30
0.0
 11
11106.309775227701
 21
32097.69911052944
 31
0.0
  0
LINE
  5
1BD6
  8
SL
 10
11106.309775227701
 20
33425.699110529422
 30
0.0
 11
12960.309775227701
 21
32097.699110529429
 31
0.0
  0
TEXT
  5
2478
  8
SP
 10
34962.829675500077
 20
33150.97419706692
 30
0.0
 40
100.0
  1
 
  0
LINE
  5
2479
  8
4
 10
19344.1365260202
 20
23576.95398272829
 30
0.0
 11
19344.1365260202
 21
22376.95398272829
 31
0.0
  0
LINE
  5
247A
  8
4
 10
15144.1365260202
 20
23576.95398272829
 30
0.0
 11
15144.1365260202
 21
22376.95398272829
 31
0.0
  0
LINE
  5
247B
  8
4
 10
12144.136526020189
 20
23576.95398272829
 30
0.0
 11
12144.136526020189
 21
22376.95398272829
 31
0.0
  0
LINE
  5
247E
  8
4
 10
12144.136526020189
 20
22376.95398272829
 30
0.0
 11
19344.1365260202
 21
22376.95398272829
 31
0.0
  0
LINE
  5
247F
  8
4
 10
12144.136526020189
 20
22976.95398272829
 30
0.0
 11
19344.1365260202
 21
22976.95398272829
 31
0.0
  0
TEXT
  5
2480
  8
4
 10
12375.14901110161
 20
23166.212137927971
 30
0.0
 40
300.0
  1
機器名称
  0
TEXT
  5
2481
  8
4
 10
12361.68516216898
 20
22506.824923120359
 30
0.0
 40
300.0
  1
機器型番
  0
TEXT
  5
2482
  8
4
 10
15172.894896226449
 20
23110.07779686998
 30
0.0
 40
270.0
  1
ミツヤリミットロードファン
  0
TEXT
  5
2483
  8
4
 10
15364.063499533089
 20
22479.91148840795
 30
0.0
 40
300.0
  1
LL#11-1
  0
TEXT
  5
2485
  8
4
 10
10141.142085996869
 20
35780.239839924092
 30
0.0
 40
432.0
  1
遠心式片吸込片持リミットロードファン
  0
LINE
  5
2486
  8
4
 10
9744.1365260201983
 20
35393.40650831713
 30
0.0
 11
19344.1365260202
 21
35393.40650831713
 31
0.0
  0
LINE
  5
2487
  8
4
 10
9744.1365260201983
 20
36593.40650831713
 30
0.0
 11
19344.1365260202
 21
36593.40650831713
 31
0.0
  0
LINE
  5
2488
  8
4
 10
12144.136526020189
 20
23576.95398272829
 30
0.0
 11
19344.1365260202
 21
23576.95398272829
 31
0.0
  0
LINE
  5
2489
  8
4
 10
9744.1365260201983
 20
36593.40650831713
 30
0.0
 11
9744.1365260201983
 21
35393.40650831713
 31
0.0
  0
TEXT
  5
248A
  8
4
 10
10279.177622926631
 20
34870.870848006358
 30
0.0
 40
323.99999999999989
  1
右回転上向
  0
TEXT
  5
248B
  8
4
 10
17057.953881515939
 20
36813.32047170015
 30
0.0
 40
336.00000000000011
  1
No.
  0
TEXT
  5
248C
  8
4
 10
17022.282984742029
 20
34018.35686124269
 30
0.0
 40
323.99999999999989
  1
縮尺：1/60
  0
LINE
  5
248D
  8
4
 10
19344.1365260202
 20
36593.40650831713
 30
0.0
 11
19344.1365260202
 21
35393.40650831713
 31
0.0
  0
LINE
  5
248E
  8
4
 10
20844.1365260202
 20
38276.953982728301
 30
0.0
 11
20844.1365260202
 21
38276.953982728301
 31
0.0
  0
LINE
  5
248F
  8
4
 10
16887.84106017938
 20
36664.5354814807
 30
0.0
 11
16887.84106017938
 21
37296.867552026808
 31
0.0
  0
LINE
  5
2490
  8
4
 10
16887.84106017938
 20
37296.867552026808
 30
0.0
 11
19344.1365260202
 21
37296.867552026808
 31
0.0
  0
LINE
  5
2491
  8
4
 10
19344.1365260202
 20
37296.867552026808
 30
0.0
 11
19344.1365260202
 21
36664.5354814807
 31
0.0
  0
LINE
  5
2492
  8
4
 10
19344.1365260202
 20
36664.5354814807
 30
0.0
 11
16887.84106017938
 21
36664.5354814807
 31
0.0
  0
LINE
  5
2493
  8
4
 10
8244.1365260201983
 20
20576.95398272829
 30
0.0
 11
8244.1365260201983
 21
38276.953982728301
 31
0.0
  0
LINE
  5
2494
  8
4
 10
8244.1365260201983
 20
38276.953982728301
 30
0.0
 11
20844.1365260202
 21
38276.953982728301
 31
0.0
  0
LINE
  5
2495
  8
4
 10
20844.1365260202
 20
38276.953982728301
 30
0.0
 11
20844.1365260202
 21
20576.95398272829
 31
0.0
  0
LINE
  5
2496
  8
4
 10
20844.1365260202
 20
20576.95398272829
 30
0.0
 11
8244.1365260201983
 21
20576.95398272829
 31
0.0
  0
TEXT
  5
2497
  8
4
 10
13355.91341011335
 20
34870.940772654729
 30
0.0
 40
323.99999999999989
  1
床置防振ベット
  0
ENDSEC
  0
EOF
